osu file format v14

[General]
AudioFilename: audio.mp3
AudioLeadIn: 0
PreviewTime: 5958
Countdown: 0
SampleSet: Soft
StackLeniency: 0.3
Mode: 0
LetterboxInBreaks: 0
WidescreenStoryboard: 1

[Editor]
Bookmarks: 47644
DistanceSpacing: 0.1
BeatDivisor: 4
GridSize: 8
TimelineZoom: 2.200006

[Metadata]
Title:Changing Point (TV Size)
TitleUnicode:Changing Point (TV Size)
Artist:i*Ris
ArtistUnicode:i☆Ris
Creator:DendyHere
Version:Hard
Source:魔法少女サイト
Tags:opening op djulus hocok mahou shoujo magical girl
BeatmapID:1626730
BeatmapSetID:767253

[Difficulty]
HPDrainRate:5
CircleSize:4.2
OverallDifficulty:6
ApproachRate:8
SliderMultiplier:1.4
SliderTickRate:1

[Events]
//Background and Video events
0,0,"914289.jpg",0,0
//Break Periods
//Storyboard Layer 0 (Background)
//Storyboard Layer 1 (Fail)
//Storyboard Layer 2 (Pass)
//Storyboard Layer 3 (Foreground)
//Storyboard Sound Samples

[TimingPoints]
409,346.820809248555,3,2,1,50,1,0
3009,-250,4,2,1,85,0,0
3183,346.820809248555,4,2,1,50,1,0
3355,-285.714285714286,4,2,1,75,0,0
3702,-285.714285714286,4,2,1,65,0,0
4049,-285.714285714286,4,2,1,55,0,0
4396,-285.714285714286,4,2,1,45,0,0
4743,-285.714285714286,4,2,1,35,0,0
5090,-285.714285714286,4,2,1,25,0,0
5436,-285.714285714286,4,2,1,15,0,0
5783,-285.714285714286,4,2,1,10,0,0
5958,-285.714285714286,4,2,1,40,0,0
6304,-285.714285714286,4,2,0,40,0,0
6648,-166.666666666667,4,2,0,45,0,0
8732,-166.666666666667,4,2,1,45,0,0
8818,-166.666666666667,4,2,0,45,0,0
11506,-166.666666666667,4,2,1,45,0,0
11593,-166.666666666667,4,2,0,45,0,0
14281,-166.666666666667,4,2,1,45,0,0
14367,-166.666666666667,4,2,0,45,0,0
17055,-100,4,2,1,55,0,0
17402,-117.647058823529,4,2,1,55,0,0
28154,346.820809248555,7,2,1,55,1,0
28154,-117.647058823529,4,2,1,55,0,0
38211,346.820809248555,4,2,1,65,1,0
38213,-117.647058823529,4,2,1,65,0,0
49309,-100,4,2,1,75,0,1
57632,-100,4,2,1,75,0,1
60407,-100,4,2,1,75,0,1
71505,-100,4,2,1,60,0,0
71854,-100,4,2,1,60,0,0
79980,-100,4,2,1,60,0,0
81218,-100,4,2,1,60,0,0
81565,-100,4,2,1,60,0,0
81912,-100,4,2,1,60,0,0
82259,-100,4,2,1,60,0,0
82604,-133.333333333333,4,2,0,30,0,0
82647,319.148936170213,4,2,0,40,1,0
82966,357.142857142857,4,2,0,40,1,0
83323,326.086956521739,4,2,1,40,1,0
83649,375,4,2,0,40,1,0
84024,331.491712707182,4,2,1,40,1,0
84355,359.281437125748,4,2,0,40,1,0
84714,326.086956521739,4,2,1,40,1,0
85040,441.176470588235,4,2,0,40,1,0
85481,535.714285714286,4,2,1,40,1,0

[Colours]
Combo1 : 255,85,85
Combo2 : 196,0,98
Combo3 : 255,255,255

[HitObjects]
65,115,409,6,0,P|102:106|145:123,1,70,4|0,0:0|0:0,0:0:0:0:
199,167,755,2,0,P|232:175|266:166,1,70,0|4,3:0|0:0,0:0:0:0:
286,64,1276,5,0,3:0:0:0:
266,166,1449,2,0,L|255:235,1,70,4|0,0:0|0:0,0:0:0:0:
337,216,1796,2,0,L|324:299,1,70,0|4,3:0|0:0,0:0:0:0:
266,166,2316,5,0,3:0:0:0:
183,191,2489,2,0,P|152:207|117:205,1,70,4|0,0:0|0:0,0:0:0:0:
87,110,2836,1,0,3:0:0:0:
117,205,3010,6,0,P|85:189|137:229,1,476,12|2,0:0|0:0,0:0:0:0:
67,270,6304,5,2,0:0:0:0:
67,270,6477,1,2,0:0:0:0:
117,205,6651,2,2,P|124:161|109:111,1,83.9999974365235
54,52,7344,6,2,P|88:34|136:33,1,83.9999974365235
230,95,8038,2,2,P|273:90|323:115,1,83.9999974365235
353,252,8732,5,2,0:0:0:0:
218,277,9078,1,2,0:0:0:0:
218,277,9252,2,2,B|163:239|111:282|111:282|97:246|61:237,1,167.999994873047,2|2,0:0|0:0,0:0:0:0:
42,307,10119,6,2,P|13:274|11:224,1,83.9999974365235,2|2,0:0|0:0,0:0:0:0:
51,176,10639,2,2,P|68:135|54:79,1,83.9999974365235,2|2,0:0|0:0,0:0:0:0:
5,43,11159,1,2,0:0:0:0:
73,0,11333,1,2,0:0:0:0:
144,40,11506,6,2,L|246:52,1,83.9999974365235
319,13,12026,2,2,P|297:51|318:134,1,125.999996154785,2|2,0:0|0:0,0:0:0:0:
392,159,12893,5,2,0:0:0:0:
377,75,13240,1,2,0:0:0:0:
297,212,13587,1,2,0:0:0:0:
312,128,13934,1,2,0:0:0:0:
282,296,14281,6,2,L|180:312,1,83.9999974365235,2|2,0:0|0:0,0:0:0:0:
141,365,14801,1,2,0:0:0:0:
76,265,14974,2,2,P|68:222|82:179,1,83.9999974365235
9,70,15668,6,2,P|50:84|80:118,1,83.9999974365235
211,109,16362,2,0,P|177:137|133:146,1,83.9999974365235,2|8,0:0|2:0,0:0:0:0:
270,48,17055,6,0,B|317:25|317:25|411:39,1,140,4|8,3:2|0:0,0:0:0:0:
416,123,17576,1,0,0:0:0:0:
416,123,17749,2,0,L|420:197,1,59.5000011348725,0|0,3:2|0:0,0:0:0:0:
354,213,18095,1,8,0:0:0:0:
486,89,18442,2,0,L|495:219,1,119.000002269745,0|8,3:0|0:0,0:0:0:0:
457,290,19136,2,0,P|428:313|341:338,1,119.000002269745,0|8,3:0|0:0,0:0:0:0:
158,247,19830,6,0,P|192:242|230:263,2,59.5000011348725,2|2|8,3:2|0:0|0:0,0:0:0:0:
181,329,20350,1,2,0:0:0:0:
253,372,20524,2,0,P|264:339|255:295,1,59.5000011348725,2|2,3:2|0:0,0:0:0:0:
311,244,20870,2,0,P|304:209|274:176,1,59.5000011348725,8|0,0:0|0:0,0:0:0:0:
188,129,21217,2,0,P|118:121|76:165,1,119.000002269745,0|8,3:0|0:0,0:0:0:0:
48,284,21737,2,0,P|66:253|57:206,1,59.5000011348725,0|0,0:0|3:0,0:0:0:0:
6,172,22084,1,0,0:0:0:0:
25,94,22258,1,8,0:0:0:0:
83,149,22431,1,0,0:0:0:0:
139,203,22604,6,0,P|164:187|213:189,2,59.5000011348725,2|2|8,3:2|0:0|0:0,0:0:0:0:
129,287,23125,1,2,0:0:0:0:
207,317,23298,2,0,P|221:348|218:378,1,59.5000011348725,2|2,3:2|0:0,0:0:0:0:
268,268,23645,2,0,P|315:230|394:246,1,119.000002269745,8|0,0:0|3:0,0:0:0:0:
473,302,24339,1,8,0:0:0:0:
473,302,24685,2,0,L|453:163,1,119.000002269745,0|8,3:0|0:0,0:0:0:0:
412,89,25205,1,0,0:0:0:0:
314,105,25379,6,0,B|260:151|187:117|215:85|145:47|82:82,1,238.00000453949,2|2,3:2|3:2,0:0:0:0:
44,141,26246,1,2,0:0:0:0:
72,215,26419,1,8,0:0:0:0:
44,289,26592,1,0,0:0:0:0:
44,289,26766,6,0,B|121:407|236:349|287:290|228:205|164:212|139:265,1,357.000006809235,0|8,3:0|0:0,0:0:0:0:
328,300,28154,6,0,B|392:292|387:329|458:317,1,119.000002269745,4|0,3:2|3:2,0:0:0:0:
443,318,28674,1,0,0:0:0:0:
362,197,29194,2,0,P|393:143|374:78,1,119.000002269745,0|0,3:0|3:0,0:0:0:0:
382,89,29714,5,0,0:0:0:0:
256,127,29888,2,0,P|286:124|328:138,2,59.5000011348725,2|2|2,3:2|0:0|3:2,0:0:0:0:
200,186,30408,1,2,0:0:0:0:
118,175,30582,6,0,B|28:166|28:166|60:201,1,119.000002269745,0|0,3:0|3:0,0:0:0:0:
47,187,31102,1,0,0:0:0:0:
95,371,31622,2,0,L|109:244,1,119.000002269745,0|0,3:0|3:0,0:0:0:0:
108,252,32142,5,0,0:0:0:0:
181,198,32316,2,0,L|189:126,2,59.5000011348725,2|2|2,3:2|0:0|3:2,0:0:0:0:
239,264,32836,1,2,0:0:0:0:
309,215,33010,6,0,L|436:226,1,119.000002269745,0|0,3:0|3:0,0:0:0:0:
427,225,33530,1,0,0:0:0:0:
389,28,34050,2,0,B|381:74|381:74|389:104|389:104|379:157,1,119.000002269745,0|0,3:0|3:0,0:0:0:0:
381,144,34570,5,0,0:0:0:0:
286,84,34744,2,0,P|255:83|222:101,2,59.5000011348725,2|2|2,3:2|0:0|3:2,0:0:0:0:
271,156,35263,1,2,0:0:0:0:
166,129,35437,6,0,B|150:180|189:205|171:261,1,119.000002269745,0|0,3:0|3:0,0:0:0:0:
174,246,35958,1,0,0:0:0:0:
286,343,36478,2,0,P|273:281|320:284,1,119.000002269745,0|2,3:0|0:0,0:0:0:0:
311,277,36998,1,0,0:0:0:0:
154,327,37345,5,0,0:0:0:0:
154,327,37518,1,2,0:0:0:0:
79,278,37691,1,2,0:0:0:0:
104,192,37864,1,2,0:0:0:0:
193,192,38038,6,0,L|180:83,1,89.2500017023087,12|0,0:0|0:0,0:0:0:0:
177,70,38384,1,0,3:0:0:0:
177,70,38557,1,0,3:0:0:0:
293,130,38904,2,0,L|358:116,1,59.5000011348725,0|0,3:0|0:0,0:0:0:0:
468,199,39251,2,0,L|403:185,1,59.5000011348725,0|0,3:0|0:0,0:0:0:0:
343,255,39598,6,0,L|360:378,2,119.000002269745,0|0|0,3:0|3:0|3:0,0:0:0:0:
264,329,40638,2,0,P|244:353|193:356,1,59.5000011348725,0|0,3:0|0:0,0:0:0:0:
147,341,40985,2,0,P|163:288|151:212,2,119.000002269745,0|0|0,3:0|3:0|3:0,0:0:0:0:
42,214,42026,5,0,3:0:0:0:
82,144,42199,1,0,0:0:0:0:
82,144,42372,2,0,L|60:23,2,119.000002269745,0|0|0,3:0|3:0|3:0,0:0:0:0:
148,179,43413,2,0,P|175:163|221:162,1,59.5000011348725,0|0,3:0|0:0,0:0:0:0:
270,188,43760,5,12,0:0:0:0:
396,113,44106,2,0,L|390:185,1,59.5000011348725,0|4,3:0|0:0,0:0:0:0:
381,245,44453,1,0,3:0:0:0:
275,313,44800,2,0,P|246:325|205:321,1,59.5000011348725,0|0,3:0|0:0,0:0:0:0:
152,298,45147,5,12,0:0:0:0:
39,214,45494,1,0,3:0:0:0:
39,214,45667,2,0,L|51:80,1,119.000002269745,4|0,0:0|0:0,0:0:0:0:
100,41,46187,1,0,3:0:0:0:
100,41,46361,1,0,0:0:0:0:
195,114,46534,6,0,P|226:104|264:113,2,59.5000011348725,8|0|8,0:0|0:0|0:0,0:0:0:0:
228,179,47054,1,0,0:0:0:0:
303,183,47228,2,0,P|296:214|269:243,2,59.5000011348725,8|0|8,0:0|0:0|0:0,0:0:0:0:
189,242,47748,2,0,P|165:216|171:133,1,119.000002269745,4|0,0:0|3:0,0:0:0:0:
235,103,48268,1,0,3:0:0:0:
228,179,48442,1,0,3:0:0:0:
189,242,48615,2,0,B|127:233|138:281|62:260,1,119.000002269745
177,310,49309,6,0,P|220:306|242:287,1,70,4|0,3:2|0:0,0:0:0:0:
343,268,49655,1,8,0:0:0:0:
343,268,49829,2,0,P|352:300|343:355,1,70,0|0,0:0|3:0,0:0:0:0:
239,289,50176,1,0,0:0:0:0:
188,190,50349,2,0,P|220:180|275:189,1,70,8|0,0:0|0:0,0:0:0:0:
366,169,50696,6,0,P|378:136|368:94,1,70,0|0,3:0|0:0,0:0:0:0:
274,4,51043,2,0,P|281:42|266:79,1,70,8|0,0:0|0:0,0:0:0:0:
184,122,51390,2,0,P|177:155|187:189,1,70,0|0,3:0|0:0,0:0:0:0:
238,322,51736,2,0,P|250:287|237:229,1,70,8|0,0:0|0:0,0:0:0:0:
35,261,52083,6,0,B|112:246|100:298|176:276,1,140,0|8,3:0|0:0,0:0:0:0:
184,122,52603,2,0,P|129:130|148:200,1,140
295,177,53124,2,0,L|379:193,1,70,8|0,0:0|0:0,0:0:0:0:
351,331,53470,6,0,P|345:292|365:255,1,70,0|0,3:0|0:0,0:0:0:0:
427,236,53817,2,0,P|463:250|485:286,1,70,8|0,0:0|0:0,0:0:0:0:
471,349,54164,2,0,P|440:373|398:374,1,70,0|0,3:0|0:0,0:0:0:0:
351,331,54511,2,0,L|253:326,1,70,8|0,0:0|0:0,0:0:0:0:
146,353,54858,5,2,3:2:0:0:
202,283,55031,1,0,0:0:0:0:
136,227,55205,1,10,0:0:0:0:
146,353,55378,1,0,0:0:0:0:
209,204,55551,2,0,P|183:166|139:149,1,70,0|0,3:0|0:0,0:0:0:0:
40,192,55898,2,0,P|68:172|86:142,1,70,8|0,0:0|0:0,0:0:0:0:
156,14,56245,6,0,L|163:163,1,140,4|8,3:2|0:0,0:0:0:0:
252,81,56765,1,0,0:0:0:0:
341,130,56939,2,0,P|360:201|320:270,1,140,0|8,3:0|0:0,0:0:0:0:
185,263,57459,1,0,0:0:0:0:
185,263,57632,6,0,P|222:270|273:254,1,70,0|0,3:0|0:0,0:0:0:0:
132,174,57979,1,8,0:0:0:0:
109,303,58153,2,0,P|127:289|185:279,1,70,8|0,0:0|0:0,0:0:0:0:
271,246,58499,2,0,P|305:252|334:271,1,70,4|0,0:0|0:0,0:0:0:0:
424,363,58846,2,0,L|432:276,1,70,8|0,0:0|0:0,0:0:0:0:
380,177,59193,5,0,3:0:0:0:
380,177,59366,2,0,L|386:133,3,35,8|0|0|0,0:0|0:0|0:0|0:0,0:0:0:0:
363,141,59713,2,0,L|353:93,3,35,0|0|0|0,3:0|0:0|0:0|0:0,0:0:0:0:
335,111,60060,2,0,P|314:100|246:94,1,70,8|0,0:0|0:0,0:0:0:0:
120,151,60407,6,0,P|106:184|108:233,1,70,4|0,3:2|0:0,0:0:0:0:
119,321,60755,1,8,0:0:0:0:
177,262,60928,2,0,P|106:239|46:279,1,140,0|0,0:0|0:0,0:0:0:0:
240,333,61448,2,0,L|257:245,1,70,8|0,0:0|0:0,0:0:0:0:
280,105,61795,6,0,P|309:120|332:161,1,70,0|0,3:0|0:0,0:0:0:0:
318,245,62142,2,0,P|290:262|243:262,1,70,8|0,0:0|0:0,0:0:0:0:
177,207,62489,2,0,P|175:174|199:133,1,70,0|0,3:0|0:0,0:0:0:0:
256,185,62836,1,8,0:0:0:0:
99,226,63182,6,0,P|96:172|136:82,1,140,0|8,3:0|0:0,0:0:0:0:
245,102,63702,2,0,P|198:127|187:232,1,140
240,332,64222,2,0,P|246:288|230:247,1,70,8|0,0:0|0:0,0:0:0:0:
96,320,64569,6,0,P|124:302|173:303,1,70,0|0,3:0|0:0,0:0:0:0:
223,239,64916,2,0,P|256:237|298:262,1,70,8|0,0:0|0:0,0:0:0:0:
378,359,65263,2,0,P|360:331|361:282,1,70,0|0,3:0|0:0,0:0:0:0:
404,169,65609,2,0,P|388:198|345:222,1,70,8|0,0:0|0:0,0:0:0:0:
284,40,65956,6,0,P|317:51|328:147,1,140,0|8,1:0|0:0,0:0:0:0:
204,183,66476,1,0,0:0:0:0:
150,119,66650,2,0,P|128:147|116:187,1,70,0|0,3:0|0:0,0:0:0:0:
158,261,66997,2,0,P|152:296|162:336,1,70,8|0,0:0|0:0,0:0:0:0:
241,341,67343,2,0,P|280:352|310:342,1,70,0|0,3:0|0:0,0:0:0:0:
394,246,67690,6,0,P|381:288|417:247,1,140,8|0,0:0|3:0,0:0:0:0:
422,156,68211,2,0,P|402:134|355:116,1,70,0|8,0:0|0:0,0:0:0:0:
280,152,68557,1,0,0:0:0:0:
207,39,68731,6,0,P|174:38|136:60,1,70,0|0,3:0|0:0,0:0:0:0:
67,115,69078,2,0,P|32:120|-7:99,1,70,8|0,0:0|0:0,0:0:0:0:
47,202,69424,2,0,P|63:233|58:272,1,70,0|0,3:0|0:0,0:0:0:0:
0,350,69771,2,0,P|31:368|71:369,1,70,8|0,0:0|0:0,0:0:0:0:
148,309,70118,6,0,P|173:288|230:292,1,70,0|0,3:0|0:0,0:0:0:0:
354,356,70465,2,0,P|323:344|298:293,1,70,8|0,0:0|0:0,0:0:0:0:
313,204,70812,2,0,L|348:208,3,35,0|0|0|0,3:0|0:0|0:0|0:0,0:0:0:0:
378,221,71158,2,0,L|404:245,3,35,8|0|0|0,0:0|0:0|0:0|0:0,0:0:0:0:
432,268,71505,6,0,B|447:215|447:215|421:111,2,140,4|8|0,3:2|0:0|3:0,0:0:0:0:
345,92,72372,1,0,0:0:0:0:
288,161,72546,2,0,P|252:162|213:149,1,70,8|0,0:0|0:0,0:0:0:0:
132,57,72892,6,0,L|147:211,2,140,0|8|0,3:0|0:0|3:0,0:0:0:0:
57,145,73759,1,0,0:0:0:0:
100,253,73933,2,0,P|137:270|176:263,1,70,8|0,0:0|0:0,0:0:0:0:
314,178,74281,6,0,P|245:160|219:222,2,140,0|8|0,3:0|0:0|3:0,0:0:0:0:
362,291,75148,1,0,0:0:0:0:
362,291,75321,2,0,P|380:256|371:214,1,70,8|0,0:0|0:0,0:0:0:0:
314,178,75668,6,0,P|301:108|332:45,1,140,0|8,3:0|0:0,0:0:0:0:
263,0,76188,1,0,0:0:0:0:
263,0,76362,2,0,P|208:46|138:50,1,140,0|8,3:0|0:0,0:0:0:0:
173,146,76882,1,0,0:0:0:0:
173,146,77055,6,0,P|205:156|227:196,2,70,2|2|10,3:2|0:0|0:0,0:0:0:0:
82,183,77575,1,2,0:0:0:0:
82,183,77748,2,0,L|75:273,1,70,0|0,3:0|0:0,0:0:0:0:
69,343,78095,1,8,0:0:0:0:
69,343,78269,2,2,B|132:294|193:352|193:352|256:408|335:344,1,280,2|0,0:0|0:0,0:0:0:0:
448,226,79136,2,0,B|457:171|409:126|409:126|324:206|387:296,1,280,2|0,0:0|3:0,0:0:0:0:
287,184,80003,6,0,P|224:158|147:204,1,140,12|0,0:0|3:0,0:0:0:0:
101,300,80523,2,0,P|117:265|45:278,1,140,12|0,0:0|3:0,0:0:0:0:
30,334,81044,1,4,0:0:0:0:
3,184,81216,6,0,B|-7:152|16:114,1,70,0|0,3:0|0:0,0:0:0:0:
9,39,81563,2,0,B|27:8|78:-4,1,70,8|0,0:0|0:0,0:0:0:0:
82,83,81910,2,0,B|103:116|139:118,1,70,0|0,3:0|0:0,0:0:0:0:
206,79,82257,2,0,B|246:79|269:55,1,70,8|0,0:0|0:0,0:0:0:0:
87,212,82647,5,2,0:0:0:0:
87,212,82966,1,2,0:0:0:0:
140,119,83323,6,2,P|157:148|161:185,1,70,2|2,0:0|0:0,0:0:0:0:
157,261,83649,1,2,0:0:0:0:
291,238,84024,6,2,P|265:223|217:224,1,70,2|2,0:0|0:0,0:0:0:0:
157,261,84355,1,2,0:0:0:0:
252,337,84714,6,2,B|323:347|323:347|394:311,1,140,2|2,0:0|0:0,0:0:0:0:
383,316,85481,1,2,0:0:0:0:
252,336,86418,2,2,L|255:309,2,17.5,2|2|2,0:0|0:0|0:0,0:0:0:0:
