osu file format v14

[General]
AudioFilename: audio.mp3
AudioLeadIn: 0
PreviewTime: 63917
Countdown: 0
SampleSet: Normal
StackLeniency: 0.7
Mode: 1
LetterboxInBreaks: 0
WidescreenStoryboard: 0

[Editor]
DistanceSpacing: 0.5
BeatDivisor: 2
GridSize: 32
TimelineZoom: 0.6999998

[Metadata]
Title:Suishoku Komachi Melancholia
TitleUnicode:衰色小町メランコリア
Artist:iNO
ArtistUnicode:iNO
Creator:Yales
Version:Kantan
Source:beatmania IIDX 19 Lincle
Tags:Original Soundtrack Konami NEO CLASSICAL DANCE Daisuke Kurosawa 96 黒沢大佑
BeatmapID:1687126
BeatmapSetID:802680

[Difficulty]
HPDrainRate:8
CircleSize:2
OverallDifficulty:2
ApproachRate:5
SliderMultiplier:1.4
SliderTickRate:1

[Events]
//Background and Video events
0,0,"bg.jpg",0,65
//Break Periods
//Storyboard Layer 0 (Background)
//Storyboard Layer 1 (Fail)
//Storyboard Layer 2 (Pass)
//Storyboard Layer 3 (Foreground)
//Storyboard Sound Samples

[TimingPoints]
464,431.654676258993,4,1,0,75,1,0
17730,-100,4,1,0,75,0,1
31543,-100,4,1,0,75,0,0
34780,-100,4,1,0,65,0,0
48593,-100,4,1,0,70,0,0
64348,-100,4,1,0,75,0,1
91974,-100,4,1,0,75,0,0
108593,-100,4,1,0,55,0,0

[HitObjects]
256,192,464,5,12,0:0:0:0:
256,192,2190,1,12,0:0:0:0:
256,192,3053,1,0,0:0:0:0:
256,192,3917,1,12,0:0:0:0:
256,192,5643,1,12,0:0:0:0:
256,192,6507,1,4,0:0:0:0:
256,192,6938,1,4,0:0:0:0:
256,192,7370,1,12,0:0:0:0:
256,192,8233,1,0,0:0:0:0:
256,192,9097,1,12,0:0:0:0:
256,192,9960,1,0,0:0:0:0:
256,192,10392,1,0,0:0:0:0:
256,192,10823,1,12,0:0:0:0:
256,192,11687,1,0,0:0:0:0:
256,192,12550,1,12,0:0:0:0:
256,192,13413,1,0,0:0:0:0:
256,192,13845,1,0,0:0:0:0:
256,192,14276,1,8,0:0:0:0:
256,192,15571,1,0,0:0:0:0:
256,192,16003,1,8,0:0:0:0:
256,192,16435,1,8,0:0:0:0:
256,192,16866,1,0,0:0:0:0:
256,192,17730,5,12,0:0:0:0:
256,192,18593,1,0,0:0:0:0:
256,192,19456,1,8,0:0:0:0:
256,192,20320,1,0,0:0:0:0:
256,192,20751,1,0,0:0:0:0:
256,192,21183,1,8,0:0:0:0:
256,192,22910,1,12,0:0:0:0:
256,192,23341,1,4,0:0:0:0:
256,192,23773,1,12,0:0:0:0:
256,192,24636,1,12,0:0:0:0:
256,192,25499,1,0,0:0:0:0:
256,192,26363,1,8,0:0:0:0:
256,192,27226,1,0,0:0:0:0:
256,192,27658,1,0,0:0:0:0:
256,192,28089,1,12,0:0:0:0:
256,192,28953,1,4,0:0:0:0:
256,192,29816,1,12,0:0:0:0:
256,192,31111,1,8,0:0:0:0:
256,192,31543,1,4,0:0:0:0:
256,192,32406,1,8,0:0:0:0:
256,192,33485,1,4,0:0:0:0:
256,192,34564,1,8,0:0:0:0:
256,192,34996,1,4,0:0:0:0:
256,192,35859,1,8,0:0:0:0:
256,192,36722,1,8,0:0:0:0:
256,192,37586,1,8,0:0:0:0:
256,192,38017,1,8,0:0:0:0:
256,192,38449,1,0,0:0:0:0:
256,192,39312,1,8,0:0:0:0:
256,192,40176,1,0,0:0:0:0:
256,192,41471,1,8,0:0:0:0:
256,192,41902,1,4,0:0:0:0:
256,192,42766,1,8,0:0:0:0:
256,192,43629,1,8,0:0:0:0:
256,192,44492,1,0,0:0:0:0:
256,192,44924,1,8,0:0:0:0:
256,192,45356,1,0,0:0:0:0:
256,192,46219,1,8,0:0:0:0:
256,192,47082,1,0,0:0:0:0:
256,192,48377,1,0,0:0:0:0:
256,192,48809,1,12,0:0:0:0:
256,192,49672,1,0,0:0:0:0:
256,192,50535,1,8,0:0:0:0:
256,192,51399,1,0,0:0:0:0:
256,192,51830,1,0,0:0:0:0:
256,192,52262,1,8,0:0:0:0:
256,192,53125,1,8,0:0:0:0:
256,192,53989,1,0,0:0:0:0:
256,192,55284,1,0,0:0:0:0:
256,192,55715,1,12,0:0:0:0:
256,192,56579,1,0,0:0:0:0:
256,192,57442,1,8,0:0:0:0:
256,192,58305,1,0,0:0:0:0:
256,192,58737,1,0,0:0:0:0:
256,192,59169,1,12,0:0:0:0:
256,192,60032,1,12,0:0:0:0:
256,192,60895,1,12,0:0:0:0:
256,192,61327,1,0,0:0:0:0:
256,192,61758,1,0,0:0:0:0:
256,192,62190,1,0,0:0:0:0:
256,192,62622,1,12,0:0:0:0:
256,192,64348,5,4,0:0:0:0:
256,192,65212,1,8,0:0:0:0:
256,192,66075,1,8,0:0:0:0:
256,192,66938,1,0,0:0:0:0:
256,192,67370,1,0,0:0:0:0:
256,192,67802,1,8,0:0:0:0:
256,192,69528,1,12,0:0:0:0:
256,192,69960,1,4,0:0:0:0:
256,192,70392,1,12,0:0:0:0:
256,192,71255,1,12,0:0:0:0:
256,192,72118,1,0,0:0:0:0:
256,192,72981,1,8,0:0:0:0:
256,192,73845,1,0,0:0:0:0:
256,192,74276,1,0,0:0:0:0:
256,192,74708,1,12,0:0:0:0:
256,192,75571,1,12,0:0:0:0:
256,192,76435,1,4,0:0:0:0:
256,192,77730,1,0,0:0:0:0:
256,192,78161,1,12,0:0:0:0:
256,192,79025,1,0,0:0:0:0:
256,192,79888,1,8,0:0:0:0:
256,192,80751,1,0,0:0:0:0:
256,192,81183,1,0,0:0:0:0:
256,192,81615,1,8,0:0:0:0:
256,192,83341,1,12,0:0:0:0:
256,192,83773,1,4,0:0:0:0:
256,192,84205,1,12,0:0:0:0:
256,192,85068,1,12,0:0:0:0:
256,192,85931,1,0,0:0:0:0:
256,192,86794,1,8,0:0:0:0:
256,192,87658,1,0,0:0:0:0:
256,192,88089,1,0,0:0:0:0:
256,192,88521,1,12,0:0:0:0:
256,192,89384,1,4,0:0:0:0:
256,192,90248,1,12,0:0:0:0:
256,192,91543,1,8,0:0:0:0:
256,192,91974,1,4,0:0:0:0:
256,192,92838,1,8,0:0:0:0:
256,192,93701,1,0,0:0:0:0:
256,192,94564,1,8,0:0:0:0:
256,192,94996,1,8,0:0:0:0:
256,192,95428,1,0,0:0:0:0:
256,192,97154,1,12,0:0:0:0:
256,192,97586,1,12,0:0:0:0:
256,192,98017,1,12,0:0:0:0:
256,192,98881,1,4,0:0:0:0:
256,192,99744,1,8,0:0:0:0:
256,192,100607,1,8,0:0:0:0:
256,192,101471,1,8,0:0:0:0:
256,192,101902,1,8,0:0:0:0:
256,192,102334,1,4,0:0:0:0:
256,192,103197,1,0,0:0:0:0:
256,192,104061,1,8,0:0:0:0:
256,192,104492,1,0,0:0:0:0:
256,192,104924,1,8,0:0:0:0:
256,192,105356,1,8,0:0:0:0:
256,192,105787,1,4,0:0:0:0:
256,192,106651,1,8,0:0:0:0:
256,192,107730,1,4,0:0:0:0:
256,192,108809,1,8,0:0:0:0:
