osu file format v14

[General]
AudioFilename: audio.mp3
AudioLeadIn: 0
PreviewTime: 63917
Countdown: 0
SampleSet: Normal
StackLeniency: 0.7
Mode: 1
LetterboxInBreaks: 0
WidescreenStoryboard: 0

[Editor]
Bookmarks: 48800
DistanceSpacing: 0.5
BeatDivisor: 4
GridSize: 32
TimelineZoom: 1.7

[Metadata]
Title:Suishoku Komachi Melancholia
TitleUnicode:衰色小町メランコリア
Artist:iNO
ArtistUnicode:iNO
Creator:Yales
Version:Inner Oni
Source:beatmania IIDX 19 Lincle
Tags:Original Soundtrack Konami NEO CLASSICAL DANCE Daisuke Kurosawa 96 黒沢大佑
BeatmapID:1684845
BeatmapSetID:802680

[Difficulty]
HPDrainRate:6
CircleSize:2
OverallDifficulty:6
ApproachRate:5
SliderMultiplier:1.4
SliderTickRate:1

[Events]
//Background and Video events
0,0,"bg.jpg",0,65
//Break Periods
//Storyboard Layer 0 (Background)
//Storyboard Layer 1 (Fail)
//Storyboard Layer 2 (Pass)
//Storyboard Layer 3 (Foreground)
//Storyboard Sound Samples

[TimingPoints]
464,431.654676258993,4,1,0,75,1,0
17730,-100,4,1,0,75,0,1
31543,-100,4,1,0,75,0,0
35104,-100,4,1,0,65,0,0
48701,-100,4,1,0,70,0,0
64348,-100,4,1,0,75,0,1
91974,-100,4,1,0,75,0,0
108593,-66.6666666666667,4,1,0,55,0,0

[HitObjects]
256,192,464,5,12,0:0:0:0:
256,192,679,1,0,0:0:0:0:
256,192,787,1,0,0:0:0:0:
256,192,1003,1,8,0:0:0:0:
256,192,1111,1,8,0:0:0:0:
256,192,1327,1,0,0:0:0:0:
256,192,1435,1,8,0:0:0:0:
256,192,1651,1,8,0:0:0:0:
256,192,1758,1,0,0:0:0:0:
256,192,1974,1,0,0:0:0:0:
256,192,2190,1,12,0:0:0:0:
256,192,2406,1,0,0:0:0:0:
256,192,2514,1,0,0:0:0:0:
256,192,2730,1,8,0:0:0:0:
256,192,2838,1,8,0:0:0:0:
256,192,3053,1,8,0:0:0:0:
256,192,3161,1,0,0:0:0:0:
256,192,3269,1,0,0:0:0:0:
256,192,3377,1,8,0:0:0:0:
256,192,3485,1,0,0:0:0:0:
256,192,3593,1,0,0:0:0:0:
256,192,3701,1,8,0:0:0:0:
256,192,3917,1,12,0:0:0:0:
256,192,4133,1,0,0:0:0:0:
256,192,4240,1,0,0:0:0:0:
256,192,4456,1,8,0:0:0:0:
256,192,4564,1,8,0:0:0:0:
256,192,4780,1,0,0:0:0:0:
256,192,4888,1,8,0:0:0:0:
256,192,5104,1,8,0:0:0:0:
256,192,5212,1,0,0:0:0:0:
256,192,5428,1,0,0:0:0:0:
256,192,5643,1,12,0:0:0:0:
256,192,5859,1,0,0:0:0:0:
256,192,5967,1,8,0:0:0:0:
256,192,6183,1,8,0:0:0:0:
256,192,6291,1,0,0:0:0:0:
256,192,6399,1,0,0:0:0:0:
256,192,6507,1,8,0:0:0:0:
256,192,6722,1,0,0:0:0:0:
256,192,6938,1,8,0:0:0:0:
256,192,7046,1,0,0:0:0:0:
256,192,7154,1,0,0:0:0:0:
256,192,7370,1,12,0:0:0:0:
256,192,7586,1,0,0:0:0:0:
256,192,7694,1,0,0:0:0:0:
256,192,7802,1,8,0:0:0:0:
256,192,8017,1,0,0:0:0:0:
256,192,8233,1,8,0:0:0:0:
256,192,8341,1,0,0:0:0:0:
256,192,8557,1,0,0:0:0:0:
256,192,8665,1,8,0:0:0:0:
256,192,8881,1,0,0:0:0:0:
256,192,9097,1,12,0:0:0:0:
256,192,9312,1,0,0:0:0:0:
256,192,9420,1,8,0:0:0:0:
256,192,9528,1,8,0:0:0:0:
256,192,9636,1,0,0:0:0:0:
256,192,9744,1,8,0:0:0:0:
256,192,9960,1,0,0:0:0:0:
256,192,10068,1,8,0:0:0:0:
256,192,10176,1,0,0:0:0:0:
256,192,10284,1,0,0:0:0:0:
256,192,10392,1,8,0:0:0:0:
256,192,10607,1,0,0:0:0:0:
256,192,10823,1,12,0:0:0:0:
256,192,11039,1,0,0:0:0:0:
256,192,11147,1,0,0:0:0:0:
256,192,11255,1,8,0:0:0:0:
256,192,11471,1,0,0:0:0:0:
256,192,11687,1,8,0:0:0:0:
256,192,11794,1,0,0:0:0:0:
256,192,12010,1,0,0:0:0:0:
256,192,12118,1,8,0:0:0:0:
256,192,12334,1,0,0:0:0:0:
256,192,12550,1,12,0:0:0:0:
256,192,12766,1,0,0:0:0:0:
256,192,12874,1,0,0:0:0:0:
256,192,12981,1,8,0:0:0:0:
256,192,13197,1,0,0:0:0:0:
256,192,13305,1,0,0:0:0:0:
256,192,13413,1,8,0:0:0:0:
256,192,13521,1,8,0:0:0:0:
256,192,13629,1,0,0:0:0:0:
256,192,13737,1,0,0:0:0:0:
256,192,13845,1,8,0:0:0:0:
256,192,13953,1,8,0:0:0:0:
256,192,14061,1,0,0:0:0:0:
256,192,14169,1,0,0:0:0:0:
256,192,14276,5,8,0:0:0:0:
256,192,14384,1,8,0:0:0:0:
256,192,14492,1,8,0:0:0:0:
256,192,14600,1,8,0:0:0:0:
256,192,14708,1,0,0:0:0:0:
256,192,14816,1,0,0:0:0:0:
256,192,14924,1,8,0:0:0:0:
256,192,15032,1,0,0:0:0:0:
256,192,15140,1,8,0:0:0:0:
256,192,15248,1,8,0:0:0:0:
256,192,15356,1,0,0:0:0:0:
256,192,15464,1,8,0:0:0:0:
256,192,15571,5,0,0:0:0:0:
256,192,15679,1,0,0:0:0:0:
256,192,15787,1,8,0:0:0:0:
256,192,15895,1,0,0:0:0:0:
256,192,16003,1,8,0:0:0:0:
256,192,16111,1,8,0:0:0:0:
256,192,16219,1,0,0:0:0:0:
256,192,16327,1,8,0:0:0:0:
256,192,16435,1,8,0:0:0:0:
256,192,16543,1,0,0:0:0:0:
256,192,16651,1,8,0:0:0:0:
256,192,16758,1,8,0:0:0:0:
256,192,16866,1,0,0:0:0:0:
256,192,16938,1,8,0:0:0:0:
256,192,17010,1,8,0:0:0:0:
256,192,17082,5,0,0:0:0:0:
256,192,17154,1,8,0:0:0:0:
256,192,17226,1,8,0:0:0:0:
256,192,17298,1,0,0:0:0:0:
256,192,17406,1,8,0:0:0:0:
256,192,17514,1,0,0:0:0:0:
256,192,17586,1,0,0:0:0:0:
256,192,17658,1,0,0:0:0:0:
256,192,17730,1,8,0:0:0:0:
256,192,17946,1,0,0:0:0:0:
256,192,18161,1,8,0:0:0:0:
256,192,18377,1,0,0:0:0:0:
256,192,18593,1,8,0:0:0:0:
256,192,18701,1,8,0:0:0:0:
256,192,18809,1,0,0:0:0:0:
256,192,18917,1,0,0:0:0:0:
256,192,19025,1,8,0:0:0:0:
256,192,19240,1,0,0:0:0:0:
256,192,19456,1,8,0:0:0:0:
256,192,19564,1,8,0:0:0:0:
256,192,19672,1,0,0:0:0:0:
256,192,19888,1,8,0:0:0:0:
256,192,20104,1,0,0:0:0:0:
256,192,20212,1,0,0:0:0:0:
256,192,20320,1,8,0:0:0:0:
256,192,20428,1,0,0:0:0:0:
256,192,20535,1,8,0:0:0:0:
256,192,20643,1,8,0:0:0:0:
256,192,20751,1,0,0:0:0:0:
256,192,20967,1,8,0:0:0:0:
256,192,21075,1,8,0:0:0:0:
256,192,21183,1,0,0:0:0:0:
256,192,21399,1,0,0:0:0:0:
256,192,21615,1,8,0:0:0:0:
256,192,21830,1,0,0:0:0:0:
256,192,22046,1,8,0:0:0:0:
256,192,22154,1,8,0:0:0:0:
256,192,22262,1,0,0:0:0:0:
256,192,22370,1,0,0:0:0:0:
256,192,22478,1,8,0:0:0:0:
256,192,22694,1,0,0:0:0:0:
256,192,22910,1,12,0:0:0:0:
256,192,23125,1,0,0:0:0:0:
256,192,23233,1,0,0:0:0:0:
256,192,23341,1,8,0:0:0:0:
256,192,23557,1,0,0:0:0:0:
256,192,23773,1,12,0:0:0:0:
256,192,23989,1,8,0:0:0:0:
256,192,24097,1,0,0:0:0:0:
256,192,24205,1,0,0:0:0:0:
256,192,24312,1,8,0:0:0:0:
256,192,24420,1,8,0:0:0:0:
256,192,24528,1,0,0:0:0:0:
256,192,24636,1,8,0:0:0:0:
256,192,24852,1,0,0:0:0:0:
256,192,25068,1,8,0:0:0:0:
256,192,25284,1,0,0:0:0:0:
256,192,25499,1,8,0:0:0:0:
256,192,25607,1,8,0:0:0:0:
256,192,25715,1,0,0:0:0:0:
256,192,25823,1,0,0:0:0:0:
256,192,25931,1,8,0:0:0:0:
256,192,26147,1,0,0:0:0:0:
256,192,26363,1,8,0:0:0:0:
256,192,26471,1,8,0:0:0:0:
256,192,26579,1,0,0:0:0:0:
256,192,26794,1,8,0:0:0:0:
256,192,27010,1,0,0:0:0:0:
256,192,27118,1,8,0:0:0:0:
256,192,27226,1,0,0:0:0:0:
256,192,27334,1,0,0:0:0:0:
256,192,27442,1,8,0:0:0:0:
256,192,27550,1,0,0:0:0:0:
256,192,27658,1,8,0:0:0:0:
256,192,27874,1,0,0:0:0:0:
256,192,28089,1,12,0:0:0:0:
256,192,28305,1,0,0:0:0:0:
256,192,28413,1,0,0:0:0:0:
256,192,28521,1,8,0:0:0:0:
256,192,28737,1,0,0:0:0:0:
256,192,28845,1,8,0:0:0:0:
256,192,28953,1,8,0:0:0:0:
256,192,29169,1,0,0:0:0:0:
256,192,29384,1,8,0:0:0:0:
256,192,29492,1,0,0:0:0:0:
256,192,29600,1,0,0:0:0:0:
256,192,29816,5,8,0:0:0:0:
256,192,29924,1,8,0:0:0:0:
256,192,30032,1,0,0:0:0:0:
256,192,30140,1,8,0:0:0:0:
256,192,30248,1,0,0:0:0:0:
256,192,30356,1,0,0:0:0:0:
256,192,30464,1,8,0:0:0:0:
256,192,30571,1,0,0:0:0:0:
256,192,30679,5,8,0:0:0:0:
256,192,30751,1,8,0:0:0:0:
256,192,30823,1,0,0:0:0:0:
256,192,30895,1,8,0:0:0:0:
256,192,30967,1,8,0:0:0:0:
256,192,31039,1,0,0:0:0:0:
256,192,31111,1,8,0:0:0:0:
256,192,31219,1,0,0:0:0:0:
256,192,31327,1,8,0:0:0:0:
256,192,31399,1,0,0:0:0:0:
256,192,31471,1,0,0:0:0:0:
256,192,31543,1,8,0:0:0:0:
256,192,31974,1,0,0:0:0:0:
256,192,32082,1,0,0:0:0:0:
256,192,32190,1,0,0:0:0:0:
256,192,32298,1,0,0:0:0:0:
256,192,32406,1,8,0:0:0:0:
256,192,32622,1,0,0:0:0:0:
256,192,32838,1,8,0:0:0:0:
256,192,33053,1,0,0:0:0:0:
256,192,33485,1,12,0:0:0:0:
256,192,33701,1,12,0:0:0:0:
256,192,33917,1,12,0:0:0:0:
256,192,34133,1,4,0:0:0:0:
256,192,34564,1,8,0:0:0:0:
256,192,34636,1,8,0:0:0:0:
256,192,34708,1,8,0:0:0:0:
256,192,34780,1,8,0:0:0:0:
256,192,34852,1,8,0:0:0:0:
256,192,34924,1,8,0:0:0:0:
256,192,34996,1,0,0:0:0:0:
256,192,35212,1,0,0:0:0:0:
256,192,35428,1,8,0:0:0:0:
256,192,35643,1,0,0:0:0:0:
256,192,35751,1,0,0:0:0:0:
256,192,35859,1,8,0:0:0:0:
256,192,36075,1,0,0:0:0:0:
256,192,36291,1,8,0:0:0:0:
256,192,36507,1,8,0:0:0:0:
256,192,36615,1,8,0:0:0:0:
256,192,36722,1,0,0:0:0:0:
256,192,36938,1,0,0:0:0:0:
256,192,37154,1,8,0:0:0:0:
256,192,37370,1,8,0:0:0:0:
256,192,37478,1,0,0:0:0:0:
256,192,37586,1,8,0:0:0:0:
256,192,37802,1,0,0:0:0:0:
256,192,38017,1,8,0:0:0:0:
256,192,38125,1,8,0:0:0:0:
256,192,38233,1,0,0:0:0:0:
256,192,38341,1,0,0:0:0:0:
256,192,38449,1,8,0:0:0:0:
256,192,38665,1,0,0:0:0:0:
256,192,38881,1,8,0:0:0:0:
256,192,39097,1,0,0:0:0:0:
256,192,39205,1,0,0:0:0:0:
256,192,39312,1,8,0:0:0:0:
256,192,39528,1,0,0:0:0:0:
256,192,39744,1,8,0:0:0:0:
256,192,39960,1,8,0:0:0:0:
256,192,40068,1,8,0:0:0:0:
256,192,40176,1,0,0:0:0:0:
256,192,40392,1,0,0:0:0:0:
256,192,40607,1,8,0:0:0:0:
256,192,40823,1,8,0:0:0:0:
256,192,40931,1,0,0:0:0:0:
256,192,41039,1,8,0:0:0:0:
256,192,41255,1,0,0:0:0:0:
256,192,41471,1,8,0:0:0:0:
256,192,41579,1,8,0:0:0:0:
256,192,41687,1,0,0:0:0:0:
256,192,41902,1,12,0:0:0:0:
256,192,42118,1,0,0:0:0:0:
256,192,42334,1,8,0:0:0:0:
256,192,42550,1,0,0:0:0:0:
256,192,42658,1,0,0:0:0:0:
256,192,42766,1,8,0:0:0:0:
256,192,42981,1,0,0:0:0:0:
256,192,43197,1,8,0:0:0:0:
256,192,43413,1,8,0:0:0:0:
256,192,43521,1,8,0:0:0:0:
256,192,43629,1,0,0:0:0:0:
256,192,43845,1,0,0:0:0:0:
256,192,44061,1,8,0:0:0:0:
256,192,44276,1,8,0:0:0:0:
256,192,44384,1,0,0:0:0:0:
256,192,44492,1,8,0:0:0:0:
256,192,44708,1,0,0:0:0:0:
256,192,44924,1,8,0:0:0:0:
256,192,45032,1,8,0:0:0:0:
256,192,45140,1,0,0:0:0:0:
256,192,45248,1,0,0:0:0:0:
256,192,45356,1,8,0:0:0:0:
256,192,45571,1,0,0:0:0:0:
256,192,45787,1,8,0:0:0:0:
256,192,46003,1,0,0:0:0:0:
256,192,46111,1,0,0:0:0:0:
256,192,46219,1,8,0:0:0:0:
256,192,46435,1,0,0:0:0:0:
256,192,46651,1,8,0:0:0:0:
256,192,46866,1,8,0:0:0:0:
256,192,46974,1,8,0:0:0:0:
256,192,47082,1,0,0:0:0:0:
256,192,47298,1,0,0:0:0:0:
256,192,47514,1,8,0:0:0:0:
256,192,47730,1,8,0:0:0:0:
256,192,47838,1,0,0:0:0:0:
256,192,47946,1,8,0:0:0:0:
256,192,48161,1,0,0:0:0:0:
256,192,48377,1,8,0:0:0:0:
256,192,48485,1,8,0:0:0:0:
256,192,48593,1,0,0:0:0:0:
256,192,48809,1,12,0:0:0:0:
256,192,49025,1,0,0:0:0:0:
256,192,49133,1,0,0:0:0:0:
256,192,49240,1,8,0:0:0:0:
256,192,49456,1,0,0:0:0:0:
256,192,49672,1,8,0:0:0:0:
256,192,49780,1,0,0:0:0:0:
256,192,49888,1,8,0:0:0:0:
256,192,49996,1,8,0:0:0:0:
256,192,50104,1,0,0:0:0:0:
256,192,50320,1,0,0:0:0:0:
256,192,50535,1,8,0:0:0:0:
256,192,50643,1,8,0:0:0:0:
256,192,50751,1,0,0:0:0:0:
256,192,50859,1,0,0:0:0:0:
256,192,50967,1,8,0:0:0:0:
256,192,51183,1,0,0:0:0:0:
256,192,51399,1,8,0:0:0:0:
256,192,51507,1,8,0:0:0:0:
256,192,51615,1,0,0:0:0:0:
256,192,51722,1,0,0:0:0:0:
256,192,51830,1,8,0:0:0:0:
256,192,51938,1,0,0:0:0:0:
256,192,52046,1,8,0:0:0:0:
256,192,52262,1,8,0:0:0:0:
256,192,52478,1,0,0:0:0:0:
256,192,52586,1,0,0:0:0:0:
256,192,52694,1,8,0:0:0:0:
256,192,52910,1,0,0:0:0:0:
256,192,53125,1,8,0:0:0:0:
256,192,53233,1,8,0:0:0:0:
256,192,53341,1,0,0:0:0:0:
256,192,53449,1,0,0:0:0:0:
256,192,53557,1,8,0:0:0:0:
256,192,53773,1,0,0:0:0:0:
256,192,53989,1,8,0:0:0:0:
256,192,54205,1,8,0:0:0:0:
256,192,54312,1,8,0:0:0:0:
256,192,54420,1,0,0:0:0:0:
256,192,54636,1,0,0:0:0:0:
256,192,54852,1,8,0:0:0:0:
256,192,54960,1,0,0:0:0:0:
256,192,55068,1,8,0:0:0:0:
256,192,55176,1,8,0:0:0:0:
256,192,55284,1,0,0:0:0:0:
256,192,55392,1,0,0:0:0:0:
256,192,55499,1,8,0:0:0:0:
256,192,55715,1,12,0:0:0:0:
256,192,55931,1,0,0:0:0:0:
256,192,56039,1,0,0:0:0:0:
256,192,56147,1,8,0:0:0:0:
256,192,56363,1,0,0:0:0:0:
256,192,56579,1,8,0:0:0:0:
256,192,56687,1,8,0:0:0:0:
256,192,56794,1,0,0:0:0:0:
256,192,56902,1,0,0:0:0:0:
256,192,57010,1,8,0:0:0:0:
256,192,57226,1,0,0:0:0:0:
256,192,57442,1,8,0:0:0:0:
256,192,57550,1,0,0:0:0:0:
256,192,57658,1,0,0:0:0:0:
256,192,57766,1,0,0:0:0:0:
256,192,57874,1,8,0:0:0:0:
256,192,58089,1,0,0:0:0:0:
256,192,58305,1,8,0:0:0:0:
256,192,58413,1,8,0:0:0:0:
256,192,58521,1,0,0:0:0:0:
256,192,58629,1,8,0:0:0:0:
256,192,58737,1,0,0:0:0:0:
256,192,58845,1,0,0:0:0:0:
256,192,58953,1,8,0:0:0:0:
256,192,59169,1,12,0:0:0:0:
256,192,59384,1,0,0:0:0:0:
256,192,59492,1,0,0:0:0:0:
256,192,59600,1,8,0:0:0:0:
256,192,59816,1,0,0:0:0:0:
256,192,60032,1,12,0:0:0:0:
256,192,60248,1,0,0:0:0:0:
256,192,60356,1,0,0:0:0:0:
256,192,60464,1,8,0:0:0:0:
256,192,60679,1,0,0:0:0:0:
256,192,60895,1,8,0:0:0:0:
256,192,61003,1,8,0:0:0:0:
256,192,61111,1,0,0:0:0:0:
256,192,61219,1,8,0:0:0:0:
256,192,61327,1,0,0:0:0:0:
256,192,61435,1,0,0:0:0:0:
256,192,61543,1,8,0:0:0:0:
256,192,61651,1,0,0:0:0:0:
256,192,61758,1,8,0:0:0:0:
256,192,61830,1,8,0:0:0:0:
256,192,61902,1,8,0:0:0:0:
256,192,61974,1,0,0:0:0:0:
256,192,62046,1,0,0:0:0:0:
256,192,62118,1,0,0:0:0:0:
256,192,62190,1,8,0:0:0:0:
256,192,62298,1,0,0:0:0:0:
256,192,62406,1,8,0:0:0:0:
256,192,62478,1,0,0:0:0:0:
256,192,62550,1,0,0:0:0:0:
256,192,62622,1,8,0:0:0:0:
256,192,62946,1,8,0:0:0:0:
256,192,63269,1,8,0:0:0:0:
256,192,63701,5,0,0:0:0:0:
256,192,63773,1,0,0:0:0:0:
256,192,63845,1,0,0:0:0:0:
256,192,63917,1,0,0:0:0:0:
256,192,64348,1,12,0:0:0:0:
256,192,64564,1,0,0:0:0:0:
256,192,64672,1,0,0:0:0:0:
256,192,64780,1,8,0:0:0:0:
256,192,64996,1,8,0:0:0:0:
256,192,65104,1,0,0:0:0:0:
256,192,65212,1,8,0:0:0:0:
256,192,65320,1,8,0:0:0:0:
256,192,65428,1,0,0:0:0:0:
256,192,65535,1,0,0:0:0:0:
256,192,65643,1,8,0:0:0:0:
256,192,65859,1,0,0:0:0:0:
256,192,66075,1,8,0:0:0:0:
256,192,66183,1,8,0:0:0:0:
256,192,66291,1,0,0:0:0:0:
256,192,66507,1,8,0:0:0:0:
256,192,66722,1,0,0:0:0:0:
256,192,66830,1,0,0:0:0:0:
256,192,66938,1,8,0:0:0:0:
256,192,67046,1,0,0:0:0:0:
256,192,67154,1,8,0:0:0:0:
256,192,67262,1,8,0:0:0:0:
256,192,67370,1,0,0:0:0:0:
256,192,67586,1,0,0:0:0:0:
256,192,67802,1,8,0:0:0:0:
256,192,67910,1,8,0:0:0:0:
256,192,68017,1,0,0:0:0:0:
256,192,68233,1,8,0:0:0:0:
256,192,68449,1,0,0:0:0:0:
256,192,68665,1,8,0:0:0:0:
256,192,68773,1,8,0:0:0:0:
256,192,68881,1,0,0:0:0:0:
256,192,68989,1,0,0:0:0:0:
256,192,69097,1,8,0:0:0:0:
256,192,69312,1,0,0:0:0:0:
256,192,69528,1,12,0:0:0:0:
256,192,69744,1,0,0:0:0:0:
256,192,69852,1,0,0:0:0:0:
256,192,69960,1,8,0:0:0:0:
256,192,70176,1,0,0:0:0:0:
256,192,70392,1,12,0:0:0:0:
256,192,70607,1,0,0:0:0:0:
256,192,70715,1,0,0:0:0:0:
256,192,70823,1,8,0:0:0:0:
256,192,70931,1,8,0:0:0:0:
256,192,71039,1,8,0:0:0:0:
256,192,71147,1,0,0:0:0:0:
256,192,71255,1,8,0:0:0:0:
256,192,71471,1,0,0:0:0:0:
256,192,71579,1,0,0:0:0:0:
256,192,71687,1,8,0:0:0:0:
256,192,71902,1,0,0:0:0:0:
256,192,72118,1,8,0:0:0:0:
256,192,72226,1,8,0:0:0:0:
256,192,72334,1,0,0:0:0:0:
256,192,72442,1,0,0:0:0:0:
256,192,72550,1,8,0:0:0:0:
256,192,72766,1,0,0:0:0:0:
256,192,72981,1,8,0:0:0:0:
256,192,73089,1,8,0:0:0:0:
256,192,73197,1,0,0:0:0:0:
256,192,73413,1,8,0:0:0:0:
256,192,73629,1,0,0:0:0:0:
256,192,73737,1,8,0:0:0:0:
256,192,73845,1,0,0:0:0:0:
256,192,73953,1,0,0:0:0:0:
256,192,74061,1,8,0:0:0:0:
256,192,74169,1,0,0:0:0:0:
256,192,74276,1,8,0:0:0:0:
256,192,74492,1,0,0:0:0:0:
256,192,74708,1,12,0:0:0:0:
256,192,74924,1,0,0:0:0:0:
256,192,75032,1,0,0:0:0:0:
256,192,75140,1,8,0:0:0:0:
256,192,75356,1,0,0:0:0:0:
256,192,75571,1,8,0:0:0:0:
256,192,75679,1,8,0:0:0:0:
256,192,75787,1,0,0:0:0:0:
256,192,76003,1,8,0:0:0:0:
256,192,76219,1,0,0:0:0:0:
256,192,76435,5,8,0:0:0:0:
256,192,76543,1,8,0:0:0:0:
256,192,76651,1,0,0:0:0:0:
256,192,76758,1,8,0:0:0:0:
256,192,76866,1,0,0:0:0:0:
256,192,76974,1,0,0:0:0:0:
256,192,77082,1,8,0:0:0:0:
256,192,77190,1,0,0:0:0:0:
256,192,77298,1,8,0:0:0:0:
256,192,77370,1,8,0:0:0:0:
256,192,77442,1,8,0:0:0:0:
256,192,77514,5,8,0:0:0:0:
256,192,77586,1,8,0:0:0:0:
256,192,77658,1,8,0:0:0:0:
256,192,77730,1,0,0:0:0:0:
256,192,77838,1,8,0:0:0:0:
256,192,77946,1,0,0:0:0:0:
256,192,78017,1,0,0:0:0:0:
256,192,78089,1,0,0:0:0:0:
256,192,78161,1,8,0:0:0:0:
256,192,78377,1,0,0:0:0:0:
256,192,78593,1,8,0:0:0:0:
256,192,78809,1,0,0:0:0:0:
256,192,79025,1,8,0:0:0:0:
256,192,79133,1,8,0:0:0:0:
256,192,79240,1,0,0:0:0:0:
256,192,79348,1,0,0:0:0:0:
256,192,79456,1,8,0:0:0:0:
256,192,79672,1,0,0:0:0:0:
256,192,79888,1,8,0:0:0:0:
256,192,79996,1,8,0:0:0:0:
256,192,80104,1,0,0:0:0:0:
256,192,80320,1,8,0:0:0:0:
256,192,80535,1,0,0:0:0:0:
256,192,80643,1,0,0:0:0:0:
256,192,80751,1,8,0:0:0:0:
256,192,80859,1,0,0:0:0:0:
256,192,80967,1,8,0:0:0:0:
256,192,81075,1,8,0:0:0:0:
256,192,81183,1,0,0:0:0:0:
256,192,81399,1,0,0:0:0:0:
256,192,81615,1,12,0:0:0:0:
256,192,81830,1,0,0:0:0:0:
256,192,81938,1,0,0:0:0:0:
256,192,82046,1,8,0:0:0:0:
256,192,82262,1,0,0:0:0:0:
256,192,82478,1,8,0:0:0:0:
256,192,82586,1,8,0:0:0:0:
256,192,82694,1,0,0:0:0:0:
256,192,82802,1,0,0:0:0:0:
256,192,82910,1,8,0:0:0:0:
256,192,83125,1,0,0:0:0:0:
256,192,83341,1,12,0:0:0:0:
256,192,83557,1,0,0:0:0:0:
256,192,83665,1,0,0:0:0:0:
256,192,83773,1,8,0:0:0:0:
256,192,83989,1,0,0:0:0:0:
256,192,84205,1,12,0:0:0:0:
256,192,84420,1,8,0:0:0:0:
256,192,84528,1,0,0:0:0:0:
256,192,84636,1,0,0:0:0:0:
256,192,84744,1,8,0:0:0:0:
256,192,84852,1,8,0:0:0:0:
256,192,84960,1,0,0:0:0:0:
256,192,85068,1,8,0:0:0:0:
256,192,85284,1,0,0:0:0:0:
256,192,85499,1,8,0:0:0:0:
256,192,85715,1,0,0:0:0:0:
256,192,85931,1,8,0:0:0:0:
256,192,86039,1,8,0:0:0:0:
256,192,86147,1,0,0:0:0:0:
256,192,86255,1,0,0:0:0:0:
256,192,86363,1,8,0:0:0:0:
256,192,86579,1,0,0:0:0:0:
256,192,86794,1,8,0:0:0:0:
256,192,86902,1,8,0:0:0:0:
256,192,87010,1,0,0:0:0:0:
256,192,87226,1,8,0:0:0:0:
256,192,87442,1,0,0:0:0:0:
256,192,87550,1,8,0:0:0:0:
256,192,87658,1,0,0:0:0:0:
256,192,87766,1,0,0:0:0:0:
256,192,87874,1,8,0:0:0:0:
256,192,87981,1,0,0:0:0:0:
256,192,88089,1,8,0:0:0:0:
256,192,88305,1,0,0:0:0:0:
256,192,88521,1,12,0:0:0:0:
256,192,88737,1,0,0:0:0:0:
256,192,88845,1,0,0:0:0:0:
256,192,88953,1,8,0:0:0:0:
256,192,89169,1,0,0:0:0:0:
256,192,89276,1,8,0:0:0:0:
256,192,89384,1,8,0:0:0:0:
256,192,89600,1,0,0:0:0:0:
256,192,89816,1,8,0:0:0:0:
256,192,89924,1,0,0:0:0:0:
256,192,90032,1,0,0:0:0:0:
256,192,90248,5,8,0:0:0:0:
256,192,90356,1,8,0:0:0:0:
256,192,90464,1,0,0:0:0:0:
256,192,90571,1,8,0:0:0:0:
256,192,90679,1,0,0:0:0:0:
256,192,90787,1,0,0:0:0:0:
256,192,90895,1,8,0:0:0:0:
256,192,91003,1,0,0:0:0:0:
256,192,91111,5,8,0:0:0:0:
256,192,91183,1,8,0:0:0:0:
256,192,91255,1,0,0:0:0:0:
256,192,91327,1,8,0:0:0:0:
256,192,91399,1,8,0:0:0:0:
256,192,91471,1,0,0:0:0:0:
256,192,91543,1,8,0:0:0:0:
256,192,91651,1,0,0:0:0:0:
256,192,91758,1,8,0:0:0:0:
256,192,91830,1,0,0:0:0:0:
256,192,91902,1,0,0:0:0:0:
256,192,91974,1,8,0:0:0:0:
256,192,92190,1,0,0:0:0:0:
256,192,92406,1,8,0:0:0:0:
256,192,92514,1,8,0:0:0:0:
256,192,92622,1,0,0:0:0:0:
256,192,92730,1,8,0:0:0:0:
256,192,92838,1,0,0:0:0:0:
256,192,92946,1,0,0:0:0:0:
256,192,93053,1,8,0:0:0:0:
256,192,93161,1,0,0:0:0:0:
256,192,93269,1,8,0:0:0:0:
256,192,93377,1,8,0:0:0:0:
256,192,93485,1,0,0:0:0:0:
256,192,93593,1,0,0:0:0:0:
256,192,93701,1,8,0:0:0:0:
256,192,93809,1,8,0:0:0:0:
256,192,93917,1,8,0:0:0:0:
256,192,94025,1,0,0:0:0:0:
256,192,94133,1,8,0:0:0:0:
256,192,94240,1,8,0:0:0:0:
256,192,94348,1,0,0:0:0:0:
256,192,94456,1,8,0:0:0:0:
256,192,94564,1,0,0:0:0:0:
256,192,94672,1,0,0:0:0:0:
256,192,94780,1,8,0:0:0:0:
256,192,94888,1,0,0:0:0:0:
256,192,94996,1,8,0:0:0:0:
256,192,95212,1,0,0:0:0:0:
256,192,95428,1,8,0:0:0:0:
256,192,95643,1,0,0:0:0:0:
256,192,95751,1,0,0:0:0:0:
256,192,95859,1,8,0:0:0:0:
256,192,96075,1,0,0:0:0:0:
256,192,96291,1,8,0:0:0:0:
256,192,96399,1,0,0:0:0:0:
256,192,96507,1,8,0:0:0:0:
256,192,96615,1,8,0:0:0:0:
256,192,96722,1,0,0:0:0:0:
256,192,96830,1,0,0:0:0:0:
256,192,96938,1,8,0:0:0:0:
256,192,97046,1,0,0:0:0:0:
256,192,97154,1,8,0:0:0:0:
256,192,97370,1,0,0:0:0:0:
256,192,97586,1,8,0:0:0:0:
256,192,97694,1,8,0:0:0:0:
256,192,97802,1,0,0:0:0:0:
256,192,97910,1,0,0:0:0:0:
256,192,98017,1,8,0:0:0:0:
256,192,98125,1,8,0:0:0:0:
256,192,98233,1,8,0:0:0:0:
256,192,98341,1,0,0:0:0:0:
256,192,98449,1,8,0:0:0:0:
256,192,98665,1,0,0:0:0:0:
256,192,98881,1,12,0:0:0:0:
256,192,99097,1,0,0:0:0:0:
256,192,99205,1,0,0:0:0:0:
256,192,99312,1,8,0:0:0:0:
256,192,99528,1,0,0:0:0:0:
256,192,99636,1,8,0:0:0:0:
256,192,99744,1,8,0:0:0:0:
256,192,99960,1,0,0:0:0:0:
256,192,100068,1,0,0:0:0:0:
256,192,100176,1,8,0:0:0:0:
256,192,100392,1,0,0:0:0:0:
256,192,100607,1,8,0:0:0:0:
256,192,100715,1,0,0:0:0:0:
256,192,100823,1,0,0:0:0:0:
256,192,101039,1,8,0:0:0:0:
256,192,101147,1,0,0:0:0:0:
256,192,101255,1,8,0:0:0:0:
256,192,101471,1,0,0:0:0:0:
256,192,101579,1,0,0:0:0:0:
256,192,101687,1,0,0:0:0:0:
256,192,101902,1,8,0:0:0:0:
256,192,102010,1,8,0:0:0:0:
256,192,102118,1,0,0:0:0:0:
256,192,102334,1,12,0:0:0:0:
256,192,102550,1,0,0:0:0:0:
256,192,102658,1,0,0:0:0:0:
256,192,102766,1,8,0:0:0:0:
256,192,102874,1,0,0:0:0:0:
256,192,102981,1,8,0:0:0:0:
256,192,103053,1,8,0:0:0:0:
256,192,103125,1,8,0:0:0:0:
256,192,103197,1,0,0:0:0:0:
256,192,103305,1,8,0:0:0:0:
256,192,103413,1,0,0:0:0:0:
256,192,103485,1,0,0:0:0:0:
256,192,103557,1,0,0:0:0:0:
256,192,103629,1,8,0:0:0:0:
256,192,103737,1,0,0:0:0:0:
256,192,103845,1,8,0:0:0:0:
256,192,104061,1,8,0:0:0:0:
256,192,104169,1,8,0:0:0:0:
256,192,104276,1,0,0:0:0:0:
256,192,104384,1,0,0:0:0:0:
256,192,104492,1,8,0:0:0:0:
256,192,104600,1,0,0:0:0:0:
256,192,104708,1,8,0:0:0:0:
256,192,104816,1,8,0:0:0:0:
256,192,104924,1,0,0:0:0:0:
256,192,104996,1,0,0:0:0:0:
256,192,105068,1,0,0:0:0:0:
256,192,105140,1,8,0:0:0:0:
256,192,105248,1,0,0:0:0:0:
256,192,105356,1,8,0:0:0:0:
256,192,105428,1,8,0:0:0:0:
256,192,105499,1,8,0:0:0:0:
256,192,105571,1,0,0:0:0:0:
256,192,105643,1,0,0:0:0:0:
256,192,105715,1,0,0:0:0:0:
256,192,105787,1,8,0:0:0:0:
256,192,106219,1,0,0:0:0:0:
256,192,106327,1,0,0:0:0:0:
256,192,106435,1,0,0:0:0:0:
256,192,106543,1,0,0:0:0:0:
256,192,106651,1,8,0:0:0:0:
256,192,106866,1,0,0:0:0:0:
256,192,107082,1,8,0:0:0:0:
256,192,107298,1,0,0:0:0:0:
256,192,107730,1,12,0:0:0:0:
256,192,107946,1,12,0:0:0:0:
256,192,108161,1,12,0:0:0:0:
256,192,108377,1,4,0:0:0:0:
256,192,108809,1,8,0:0:0:0:
