osu file format v14

[General]
AudioFilename: audio.mp3
AudioLeadIn: 0
PreviewTime: 73725
Countdown: 0
SampleSet: Normal
StackLeniency: 0.7
Mode: 1
LetterboxInBreaks: 0
WidescreenStoryboard: 0

[Editor]
Bookmarks: 580,8321,10902,21225,31386,41870,52192,62515,67676,71547,72838,74128,84450,93483,94773,99934,105096,110257,115418,123145
DistanceSpacing: 0.6
BeatDivisor: 4
GridSize: 32
TimelineZoom: 1.6

[Metadata]
Title:Dive to Blue
TitleUnicode:Dive to Blue
Artist:iMarine (CV: Uchida Aya)
ArtistUnicode:アイマリン(CV:内田彩)
Creator:Roger
Version:Muzukashii
Source:アイマリンプロジェクト
Tags:taiko 玉屋2060% imarine project animation sanyoofficial kubotabee cut version Lisieux- [R] Ron Volta [Belajar-Osu] ][ -GH- ][ jpop j-pop pop japanese
BeatmapID:2085331
BeatmapSetID:985847

[Difficulty]
HPDrainRate:5
CircleSize:2
OverallDifficulty:5
ApproachRate:0
SliderMultiplier:1.4
SliderTickRate:1

[Events]
//Background and Video events
0,0,"bgh.jpg",0,60
//Break Periods
//Storyboard Layer 0 (Background)
//Storyboard Layer 1 (Fail)
//Storyboard Layer 2 (Pass)
//Storyboard Layer 3 (Foreground)
//Storyboard Layer 4 (Overlay)
//Storyboard Sound Samples

[TimingPoints]
580,322.58064516129,4,1,0,40,1,0
580,-109.89010989011,4,1,0,40,0,0
7999,-106.382978723404,4,1,0,46,0,0
8160,-103.092783505155,4,1,0,53,0,0
8321,-100,4,1,0,60,0,0
9531,-100,4,1,0,70,0,0
9612,-100,4,1,0,80,0,0
10902,-100,4,1,0,90,0,1
31547,-100,4,1,0,80,0,0
71628,-100,4,1,0,40,0,0
72757,-100,4,1,0,70,0,0
72838,-100,4,1,0,80,0,0
74128,-100,4,1,0,90,0,1
93483,-100,4,1,0,80,0,0
94773,-100,4,1,0,90,0,1
114773,-101.010101010101,4,1,0,90,0,1
114854,-102.040816326531,4,1,0,90,0,1
114934,-103.092783505155,4,1,0,90,0,1
115096,-105.263157894737,4,1,0,90,0,1
115176,-106.382978723404,4,1,0,90,0,1
115257,-107.52688172043,4,1,0,90,0,1
115418,-109.89010989011,4,1,0,70,0,0
123155,349.040139616056,4,1,0,60,1,0
123496,356.083086053412,4,1,0,57,1,8
123840,370.37037037037,4,1,0,55,1,8
124216,396.956665564009,4,1,0,52,1,8
124216,-95.2380952380952,4,1,0,52,0,8
124600,424.628450106157,4,1,0,50,1,0
124600,-91.743119266055,4,1,0,50,0,0
125018,504.201680672269,4,1,0,47,1,8
125018,-80,4,1,0,47,0,8
125516,484.652665589661,4,1,0,45,1,8
125516,-86.9565217391304,4,1,0,45,0,8
126030,312.5,4,1,0,42,1,8
126030,-138.888888888889,4,1,0,42,0,8
126653,312.5,4,1,0,40,1,0
126653,-142.857142857143,4,1,0,40,0,0

[HitObjects]
256,352,580,5,8,0:0:0:0:
256,352,1063,1,8,0:0:0:0:
256,352,1547,1,0,0:0:0:0:
256,352,1870,1,8,0:0:0:0:
256,352,3160,1,8,0:0:0:0:
256,352,3644,1,0,0:0:0:0:
256,352,4128,1,0,0:0:0:0:
256,352,4450,1,8,0:0:0:0:
256,352,5741,1,8,0:0:0:0:
256,352,6386,1,0,0:0:0:0:
256,352,7031,1,8,0:0:0:0:
256,352,7515,1,8,0:0:0:0:
256,352,7838,1,0,0:0:0:0:
256,352,7999,1,8,0:0:0:0:
256,352,8321,1,4,0:0:0:0:
256,352,9289,1,12,0:0:0:0:
256,352,9612,1,0,0:0:0:0:
256,352,9773,1,0,0:0:0:0:
256,352,9934,1,8,0:0:0:0:
256,352,10096,1,0,0:0:0:0:
256,352,10176,1,0,0:0:0:0:
256,352,10257,1,0,0:0:0:0:
256,352,10418,1,0,0:0:0:0:
256,352,10579,1,8,0:0:0:0:
256,352,10902,1,4,0:0:0:0:
256,352,11063,1,0,0:0:0:0:
256,352,11225,1,8,0:0:0:0:
256,352,11547,1,8,0:0:0:0:
256,352,11709,1,8,0:0:0:0:
256,352,11870,1,0,0:0:0:0:
256,352,12031,1,8,0:0:0:0:
256,352,12515,1,0,0:0:0:0:
256,352,12676,1,8,0:0:0:0:
256,352,12757,1,8,0:0:0:0:
256,352,12838,1,8,0:0:0:0:
256,352,12999,1,0,0:0:0:0:
256,352,13160,1,8,0:0:0:0:
256,352,13321,1,0,0:0:0:0:
256,352,13644,1,8,0:0:0:0:
256,352,13805,1,0,0:0:0:0:
256,352,14128,1,0,0:0:0:0:
256,352,14289,1,8,0:0:0:0:
256,352,14450,1,8,0:0:0:0:
256,352,14612,1,0,0:0:0:0:
256,352,14934,1,8,0:0:0:0:
256,352,15096,1,8,0:0:0:0:
256,352,15257,1,0,0:0:0:0:
256,352,15338,1,0,0:0:0:0:
256,352,15418,1,0,0:0:0:0:
256,352,15579,1,0,0:0:0:0:
256,352,15741,1,8,0:0:0:0:
256,352,16063,1,0,0:0:0:0:
256,352,16225,1,0,0:0:0:0:
256,352,16386,1,8,0:0:0:0:
256,352,16709,1,8,0:0:0:0:
256,352,16870,1,8,0:0:0:0:
256,352,17031,1,0,0:0:0:0:
256,352,17192,1,8,0:0:0:0:
256,352,17676,1,0,0:0:0:0:
256,352,17838,1,8,0:0:0:0:
256,352,17999,1,0,0:0:0:0:
256,352,18079,1,0,0:0:0:0:
256,352,18160,1,0,0:0:0:0:
256,352,18321,1,8,0:0:0:0:
256,352,18483,1,0,0:0:0:0:
256,352,18805,1,8,0:0:0:0:
256,352,18967,1,0,0:0:0:0:
256,352,19289,1,0,0:0:0:0:
256,352,19450,1,8,0:0:0:0:
256,352,19612,1,8,0:0:0:0:
256,352,19773,1,0,0:0:0:0:
256,352,20096,1,8,0:0:0:0:
256,352,20418,1,0,0:0:0:0:
256,352,20579,1,8,0:0:0:0:
256,352,20660,1,8,0:0:0:0:
256,352,20741,1,8,0:0:0:0:
256,352,20902,1,0,0:0:0:0:
256,352,21063,1,8,0:0:0:0:
256,352,21225,1,4,0:0:0:0:
256,352,21386,1,0,0:0:0:0:
256,352,21547,1,8,0:0:0:0:
256,352,21870,1,8,0:0:0:0:
256,352,22031,1,8,0:0:0:0:
256,352,22192,1,0,0:0:0:0:
256,352,22354,1,8,0:0:0:0:
256,352,22838,1,0,0:0:0:0:
256,352,22999,1,8,0:0:0:0:
256,352,23079,1,8,0:0:0:0:
256,352,23160,1,8,0:0:0:0:
256,352,23321,1,0,0:0:0:0:
256,352,23483,1,8,0:0:0:0:
256,352,23644,1,0,0:0:0:0:
256,352,23967,1,8,0:0:0:0:
256,352,24128,1,0,0:0:0:0:
256,352,24450,1,0,0:0:0:0:
256,352,24612,1,8,0:0:0:0:
256,352,24773,1,8,0:0:0:0:
256,352,24934,1,0,0:0:0:0:
256,352,25257,1,8,0:0:0:0:
256,352,25418,1,8,0:0:0:0:
256,352,25579,1,0,0:0:0:0:
256,352,25660,1,0,0:0:0:0:
256,352,25741,1,0,0:0:0:0:
256,352,25902,1,0,0:0:0:0:
256,352,26063,1,8,0:0:0:0:
256,352,26386,1,0,0:0:0:0:
256,352,26547,1,0,0:0:0:0:
256,352,26709,1,8,0:0:0:0:
256,352,27031,1,8,0:0:0:0:
256,352,27192,1,8,0:0:0:0:
256,352,27354,1,0,0:0:0:0:
256,352,27515,1,8,0:0:0:0:
256,352,27999,1,0,0:0:0:0:
256,352,28321,1,8,0:3:0:0:
256,352,28483,1,0,0:0:0:0:
256,352,28644,1,8,0:3:0:0:
256,352,28725,1,8,0:3:0:0:
256,352,28805,1,8,0:3:0:0:
256,352,29128,1,8,0:3:0:0:
256,352,29289,1,0,0:3:0:0:
256,352,29612,1,0,0:3:0:0:
256,352,29773,1,8,0:3:0:0:
256,352,29934,1,8,0:3:0:0:
256,352,30096,1,0,0:3:0:0:
256,352,30418,1,8,0:3:0:0:
256,352,30741,1,0,0:3:0:0:
256,352,30902,1,8,0:3:0:0:
256,352,30983,1,8,0:3:0:0:
256,352,31063,1,8,0:3:0:0:
256,352,31225,1,0,0:3:0:0:
256,352,31386,1,8,0:3:0:0:
256,352,31547,1,4,0:3:0:0:
256,352,32031,1,8,0:0:0:0:
256,352,32192,1,0,0:0:0:0:
256,352,32515,1,8,0:0:0:0:
256,352,32838,1,0,0:0:0:0:
256,352,33321,1,8,0:0:0:0:
256,352,33483,1,0,0:0:0:0:
256,352,33644,1,0,0:0:0:0:
256,352,33805,1,8,0:0:0:0:
256,352,34128,1,0,0:0:0:0:
256,352,34450,1,8,0:0:0:0:
256,352,34612,1,8,0:0:0:0:
256,352,34773,1,0,0:0:0:0:
256,352,35096,1,8,0:0:0:0:
256,352,35418,1,0,0:0:0:0:
256,352,35741,1,8,0:0:0:0:
256,352,35902,1,0,0:0:0:0:
256,352,36386,1,8,0:0:0:0:
256,352,36709,1,0,0:0:0:0:
256,352,37031,1,8,0:0:0:0:
256,352,37354,1,0,0:0:0:0:
256,352,37515,1,0,0:0:0:0:
256,352,37676,1,8,0:0:0:0:
256,352,37999,1,0,0:0:0:0:
256,352,38321,1,8,0:0:0:0:
256,352,38483,1,0,0:0:0:0:
256,352,38805,1,8,0:0:0:0:
256,352,39289,1,0,0:0:0:0:
256,352,39450,1,0,0:0:0:0:
256,352,39612,1,8,0:0:0:0:
256,352,39934,1,0,0:0:0:0:
256,352,40257,1,8,0:0:0:0:
256,352,40418,1,8,0:0:0:0:
256,352,40579,1,4,0:0:0:0:
256,352,40902,1,8,0:0:0:0:
256,352,41063,1,0,0:0:0:0:
256,352,41386,1,12,0:0:0:0:
256,352,41870,1,4,0:0:0:0:
256,352,42192,1,8,0:0:0:0:
256,352,42354,1,8,0:0:0:0:
256,352,42515,1,0,0:0:0:0:
256,352,42838,1,8,0:0:0:0:
256,352,42999,1,0,0:0:0:0:
256,352,43160,1,8,0:0:0:0:
256,352,43483,1,8,0:0:0:0:
256,352,43644,1,0,0:0:0:0:
256,352,43967,1,0,0:0:0:0:
256,352,44128,1,8,0:0:0:0:
256,352,44289,1,8,0:0:0:0:
256,352,44450,1,0,0:0:0:0:
256,352,44773,1,8,0:0:0:0:
256,352,44934,1,0,0:0:0:0:
256,352,45096,1,0,0:0:0:0:
256,352,45418,1,8,0:0:0:0:
256,352,45579,1,0,0:0:0:0:
256,352,45741,1,8,0:0:0:0:
256,352,46063,1,8,0:0:0:0:
256,352,46225,1,0,0:0:0:0:
256,352,46709,1,8,0:0:0:0:
256,352,47031,1,0,0:0:0:0:
256,352,47192,1,0,0:0:0:0:
256,352,47354,1,8,0:0:0:0:
256,352,47676,1,0,0:0:0:0:
256,352,47999,1,8,0:0:0:0:
256,352,48321,1,0,0:0:0:0:
256,352,48483,1,0,0:0:0:0:
256,352,48644,1,8,0:0:0:0:
256,352,48805,1,0,0:0:0:0:
256,352,49128,1,8,0:0:0:0:
256,352,49612,1,0,0:0:0:0:
256,352,49773,1,0,0:0:0:0:
256,352,49934,1,8,0:0:0:0:
256,352,50257,1,0,0:0:0:0:
256,352,50579,1,8,0:0:0:0:
256,352,50741,1,4,0:0:0:0:
256,352,51063,1,0,0:0:0:0:
256,352,51225,1,8,0:0:0:0:
256,352,51305,1,8,0:0:0:0:
256,352,51386,1,8,0:0:0:0:
256,352,51547,1,0,0:0:0:0:
256,352,51870,1,8,0:0:0:0:
256,352,52031,1,0,0:0:0:0:
256,352,52192,1,12,0:0:0:0:
256,352,52515,1,0,0:0:0:0:
256,352,52676,1,8,0:0:0:0:
256,352,52999,1,0,0:0:0:0:
256,352,53160,1,8,0:0:0:0:
256,352,53321,1,8,0:0:0:0:
256,352,53483,1,0,0:0:0:0:
256,352,53967,1,8,0:0:0:0:
256,352,54128,1,0,0:0:0:0:
256,352,54289,1,0,0:0:0:0:
256,352,54450,1,8,0:0:0:0:
256,352,54773,1,0,0:0:0:0:
256,352,54934,1,0,0:0:0:0:
256,352,55096,1,8,0:0:0:0:
256,352,55418,1,8,0:0:0:0:
256,352,55579,1,0,0:0:0:0:
256,352,55902,1,0,0:0:0:0:
256,352,56063,1,8,0:0:0:0:
256,352,56225,1,0,0:0:0:0:
256,352,56305,1,0,0:0:0:0:
256,352,56386,1,0,0:0:0:0:
256,352,56547,1,8,0:0:0:0:
256,352,56870,1,0,0:0:0:0:
256,352,57031,1,8,0:0:0:0:
256,352,57192,1,0,0:0:0:0:
256,352,57354,1,12,0:0:0:0:
256,352,57676,1,0,0:0:0:0:
256,352,57838,1,8,0:0:0:0:
256,352,58321,1,8,0:0:0:0:
256,352,58483,1,8,0:0:0:0:
256,352,58644,1,0,0:0:0:0:
256,352,58967,1,0,0:0:0:0:
256,352,59128,1,8,0:0:0:0:
256,352,59450,1,8,0:0:0:0:
256,352,59612,1,0,0:0:0:0:
256,352,59773,1,0,0:0:0:0:
256,352,59934,1,8,0:0:0:0:
256,352,60257,1,0,0:0:0:0:
256,352,60579,1,8,0:0:0:0:
256,352,60902,1,0,0:0:0:0:
256,352,61063,1,12,0:0:0:0:
256,352,61547,1,8,0:0:0:0:
256,352,61709,1,0,0:0:0:0:
256,352,61870,1,8,0:0:0:0:
256,352,61950,1,8,0:0:0:0:
256,352,62031,1,8,0:0:0:0:
256,352,62192,1,0,0:0:0:0:
256,352,62515,1,4,0:0:0:0:
256,352,62838,1,8,0:0:0:0:
256,352,62999,1,0,0:0:0:0:
256,352,63321,1,8,0:0:0:0:
256,352,63483,1,8,0:0:0:0:
256,352,63644,1,0,0:0:0:0:
256,352,63805,1,8,0:0:0:0:
256,352,64128,1,0,0:0:0:0:
256,352,64289,1,8,0:0:0:0:
256,352,64773,1,8,0:0:0:0:
256,352,65096,1,4,0:0:0:0:
256,352,65418,1,8,0:0:0:0:
256,352,65579,1,0,0:0:0:0:
256,352,65902,1,8,0:0:0:0:
256,352,66063,1,8,0:0:0:0:
256,352,66225,1,0,0:0:0:0:
256,352,66547,1,0,0:0:0:0:
256,352,66709,1,8,0:0:0:0:
256,352,66870,1,0,0:0:0:0:
256,352,67031,1,8,0:0:0:0:
256,352,67354,1,8,0:0:0:0:
256,352,67434,1,8,0:0:0:0:
256,352,67515,1,8,0:0:0:0:
256,352,67676,1,4,0:0:0:0:
256,352,68160,1,8,0:0:0:0:
256,352,68483,1,0,0:0:0:0:
256,352,68644,1,8,0:0:0:0:
256,352,68967,1,0,0:0:0:0:
256,352,69450,1,8,0:0:0:0:
256,352,69773,1,0,0:0:0:0:
256,352,69934,1,8,0:0:0:0:
256,352,70257,1,0,0:0:0:0:
256,352,70579,1,8,0:0:0:0:
256,352,70741,1,0,0:0:0:0:
256,352,70902,1,8,0:0:0:0:
256,352,71063,1,8,0:0:0:0:
256,352,71225,1,0,0:0:0:0:
256,352,71305,1,0,0:0:0:0:
256,352,71386,1,0,0:0:0:0:
256,352,71547,1,8,0:0:0:0:
256,192,71709,12,0,72515,0:0:0:0:
256,352,72838,5,0,0:0:0:0:
256,352,72999,1,0,0:0:0:0:
256,352,73160,1,8,0:0:0:0:
256,352,73321,1,0,0:0:0:0:
256,352,73483,1,8,0:0:0:0:
256,352,73563,1,8,0:0:0:0:
256,352,73644,1,8,0:0:0:0:
256,352,73805,1,0,0:0:0:0:
256,352,74128,1,12,0:0:0:0:
256,352,74450,1,0,0:0:0:0:
256,352,74773,1,8,0:0:0:0:
256,352,74934,1,8,0:0:0:0:
256,352,75096,1,0,0:0:0:0:
256,352,75418,1,8,0:0:0:0:
256,352,75579,1,0,0:0:0:0:
256,352,75902,1,0,0:0:0:0:
256,352,76063,1,0,0:0:0:0:
256,352,76225,1,8,0:0:0:0:
256,352,76547,1,8,0:0:0:0:
256,352,76709,1,0,0:0:0:0:
256,352,77031,1,8,0:0:0:0:
256,352,77192,1,8,0:0:0:0:
256,352,77354,1,0,0:0:0:0:
256,352,77676,1,8,0:0:0:0:
256,352,77838,1,0,0:0:0:0:
256,352,77999,1,8,0:0:0:0:
256,352,78483,1,8,0:0:0:0:
256,352,78563,1,8,0:0:0:0:
256,352,78644,1,8,0:0:0:0:
256,352,78805,1,0,0:0:0:0:
256,352,78967,1,8,0:0:0:0:
256,352,79128,1,8,0:0:0:0:
256,352,79289,1,0,0:0:0:0:
256,352,79450,1,8,0:0:0:0:
256,352,79773,1,8,0:0:0:0:
256,352,79934,1,8,0:0:0:0:
256,352,80096,1,0,0:0:0:0:
256,352,80418,1,0,0:0:0:0:
256,352,80579,1,8,0:0:0:0:
256,352,80741,1,0,0:0:0:0:
256,352,80902,1,8,0:0:0:0:
256,352,81225,1,8,0:0:0:0:
256,352,81386,1,0,0:0:0:0:
256,352,81547,1,8,0:0:0:0:
256,352,81709,1,8,0:0:0:0:
256,352,81870,1,0,0:0:0:0:
256,352,82192,1,8,0:0:0:0:
256,352,82354,1,0,0:0:0:0:
256,352,82515,1,8,0:0:0:0:
256,352,82838,1,0,0:0:0:0:
256,352,82999,1,8,0:0:0:0:
256,352,83483,1,8,0:0:0:0:
256,352,83644,1,0,0:0:0:0:
256,352,83805,1,8,0:0:0:0:
256,352,83886,1,8,0:0:0:0:
256,352,83967,1,8,0:0:0:0:
256,352,84128,1,0,0:0:0:0:
256,352,84450,1,12,0:0:0:0:
256,352,84773,1,0,0:0:0:0:
256,352,85096,1,8,0:0:0:0:
256,352,85257,1,8,0:0:0:0:
256,352,85418,1,0,0:0:0:0:
256,352,85741,1,8,0:0:0:0:
256,352,85902,1,0,0:0:0:0:
256,352,86225,1,0,0:0:0:0:
256,352,86386,1,0,0:0:0:0:
256,352,86547,1,8,0:0:0:0:
256,352,86870,1,0,0:0:0:0:
256,352,87031,1,8,0:0:0:0:
256,352,87354,1,8,0:0:0:0:
256,352,87515,1,8,0:0:0:0:
256,352,87676,1,0,0:0:0:0:
256,352,87999,1,8,0:0:0:0:
256,352,88160,1,0,0:0:0:0:
256,352,88321,1,8,0:0:0:0:
256,352,88805,1,0,0:0:0:0:
256,352,88886,1,0,0:0:0:0:
256,352,88967,1,0,0:0:0:0:
256,352,89128,1,8,0:0:0:0:
256,352,89289,1,0,0:0:0:0:
256,352,89450,1,0,0:0:0:0:
256,352,89612,1,8,0:0:0:0:
256,352,89773,1,0,0:0:0:0:
256,352,90096,1,0,0:0:0:0:
256,352,90257,1,8,0:0:0:0:
256,352,90418,1,8,0:0:0:0:
256,352,90579,1,8,0:0:0:0:
256,352,90741,1,0,0:0:0:0:
256,352,91063,1,0,0:0:0:0:
256,352,91225,1,8,0:0:0:0:
256,352,91386,1,0,0:0:0:0:
256,352,91547,1,8,0:0:0:0:
256,352,91870,1,0,0:0:0:0:
256,352,92192,1,8,0:0:0:0:
256,352,92354,1,0,0:0:0:0:
256,352,92434,1,0,0:0:0:0:
256,352,92515,1,0,0:0:0:0:
256,352,92676,1,8,0:0:0:0:
256,352,92838,1,0,0:0:0:0:
256,352,92999,1,8,0:0:0:0:
256,352,93079,1,8,0:0:0:0:
256,352,93160,1,8,0:0:0:0:
256,352,93321,1,0,0:0:0:0:
256,352,93483,1,8,0:0:0:0:
256,352,93805,1,8,0:0:0:0:
256,352,93967,1,0,0:0:0:0:
256,352,94128,1,8,0:0:0:0:
256,352,94209,1,8,0:0:0:0:
256,352,94289,1,8,0:0:0:0:
256,352,94450,1,0,0:0:0:0:
256,352,94531,1,0,0:0:0:0:
256,352,94612,1,0,0:0:0:0:
256,352,94773,1,12,0:0:0:0:
256,352,95257,1,0,0:0:0:0:
256,352,95418,1,8,0:0:0:0:
256,352,95741,1,0,0:0:0:0:
256,352,95902,1,8,0:0:0:0:
256,352,96063,1,8,0:0:0:0:
256,352,96225,1,0,0:0:0:0:
256,352,96386,1,0,0:0:0:0:
256,352,96547,1,8,0:0:0:0:
256,352,96870,1,8,0:0:0:0:
256,352,97031,1,0,0:0:0:0:
256,352,97112,1,0,0:0:0:0:
256,352,97192,1,0,0:0:0:0:
256,352,97354,1,8,0:0:0:0:
256,352,97676,1,0,0:0:0:0:
256,352,97838,1,0,0:0:0:0:
256,352,97999,1,8,0:0:0:0:
256,352,98321,1,0,0:0:0:0:
256,352,98483,1,8,0:0:0:0:
256,352,98644,1,0,0:0:0:0:
256,352,98805,1,8,0:0:0:0:
256,352,99128,1,8,0:0:0:0:
256,352,99289,1,0,0:0:0:0:
256,352,99450,1,0,0:0:0:0:
256,352,99612,1,8,0:0:0:0:
256,352,99692,1,8,0:0:0:0:
256,352,99773,1,8,0:0:0:0:
256,352,99934,1,4,0:0:0:0:
256,352,100418,1,0,0:0:0:0:
256,352,100579,1,8,0:0:0:0:
256,352,100902,1,0,0:0:0:0:
256,352,101063,1,8,0:0:0:0:
256,352,101225,1,8,0:0:0:0:
256,352,101386,1,0,0:0:0:0:
256,352,101709,1,8,0:0:0:0:
256,352,101870,1,0,0:0:0:0:
256,352,102031,1,8,0:0:0:0:
256,352,102112,1,8,0:0:0:0:
256,352,102192,1,8,0:0:0:0:
256,352,102354,1,0,0:0:0:0:
256,352,102515,1,8,0:0:0:0:
256,352,102838,1,0,0:0:0:0:
256,352,102999,1,0,0:0:0:0:
256,352,103160,1,8,0:0:0:0:
256,352,103483,1,0,0:0:0:0:
256,352,103644,1,8,0:0:0:0:
256,352,103805,1,0,0:0:0:0:
256,352,103967,1,0,0:0:0:0:
256,352,104289,1,8,0:0:0:0:
256,352,104450,1,0,0:0:0:0:
256,352,104531,1,0,0:0:0:0:
256,352,104612,1,0,0:0:0:0:
256,352,104773,1,8,0:0:0:0:
256,352,104934,1,8,0:0:0:0:
256,352,105096,1,4,0:0:0:0:
256,352,105579,1,0,0:0:0:0:
256,352,105741,1,8,0:0:0:0:
256,352,106063,1,0,0:0:0:0:
256,352,106225,1,8,0:0:0:0:
256,352,106386,1,8,0:0:0:0:
256,352,106547,1,0,0:0:0:0:
256,352,106709,1,0,0:0:0:0:
256,352,106870,1,8,0:0:0:0:
256,352,107192,1,8,0:0:0:0:
256,352,107354,1,0,0:0:0:0:
256,352,107434,1,0,0:0:0:0:
256,352,107515,1,0,0:0:0:0:
256,352,107676,1,8,0:0:0:0:
256,352,107999,1,0,0:0:0:0:
256,352,108160,1,0,0:0:0:0:
256,352,108321,1,8,0:0:0:0:
256,352,108644,1,0,0:0:0:0:
256,352,108805,1,8,0:0:0:0:
256,352,108967,1,0,0:0:0:0:
256,352,109128,1,8,0:0:0:0:
256,352,109450,1,0,0:0:0:0:
256,352,109612,1,8,0:0:0:0:
256,352,109773,1,0,0:0:0:0:
256,352,109934,1,8,0:0:0:0:
256,352,110015,1,8,0:0:0:0:
256,352,110096,1,8,0:0:0:0:
256,352,110257,1,4,0:0:0:0:
256,352,110741,1,0,0:0:0:0:
256,352,110902,1,8,0:0:0:0:
256,352,111225,1,0,0:0:0:0:
256,352,111386,1,8,0:0:0:0:
256,352,111547,1,8,0:0:0:0:
256,352,111709,1,0,0:0:0:0:
256,352,112031,1,8,0:0:0:0:
256,352,112192,1,0,0:0:0:0:
256,352,112354,1,8,0:0:0:0:
256,352,112434,1,8,0:0:0:0:
256,352,112515,1,8,0:0:0:0:
256,352,112676,1,0,0:0:0:0:
256,352,112838,1,8,0:0:0:0:
256,352,113160,1,0,0:0:0:0:
256,352,113321,1,0,0:0:0:0:
256,352,113483,1,8,0:0:0:0:
256,352,113805,1,8,0:0:0:0:
256,352,113967,1,8,0:0:0:0:
256,352,114128,1,0,0:0:0:0:
256,352,114289,1,8,0:0:0:0:
256,352,114612,1,0,0:0:0:0:
256,352,114773,1,8,0:0:0:0:
256,352,114854,1,8,0:0:0:0:
256,352,114934,1,8,0:0:0:0:
256,352,115096,1,0,0:0:0:0:
256,352,115176,1,0,0:0:0:0:
256,352,115257,1,0,0:0:0:0:
256,352,115418,1,8,0:0:0:0:
256,352,115902,1,8,0:0:0:0:
256,352,116386,1,0,0:0:0:0:
256,352,116709,1,8,0:0:0:0:
256,352,117999,1,8,0:0:0:0:
256,352,118483,1,0,0:0:0:0:
256,352,118967,1,0,0:0:0:0:
256,352,119289,1,8,0:0:0:0:
256,352,120579,1,8,0:0:0:0:
256,352,121225,1,0,0:0:0:0:
256,352,121870,1,8,0:0:0:0:
256,352,122354,1,0,0:0:0:0:
256,352,122838,1,8,0:0:0:0:
256,352,123155,1,0,0:0:0:0:
256,352,123496,1,0,0:0:0:0:
256,352,123840,1,8,0:0:0:0:
256,352,124216,1,0,0:0:0:0:
256,352,124600,1,8,0:0:0:0:
256,352,125018,1,0,0:0:0:0:
256,352,125516,1,8,0:0:0:0:
256,352,126030,1,8,0:0:0:0:
256,352,126653,1,8,0:0:0:0:
256,352,126731,1,8,0:0:0:0:
256,352,126809,1,8,0:0:0:0:
