osu file format v14

[General]
AudioFilename: Dive to Blue (short Ver.).mp3
AudioLeadIn: 0
PreviewTime: 73775
Countdown: 0
SampleSet: Normal
StackLeniency: 0.7
Mode: 3
LetterboxInBreaks: 0
SpecialStyle: 0
WidescreenStoryboard: 0

[Editor]
DistanceSpacing: 0.8
BeatDivisor: 4
GridSize: 4
TimelineZoom: 2.899999

[Metadata]
Title:Dive to Blue
TitleUnicode:Dive to Blue
Artist:iMarine (CV: Uchida Aya)
ArtistUnicode:アイマリン(CV:内田 彩)
Creator:ALEFY
Version:Normal
Source:アイマリンプロジェクト
Tags:玉屋2060%,iMarine Project
BeatmapID:1260000
BeatmapSetID:595792

[Difficulty]
HPDrainRate:7
CircleSize:4
OverallDifficulty:7
ApproachRate:5
SliderMultiplier:1.51
SliderTickRate:2

[Events]
//Background and Video events
0,0,"back.jpg",0,0
//Break Periods
//Storyboard Layer 0 (Background)
//Storyboard Layer 1 (Fail)
//Storyboard Layer 2 (Pass)
//Storyboard Layer 3 (Foreground)
//Storyboard Sound Samples
Sample,550,0,"C#5.wav",20
Sample,550,0,"A#4.wav",20
Sample,1840,0,"C5.wav",20
Sample,3130,0,"D#5.wav",20
Sample,3130,0,"F5.wav",20
Sample,4420,0,"C#5.wav",20
Sample,4420,0,"A#4.wav",20
Sample,5711,0,"C#5.wav",20
Sample,5711,0,"A#4.wav",20
Sample,7001,0,"G#4.wav",20
Sample,7001,0,"C#5.wav",20
Sample,115388,0,"D#5.wav",20
Sample,115388,0,"A#4.wav",20
Sample,116679,0,"A#4.wav",20
Sample,116679,0,"D5.wav",20
Sample,117969,0,"D#5.wav",20
Sample,117969,0,"F5.wav",20
Sample,119259,0,"D#5.wav",20
Sample,119259,0,"C5.wav",20
Sample,120549,0,"C5.wav",20
Sample,120549,0,"D#5.wav",20
Sample,121840,0,"D5.wav",20
Sample,121840,0,"A#4.wav",20
Sample,123835,0,"G5.wav",20
Sample,124601,0,"F5.wav",20
Sample,124601,0,"A#5.wav",20
Sample,125529,0,"C6.wav",20

[TimingPoints]
550,322.58064516129,4,1,6,60,1,0
9582,-100,4,1,5,60,0,0
10872,-100,4,1,5,60,0,1
11033,-100,4,1,6,60,0,1
21195,-100,4,1,5,60,0,1
21356,-100,4,1,6,60,0,1
31517,-100,4,1,6,60,0,0
40549,-100,4,1,5,60,0,0
41517,-100,4,3,5,60,0,0
41840,-100,4,1,5,60,0,0
42001,-100,4,1,6,60,0,0
50711,-100,4,1,5,60,0,0
51920,-100,4,3,5,60,0,0
52162,-100,4,1,5,60,0,0
52324,-100,4,1,6,60,0,0
52969,-100,4,3,5,60,0,0
53453,-100,4,1,6,60,0,0
56195,-100,4,3,5,60,0,0
56356,-100,4,1,6,60,0,0
56517,-100,4,3,5,60,0,0
56679,-100,4,1,6,60,0,0
57082,-100,4,3,5,60,0,0
57324,-100,4,1,5,60,0,0
57646,-100,4,1,6,60,0,0
59420,-100,4,3,5,60,0,0
59904,-100,4,1,5,60,0,0
60066,-100,4,1,6,60,0,0
60549,-100,4,1,5,60,0,0
60711,-100,4,1,6,60,0,0
61033,-100,4,1,5,60,0,0
61356,-100,4,3,5,60,0,0
61517,-100,4,1,5,60,0,0
61679,-100,4,3,5,60,0,0
61840,-100,4,1,5,60,0,0
62001,-100,4,3,5,60,0,0
62162,-100,4,1,5,60,0,0
62324,-100,4,3,5,60,0,0
62485,-100,4,1,5,60,0,0
62646,-100,4,1,6,60,0,0
67001,-100,4,1,5,60,0,0
67404,-100,4,3,5,60,0,0
67646,-100,4,1,5,60,0,0
67808,-100,4,1,6,60,0,0
68937,-100,4,1,5,60,0,0
69098,-100,4,1,6,60,0,0
70227,-100,4,1,5,60,0,0
70388,-100,4,1,6,60,0,0
70872,-100,4,3,5,60,0,0
71033,-100,4,1,5,20,0,0
71114,-100,4,1,5,40,0,0
71195,-100,4,1,5,60,0,0
71275,-100,4,1,5,80,0,0
71356,-100,4,3,5,60,0,0
71517,-100,4,1,5,60,0,0
74259,-100,4,1,6,60,0,0
84420,-100,4,1,5,60,0,0
84582,-100,4,1,6,60,0,0
92324,-100,4,3,5,60,0,0
93453,-100,4,1,5,60,0,0
94420,-100,4,1,5,60,0,0
94743,-100,4,1,5,60,0,1
94904,-100,4,1,6,60,0,1
105066,-100,4,1,5,60,0,1
105227,-100,4,1,6,60,0,1
115388,-100,4,1,5,60,0,0
123130,349.040139616056,4,1,5,60,1,0
123130,-92.5925925925926,4,1,5,60,0,0
123479,356.083086053412,5,1,5,60,1,0
123479,-90.9090909090909,4,1,5,60,0,0
123835,370.37037037037,4,1,5,60,1,0
123835,-86.9565217391304,4,1,5,60,0,0
124205,396.956665564009,4,1,5,60,1,0
124205,-81.3008130081301,4,1,5,60,0,0
124601,424.628450106157,4,1,5,60,1,0
124601,-75.7575757575758,4,1,5,60,0,0
125025,504.201680672269,4,1,5,60,1,0
125025,-64.1025641025641,4,1,5,60,0,0
125529,484.652665589661,4,1,5,60,1,0
125529,-66.6666666666667,4,1,5,60,0,0
126013,312.5,4,1,5,60,1,0
126013,-104.166666666667,4,1,5,60,0,0

[HitObjects]
448,192,550,5,0,0:0:0:40:C#7.wav
64,192,550,1,0,0:0:0:20:F#5.wav
320,192,1033,1,0,0:0:0:40:C7.wav
192,192,1517,1,0,0:0:0:40:G#6.wav
320,192,1840,1,0,0:0:0:20:D#5.wav
448,192,1840,1,0,0:0:0:20:G#5.wav
448,192,3130,1,0,0:0:0:40:A#6.wav
64,192,3130,1,0,0:0:0:20:G#5.wav
192,192,3614,1,0,0:0:0:40:F6.wav
64,192,4098,1,0,0:0:0:40:D#6.wav
448,192,4420,1,0,0:0:0:40:C#6.wav
320,192,4420,1,0,0:0:0:20:F5.wav
192,192,5711,1,0,0:0:0:40:A#5.wav
64,192,5711,1,0,0:0:0:20:F5.wav
320,192,6356,1,0,0:0:0:40:C#6.wav
448,192,7001,1,0,0:0:0:40:G#6.wav
64,192,7001,1,0,0:0:0:20:F5.wav
320,192,7485,1,0,0:0:0:40:F6.wav
64,192,7808,1,0,0:0:0:40:G#6.wav
448,192,7969,1,0,0:0:0:40:F6.wav
192,192,8130,1,0,0:0:0:40:C7.wav
320,192,8291,5,8,0:0:0:0:
448,192,8291,1,4,0:0:0:0:
64,192,8453,1,0,0:0:0:0:
320,192,8614,1,0,0:0:0:0:
192,192,8775,1,0,0:0:0:0:
448,192,9098,1,0,0:0:0:0:
64,192,9259,1,2,0:0:0:0:
64,192,9582,1,2,0:0:0:0:
448,192,9582,1,4,0:0:0:0:
192,192,9743,1,0,0:0:0:0:
320,192,9904,1,0,0:0:0:0:
448,192,10066,1,0,0:0:0:0:
64,192,10227,1,0,0:0:0:0:
320,192,10388,1,0,0:0:0:0:
192,192,10549,1,0,0:0:0:0:
64,192,10711,1,0,0:0:0:0:
320,192,10872,1,2,0:0:0:0:
448,192,10872,1,4,0:0:0:0:
64,192,11033,1,2,0:0:0:0:
448,192,11195,1,4,0:0:0:0:
192,192,11195,1,8,0:0:0:0:
320,192,11356,1,2,0:0:0:0:
64,192,11517,128,4,11679:0:0:0:0:
448,192,11679,1,2,0:0:0:0:
64,192,11840,1,4,0:0:0:0:
320,192,11840,1,8,0:0:0:0:
192,192,12001,1,2,0:0:0:0:
448,192,12162,128,4,12324:0:0:0:0:
64,192,12324,1,2,0:0:0:0:
448,192,12485,1,4,0:0:0:0:
320,192,12485,128,8,12646:0:0:0:0:
192,192,12646,1,2,0:0:0:0:
448,192,12808,128,4,12969:0:0:0:0:
64,192,12969,1,2,0:0:0:0:
448,192,13130,1,4,0:0:0:0:
192,192,13130,1,8,0:0:0:0:
320,192,13291,1,2,0:0:0:0:
64,192,13453,1,4,0:0:0:0:
448,192,13614,1,2,0:0:0:0:
320,192,13775,1,8,0:0:0:0:
64,192,13775,1,4,0:0:0:0:
192,192,13937,1,2,0:0:0:0:
448,192,14098,128,4,14259:0:0:0:0:
64,192,14259,1,2,0:0:0:0:
320,192,14420,1,8,0:0:0:0:
448,192,14420,1,4,0:0:0:0:
64,192,14582,128,2,14904:0:0:0:0:
320,192,14743,1,4,0:0:0:0:
192,192,14904,1,2,0:0:0:0:
320,192,15066,1,8,0:0:0:0:
448,192,15066,1,4,0:0:0:0:
64,192,15227,1,2,0:0:0:0:
192,192,15388,1,4,0:0:0:0:
448,192,15549,128,2,15872:0:0:0:0:
320,192,15711,128,8,15872:0:0:0:0:
64,192,15711,128,4,16033:0:0:0:0:
192,192,15872,128,2,16033:0:0:0:0:
448,192,16033,1,4,0:0:0:0:
192,192,16195,1,2,0:0:0:0:
320,192,16356,1,8,0:0:0:0:
448,192,16356,1,4,0:0:0:0:
64,192,16517,1,2,0:0:0:0:
448,192,16679,128,4,16840:0:0:0:0:
64,192,16840,1,2,0:0:0:0:
192,192,17001,1,8,0:0:0:0:
448,192,17001,1,4,0:0:0:0:
320,192,17162,1,2,0:0:0:0:
64,192,17324,128,4,17485:0:0:0:0:
448,192,17485,1,2,0:0:0:0:
64,192,17646,1,4,0:0:0:0:
192,192,17646,128,8,17808:0:0:0:0:
320,192,17808,1,2,0:0:0:0:
64,192,17969,128,4,18130:0:0:0:0:
448,192,18130,1,2,0:0:0:0:
64,192,18291,1,4,0:0:0:0:
320,192,18291,1,8,0:0:0:0:
192,192,18453,1,6,0:0:0:0:
448,192,18614,1,4,0:0:0:0:
64,192,18775,1,2,0:0:0:0:
192,192,18937,1,8,0:0:0:0:
448,192,18937,1,4,0:0:0:0:
320,192,19098,1,2,0:0:0:0:
64,192,19259,128,4,19420:0:0:0:0:
448,192,19420,1,2,0:0:0:0:
192,192,19582,1,8,0:0:0:0:
64,192,19582,1,4,0:0:0:0:
448,192,19743,128,2,19904:0:0:0:0:
192,192,19904,1,4,0:0:0:0:
320,192,20066,1,2,0:0:0:0:
64,192,20227,1,4,0:0:0:0:
192,192,20227,1,8,0:0:0:0:
448,192,20388,1,2,0:0:0:0:
320,192,20549,1,4,0:0:0:0:
64,192,20711,1,2,0:0:0:0:
192,192,20872,1,8,0:0:0:0:
448,192,20872,1,4,0:0:0:0:
320,192,21033,1,2,0:0:0:0:
192,192,21195,1,2,0:0:0:0:
64,192,21195,1,4,0:0:0:0:
448,192,21356,1,2,0:0:0:0:
320,192,21517,1,8,0:0:0:0:
64,192,21517,1,4,0:0:0:0:
192,192,21679,1,2,0:0:0:0:
448,192,21840,128,4,22001:0:0:0:0:
64,192,22001,1,2,0:0:0:0:
448,192,22162,1,4,0:0:0:0:
192,192,22162,1,8,0:0:0:0:
320,192,22324,1,2,0:0:0:0:
64,192,22485,128,4,22646:0:0:0:0:
448,192,22646,1,2,0:0:0:0:
64,192,22808,1,4,0:0:0:0:
192,192,22808,128,8,22969:0:0:0:0:
320,192,22969,1,2,0:0:0:0:
64,192,23130,128,4,23291:0:0:0:0:
448,192,23291,1,2,0:0:0:0:
64,192,23453,1,4,0:0:0:0:
320,192,23453,1,8,0:0:0:0:
192,192,23614,1,2,0:0:0:0:
448,192,23775,1,4,0:0:0:0:
64,192,23937,1,2,0:0:0:0:
448,192,24098,1,4,0:0:0:0:
192,192,24098,1,8,0:0:0:0:
320,192,24259,1,2,0:0:0:0:
64,192,24420,128,4,24582:0:0:0:0:
448,192,24582,1,2,0:0:0:0:
192,192,24743,1,8,0:0:0:0:
64,192,24743,1,4,0:0:0:0:
448,192,24904,128,2,25227:0:0:0:0:
320,192,25066,1,4,0:0:0:0:
64,192,25227,1,2,0:0:0:0:
320,192,25388,1,8,0:0:0:0:
448,192,25388,1,4,0:0:0:0:
192,192,25549,1,2,0:0:0:0:
448,192,25711,1,4,0:0:0:0:
64,192,25872,1,2,0:0:0:0:
192,192,26033,1,8,0:0:0:0:
448,192,26033,1,4,0:0:0:0:
320,192,26195,1,2,0:0:0:0:
64,192,26356,1,4,0:0:0:0:
320,192,26517,1,2,0:0:0:0:
64,192,26679,1,4,0:0:0:0:
192,192,26679,1,8,0:0:0:0:
448,192,26840,1,2,0:0:0:0:
64,192,27001,128,4,27162:0:0:0:0:
448,192,27162,1,2,0:0:0:0:
320,192,27324,1,8,0:0:0:0:
64,192,27324,1,4,0:0:0:0:
192,192,27485,1,2,0:0:0:0:
448,192,27646,128,4,27808:0:0:0:0:
64,192,27808,1,2,0:0:0:0:
448,192,27969,1,4,0:0:0:0:
320,192,27969,128,8,28130:0:0:0:0:
192,192,28130,1,2,0:0:0:0:
448,192,28291,128,4,28453:0:0:0:0:
64,192,28453,1,2,0:0:0:0:
192,192,28614,1,8,0:0:0:0:
448,192,28614,1,4,0:0:0:0:
320,192,28775,1,6,0:0:0:0:
64,192,28937,1,4,0:0:0:0:
448,192,29098,1,2,0:0:0:0:
64,192,29259,1,4,0:0:0:0:
320,192,29259,1,8,0:0:0:0:
192,192,29420,1,2,0:0:0:0:
448,192,29582,128,4,29743:0:0:0:0:
64,192,29743,1,2,0:0:0:0:
320,192,29904,1,8,0:0:0:0:
448,192,29904,1,4,0:0:0:0:
64,192,30066,128,2,30388:0:0:0:0:
320,192,30227,1,4,0:0:0:0:
192,192,30388,128,2,30711:0:0:0:0:
448,192,30549,1,12,0:0:0:0:
320,192,30711,1,2,0:0:0:0:
64,192,30872,1,4,0:0:0:0:
448,192,31033,1,2,0:0:0:0:
320,192,31195,1,8,0:0:0:0:
64,192,31195,1,4,0:0:0:0:
192,192,31356,1,2,0:0:0:0:
320,192,31517,1,2,0:0:0:0:
448,192,31517,1,4,0:0:0:0:
64,192,31679,1,4,0:0:0:0:
192,192,31840,1,8,0:0:0:0:
448,192,31840,1,0,0:0:0:0:
320,192,32001,1,2,0:0:0:0:
192,192,32162,128,2,32485:0:0:0:0:
320,192,32485,1,8,0:0:0:0:
192,192,32646,1,2,0:0:0:0:
448,192,32808,128,2,33130:0:0:0:0:
64,192,33130,1,8,0:0:0:0:
320,192,33291,1,2,0:0:0:0:
192,192,33453,1,2,0:0:0:0:
448,192,33614,1,6,0:0:0:0:
320,192,33775,1,10,0:0:0:0:
64,192,33937,1,2,0:0:0:0:
320,192,34098,1,2,0:0:0:0:
448,192,34098,128,4,34420:0:0:0:0:
64,192,34259,1,4,0:0:0:0:
192,192,34420,1,8,0:0:0:0:
448,192,34582,1,2,0:0:0:0:
64,192,34743,128,2,35227:0:0:0:0:
192,192,35066,1,8,0:0:0:0:
448,192,35227,1,2,0:0:0:0:
192,192,35388,128,2,35872:0:0:0:0:
64,192,35711,1,8,0:0:0:0:
448,192,35872,1,0,0:0:0:0:
64,192,36195,1,4,0:0:0:0:
320,192,36356,1,8,0:0:0:0:
448,192,36356,1,0,0:0:0:0:
64,192,36517,1,2,0:0:0:0:
320,192,36679,128,6,37001:0:0:0:0:
448,192,36840,1,4,0:0:0:0:
64,192,37001,128,2,37324:0:0:0:0:
192,192,37001,1,8,0:0:0:0:
448,192,37324,128,2,37646:0:0:0:0:
192,192,37646,128,2,37969:0:0:0:0:
64,192,37646,1,8,0:0:0:0:
448,192,37969,128,2,38291:0:0:0:0:
192,192,38291,1,8,0:0:0:0:
320,192,38453,128,2,38775:0:0:0:0:
64,192,38775,1,6,0:0:0:0:
320,192,38937,1,8,0:0:0:0:
448,192,38937,1,0,0:0:0:0:
64,192,39098,1,2,0:0:0:0:
320,192,39259,1,6,0:0:0:0:
192,192,39420,128,6,39743:0:0:0:0:
448,192,39582,1,8,0:0:0:0:
320,192,39743,1,2,0:0:0:0:
192,192,39904,1,2,0:0:0:0:
320,192,40066,1,2,0:0:0:0:
64,192,40227,1,10,0:0:0:0:
192,192,40388,1,2,0:0:0:0:
448,192,40549,1,4,0:0:0:0:
320,192,40549,1,2,0:0:0:0:
64,192,40711,1,8,0:0:0:0:
192,192,40791,1,8,0:0:0:0:
320,192,40872,1,8,0:0:0:0:
64,192,41033,1,8,0:0:0:0:
448,192,41195,1,2,0:0:0:0:
192,192,41356,1,8,0:0:0:0:
320,192,41517,1,8,0:0:0:0:
64,192,41679,1,2,0:0:0:0:
320,192,41840,1,2,0:0:0:0:
448,192,41840,128,4,42162:0:0:0:0:
64,192,42001,1,4,0:0:0:0:
192,192,42162,1,8,0:0:0:0:
448,192,42324,1,2,0:0:0:0:
64,192,42485,128,2,42808:0:0:0:0:
320,192,42646,1,4,0:0:0:0:
192,192,42808,1,10,0:0:0:0:
448,192,42969,1,6,0:0:0:0:
64,192,43130,128,2,43453:0:0:0:0:
448,192,43291,1,4,0:0:0:0:
192,192,43453,1,8,0:0:0:0:
320,192,43614,1,2,0:0:0:0:
64,192,43775,1,2,0:0:0:0:
448,192,43937,1,6,0:0:0:0:
192,192,44098,1,8,0:0:0:0:
64,192,44098,1,2,0:0:0:0:
320,192,44259,1,2,0:0:0:0:
448,192,44420,128,6,44743:0:0:0:0:
64,192,44582,1,4,0:0:0:0:
192,192,44743,1,8,0:0:0:0:
320,192,44904,1,2,0:0:0:0:
64,192,45066,128,2,45388:0:0:0:0:
448,192,45227,1,4,0:0:0:0:
192,192,45388,1,8,0:0:0:0:
320,192,45549,1,6,0:0:0:0:
192,192,45711,128,2,46033:0:0:0:0:
448,192,45872,1,4,0:0:0:0:
64,192,46033,1,8,0:0:0:0:
320,192,46195,1,4,0:0:0:0:
320,192,46517,1,4,0:0:0:0:
192,192,46679,1,8,0:0:0:0:
64,192,46679,1,0,0:0:0:0:
448,192,46840,1,2,0:0:0:0:
64,192,47001,1,6,0:0:0:0:
320,192,47162,1,6,0:0:0:0:
192,192,47324,128,2,47646:0:0:0:0:
64,192,47324,1,8,0:0:0:0:
448,192,47646,128,2,47969:0:0:0:0:
320,192,47808,1,4,0:0:0:0:
64,192,47969,128,2,48291:0:0:0:0:
192,192,47969,1,8,0:0:0:0:
448,192,48130,1,4,0:0:0:0:
320,192,48291,1,2,0:0:0:0:
192,192,48453,1,6,0:0:0:0:
448,192,48614,1,10,0:0:0:0:
64,192,48775,128,2,49098:0:0:0:0:
448,192,49098,1,6,0:0:0:0:
192,192,49259,1,8,0:0:0:0:
64,192,49259,1,0,0:0:0:0:
320,192,49420,1,2,0:0:0:0:
192,192,49582,1,6,0:0:0:0:
448,192,49743,128,6,50066:0:0:0:0:
64,192,49904,1,8,0:0:0:0:
320,192,50066,1,2,0:0:0:0:
192,192,50227,1,2,0:0:0:0:
448,192,50388,1,6,0:0:0:0:
64,192,50549,1,10,0:0:0:0:
320,192,50711,128,4,51033:0:0:0:0:
448,192,50711,1,2,0:0:0:0:
64,192,51033,1,2,0:0:0:0:
320,192,51195,1,8,0:0:0:0:
448,192,51195,1,0,0:0:0:0:
64,192,51356,1,2,0:0:0:0:
192,192,51517,1,2,0:0:0:0:
448,192,51517,1,4,0:0:0:0:
320,192,51679,1,8,0:0:0:0:
64,192,51840,1,8,0:0:0:0:
192,192,51920,1,8,0:0:0:0:
320,192,52001,1,2,0:0:0:0:
192,192,52162,1,2,0:0:0:0:
64,192,52162,1,4,0:0:0:0:
448,192,52324,1,2,0:0:0:0:
64,192,52485,1,6,0:0:0:0:
320,192,52646,128,2,52969:0:0:0:0:
448,192,52808,1,4,0:0:0:0:
64,192,52969,1,8,0:0:0:0:
320,192,53130,1,4,0:0:0:0:
192,192,53291,1,2,0:0:0:0:
64,192,53453,1,4,0:0:0:0:
448,192,53775,1,4,0:0:0:0:
64,192,53937,1,2,0:0:0:0:
320,192,54098,1,6,0:0:0:0:
192,192,54259,1,2,0:0:0:0:
448,192,54420,128,6,54743:0:0:0:0:
64,192,54582,1,0,0:0:0:0:
192,192,54743,1,6,0:0:0:0:
320,192,54904,1,2,0:0:0:0:
64,192,55066,128,6,55388:0:0:0:0:
448,192,55388,1,6,0:0:0:0:
192,192,55549,1,2,0:0:0:0:
320,192,55711,1,4,0:0:0:0:
64,192,55872,128,2,56195:0:0:0:0:
192,192,56033,1,4,0:0:0:0:
448,192,56195,1,8,0:0:0:0:
320,192,56275,1,4,0:0:0:0:
192,192,56356,1,4,0:0:0:0:
64,192,56517,1,2,0:0:0:0:
448,192,56679,1,4,0:0:0:0:
192,192,56840,1,2,0:0:0:0:
448,192,57001,1,4,0:0:0:0:
320,192,57082,1,4,0:0:0:0:
64,192,57162,1,2,0:0:0:0:
320,192,57324,1,2,0:0:0:0:
448,192,57324,128,4,57646:0:0:0:0:
192,192,57646,1,6,0:0:0:0:
320,192,57808,128,2,58130:0:0:0:0:
64,192,57969,1,4,0:0:0:0:
448,192,58130,1,0,0:0:0:0:
192,192,58291,1,4,0:0:0:0:
64,192,58453,1,2,0:0:0:0:
448,192,58614,1,6,0:0:0:0:
64,192,58775,1,2,0:0:0:0:
320,192,58937,1,6,0:0:0:0:
192,192,59098,128,2,59420:0:0:0:0:
448,192,59259,1,4,0:0:0:0:
320,192,59420,1,8,0:0:0:0:
192,192,59582,1,4,0:0:0:0:
64,192,59743,1,2,0:0:0:0:
448,192,59904,1,4,0:0:0:0:
320,192,59904,1,2,0:0:0:0:
64,192,60066,1,2,0:0:0:0:
320,192,60227,1,6,0:0:0:0:
192,192,60388,1,2,0:0:0:0:
448,192,60549,1,4,0:0:0:0:
320,192,60549,128,2,60872:0:0:0:0:
64,192,60711,1,2,0:0:0:0:
192,192,60872,1,6,0:0:0:0:
320,192,61033,1,8,0:0:0:0:
448,192,61033,1,4,0:0:0:0:
64,192,61195,1,2,0:0:0:0:
448,192,61356,1,8,0:0:0:0:
320,192,61437,1,4,0:0:0:0:
192,192,61517,1,2,0:0:0:0:
64,192,61679,1,2,0:0:0:0:
320,192,61840,1,2,0:0:0:0:
320,192,62001,1,4,0:0:0:0:
192,192,62162,1,2,0:0:0:0:
64,192,62324,1,2,0:0:0:0:
448,192,62485,1,4,0:0:0:0:
320,192,62485,1,2,0:0:0:0:
64,192,62646,1,6,0:0:0:0:
320,192,62808,1,2,0:0:0:0:
448,192,62808,1,8,0:0:0:0:
192,192,62969,1,2,0:0:0:0:
320,192,63130,1,2,0:0:0:0:
64,192,63291,1,6,0:0:0:0:
320,192,63453,1,8,0:0:0:0:
448,192,63453,1,2,0:0:0:0:
192,192,63614,1,4,0:0:0:0:
192,192,63937,1,4,0:0:0:0:
448,192,64098,1,0,0:0:0:0:
320,192,64098,1,8,0:0:0:0:
64,192,64259,1,2,0:0:0:0:
320,192,64420,1,2,0:0:0:0:
192,192,64582,1,4,0:0:0:0:
448,192,64743,1,0,0:0:0:0:
320,192,64743,1,8,0:0:0:0:
64,192,64904,1,2,0:0:0:0:
448,192,65066,1,6,0:0:0:0:
192,192,65227,128,6,65549:0:0:0:0:
448,192,65388,1,8,0:0:0:0:
64,192,65549,1,2,0:0:0:0:
320,192,65711,1,2,0:0:0:0:
192,192,65872,1,6,0:0:0:0:
448,192,66033,1,2,0:0:0:0:
320,192,66033,1,8,0:0:0:0:
192,192,66195,1,4,0:0:0:0:
192,192,66517,1,4,0:0:0:0:
320,192,66679,1,8,0:0:0:0:
448,192,66679,1,0,0:0:0:0:
64,192,66840,1,4,0:0:0:0:
448,192,67001,1,4,0:0:0:0:
192,192,67001,1,8,0:0:0:0:
320,192,67162,1,2,0:0:0:0:
64,192,67324,1,8,0:0:0:0:
192,192,67404,1,4,0:0:0:0:
320,192,67485,1,2,0:0:0:0:
192,192,67646,1,2,0:0:0:0:
64,192,67646,128,4,68130:0:0:0:0:
448,192,67808,1,2,0:0:0:0:
320,192,67969,1,2,0:0:0:0:
192,192,68130,128,10,68614:0:0:0:0:
448,192,68291,1,2,0:0:0:0:
320,192,68453,1,6,0:0:0:0:
64,192,68614,128,8,68937:0:0:0:0:
192,192,68775,1,2,0:0:0:0:
448,192,68937,128,4,69420:0:0:0:0:
320,192,68937,1,2,0:0:0:0:
192,192,69098,1,2,0:0:0:0:
320,192,69420,128,8,69904:0:0:0:0:
64,192,69420,1,2,0:0:0:0:
192,192,69743,1,6,0:0:0:0:
448,192,69904,128,8,70227:0:0:0:0:
320,192,70066,1,0,0:0:0:0:
192,192,70227,1,2,0:0:0:0:
64,192,70227,1,4,0:0:0:0:
448,192,70388,1,2,0:0:0:0:
64,192,70549,1,8,0:0:0:0:
320,192,70549,1,2,0:0:0:0:
192,192,70711,1,6,0:0:0:0:
320,192,70872,1,4,0:0:0:0:
448,192,70872,1,0,0:0:0:0:
64,192,71033,1,8,0:0:0:0:
192,192,71114,1,8,0:0:0:0:
320,192,71195,1,8,0:0:0:0:
448,192,71275,1,8,0:0:0:0:
192,192,71356,1,8,0:0:0:0:
320,192,71517,128,0,72808:0:0:0:0:
448,192,72808,1,4,0:0:0:0:
64,192,72808,1,2,0:0:0:0:
320,192,72969,1,8,0:0:0:0:
192,192,73130,1,8,0:0:0:0:
64,192,73291,1,8,0:0:0:0:
320,192,73453,1,8,0:0:0:0:
192,192,73614,1,8,0:0:0:0:
448,192,73775,1,8,0:0:0:0:
320,192,73856,1,8,0:0:0:0:
192,192,73937,1,8,0:0:0:0:
64,192,74017,1,8,0:0:0:0:
320,192,74098,1,2,0:0:0:0:
448,192,74098,128,4,74420:0:0:0:0:
64,192,74259,1,0,0:0:0:0:
192,192,74420,1,14,0:0:0:0:
320,192,74582,1,0,0:0:0:0:
64,192,74743,1,4,0:0:0:0:
448,192,74743,128,2,75066:0:0:0:0:
192,192,74904,1,0,0:0:0:0:
320,192,75066,1,14,0:0:0:0:
448,192,75227,1,0,0:0:0:0:
64,192,75388,1,4,0:0:0:0:
192,192,75388,1,2,0:0:0:0:
448,192,75549,128,2,75872:0:0:0:0:
64,192,75711,1,12,0:0:0:0:
192,192,75872,128,2,76195:0:0:0:0:
448,192,76033,1,4,0:0:0:0:
320,192,76195,128,2,76517:0:0:0:0:
64,192,76356,1,12,0:0:0:0:
448,192,76517,1,2,0:0:0:0:
192,192,76679,128,2,77001:0:0:0:0:
64,192,76679,1,4,0:0:0:0:
320,192,76840,1,0,0:0:0:0:
64,192,77001,1,14,0:0:0:0:
448,192,77162,1,2,0:0:0:0:
192,192,77324,1,4,0:0:0:0:
64,192,77324,128,2,77646:0:0:0:0:
448,192,77485,1,0,0:0:0:0:
320,192,77646,1,14,0:0:0:0:
192,192,77808,1,2,0:0:0:0:
64,192,77969,1,2,0:0:0:0:
448,192,77969,1,4,0:0:0:0:
320,192,78130,1,2,0:0:0:0:
192,192,78291,1,8,0:0:0:0:
64,192,78291,1,4,0:0:0:0:
448,192,78453,1,2,0:0:0:0:
192,192,78614,1,4,0:0:0:0:
64,192,78775,1,2,0:0:0:0:
320,192,78937,1,10,0:0:0:0:
448,192,78937,1,4,0:0:0:0:
192,192,79098,1,2,0:0:0:0:
448,192,79259,1,4,0:0:0:0:
64,192,79259,1,2,0:0:0:0:
192,192,79420,1,2,0:0:0:0:
320,192,79582,1,8,0:0:0:0:
448,192,79582,1,4,0:0:0:0:
64,192,79743,1,2,0:0:0:0:
448,192,79904,1,4,0:0:0:0:
320,192,80066,128,2,80227:0:0:0:0:
192,192,80227,1,8,0:0:0:0:
64,192,80227,1,4,0:0:0:0:
320,192,80388,1,2,0:0:0:0:
64,192,80549,128,2,80872:0:0:0:0:
192,192,80549,1,4,0:0:0:0:
320,192,80872,128,10,81195:0:0:0:0:
448,192,80872,1,4,0:0:0:0:
192,192,81195,128,2,81517:0:0:0:0:
64,192,81195,1,4,0:0:0:0:
448,192,81517,128,10,81840:0:0:0:0:
320,192,81517,1,4,0:0:0:0:
192,192,81679,1,2,0:0:0:0:
64,192,81840,128,2,82162:0:0:0:0:
320,192,81840,1,4,0:0:0:0:
448,192,82162,1,12,0:0:0:0:
320,192,82324,128,2,83130:0:0:0:0:
64,192,82485,1,4,0:0:0:0:
192,192,82808,1,8,0:0:0:0:
64,192,82808,1,4,0:0:0:0:
64,192,83130,128,4,83453:0:0:0:0:
320,192,83291,1,2,0:0:0:0:
448,192,83453,128,12,83775:0:0:0:0:
64,192,83614,1,2,0:0:0:0:
320,192,83775,128,4,84098:0:0:0:0:
192,192,83937,1,2,0:0:0:0:
64,192,84098,128,12,84420:0:0:0:0:
448,192,84259,1,2,0:0:0:0:
320,192,84420,128,4,84743:0:0:0:0:
192,192,84420,1,2,0:0:0:0:
448,192,84582,1,0,0:0:0:0:
64,192,84743,1,14,0:0:0:0:
192,192,84904,1,0,0:0:0:0:
64,192,85066,128,2,85388:0:0:0:0:
448,192,85066,1,4,0:0:0:0:
320,192,85227,1,0,0:0:0:0:
192,192,85388,1,14,0:0:0:0:
64,192,85549,1,0,0:0:0:0:
320,192,85711,1,2,0:0:0:0:
448,192,85711,1,4,0:0:0:0:
64,192,85872,128,2,86195:0:0:0:0:
448,192,86033,1,12,0:0:0:0:
320,192,86195,1,2,0:0:0:0:
64,192,86356,1,4,0:0:0:0:
192,192,86356,1,2,0:0:0:0:
448,192,86517,128,2,86840:0:0:0:0:
64,192,86679,1,12,0:0:0:0:
192,192,86840,1,2,0:0:0:0:
448,192,87001,1,4,0:0:0:0:
320,192,87001,1,2,0:0:0:0:
64,192,87162,1,2,0:0:0:0:
448,192,87324,1,10,0:0:0:0:
192,192,87324,1,4,0:0:0:0:
320,192,87485,1,2,0:0:0:0:
64,192,87646,1,6,0:0:0:0:
448,192,87808,1,2,0:0:0:0:
192,192,87969,1,12,0:0:0:0:
64,192,87969,1,2,0:0:0:0:
320,192,88130,1,2,0:0:0:0:
448,192,88291,1,2,0:0:0:0:
64,192,88291,1,4,0:0:0:0:
192,192,88453,1,2,0:0:0:0:
320,192,88614,1,8,0:0:0:0:
448,192,88614,1,4,0:0:0:0:
64,192,88775,1,2,0:0:0:0:
320,192,88937,1,4,0:0:0:0:
448,192,89098,1,2,0:0:0:0:
64,192,89259,1,4,0:0:0:0:
192,192,89259,1,10,0:0:0:0:
320,192,89420,1,2,0:0:0:0:
64,192,89582,1,4,0:0:0:0:
448,192,89582,1,2,0:0:0:0:
320,192,89743,1,2,0:0:0:0:
192,192,89904,1,8,0:0:0:0:
64,192,89904,1,4,0:0:0:0:
448,192,90066,1,2,0:0:0:0:
64,192,90227,1,6,0:0:0:0:
192,192,90388,1,2,0:0:0:0:
320,192,90549,1,10,0:0:0:0:
448,192,90549,1,4,0:0:0:0:
192,192,90711,1,2,0:0:0:0:
448,192,90872,1,4,0:0:0:0:
64,192,91033,1,2,0:0:0:0:
192,192,91195,1,8,0:0:0:0:
448,192,91195,1,4,0:0:0:0:
320,192,91356,1,2,0:0:0:0:
64,192,91517,1,4,0:0:0:0:
448,192,91679,1,2,0:0:0:0:
320,192,91840,1,10,0:0:0:0:
64,192,91840,1,2,0:0:0:0:
192,192,92001,1,2,0:0:0:0:
448,192,92162,1,4,0:0:0:0:
64,192,92324,1,8,0:0:0:0:
192,192,92404,1,4,0:0:0:0:
320,192,92485,1,2,0:0:0:0:
448,192,92646,1,2,0:0:0:0:
64,192,92808,1,4,0:0:0:0:
448,192,92969,1,8,0:0:0:0:
320,192,93049,1,4,0:0:0:0:
192,192,93130,1,2,0:0:0:0:
64,192,93291,1,2,0:0:0:0:
320,192,93453,1,2,0:0:0:0:
448,192,93453,128,4,94420:0:0:0:0:
64,192,93614,1,8,0:0:0:0:
192,192,93775,1,8,0:0:0:0:
320,192,93937,1,8,0:0:0:0:
64,192,94098,1,8,0:0:0:0:
320,192,94259,1,8,0:0:0:0:
64,192,94420,1,8,0:0:0:0:
192,192,94501,1,8,0:0:0:0:
320,192,94582,1,8,0:0:0:0:
448,192,94662,1,8,0:0:0:0:
192,192,94743,1,2,0:0:0:0:
64,192,94743,128,4,95066:0:0:0:0:
448,192,94904,1,2,0:0:0:0:
320,192,95066,1,12,0:0:0:0:
192,192,95227,1,2,0:0:0:0:
64,192,95388,128,4,95711:0:0:0:0:
192,192,95549,1,2,0:0:0:0:
320,192,95711,1,8,0:0:0:0:
448,192,95711,1,4,0:0:0:0:
192,192,95872,128,2,96195:0:0:0:0:
320,192,96033,1,4,0:0:0:0:
64,192,96195,128,2,96517:0:0:0:0:
448,192,96356,1,12,0:0:0:0:
320,192,96517,128,2,96840:0:0:0:0:
192,192,96679,1,4,0:0:0:0:
448,192,96840,1,2,0:0:0:0:
64,192,97001,128,4,97324:0:0:0:0:
192,192,97001,1,10,0:0:0:0:
320,192,97162,1,2,0:0:0:0:
448,192,97324,128,4,97646:0:0:0:0:
192,192,97485,1,2,0:0:0:0:
320,192,97646,1,12,0:0:0:0:
64,192,97808,1,2,0:0:0:0:
320,192,97969,128,4,98291:0:0:0:0:
192,192,98130,1,2,0:0:0:0:
448,192,98291,1,12,0:0:0:0:
64,192,98453,128,2,98775:0:0:0:0:
320,192,98614,1,4,0:0:0:0:
192,192,98775,128,2,99098:0:0:0:0:
448,192,98937,1,12,0:0:0:0:
64,192,99098,1,2,0:0:0:0:
448,192,99259,128,4,99582:0:0:0:0:
320,192,99420,1,2,0:0:0:0:
192,192,99582,1,8,0:0:0:0:
64,192,99582,1,4,0:0:0:0:
448,192,99743,1,2,0:0:0:0:
64,192,99904,128,4,100227:0:0:0:0:
320,192,100066,1,2,0:0:0:0:
192,192,100227,1,8,0:0:0:0:
448,192,100227,1,4,0:0:0:0:
320,192,100388,1,2,0:0:0:0:
64,192,100549,128,4,100872:0:0:0:0:
448,192,100711,1,2,0:0:0:0:
320,192,100872,1,8,0:0:0:0:
192,192,100872,1,4,0:0:0:0:
448,192,101033,128,2,101356:0:0:0:0:
192,192,101195,1,4,0:0:0:0:
64,192,101356,128,2,101679:0:0:0:0:
320,192,101517,1,12,0:0:0:0:
192,192,101679,128,2,102001:0:0:0:0:
448,192,101840,1,4,0:0:0:0:
64,192,102001,1,2,0:0:0:0:
448,192,102162,128,12,102485:0:0:0:0:
192,192,102324,1,2,0:0:0:0:
64,192,102485,128,4,102808:0:0:0:0:
448,192,102646,1,2,0:0:0:0:
320,192,102808,1,12,0:0:0:0:
192,192,102969,1,2,0:0:0:0:
448,192,103130,128,4,103453:0:0:0:0:
64,192,103291,1,2,0:0:0:0:
192,192,103453,1,12,0:0:0:0:
320,192,103614,128,2,103937:0:0:0:0:
448,192,103775,1,4,0:0:0:0:
64,192,103937,128,2,104259:0:0:0:0:
320,192,104098,1,12,0:0:0:0:
448,192,104259,1,2,0:0:0:0:
192,192,104420,128,4,104743:0:0:0:0:
320,192,104582,1,2,0:0:0:0:
64,192,104743,1,12,0:0:0:0:
192,192,104904,1,2,0:0:0:0:
320,192,105066,1,2,0:0:0:0:
448,192,105066,128,4,105388:0:0:0:0:
64,192,105227,1,2,0:0:0:0:
192,192,105388,1,12,0:0:0:0:
320,192,105549,1,2,0:0:0:0:
448,192,105711,128,4,106033:0:0:0:0:
320,192,105872,1,2,0:0:0:0:
64,192,106033,1,4,0:0:0:0:
192,192,106033,1,8,0:0:0:0:
320,192,106195,128,2,106517:0:0:0:0:
192,192,106356,1,4,0:0:0:0:
448,192,106517,128,2,106840:0:0:0:0:
64,192,106679,1,12,0:0:0:0:
192,192,106840,128,2,107162:0:0:0:0:
320,192,107001,1,4,0:0:0:0:
64,192,107162,1,2,0:0:0:0:
448,192,107324,128,4,107646:0:0:0:0:
320,192,107324,1,10,0:0:0:0:
192,192,107485,1,2,0:0:0:0:
64,192,107646,128,4,107969:0:0:0:0:
320,192,107808,1,2,0:0:0:0:
192,192,107969,1,12,0:0:0:0:
448,192,108130,1,2,0:0:0:0:
192,192,108291,128,4,108614:0:0:0:0:
320,192,108453,1,2,0:0:0:0:
64,192,108614,1,12,0:0:0:0:
448,192,108775,128,2,109098:0:0:0:0:
192,192,108937,1,4,0:0:0:0:
320,192,109098,128,2,109420:0:0:0:0:
64,192,109259,1,12,0:0:0:0:
448,192,109420,1,2,0:0:0:0:
64,192,109582,128,4,109904:0:0:0:0:
192,192,109743,1,2,0:0:0:0:
320,192,109904,1,8,0:0:0:0:
448,192,109904,1,4,0:0:0:0:
64,192,110066,1,2,0:0:0:0:
448,192,110227,128,4,110549:0:0:0:0:
192,192,110388,1,2,0:0:0:0:
320,192,110549,1,8,0:0:0:0:
64,192,110549,1,4,0:0:0:0:
192,192,110711,1,2,0:0:0:0:
448,192,110872,128,4,111195:0:0:0:0:
64,192,111033,1,2,0:0:0:0:
192,192,111195,1,8,0:0:0:0:
320,192,111195,1,4,0:0:0:0:
64,192,111356,128,2,111679:0:0:0:0:
320,192,111517,1,4,0:0:0:0:
448,192,111679,128,2,112001:0:0:0:0:
64,192,111840,1,12,0:0:0:0:
192,192,112001,128,2,112324:0:0:0:0:
320,192,112162,1,4,0:0:0:0:
448,192,112324,1,2,0:0:0:0:
64,192,112485,128,12,112808:0:0:0:0:
192,192,112646,1,2,0:0:0:0:
448,192,112808,128,4,113130:0:0:0:0:
64,192,112969,1,2,0:0:0:0:
192,192,113130,1,12,0:0:0:0:
320,192,113291,1,2,0:0:0:0:
64,192,113453,128,4,113775:0:0:0:0:
192,192,113614,1,2,0:0:0:0:
320,192,113775,1,12,0:0:0:0:
192,192,113937,128,2,114259:0:0:0:0:
64,192,114098,1,4,0:0:0:0:
320,192,114259,128,2,114582:0:0:0:0:
192,192,114420,1,12,0:0:0:0:
64,192,114582,1,2,0:0:0:0:
448,192,114743,128,4,115388:0:0:0:0:
64,192,114904,1,8,0:0:0:0:
192,192,114985,1,8,0:0:0:0:
320,192,115066,1,8,0:0:0:0:
192,192,115227,1,2,0:0:0:0:
320,192,115388,1,0,0:0:0:40:D#7.wav
64,192,115388,1,0,0:0:0:20:G5.wav
320,192,115872,1,0,0:0:0:40:D7.wav
192,192,116356,1,0,0:0:0:40:A#6.wav
320,192,116679,1,0,0:0:0:20:F5.wav
448,192,116679,1,0,0:0:0:20:A#5.wav
448,192,117969,1,0,0:0:0:40:C7.wav
192,192,117969,1,0,0:0:0:20:A#5.wav
320,192,118453,1,0,0:0:0:40:G6.wav
64,192,118937,1,0,0:0:0:40:F6.wav
320,192,119259,1,0,0:0:0:20:G5.wav
448,192,119259,1,0,0:0:0:40:D#6.wav
448,192,120549,1,0,0:0:0:20:G#5.wav
64,192,120549,1,0,0:0:0:40:C6.wav
320,192,121195,1,0,0:0:0:40:D#6.wav
192,192,121840,1,0,0:0:0:20:F5.wav
448,192,121840,1,0,0:0:0:40:A#6.wav
320,192,122324,5,0,0:0:0:40:G6.wav
192,192,122808,1,0,0:0:0:40:F6.wav
64,192,123130,5,0,0:0:0:40:D#5.wav
192,192,123479,1,0,0:0:0:40:A#5.wav
448,192,123835,1,0,0:0:0:40:D#6.wav
192,192,124205,1,0,0:0:0:40:F6.wav
320,192,124601,1,0,0:0:0:40:G6.wav
448,192,125025,1,0,0:0:0:40:A#6.wav
64,192,125529,1,0,0:0:0:40:D#7.wav
192,192,126013,1,0,0:0:0:40:F7.wav
448,192,126638,5,0,0:0:0:40:D#6.wav
320,192,126690,1,0,0:0:0:40:D#7.wav
192,192,126813,1,0,0:0:0:40:F7.wav
64,192,126833,1,0,0:0:0:40:A#7.wav
