osu file format v14

[General]
AudioFilename: audio.mp3
AudioLeadIn: 0
PreviewTime: 130021
Countdown: 0
SampleSet: Soft
StackLeniency: 0.7
Mode: 0
LetterboxInBreaks: 0
EpilepsyWarning: 1
WidescreenStoryboard: 1

[Editor]
Bookmarks: 2016,130021,215354,258021,279354,290020,354019
DistanceSpacing: 1.2
BeatDivisor: 4
GridSize: 4
TimelineZoom: 3.900004

[Metadata]
Title:Huan Xiang Xiang Di Yi Tao Guang Bo Ti Cao
TitleUnicode:幻想乡第一套广播体操
Artist:iKz
ArtistUnicode:iKz
Creator:moonlightleaf
Version:Sway!!
Source:東方Project
Tags:touhou flandre scarlet vocaloid Misure U.N.オーエンは彼女なのか?東方紅魔郷 上海TH05東方夢靈夢纪念CD SHT00001 Thonly Piano ZUN U.N.Owen was her?
BeatmapID:1228616
BeatmapSetID:513294

[Difficulty]
HPDrainRate:6
CircleSize:4
OverallDifficulty:8.2
ApproachRate:9.2
SliderMultiplier:1.6
SliderTickRate:1

[Events]
//Background and Video events
0,0,"bg.jpg",0,0
//Break Periods
//Storyboard Layer 0 (Background)
//Storyboard Layer 1 (Fail)
//Storyboard Layer 2 (Pass)
//Storyboard Layer 3 (Foreground)
Sprite,Foreground,Centre,"SB\white.jpg",320,240 M,0,0,,320,240 C,0,0,,0,0,0 F,0,0,419353,0.3 F,0,419353,422353,0.3,0
Sprite,Foreground,Centre,"SB\Misure1.png",72,446 L,0,1060 M,0,2016,2183,72,446,72,440 V,0,2016,2183,1,1,1,1.25 M,0,2183,2350,72,440,72,446 V,0,2183,2350,1,1.25,1,1 F,0,1850,2016,0,1 F,0,86683,87350,1,0 F,0,215020,215186,0,1 F,0,257687,258021,1,0 F,0,289687,289853,0,1 F,0,353686,354019,1,0
Sprite,Foreground,Centre,"SB\Misure2.png",92,446 L,167,3830 M,0,2016,2183,92,446,92,440 V,0,2016,2183,1,1,1,1.25 M,0,2183,2350,92,440,92,446 V,0,2183,2350,1,1.25,1,1 F,0,1850,2016,0,1 F,0,86683,87350,1,0 F,0,215020,215186,0,1 F,0,257687,258021,1,0 F,0,289687,289853,0,1 F,0,353686,354019,1,0
Sprite,Foreground,Centre,"SB\Misure3.png",112,446 L,0,1060 M,0,2016,2183,112,446,112,440 V,0,2016,2183,1,1,1,1.25 M,0,2183,2350,112,440,112,446 V,0,2183,2350,1,1.25,1,1 F,0,1850,2016,0,1 F,0,86683,87350,1,0 F,0,215020,215186,0,1 F,0,257687,258021,1,0 F,0,289687,289853,0,1 F,0,353686,354019,1,0
Sprite,Foreground,Centre,"SB\Misure4.png",132,446 L,167,3830 M,0,2016,2183,132,446,132,440 V,0,2016,2183,1,1,1,1.25 M,0,2183,2350,132,440,132,446 V,0,2183,2350,1,1.25,1,1 F,0,1850,2016,0,1 F,0,86683,87350,1,0 F,0,215020,215186,0,1 F,0,257687,258021,1,0 F,0,289687,289853,0,1 F,0,353686,354019,1,0
Sprite,Foreground,Centre,"SB\Misure5.png",152,446 L,0,1060 M,0,2016,2183,152,446,152,440 V,0,2016,2183,1,1,1,1.25 M,0,2183,2350,152,440,152,446 V,0,2183,2350,1,1.25,1,1 F,0,1850,2016,0,1 F,0,86683,87350,1,0 F,0,215020,215186,0,1 F,0,257687,258021,1,0 F,0,289687,289853,0,1 F,0,353686,354019,1,0
Sprite,Foreground,Centre,"SB\Misure6.png",172,446 L,167,3830 M,0,2016,2183,172,446,172,440 V,0,2016,2183,1,1,1,1.25 M,0,2183,2350,172,440,172,446 V,0,2183,2350,1,1.25,1,1 F,0,1850,2016,0,1 F,0,86683,87350,1,0 F,0,215020,215186,0,1 F,0,257687,258021,1,0 F,0,289687,289853,0,1 F,0,353686,354019,1,0
Sprite,Foreground,Centre,"SB\ermei1.png",472,446 L,106334,25 M,0,2016,2350,472,446,472,440 V,0,2016,2350,1,1,1,1.25 M,0,2350,2684,472,440,472,446 V,0,2350,2684,1,1.25,1,1 F,0,86683,87350,0,1 F,0,87350,124688,1 F,0,124688,125021,0
Sprite,Foreground,Centre,"SB\ermei2.png",502,446 L,106000,25 M,0,2016,2350,502,446,502,440 V,0,2016,2350,1,1,1,1.25 M,0,2350,2684,502,440,502,446 V,0,2350,2684,1,1.25,1,1 F,0,86683,87350,0,1 F,0,87350,124688,1 F,0,124688,125021,0
Sprite,Foreground,Centre,"SB\ermei1.png",72,446 L,0,1260 M,0,2016,2183,472,446,472,440 V,0,2016,2183,1,1,1,1.25 M,0,2183,2350,472,440,472,446 V,0,2183,2350,1,1.25,1,1 F,0,0,124688,0 F,0,124688,214687,1 F,0,214687,215021,1,0 F,0,215021,257687,0 F,0,257687,258021,0,1 F,0,258021,289687,1 F,0,289687,290020,1 F,0,290020,290021,1,0 F,0,290021,353686,0 F,0,353686,354019,0,1 F,0,354019,419019,1 F,0,419019,419353,1,0
Sprite,Foreground,Centre,"SB\ermei2.png",72,446 L,167,1260 M,0,2016,2183,502,446,502,440 V,0,2016,2183,1,1,1,1.25 M,0,2183,2350,502,440,502,446 V,0,2183,2350,1,1.25,1,1 F,0,0,124688,0 F,0,124688,214687,1 F,0,214687,215021,1,0 F,0,215021,257687,0 F,0,257687,258021,0,1 F,0,258021,289687,1 F,0,289687,290020,1 F,0,290020,290021,1,0 F,0,290021,353686,0 F,0,353686,354019,0,1 F,0,354019,419019,1 F,0,419019,419353,1,0
//Storyboard Sound Samples

[TimingPoints]
2017,333.333333333333,4,2,1,50,1,0
12683,-83.3333333333333,4,1,1,70,0,0
23350,-83.3333333333333,4,1,1,55,0,0
44683,-83.3333333333333,4,1,1,65,0,0
87350,666.666666666667,4,2,1,45,1,0
87516,-100,4,2,1,5,0,0
89683,-100,4,2,1,45,0,0
90350,-100,4,2,1,5,0,0
92016,-100,4,2,1,45,0,0
93016,-100,4,2,1,5,0,0
94016,-100,4,2,1,45,0,0
95683,-100,4,2,1,5,0,0
97350,-100,4,2,1,45,0,0
98350,-100,4,2,1,5,0,0
100016,-100,4,2,1,45,0,0
101016,-100,4,2,1,5,0,0
102016,-100,4,2,1,45,0,0
103683,-100,4,2,1,5,0,0
104683,-100,4,2,1,45,0,0
106350,-100,4,2,1,5,0,0
108016,-100,4,2,1,50,0,0
124688,333.333333333333,4,2,1,65,1,0
130021,-100,4,1,1,40,0,0
151354,-100,4,1,1,40,0,0
172687,-100,4,1,1,60,0,1
215354,-83.3333333333333,4,1,1,60,0,0
217687,-66.6666666666667,4,1,1,60,0,0
218021,-83.3333333333333,4,1,1,60,0,0
223021,-66.6666666666667,4,1,1,60,0,0
223354,-83.3333333333333,4,1,1,60,0,0
228354,-66.6666666666667,4,1,1,60,0,0
228687,-83.3333333333333,4,1,1,60,0,0
241354,-100,4,1,1,60,0,0
241854,-83.3333333333333,4,1,1,60,0,0
246187,-100,4,1,1,60,0,0
246854,-83.3333333333333,4,1,1,60,0,0
258021,666.666666666667,4,2,1,45,1,0
279354,333.333333333333,4,2,1,45,1,0
290020,-125,4,2,1,60,0,0
300686,-100,4,1,1,40,0,0
311353,-100,4,1,1,60,0,1
354020,-100,4,1,1,85,0,0
364687,-83.3333333333333,4,1,1,65,0,0
386020,-83.3333333333333,4,1,1,55,0,0
396687,-83.3333333333333,4,1,1,45,0,0
418019,-83.3333333333333,4,2,1,30,0,0

[Colours]
Combo1 : 0,167,247
Combo2 : 255,113,255
Combo3 : 250,202,37
Combo4 : 252,63,29

[HitObjects]
92,136,2016,6,0,L|170:152,1,80,4|2,0:2|0:2,0:0:0:0:
176,240,2350,2,0,L|97:256,1,80,8|2,0:2|0:2,0:0:0:0:
92,136,2683,1,8,0:2:0:0:
228,104,2850,1,2,0:2:0:0:
228,104,2933,1,0,0:0:0:0:
228,104,3016,2,0,P|244:140|239:179,1,80,8|2,0:2|0:2,0:0:0:0:
236,312,3350,5,8,0:2:0:0:
308,248,3516,1,2,0:2:0:0:
384,308,3683,2,0,L|393:346,2,40,8|0|2,0:2|0:0|0:2,0:0:0:0:
360,172,4016,1,8,0:2:0:0:
388,168,4100,1,0,0:0:0:0:
416,164,4183,1,2,0:2:0:0:
444,160,4266,1,0,0:0:0:0:
472,156,4350,2,0,L|468:76,1,80,8|2,0:2|0:2,0:0:0:0:
332,56,4683,6,0,L|292:49,2,40,8|0|2,0:2|0:0|0:2,0:0:0:0:
272,148,5016,1,8,0:2:0:0:
180,116,5183,1,2,0:2:0:0:
188,20,5350,1,8,0:2:0:0:
72,96,5516,2,0,L|82:134,1,40,2|0,0:2|0:0,0:0:0:0:
96,176,5683,1,8,0:2:0:0:
148,312,5850,2,0,L|158:273,1,40,2|0,0:2|0:0,0:0:0:0:
172,232,6016,5,8,0:2:0:0:
272,148,6183,2,0,L|282:186,1,40,2|0,0:2|0:0,0:0:0:0:
296,228,6350,1,12,0:2:0:0:
348,364,6516,2,0,L|358:325,1,40,2|0,0:2|0:0,0:0:0:0:
372,284,6683,1,8,0:2:0:0:
352,152,6850,1,2,0:2:0:0:
296,228,7016,1,12,0:2:0:0:
428,208,7183,1,2,0:2:0:0:
379,76,7350,6,0,P|339:71|303:87,1,80,12|2,0:2|0:2,0:0:0:0:
220,152,7683,1,8,0:2:0:0:
192,148,7766,1,0,0:0:0:0:
164,144,7850,1,2,0:2:0:0:
136,140,7933,1,0,0:0:0:0:
108,136,8016,2,0,L|68:129,1,40,8|0,0:2|0:0,0:0:0:0:
84,44,8183,2,0,L|123:37,1,40,2|0,0:2|0:0,0:0:0:0:
220,56,8350,1,8,0:2:0:0:
220,152,8516,1,2,0:2:0:0:
167,236,8683,6,0,P|129:243|92:231,1,80,8|2,0:2|0:2,0:0:0:0:
233,308,9016,2,0,P|240:346|228:383,1,80,8|2,0:2|0:2,0:0:0:0:
280,228,9350,2,0,L|314:208,3,40,8|0|2|0,0:2|0:0|0:2|0:0,0:0:0:0:
352,232,9683,2,0,L|362:311,1,80,8|2,0:2|0:2,0:0:0:0:
436,368,10016,5,8,0:2:0:0:
508,320,10183,1,2,0:2:0:0:
487,234,10350,1,8,0:2:0:0:
398,229,10516,1,2,0:2:0:0:
390,140,10683,2,0,L|404:102,3,40,8|0|2|0,0:2|0:0|0:2|0:0,0:0:0:0:
374,68,11016,2,0,P|337:82|298:77,1,80,8|2,0:2|0:2,0:0:0:0:
200,48,11350,5,8,0:2:0:0:
229,130,11516,1,2,0:2:0:0:
162,187,11683,1,8,0:2:0:0:
89,138,11850,1,2,0:2:0:0:
111,53,12016,2,0,L|85:22,3,40,8|0|2|0,0:2|0:0|0:2|0:0,0:0:0:0:
40,24,12350,2,0,P|16:55|11:94,1,80,12|4,0:2|1:1,0:0:0:0:
72,218,12683,5,12,0:2:0:0:
162,187,12850,1,2,0:2:0:0:
193,277,13016,1,8,0:2:0:0:
103,308,13183,1,2,0:2:0:0:
72,218,13350,1,8,0:2:0:0:
162,187,13516,2,0,L|176:141,2,47.9999985351563,2|0|8,0:2|0:0|0:2,0:0:0:0:
193,277,13850,1,2,0:2:0:0:
292,272,14016,6,0,L|295:368,1,95.9999970703126,8|2,0:2|0:2,0:0:0:0:
404,252,14350,2,0,L|450:244,2,47.9999985351563,8|0|2,0:2|0:0|0:2,0:0:0:0:
340,172,14683,1,8,0:2:0:0:
317,147,14766,1,0,0:0:0:0:
304,116,14850,1,2,0:2:0:0:
304,82,14933,1,0,0:0:0:0:
317,51,15016,1,8,0:2:0:0:
408,8,15183,1,2,0:2:0:0:
437,95,15350,6,0,L|389:100,2,47.9999985351563,8|0|2,0:2|0:0|0:2,0:0:0:0:
512,164,15683,1,8,0:2:0:0:
451,243,15850,1,2,0:2:0:0:
492,332,16016,2,0,L|396:324,1,95.9999970703126,8|2,0:2|0:2,0:0:0:0:
396,324,16266,1,0,0:0:0:0:
396,324,16350,1,8,0:2:0:0:
312,244,16516,1,2,0:2:0:0:
312,244,16600,1,0,0:0:0:0:
312,244,16683,5,8,0:2:0:0:
376,160,16850,1,2,0:2:0:0:
376,160,16933,1,0,0:0:0:0:
376,160,17016,1,8,0:2:0:0:
236,196,17183,1,2,0:2:0:0:
236,196,17266,1,0,0:0:0:0:
235,196,17350,2,0,P|223:241|235:287,1,95.9999970703126,8|2,0:2|0:2,0:0:0:0:
176,360,17683,2,0,L|80:372,1,95.9999970703126,12|2,0:2|0:2,0:0:0:0:
60,236,18016,5,12,0:2:0:0:
152,264,18183,1,2,0:2:0:0:
184,174,18350,1,8,0:2:0:0:
92,146,18516,1,2,0:2:0:0:
60,236,18683,1,8,0:2:0:0:
2,114,18850,1,2,0:2:0:0:
124,56,19016,1,8,0:2:0:0:
184,174,19183,1,2,0:2:0:0:
352,128,19350,6,0,L|372:35,1,95.9999970703126,8|2,0:2|0:2,0:0:0:0:
256,116,19683,2,0,L|268:212,1,95.9999970703126,8|2,0:2|0:2,0:0:0:0:
492,192,20016,2,0,L|512:99,1,95.9999970703126,8|2,0:2|0:2,0:0:0:0:
404,208,20350,2,0,L|416:304,1,95.9999970703126,8|2,0:2|0:2,0:0:0:0:
504,356,20683,5,12,0:2:0:0:
404,208,20850,1,2,0:2:0:0:
312,356,21016,1,8,0:2:0:0:
216,216,21183,1,2,0:2:0:0:
100,344,21350,6,0,L|84:362,6,23.9999992675781,8|0|0|0|2|0|0,0:2|0:0|0:0|0:0|0:2|0:0|0:0,0:0:0:0:
52,337,21683,2,0,L|44:289,1,47.9999985351563,8|0,0:2|0:0,0:0:0:0:
72,260,21850,2,0,L|80:212,1,47.9999985351563,2|0,0:2|0:0,0:0:0:0:
48,108,22016,5,4,0:1:0:0:
48,108,22683,5,0,0:2:0:0:
124,20,22850,1,2,0:2:0:0:
185,117,23016,1,8,0:2:0:0:
223,113,23100,1,0,0:0:0:0:
259,100,23183,1,2,0:2:0:0:
284,71,23266,1,0,0:0:0:0:
255,45,23350,6,0,P|248:92|246:140,1,95.9999970703126,4|2,0:1|0:2,0:0:0:0:
352,243,23683,2,0,P|349:196|343:148,1,95.9999970703126,8|2,0:2|0:2,0:0:0:0:
176,101,24016,2,0,P|166:147|185:190,1,95.9999970703126,0|2,0:2|0:2,0:0:0:0:
413,183,24350,2,0,P|422:136|403:93,1,95.9999970703126,8|2,0:2|0:2,0:0:0:0:
256,216,24683,5,0,0:2:0:0:
224,316,24850,1,2,0:2:0:0:
348,292,25016,2,0,L|351:244,2,47.9999985351563,8|0|2,0:2|0:0|0:2,0:0:0:0:
460,364,25350,1,0,0:2:0:0:
470,328,25433,1,0,0:0:0:0:
481,291,25516,1,2,0:2:0:0:
491,255,25600,1,0,0:0:0:0:
501,218,25683,1,8,0:2:0:0:
492,112,25850,1,2,0:2:0:0:
392,152,26016,5,0,0:2:0:0:
291,127,26183,1,2,0:2:0:0:
315,26,26350,1,8,0:2:0:0:
416,51,26516,1,2,0:2:0:0:
291,127,26683,2,0,L|196:108,1,95.9999970703126,0|2,0:2|0:2,0:0:0:0:
104,160,27016,2,0,P|88:205|94:252,1,95.9999970703126,8|2,0:2|0:2,0:0:0:0:
290,237,27350,6,0,L|195:218,1,95.9999970703126,0|2,0:2|0:2,0:0:0:0:
196,219,27600,1,0,0:0:0:0:
196,219,27683,1,8,0:2:0:0:
180,324,27850,1,2,0:2:0:0:
290,237,28016,1,0,0:2:0:0:
384,283,28183,1,2,0:2:0:0:
460,210,28350,1,12,0:2:0:0:
424,111,28516,1,2,0:2:0:0:
282,141,28683,6,0,L|290:237,1,95.9999970703126,4|2,0:2|0:2,0:0:0:0:
220,56,29016,2,0,L|224:8,2,47.9999985351563,8|0|2,0:2|0:0|0:2,0:0:0:0:
148,136,29350,1,0,0:2:0:0:
115,156,29433,1,0,0:0:0:0:
77,163,29516,1,2,0:2:0:0:
40,150,29600,1,0,0:0:0:0:
8,126,29683,2,0,L|0:222,1,95.9999970703126,8|2,0:2|0:2,0:0:0:0:
32,360,30016,5,0,0:2:0:0:
109,234,30183,1,2,0:2:0:0:
133,335,30350,1,8,0:2:0:0:
8,259,30516,1,2,0:2:0:0:
109,234,30683,1,0,0:2:0:0:
146,242,30766,1,0,0:0:0:0:
183,250,30850,1,2,0:2:0:0:
220,258,30933,1,0,0:0:0:0:
257,266,31016,1,8,0:2:0:0:
344,312,31183,2,0,L|351:359,1,47.9999985351563,2|0,0:2|0:0,0:0:0:0:
436,356,31350,6,0,L|451:261,1,95.9999970703126,0|2,0:2|0:2,0:0:0:0:
418,127,31683,1,8,0:2:0:0:
338,219,31850,1,2,0:2:0:0:
298,103,32016,1,0,0:2:0:0:
418,127,32183,1,2,0:2:0:0:
337,219,32350,2,0,P|290:225|245:212,1,95.9999970703126,8|2,0:2|0:2,0:0:0:0:
210,15,32683,5,0,0:2:0:0:
298,103,32850,1,2,0:2:0:0:
177,135,33016,1,8,0:2:0:0:
210,15,33183,1,2,0:2:0:0:
298,103,33350,2,0,L|288:149,1,47.9999985351563,0|0,0:2|0:0,0:0:0:0:
264,244,33516,2,0,L|218:258,1,47.9999985351563,2|0,0:2|0:0,0:0:0:0:
128,292,33683,1,12,0:2:0:0:
16,224,33850,2,0,L|3:178,1,47.9999985351563,2|0,0:2|0:0,0:0:0:0:
96,40,34016,6,0,P|111:84|92:127,1,95.9999970703126,4|2,0:2|0:2,0:0:0:0:
152,212,34350,2,0,P|199:214|246:223,1,95.9999970703126,8|2,0:2|0:2,0:0:0:0:
52,356,34683,2,0,P|36:311|55:268,1,95.9999970703126,0|2,0:2|0:2,0:0:0:0:
236,340,35016,2,0,P|188:337|141:328,1,95.9999970703126,8|2,0:2|0:2,0:0:0:0:
247,223,35350,5,0,0:2:0:0:
345,255,35516,1,2,0:2:0:0:
416,180,35683,2,0,L|426:133,2,47.9999985351563,8|0|2,0:2|0:0|0:2,0:0:0:0:
345,255,36016,1,0,0:2:0:0:
338,216,36100,1,0,0:0:0:0:
331,177,36183,1,2,0:2:0:0:
324,138,36266,1,0,0:0:0:0:
317,99,36350,1,8,0:2:0:0:
412,16,36516,1,2,0:2:0:0:
504,120,36683,5,0,0:2:0:0:
416,180,36850,1,2,0:2:0:0:
512,240,37016,1,8,0:2:0:0:
424,300,37183,1,2,0:2:0:0:
312,260,37350,2,0,L|319:355,1,95.9999970703126,0|2,0:2|0:2,0:0:0:0:
220,292,37683,2,0,P|214:244|229:199,1,95.9999970703126,8|2,0:2|0:2,0:0:0:0:
264,100,38016,6,0,L|169:113,1,95.9999970703126,0|2,0:2|0:2,0:0:0:0:
169,113,38266,1,0,0:0:0:0:
169,113,38350,1,8,0:2:0:0:
72,72,38516,1,2,0:2:0:0:
156,8,38683,1,0,0:2:0:0:
169,113,38850,1,2,0:2:0:0:
72,72,39016,1,12,0:2:0:0:
48,176,39183,1,2,0:2:0:0:
124,272,39350,6,0,L|219:257,1,95.9999970703126,4|2,0:2|0:2,0:0:0:0:
396,228,39683,2,0,L|301:212,1,95.9999970703126,8|2,0:2|0:2,0:0:0:0:
219,257,39933,1,0,0:0:0:0:
219,257,40016,2,0,P|201:301|204:348,1,95.9999970703126,0|2,0:2|0:2,0:0:0:0:
399,332,40350,2,0,L|305:317,1,95.9999970703126,8|2,0:2|0:2,0:0:0:0:
396,228,40683,5,0,0:2:0:0:
508,264,40850,1,2,0:2:0:0:
484,128,41016,1,8,0:2:0:0:
396,228,41183,1,2,0:2:0:0:
328,64,41350,1,0,0:2:0:0:
297,88,41433,1,0,0:0:0:0:
259,97,41516,1,2,0:2:0:0:
221,89,41600,1,0,0:0:0:0:
191,64,41683,1,8,0:2:0:0:
98,31,41850,2,0,P|92:54|94:77,1,47.9999985351563,2|0,0:2|0:0,0:0:0:0:
142,151,42016,6,0,L|47:167,1,95.9999970703126,0|2,0:2|0:2,0:0:0:0:
32,292,42350,1,8,0:2:0:0:
161,337,42516,1,2,0:2:0:0:
161,337,42600,1,0,0:0:0:0:
161,337,42683,1,0,0:2:0:0:
149,225,42850,1,2,0:2:0:0:
272,189,43016,2,0,L|260:284,1,95.9999970703126,8|2,0:2|0:2,0:0:0:0:
393,177,43350,6,0,P|415:183|439:181,1,47.9999985351563,4|0,0:2|0:0,0:0:0:0:
480,261,43516,2,0,P|473:283|475:307,1,47.9999985351563,2|0,0:2|0:0,0:0:0:0:
394,349,43683,2,0,P|371:342|347:344,1,47.9999985351563,12|0,0:2|0:0,0:0:0:0:
307,265,43850,2,0,P|313:241|312:218,1,47.9999985351563,2|0,0:2|0:0,0:0:0:0:
216,240,44016,6,0,L|206:287,1,47.9999985351563,0|0,0:2|0:0,0:0:0:0:
137,349,44183,2,0,L|139:372,2,23.9999992675781,2|0|0,0:2|0:0|0:0,0:0:0:0:
96,316,44350,5,8,0:2:0:0:
104,264,44433,1,0,0:0:0:0:
112,212,44516,1,2,0:2:0:0:
120,160,44600,1,0,0:0:0:0:
128,108,44683,5,4,0:2:0:0:
262,118,44850,1,2,0:2:0:0:
190,178,45016,1,8,0:2:0:0:
200,44,45183,1,2,0:2:0:0:
360,108,45350,5,0,0:2:0:0:
353,135,45433,1,0,0:0:0:0:
346,162,45516,1,2,0:2:0:0:
339,189,45600,1,0,0:0:0:0:
332,216,45683,1,8,0:2:0:0:
384,300,45850,1,2,0:2:0:0:
456,212,46016,5,0,0:2:0:0:
496,318,46183,1,2,0:2:0:0:
332,216,46350,1,8,0:2:0:0:
332,216,46433,1,0,0:0:0:0:
332,216,46516,1,2,0:2:0:0:
440,104,46683,5,0,0:2:0:0:
400,106,46766,1,0,0:0:0:0:
360,108,46850,1,2,0:2:0:0:
320,110,46933,1,0,0:0:0:0:
280,112,47016,1,8,0:2:0:0:
140,228,47183,1,2,0:2:0:0:
204,116,47350,5,0,0:2:0:0:
204,116,47433,1,0,0:0:0:0:
204,116,47516,1,2,0:2:0:0:
240,252,47683,1,8,0:2:0:0:
240,252,47766,1,0,0:0:0:0:
240,252,47850,1,2,0:2:0:0:
113,91,48016,5,0,0:2:0:0:
130,55,48100,1,0,0:0:0:0:
160,30,48183,1,2,0:2:0:0:
198,19,48266,1,0,0:0:0:0:
238,27,48350,1,8,0:2:0:0:
312,136,48516,1,2,0:2:0:0:
292,140,48600,1,0,0:0:0:0:
272,144,48683,5,0,0:2:0:0:
140,228,48850,1,2,0:2:0:0:
160,232,48933,1,0,0:0:0:0:
180,236,49016,1,8,0:2:0:0:
264,312,49183,1,2,0:2:0:0:
360,244,49350,5,0,0:2:0:0:
366,277,49433,1,0,0:0:0:0:
372,310,49516,1,2,0:2:0:0:
378,343,49600,1,0,0:0:0:0:
416,350,49683,5,8,0:2:0:0:
422,317,49766,1,0,0:0:0:0:
428,284,49850,1,4,0:2:0:0:
434,251,49933,1,0,0:0:0:0:
440,218,50016,5,4,0:1:0:0:
310,227,50183,1,2,0:2:0:0:
180,236,50350,1,8,0:2:0:0:
240,116,50516,1,2,0:2:0:0:
344,136,50683,5,0,0:2:0:0:
353,98,50766,1,0,0:0:0:0:
342,60,50850,1,2,0:2:0:0:
318,30,50933,1,0,0:0:0:0:
283,13,51016,2,0,L|187:23,1,95.9999970703126,8|2,0:2|0:2,0:0:0:0:
119,175,51350,6,0,P|107:129|111:82,1,95.9999970703126,0|2,0:2|0:2,0:0:0:0:
240,116,51683,1,8,0:2:0:0:
240,116,51766,1,0,0:0:0:0:
240,116,51850,1,2,0:2:0:0:
236,248,52016,5,0,0:2:0:0:
200,240,52100,1,0,0:0:0:0:
164,232,52183,1,2,0:2:0:0:
128,224,52266,1,0,0:0:0:0:
92,216,52350,1,8,0:2:0:0:
0,276,52516,1,2,0:2:0:0:
57,371,52683,6,0,P|104:364|149:379,1,95.9999970703126,0|2,0:2|0:2,0:0:0:0:
236,248,53016,2,0,L|224:152,1,95.9999970703126,8|2,0:2|0:2,0:0:0:0:
296,304,53350,5,0,0:2:0:0:
263,325,53433,1,0,0:0:0:0:
224,329,53516,1,2,0:2:0:0:
187,314,53600,1,0,0:0:0:0:
162,284,53683,2,0,L|150:379,1,95.9999970703126,8|2,0:2|0:2,0:0:0:0:
380,312,54016,5,0,0:2:0:0:
430,242,54183,1,2,0:2:0:0:
380,172,54350,1,0,0:2:0:0:
297,198,54516,1,2,0:2:0:0:
228,88,54683,5,0,0:2:0:0:
256,62,54766,1,0,0:0:0:0:
293,54,54850,1,0,0:2:0:0:
330,61,54933,1,0,0:0:0:0:
360,84,55016,2,2,B|407:77,1,47.9999985351563,10|0,0:2|0:0,0:0:0:0:
464,152,55183,2,2,B|511:155,1,47.9999985351563,0|0,0:2|0:0,0:0:0:0:
430,242,55350,6,0,P|385:255|338:245,1,95.9999970703126,4|2,0:2|0:2,0:0:0:0:
254,138,55683,1,8,0:2:0:0:
380,172,55850,1,2,0:2:0:0:
240,240,56016,5,0,0:2:0:0:
232,276,56100,1,0,0:0:0:0:
224,312,56183,1,2,0:2:0:0:
216,348,56266,1,0,0:0:0:0:
208,384,56350,1,8,0:2:0:0:
312,348,56516,1,2,0:2:0:0:
128,316,56683,6,0,L|113:221,1,95.9999970703126,0|2,0:2|0:2,0:0:0:0:
214,130,57016,1,8,0:2:0:0:
234,134,57100,1,0,0:0:0:0:
254,138,57183,1,2,0:2:0:0:
202,36,57350,5,0,0:2:0:0:
165,48,57433,1,0,0:0:0:0:
139,76,57516,1,2,0:2:0:0:
124,111,57600,1,0,0:0:0:0:
124,149,57683,1,8,0:2:0:0:
200,224,57850,1,2,0:2:0:0:
268,96,58016,5,0,0:2:0:0:
380,172,58183,1,2,0:2:0:0:
364,76,58350,1,8,0:2:0:0:
288,188,58516,1,2,0:2:0:0:
202,36,58683,5,0,0:2:0:0:
164,32,58766,1,0,0:0:0:0:
126,28,58850,1,2,0:2:0:0:
88,24,58933,1,0,0:0:0:0:
47,20,59016,2,0,P|31:64|39:111,1,95.9999970703126,8|2,0:2|0:2,0:0:0:0:
157,184,59350,6,0,L|252:188,1,95.9999970703126,0|2,0:2|0:2,0:0:0:0:
250,295,59683,2,0,L|154:299,1,95.9999970703126,8|2,0:2|0:2,0:0:0:0:
269,376,60016,5,0,0:2:0:0:
305,365,60100,1,0,0:0:0:0:
329,335,60183,1,2,0:2:0:0:
338,297,60266,1,0,0:0:0:0:
335,258,60350,5,8,0:2:0:0:
344,220,60433,1,0,0:0:0:0:
368,190,60516,1,6,0:2:0:0:
404,179,60600,1,0,0:0:0:0:
440,190,60683,5,4,0:1:0:0:
485,336,60850,1,2,0:2:0:0:
480,177,61016,1,8,0:2:0:0:
445,320,61183,1,2,0:2:0:0:
344,220,61350,5,0,0:2:0:0:
307,227,61433,1,0,0:0:0:0:
270,235,61516,1,2,0:2:0:0:
233,243,61600,1,0,0:0:0:0:
196,250,61683,1,8,0:2:0:0:
112,200,61850,1,2,0:2:0:0:
146,334,62016,5,4,0:2:0:0:
196,250,62183,1,2,0:2:0:0:
62,284,62350,1,8,0:2:0:0:
62,284,62433,1,0,0:0:0:0:
62,284,62516,1,2,0:2:0:0:
152,136,62683,5,0,0:2:0:0:
115,123,62766,1,0,0:0:0:0:
77,132,62850,1,2,0:2:0:0:
49,158,62933,1,0,0:0:0:0:
36,194,63016,1,8,0:2:0:0:
0,76,63183,1,2,0:2:0:0:
120,24,63350,5,4,0:2:0:0:
120,24,63433,1,0,0:0:0:0:
120,24,63516,1,2,0:2:0:0:
152,136,63683,1,8,0:2:0:0:
276,92,63850,1,2,0:2:0:0:
359,199,64016,5,4,0:2:0:0:
353,227,64100,1,0,0:0:0:0:
347,255,64183,1,2,0:2:0:0:
468,172,64350,1,8,0:2:0:0:
474,200,64433,1,0,0:0:0:0:
480,228,64516,1,2,0:2:0:0:
436,360,64683,6,0,L|388:353,1,47.9999985351563,4|0,0:2|0:0,0:0:0:0:
300,249,64850,1,2,0:2:0:0:
300,249,64933,1,0,0:0:0:0:
300,249,65016,2,0,L|347:255,1,47.9999985351563,12|0,0:2|0:0,0:0:0:0:
256,348,65183,2,0,L|209:342,1,47.9999985351563,6|0,0:2|0:0,0:0:0:0:
96,276,65350,5,4,0:2:0:0:
112,240,65433,1,0,0:0:0:0:
143,217,65516,1,2,0:2:0:0:
181,218,65600,1,0,0:0:0:0:
212,239,65683,5,8,0:2:0:0:
171,264,65766,1,0,0:0:0:0:
122,266,65850,1,2,0:2:0:0:
77,248,65933,1,0,0:0:0:0:
40,216,66016,6,0,L|24:312,1,95.9999970703126,4|2,0:2|0:2,0:0:0:0:
116,124,66350,2,0,L|97:29,1,95.9999970703126,8|2,0:2|0:2,0:0:0:0:
248,4,66683,5,0,0:2:0:0:
244,40,66766,1,0,0:0:0:0:
240,76,66850,1,2,0:2:0:0:
236,112,66933,1,0,0:0:0:0:
232,148,67016,1,8,0:2:0:0:
344,88,67183,1,2,0:2:0:0:
420,208,67350,5,0,0:2:0:0:
256,180,67516,1,2,0:2:0:0:
432,120,67683,1,8,0:2:0:0:
432,120,67766,1,0,0:0:0:0:
432,120,67850,1,2,0:2:0:0:
408,296,68016,5,0,0:2:0:0:
372,284,68100,1,0,0:0:0:0:
344,256,68183,1,2,0:2:0:0:
332,220,68266,1,0,0:0:0:0:
336,180,68350,1,8,0:2:0:0:
256,284,68516,1,2,0:2:0:0:
420,208,68683,6,0,L|468:200,2,47.9999985351563,0|0|2,0:2|0:0|0:2,0:0:0:0:
344,88,69016,2,0,L|296:80,2,47.9999985351563,8|0|2,0:2|0:0|0:2,0:0:0:0:
192,172,69350,5,0,0:2:0:0:
186,134,69433,1,0,0:0:0:0:
180,96,69516,1,2,0:2:0:0:
175,59,69600,1,0,0:0:0:0:
169,21,69683,1,8,0:2:0:0:
304,40,69850,1,2,0:2:0:0:
300,60,69933,1,0,0:0:0:0:
296,80,70016,5,0,0:2:0:0:
428,64,70183,1,2,0:2:0:0:
432,44,70266,1,0,0:0:0:0:
436,24,70350,1,8,0:2:0:0:
488,180,70516,1,2,0:2:0:0:
404,300,70683,5,0,0:2:0:0:
398,267,70766,1,0,0:0:0:0:
392,234,70850,1,2,0:2:0:0:
386,201,70933,1,0,0:0:0:0:
348,194,71016,5,8,0:2:0:0:
342,227,71100,1,0,0:0:0:0:
336,260,71183,1,6,0:2:0:0:
330,293,71266,1,0,0:0:0:0:
324,325,71350,5,4,0:1:0:0:
156,220,71516,1,2,0:2:0:0:
248,236,71683,1,8,0:2:0:0:
116,316,71850,1,2,0:2:0:0:
76,132,72016,5,0,0:2:0:0:
112,136,72100,1,0,0:0:0:0:
149,141,72183,1,2,0:2:0:0:
185,146,72266,1,0,0:0:0:0:
222,151,72350,1,8,0:2:0:0:
176,20,72516,1,2,0:2:0:0:
0,88,72683,6,0,P|-11:133|2:179,1,95.9999970703126,0|2,0:2|0:2,0:0:0:0:
109,275,73016,1,8,0:2:0:0:
109,275,73100,1,0,0:0:0:0:
109,275,73183,1,2,0:2:0:0:
185,146,73350,5,0,0:2:0:0:
216,124,73433,1,0,0:0:0:0:
254,121,73516,1,2,0:2:0:0:
290,132,73600,1,0,0:0:0:0:
315,160,73683,1,8,0:2:0:0:
236,296,73850,1,2,0:2:0:0:
236,296,73933,1,0,0:0:0:0:
236,296,74016,6,0,L|244:201,1,95.9999970703126,0|2,0:2|0:2,0:0:0:0:
364,140,74350,2,0,L|356:44,1,95.9999970703126,8|2,0:2|0:2,0:0:0:0:
472,192,74683,5,0,0:2:0:0:
464,228,74766,1,0,0:0:0:0:
456,264,74850,1,2,0:2:0:0:
448,300,74933,1,0,0:0:0:0:
440,336,75016,2,0,L|347:360,1,95.9999970703126,8|2,0:2|0:2,0:0:0:0:
124,232,75350,5,4,0:2:0:0:
138,147,75516,1,2,0:2:0:0:
222,133,75683,1,0,0:2:0:0:
263,210,75850,1,2,0:2:0:0:
124,232,76016,5,0,0:2:0:0:
87,217,76100,1,0,0:0:0:0:
63,189,76183,1,2,0:2:0:0:
55,153,76266,1,0,0:0:0:0:
59,113,76350,2,2,B|63:65,1,47.9999985351563,8|0,0:2|0:0,0:0:0:0:
160,52,76516,2,2,B|164:4,1,47.9999985351563,0|0,0:2|0:0,0:0:0:0:
259,77,76683,6,0,P|269:123|255:168,1,95.9999970703126,4|2,0:2|0:2,0:0:0:0:
387,157,77016,1,8,0:2:0:0:
443,289,77183,1,2,0:2:0:0:
327,241,77350,5,0,0:2:0:0:
290,249,77433,1,0,0:0:0:0:
254,257,77516,1,2,0:2:0:0:
218,265,77600,1,0,0:0:0:0:
182,272,77683,1,8,0:2:0:0:
311,333,77850,1,2,0:2:0:0:
443,289,78016,6,0,P|451:335|436:381,1,95.9999970703126,0|2,0:2|0:2,0:0:0:0:
392,196,78350,1,8,0:2:0:0:
396,176,78433,1,0,0:0:0:0:
400,156,78516,1,2,0:2:0:0:
292,28,78683,5,0,0:2:0:0:
271,60,78766,1,0,0:0:0:0:
269,99,78850,1,2,0:2:0:0:
280,135,78933,1,0,0:0:0:0:
304,164,79016,1,8,0:2:0:0:
192,148,79183,1,2,0:2:0:0:
353,91,79350,5,0,0:2:0:0:
353,91,79433,1,0,0:0:0:0:
353,91,79516,1,2,0:2:0:0:
392,196,79683,1,8,0:2:0:0:
245,231,79850,1,2,0:2:0:0:
376,348,80016,5,0,0:2:0:0:
380,310,80100,1,0,0:0:0:0:
384,272,80183,1,2,0:2:0:0:
388,234,80266,1,0,0:0:0:0:
392,196,80350,2,0,L|485:217,1,95.9999970703126,8|2,0:2|0:2,0:0:0:0:
504,84,80683,6,0,P|459:67|412:74,1,95.9999970703126,0|2,0:2|0:2,0:0:0:0:
301,191,81016,2,0,P|277:150|270:104,1,95.9999970703126,8|2,0:2|0:2,0:0:0:0:
422,36,81350,5,0,0:2:0:0:
413,72,81433,1,0,0:0:0:0:
404,109,81516,1,2,0:2:0:0:
395,146,81600,1,0,0:0:0:0:
413,187,81683,5,8,0:2:0:0:
404,224,81766,1,0,0:0:0:0:
395,261,81850,1,2,0:2:0:0:
386,298,81933,1,0,0:0:0:0:
377,335,82016,6,0,L|330:354,2,47.9999985351563,4|0|2,0:2|0:0|0:2,0:0:0:0:
236,240,82350,2,0,L|283:259,2,47.9999985351563,8|0|2,0:2|0:0|0:2,0:0:0:0:
316,128,82683,5,0,0:2:0:0:
279,135,82766,1,0,0:0:0:0:
242,143,82850,1,2,0:2:0:0:
205,151,82933,1,0,0:0:0:0:
168,158,83016,1,8,0:2:0:0:
134,144,83100,1,0,0:0:0:0:
100,130,83183,1,2,0:2:0:0:
66,116,83266,1,0,0:0:0:0:
32,102,83350,6,0,L|15:147,2,47.9999985351563,4|0|2,0:2|0:0|0:2,0:0:0:0:
180,72,83683,2,0,L|196:26,2,47.9999985351563,8|0|2,0:2|0:0|0:2,0:0:0:0:
230,217,84016,5,0,0:2:0:0:
197,237,84100,1,0,0:0:0:0:
159,242,84183,1,2,0:2:0:0:
124,231,84266,1,0,0:0:0:0:
98,204,84350,1,8,0:2:0:0:
306,111,84516,1,2,0:2:0:0:
314,139,84600,1,0,0:0:0:0:
322,167,84683,6,0,L|311:213,1,47.9999985351563,4|0,0:2|0:0,0:0:0:0:
182,311,84850,2,0,L|229:303,1,47.9999985351563,2|0,0:2|0:0,0:0:0:0:
362,315,85016,2,0,L|314:307,1,47.9999985351563,12|0,0:2|0:0,0:0:0:0:
218,170,85183,2,0,L|229:216,1,47.9999985351563,2|0,0:2|0:0,0:0:0:0:
390,239,85350,5,4,0:2:0:0:
418,233,85433,1,0,0:0:0:0:
445,227,85516,2,0,L|467:237,2,23.9999992675781,2|0|0,0:2|0:0|0:0,0:0:0:0:
477,188,85683,5,8,0:2:0:0:
483,160,85766,1,0,0:0:0:0:
489,132,85850,2,0,L|478:110,2,23.9999992675781,2|0|0,0:2|0:0|0:0,0:0:0:0:
481,72,86016,6,0,L|433:78,1,47.9999985351563,4|0,0:2|0:0,0:0:0:0:
360,160,86183,2,0,L|313:166,1,47.9999985351563,2|0,0:2|0:0,0:0:0:0:
300,44,86350,2,0,L|253:50,1,47.9999985351563,8|0,0:2|0:0,0:0:0:0:
188,136,86516,2,0,L|140:142,1,47.9999985351563,2|0,0:2|0:0,0:0:0:0:
25,143,86683,5,0,0:2:0:0:
21,179,86766,1,0,0:0:0:0:
17,215,86850,1,2,0:2:0:0:
13,251,86933,1,0,0:0:0:0:
9,287,87016,5,8,0:2:0:0:
46,319,87100,1,0,0:0:0:0:
94,309,87183,1,2,0:2:0:0:
117,267,87266,1,0,0:0:0:0:
108,220,87350,6,0,B|207:226|248:368|248:368|276:232|323:133|323:133|364:160|408:172,1,560,6|2,0:2|0:2,0:0:0:0:
483,125,89850,1,2,0:0:0:0:
403,88,90016,6,0,B|347:49|292:34|292:34|260:88|217:120|217:120|166:105|118:65|118:65|71:97|26:152,1,480,2|0,0:2|0:2,0:0:0:0:
49,311,92350,1,2,0:2:0:0:
195,249,92683,6,0,B|257:237|332:257|332:257|263:200|217:119,1,320,2|0,0:2|0:2,0:0:0:0:
89,225,94683,1,0,0:2:0:0:
65,67,95016,1,2,0:2:0:0:
217,119,95350,6,0,B|244:195|316:241|316:241|345:167|345:167|414:205|414:205|440:123|412:48,1,480,2|0,0:2|0:2,0:0:0:0:
219,201,98016,6,0,B|228:215|192:255|140:255|60:171|16:158|16:158|60:147|140:63|192:63|228:103|216:119,1,480,2|0,0:2|0:2,0:0:0:0:
134,305,100350,1,2,0:2:0:0:
215,119,100683,6,0,B|257:101|299:118|346:80|346:80|394:74|390:159|457:214,1,320,0|0,0:2|0:2,0:0:0:0:
312,129,103350,6,0,B|326:199|372:255|372:255|305:239|245:259|194:240,1,320,2|0,0:2|0:2,0:0:0:0:
194,240,105350,1,0,0:2:0:0:
90,118,105683,1,2,0:2:0:0:
55,274,106016,6,0,B|83:302|115:318|115:318|155:306|155:306|195:322|195:322|235:306|235:306|275:318|275:318|307:302|335:273,1,320,0|0,0:2|0:2,0:0:0:0:
330,108,108016,6,0,L|334:188,1,80,2|2,0:2|0:2,0:0:0:0:
335,273,108683,1,4,0:1:0:0:
416,152,109016,1,2,0:2:0:0:
416,152,109350,6,0,L|420:232,1,80,0|2,0:2|0:2,0:0:0:0:
469,75,110016,2,0,P|392:61|330:107,1,160,0|0,0:2|0:2,0:0:0:0:
251,292,111016,1,2,0:2:0:0:
233,193,111183,1,2,0:0:0:0:
102,235,111350,6,0,L|180:249,1,80,0|2,0:2|0:2,0:0:0:0:
378,218,112016,2,0,L|300:232,1,80,0|2,0:2|0:2,0:0:0:0:
92,311,112683,2,0,P|88:272|102:235,1,80,0|2,0:2|0:2,0:0:0:0:
250,113,113350,1,0,0:2:0:0:
270,278,113683,1,2,0:2:0:0:
102,235,114016,6,0,L|257:196,1,160,0|0,0:2|0:2,0:0:0:0:
419,78,115016,1,2,0:2:0:0:
449,311,115350,2,0,L|371:291,1,80,0|2,0:2|0:2,0:0:0:0:
257,196,116016,1,0,0:2:0:0:
227,305,116350,1,2,0:2:0:0:
382,190,116683,5,0,0:2:0:0:
187,105,117016,1,2,0:2:0:0:
317,244,117350,1,0,0:2:0:0:
321,61,117683,1,2,0:2:0:0:
206,222,118016,1,0,0:2:0:0:
397,152,118350,1,2,0:2:0:0:
335,280,118683,2,0,P|335:319|343:358,1,80,0|2,0:2|0:2,0:0:0:0:
317,201,119350,6,0,P|282:218|260:251,1,80,0|2,0:2|0:2,0:0:0:0:
392,224,120016,2,0,P|394:184|377:148,1,80,0|2,0:2|0:2,0:0:0:0:
335,280,120683,2,0,P|367:302|407:304,1,80,0|2,0:2|0:2,0:0:0:0:
377,148,121350,1,0,0:2:0:0:
335,280,121683,1,2,0:2:0:0:
204,170,122016,5,0,0:2:0:0:
299,195,122350,1,2,0:2:0:0:
240,255,122683,1,0,0:2:0:0:
263,110,123016,1,2,0:2:0:0:
335,280,123350,1,0,0:2:0:0:
145,230,123683,1,2,0:2:0:0:
358,135,124016,1,0,0:2:0:0:
371,365,124350,1,2,0:2:0:0:
157,317,124688,6,0,L|143:279,3,40,4|0|2|0,0:1|0:0|0:2|0:0,0:0:0:0:
142,239,125021,2,0,L|142:199,3,40,0|0|2|0,0:2|0:0|0:2|0:0,0:0:0:0:
149,159,125354,2,0,L|163:121,3,40,0|0|2|0,0:2|0:0|0:2|0:0,0:0:0:0:
186,87,125688,2,0,L|212:56,3,40,0|0|2|0,0:2|0:0|0:2|0:0,0:0:0:0:
251,46,126021,6,0,L|305:44,1,40,0|0,0:2|0:0,0:0:0:0:
372,72,126188,1,2,0:2:0:0:
372,72,126271,1,0,0:0:0:0:
372,72,126354,2,0,L|380:111,1,40,0|0,0:2|0:0,0:0:0:0:
323,234,126521,2,0,L|314:194,1,40,2|0,0:2|0:0,0:0:0:0:
295,122,126688,1,0,0:2:0:0:
295,122,126771,1,0,0:0:0:0:
295,122,126854,2,0,L|255:121,1,40,2|0,0:2|0:0,0:0:0:0:
153,209,127021,2,0,L|192:208,1,40,0|0,0:2|0:0,0:0:0:0:
127,124,127188,2,0,L|87:124,1,40,2|0,0:2|0:0,0:0:0:0:
48,216,127354,5,0,0:2:0:0:
56,252,127438,1,0,0:0:0:0:
73,279,127521,1,2,0:2:0:0:
98,299,127604,1,0,0:0:0:0:
128,311,127688,1,0,0:2:0:0:
159,313,127771,1,0,0:0:0:0:
190,307,127854,1,2,0:2:0:0:
218,291,127938,1,0,0:0:0:0:
251,268,128021,5,0,0:2:0:0:
277,243,128104,1,0,0:0:0:0:
308,224,128188,1,2,0:2:0:0:
342,213,128271,1,0,0:0:0:0:
378,210,128354,1,0,0:2:0:0:
413,215,128438,1,0,0:0:0:0:
447,228,128521,1,2,0:2:0:0:
476,249,128604,1,0,0:0:0:0:
492,285,128688,6,0,L|499:329,1,40,0|0,0:2|0:0,0:0:0:0:
401,347,128854,2,0,L|407:307,1,40,2|0,0:2|0:0,0:0:0:0:
308,288,129021,2,0,L|315:332,1,40,0|0,0:2|0:0,0:0:0:0:
217,350,129188,2,0,L|223:310,1,40,2|0,0:2|0:0,0:0:0:0:
236,229,129354,5,0,0:2:0:0:
236,229,129438,1,0,0:0:0:0:
236,229,129521,1,2,0:2:0:0:
231,182,129604,1,0,0:0:0:0:
206,142,129688,1,0,0:2:0:0:
164,119,129771,1,0,0:0:0:0:
117,118,129854,1,2,0:2:0:0:
74,140,129938,1,0,0:0:0:0:
55,184,130021,6,0,L|63:272,1,80,6|2,0:1|0:2,0:0:0:0:
202,353,130354,1,0,0:2:0:0:
231,182,130521,2,0,L|152:197,1,80,2|0,0:2|0:2,0:0:0:0:
327,353,130854,2,0,P|331:313|319:275,1,80,2|0,0:2|0:2,0:0:0:0:
152,197,131188,2,0,P|139:234|144:274,1,80,2|0,0:2|0:2,0:0:0:0:
176,80,131521,5,2,0:2:0:0:
231,182,131688,1,0,0:2:0:0:
64,120,131854,1,2,0:2:0:0:
284,68,132021,1,0,0:2:0:0:
294,106,132104,1,0,0:0:0:0:
305,144,132188,1,2,0:2:0:0:
316,183,132271,1,0,0:0:0:0:
327,221,132354,2,0,L|354:146,1,80,0|2,0:2|0:2,0:0:0:0:
392,36,132688,5,0,0:2:0:0:
436,136,132854,1,2,0:2:0:0:
284,68,133021,1,0,0:2:0:0:
464,56,133188,1,2,0:2:0:0:
354,146,133354,1,0,0:2:0:0:
370,9,133521,1,2,0:2:0:0:
370,9,133604,1,0,0:0:0:0:
370,9,133688,1,0,0:2:0:0:
419,226,133854,1,2,0:2:0:0:
304,248,134021,5,0,0:2:0:0:
384,160,134188,1,2,0:2:0:0:
404,300,134354,1,0,0:2:0:0:
468,164,134521,1,2,0:2:0:0:
330,320,134688,5,0,0:2:0:0:
291,322,134771,1,0,0:0:0:0:
255,304,134854,1,2,0:2:0:0:
233,272,134938,1,0,0:0:0:0:
229,232,135021,1,0,0:2:0:0:
107,258,135188,1,2,0:2:0:0:
271,166,135354,5,0,0:2:0:0:
152,320,135688,5,0,0:2:0:0:
316,228,135854,1,2,0:2:0:0:
271,166,136188,5,2,0:2:0:0:
220,328,136521,5,2,0:2:0:0:
384,256,136688,1,0,0:2:0:0:
160,180,136854,1,2,0:2:0:0:
288,268,137188,5,2,0:2:0:0:
375,115,137354,1,0,0:2:0:0:
337,104,137438,1,0,0:0:0:0:
297,104,137521,1,2,0:2:0:0:
259,116,137604,1,0,0:0:0:0:
226,138,137688,1,0,0:2:0:0:
284,16,137854,1,2,0:2:0:0:
316,196,138021,5,0,0:2:0:0:
236,220,138354,5,0,0:2:0:0:
132,80,138521,1,2,0:2:0:0:
72,232,138854,5,2,0:2:0:0:
148,172,139187,5,2,0:2:0:0:
64,136,139354,1,0,0:2:0:0:
96,324,139521,1,2,0:2:0:0:
176,268,139854,5,2,0:2:0:0:
220,183,140021,1,0,0:2:0:0:
253,162,140104,1,0,0:0:0:0:
292,160,140187,1,2,0:2:0:0:
327,178,140271,1,0,0:0:0:0:
349,212,140354,2,0,L|345:255,3,40,0|0|2|0,0:2|0:0|0:2|0:0,0:0:0:0:
341,284,140687,5,4,0:1:0:0:
276,236,141021,5,0,0:2:0:0:
347,106,141187,1,2,0:2:0:0:
473,210,141521,5,2,0:2:0:0:
448,280,141854,5,2,0:2:0:0:
396,180,142187,5,2,0:2:0:0:
469,93,142354,1,0,0:2:0:0:
287,87,142521,1,2,0:2:0:0:
381,270,142687,1,0,0:2:0:0:
420,268,142771,1,0,0:0:0:0:
455,249,142854,1,2,0:2:0:0:
479,217,142937,1,0,0:0:0:0:
487,178,143021,1,0,0:2:0:0:
469,93,143354,5,0,0:2:0:0:
323,139,143521,1,2,0:2:0:0:
398,37,143687,1,0,0:2:0:0:
391,189,143854,1,2,0:2:0:0:
258,81,144021,1,0,0:2:0:0:
398,114,144187,1,2,0:2:0:0:
398,114,144271,1,0,0:0:0:0:
398,114,144354,1,0,0:2:0:0:
275,214,144521,1,2,0:2:0:0:
431,264,144687,5,0,0:2:0:0:
296,285,144854,1,2,0:2:0:0:
391,189,145021,1,0,0:2:0:0:
356,336,145187,1,2,0:2:0:0:
315,142,145354,1,0,0:2:0:0:
277,132,145437,1,0,0:0:0:0:
239,141,145521,1,2,0:2:0:0:
208,166,145604,1,0,0:0:0:0:
193,203,145687,2,0,L|169:171,1,40,0|0,0:2|0:0,0:0:0:0:
149,65,145854,2,0,L|173:96,1,40,2|0,0:2|0:0,0:0:0:0:
275,214,146021,5,4,0:1:0:0:
346,186,146354,5,0,0:2:0:0:
232,277,146521,1,2,0:2:0:0:
324,273,146854,5,2,0:2:0:0:
260,144,147021,1,0,0:2:0:0:
178,206,147187,1,2,0:2:0:0:
406,211,147354,1,0,0:2:0:0:
260,144,147521,1,2,0:2:0:0:
350,163,147854,5,2,0:2:0:0:
227,151,148021,1,0,0:2:0:0:
202,182,148104,1,0,0:0:0:0:
196,221,148187,1,2,0:2:0:0:
210,258,148271,1,0,0:0:0:0:
236,288,148354,2,0,L|277:287,1,40,0|0,0:2|0:0,0:0:0:0:
345,355,148521,2,0,L|304:353,1,40,2|0,0:2|0:0,0:0:0:0:
216,360,148687,5,0,0:2:0:0:
275,214,148854,1,2,0:2:0:0:
184,353,149021,1,0,0:2:0:0:
129,215,149187,1,2,0:2:0:0:
204,267,149354,1,0,0:2:0:0:
202,161,149521,1,2,0:2:0:0:
202,121,149604,1,0,0:0:0:0:
202,81,149687,1,0,0:2:0:0:
314,63,149854,1,2,0:2:0:0:
130,38,150021,5,4,0:2:0:0:
273,146,150187,1,2,0:2:0:0:
117,141,150354,1,0,0:2:0:0:
250,25,150521,1,6,0:2:0:0:
206,197,150687,1,0,0:2:0:0:
237,221,150771,1,0,0:0:0:0:
275,229,150854,1,2,0:2:0:0:
314,218,150937,1,0,0:0:0:0:
344,192,151021,2,0,L|350:152,1,40,4|0,0:2|0:0,0:0:0:0:
422,85,151187,2,0,L|428:124,1,40,2|0,0:2|0:0,0:0:0:0:
445,222,151354,5,12,0:1:0:0:
383,271,151687,5,8,0:2:0:0:
505,168,151854,1,2,0:2:0:0:
498,283,152187,5,2,0:2:0:0:
392,166,152521,5,2,0:2:0:0:
392,84,152854,5,2,0:2:0:0:
505,168,153021,1,8,0:2:0:0:
317,159,153187,1,2,0:2:0:0:
373,332,153354,1,8,0:2:0:0:
401,303,153437,1,0,0:0:0:0:
416,267,153521,1,2,0:2:0:0:
417,227,153604,1,0,0:0:0:0:
402,190,153687,1,8,0:2:0:0:
314,246,154021,5,8,0:2:0:0:
339,347,154187,1,2,0:2:0:0:
302,222,154354,1,8,0:2:0:0:
401,303,154521,1,2,0:2:0:0:
290,197,154687,1,8,0:2:0:0:
417,227,154854,1,2,0:2:0:0:
417,227,154937,1,0,0:0:0:0:
417,227,155021,1,8,0:2:0:0:
394,118,155187,1,2,0:2:0:0:
210,169,155354,5,8,0:2:0:0:
318,229,155521,1,2,0:2:0:0:
331,68,155687,1,8,0:2:0:0:
292,158,155854,1,2,0:2:0:0:
243,33,156021,1,8,0:2:0:0:
243,33,156104,1,0,0:0:0:0:
243,33,156187,1,2,0:2:0:0:
243,33,156271,1,0,0:0:0:0:
243,33,156354,1,8,0:2:0:0:
226,132,156521,1,2,0:2:0:0:
106,26,156687,5,12,0:1:0:0:
154,92,157021,5,8,0:2:0:0:
61,197,157187,1,2,0:2:0:0:
137,171,157521,5,2,0:2:0:0:
63,98,157854,5,2,0:2:0:0:
219,135,158021,1,8,0:2:0:0:
135,270,158187,1,2,0:2:0:0:
137,171,158521,5,2,0:2:0:0:
197,61,158687,1,8,0:2:0:0:
237,60,158771,1,0,0:0:0:0:
271,79,158854,1,2,0:2:0:0:
292,113,158937,1,0,0:0:0:0:
294,152,159021,2,0,L|288:192,1,40,8|0,0:2|0:0,0:0:0:0:
225,279,159187,2,0,L|219:239,1,40,2|0,0:2|0:0,0:0:0:0:
207,148,159354,5,8,0:2:0:0:
288,192,159687,5,8,0:2:0:0:
377,55,159854,1,2,0:2:0:0:
385,140,160187,5,2,0:2:0:0:
291,69,160521,5,2,0:2:0:0:
353,221,160687,1,8,0:2:0:0:
461,96,160854,1,2,0:2:0:0:
385,140,161187,5,2,0:2:0:0:
286,274,161354,1,8,0:2:0:0:
277,234,161437,1,0,0:0:0:0:
268,195,161521,1,2,0:2:0:0:
259,156,161604,1,0,0:0:0:0:
251,117,161687,2,0,L|214:155,1,40,0|0,0:2|0:0,0:0:0:0:
141,188,161854,2,0,L|173:211,1,40,2|0,0:2|0:0,0:0:0:0:
286,274,162021,5,4,0:1:0:0:
359,229,162354,5,8,0:2:0:0:
203,286,162521,1,2,0:2:0:0:
227,131,162854,5,2,0:2:0:0:
252,210,163187,5,2,0:2:0:0:
166,197,163521,5,2,0:2:0:0:
307,142,163687,1,8,0:2:0:0:
277,280,163854,1,2,0:2:0:0:
140,120,164021,1,8,0:2:0:0:
107,140,164104,1,0,0:0:0:0:
87,175,164187,1,2,0:2:0:0:
86,214,164271,1,0,0:0:0:0:
105,250,164354,1,8,0:2:0:0:
166,197,164687,5,8,0:2:0:0:
83,64,164854,1,2,0:2:0:0:
271,100,165021,1,8,0:2:0:0:
147,17,165187,1,2,0:2:0:0:
246,178,165354,1,8,0:2:0:0:
280,24,165521,1,2,0:2:0:0:
280,24,165604,1,0,0:0:0:0:
280,24,165687,1,8,0:2:0:0:
140,120,165854,1,2,0:2:0:0:
271,100,166021,5,8,0:2:0:0:
265,256,166187,1,2,0:2:0:0:
362,135,166354,1,8,0:2:0:0:
186,147,166521,1,2,0:2:0:0:
337,214,166687,1,8,0:2:0:0:
348,252,166771,1,0,0:0:0:0:
341,291,166854,1,2,0:2:0:0:
318,323,166937,1,0,0:0:0:0:
282,341,167021,2,0,L|316:363,1,40,8|0,0:2|0:0,0:0:0:0:
420,368,167187,2,0,L|386:346,1,40,2|0,0:2|0:0,0:0:0:0:
265,256,167354,5,12,0:2:0:0:
426,226,167521,1,2,0:2:0:0:
426,226,167604,1,0,0:0:0:0:
426,226,167687,1,8,0:2:0:0:
245,184,167854,1,2,0:2:0:0:
350,275,168021,1,8,0:2:0:0:
445,106,168187,1,2,0:2:0:0:
333,171,168354,1,8,0:2:0:0:
495,171,168521,1,2,0:2:0:0:
438,298,168687,5,8,0:2:0:0:
308,259,168854,1,2,0:2:0:0:
414,211,169021,1,8,0:2:0:0:
218,178,169187,1,2,0:2:0:0:
333,57,169354,1,8,0:2:0:0:
358,88,169437,1,0,0:0:0:0:
376,124,169521,1,2,0:2:0:0:
383,163,169604,1,0,0:0:0:0:
381,202,169687,2,0,L|419:191,1,40,8|0,0:2|0:0,0:0:0:0:
503,244,169854,2,0,L|464:255,1,40,2|0,0:2|0:0,0:0:0:0:
389,278,170021,5,8,0:2:0:0:
351,291,170104,1,0,0:0:0:0:
320,317,170187,1,2,0:2:0:0:
297,349,170271,1,0,0:0:0:0:
263,331,170354,1,8,0:2:0:0:
226,317,170437,1,0,0:0:0:0:
186,310,170521,1,2,0:2:0:0:
147,309,170604,1,0,0:0:0:0:
107,313,170687,6,0,L|91:276,1,40,0|0,0:2|0:0,0:0:0:0:
122,180,170854,1,2,0:2:0:0:
122,180,170937,1,0,0:0:0:0:
122,180,171021,2,0,L|137:216,1,40,8|0,0:2|0:0,0:0:0:0:
196,148,171187,2,0,L|180:111,1,40,2|0,0:2|0:0,0:0:0:0:
279,224,171354,6,0,P|309:152|286:77,1,160,0|0,0:2|0:2,0:0:0:0:
152,25,171854,1,2,0:2:0:0:
196,148,172021,1,0,0:2:0:0:
235,154,172104,1,0,0:0:0:0:
274,151,172187,1,2,0:2:0:0:
313,142,172271,1,0,0:0:0:0:
352,133,172354,2,0,L|382:97,1,40,0|0,0:2|0:0,0:0:0:0:
463,161,172521,2,0,L|475:198,1,40,2|0,0:2|0:0,0:0:0:0:
508,297,172687,5,4,0:1:0:0:
310,201,173021,5,8,0:2:0:0:
354,363,173187,2,0,L|428:333,1,80,2|0,0:2|0:2,0:0:0:0:
272,266,173521,2,0,L|197:236,1,80,2|8,0:2|0:2,0:0:0:0:
382,185,173854,2,0,L|456:155,1,80,2|0,0:2|0:2,0:0:0:0:
270,107,174187,5,2,0:2:0:0:
344,255,174354,1,8,0:2:0:0:
409,89,174521,1,2,0:2:0:0:
236,181,174687,2,0,P|198:172|159:178,1,80,0|2,0:2|0:2,0:0:0:0:
174,343,175021,2,0,P|192:308|194:269,1,80,8|2,0:2|0:2,0:0:0:0:
73,157,175354,5,0,0:2:0:0:
194,268,175521,1,2,0:2:0:0:
177,144,175687,1,8,0:2:0:0:
85,283,175854,1,2,0:2:0:0:
116,84,176021,1,0,0:2:0:0:
234,199,176187,1,2,0:2:0:0:
234,199,176271,1,0,0:0:0:0:
234,199,176354,1,8,0:2:0:0:
353,96,176521,1,2,0:2:0:0:
346,233,176687,5,0,0:2:0:0:
270,115,176854,1,2,0:2:0:0:
438,155,177021,1,8,0:2:0:0:
321,255,177187,1,2,0:2:0:0:
348,135,177354,2,0,P|350:95|334:59,1,80,0|2,0:2|0:2,0:0:0:0:
196,181,177687,2,0,P|232:196|272:191,1,80,12|2,0:2|0:2,0:0:0:0:
173,108,178021,6,0,P|139:126|119:160,1,80,4|2,0:2|0:2,0:0:0:0:
119,273,178354,1,8,0:2:0:0:
42,179,178521,2,0,L|34:99,1,80,2|0,0:2|0:2,0:0:0:0:
181,28,178854,2,0,L|173:108,1,80,2|8,0:2|0:2,0:0:0:0:
162,217,179187,1,2,0:2:0:0:
42,179,179354,5,0,0:2:0:0:
161,355,179521,2,0,P|187:325|198:287,1,80,2|8,0:2|0:2,0:0:0:0:
366,227,179854,2,0,L|287:210,1,80,2|0,0:2|0:2,0:0:0:0:
195,162,180187,1,2,0:2:0:0:
272,299,180354,1,8,0:2:0:0:
328,135,180521,1,2,0:2:0:0:
502,246,180687,6,0,P|506:207|493:170,1,80,0|2,0:2|0:2,0:0:0:0:
402,332,181021,1,8,0:2:0:0:
348,230,181187,2,0,P|385:217|425:216,1,80,2|0,0:2|0:2,0:0:0:0:
291,291,181521,2,0,P|270:257|266:217,1,80,2|8,0:2|0:2,0:0:0:0:
334,125,181854,1,2,0:2:0:0:
157,131,182021,5,0,0:2:0:0:
266,218,182187,2,0,L|261:138,1,80,2|8,0:2|0:2,0:0:0:0:
216,0,182521,2,0,L|211:79,1,80,2|0,0:2|0:2,0:0:0:0:
137,207,182854,5,2,0:2:0:0:
321,93,183021,1,8,0:2:0:0:
140,56,183187,1,2,0:2:0:0:
342,217,183354,6,0,L|416:187,1,80,4|2,0:2|0:2,0:0:0:0:
368,301,183687,1,8,0:2:0:0:
217,177,183854,2,0,L|291:147,1,80,2|0,0:2|0:2,0:0:0:0:
181,262,184187,2,0,P|149:238|130:204,1,80,2|8,0:2|0:2,0:0:0:0:
270,251,184521,2,0,P|265:290|245:324,1,80,2|0,0:2|0:2,0:0:0:0:
129,203,184854,5,2,0:2:0:0:
291,147,185021,1,8,0:2:0:0:
244,324,185187,1,2,0:2:0:0:
201,135,185354,2,0,L|178:58,1,80,0|2,0:2|0:2,0:0:0:0:
371,19,185687,2,0,L|348:95,1,80,8|2,0:2|0:2,0:0:0:0:
306,217,186021,5,0,0:2:0:0:
414,172,186187,1,2,0:2:0:0:
273,128,186354,1,8,0:2:0:0:
339,300,186521,1,2,0:2:0:0:
350,193,186687,1,0,0:2:0:0:
212,251,186854,1,2,0:2:0:0:
212,251,186937,1,0,0:0:0:0:
212,251,187021,1,8,0:2:0:0:
347,224,187187,1,2,0:2:0:0:
253,116,187354,5,0,0:2:0:0:
260,309,187521,1,2,0:2:0:0:
130,231,187687,1,8,0:2:0:0:
339,143,187854,1,2,0:2:0:0:
174,314,188021,2,0,P|137:326|98:320,1,80,0|2,0:2|0:2,0:0:0:0:
158,113,188354,2,0,P|180:145|188:184,1,80,12|2,0:2|0:2,0:0:0:0:
50,221,188687,6,0,L|130:231,1,80,4|2,0:2|0:2,0:0:0:0:
80,138,189021,1,8,0:2:0:0:
174,313,189187,2,0,P|204:288|220:252,1,80,2|0,0:2|0:2,0:0:0:0:
360,359,189521,2,0,P|329:333|313:297,1,80,2|8,0:2|0:2,0:0:0:0:
299,184,189854,1,2,0:2:0:0:
197,161,190021,5,4,0:2:0:0:
330,106,190187,2,0,L|315:27,1,80,6|8,0:2|0:2,0:0:0:0:
403,205,190521,2,0,L|389:284,1,80,2|0,0:2|0:2,0:0:0:0:
474,177,190854,2,0,P|454:144|418:127,1,80,2|8,0:2|0:2,0:0:0:0:
305,164,191187,1,2,0:2:0:0:
241,288,191354,5,4,0:2:0:0:
142,197,191521,1,2,0:2:0:0:
326,255,191687,1,8,0:2:0:0:
228,94,191854,1,2,0:2:0:0:
104,304,192021,1,4,0:2:0:0:
235,209,192187,1,2,0:2:0:0:
235,209,192271,1,0,0:0:0:0:
235,209,192354,1,8,0:2:0:0:
48,108,192521,1,2,0:2:0:0:
346,120,192687,5,4,0:2:0:0:
136,164,192854,1,2,0:2:0:0:
136,164,192937,1,0,0:0:0:0:
136,164,193021,1,8,0:2:0:0:
276,320,193187,1,2,0:2:0:0:
190,88,193354,1,4,0:2:0:0:
180,297,193521,1,2,0:2:0:0:
292,207,193687,1,12,0:2:0:0:
292,207,193771,1,0,0:0:0:0:
292,207,193854,2,0,L|327:189,1,40,2|0,0:2|0:0,0:0:0:0:
456,220,194021,6,0,P|463:180|461:141,1,80,4|2,0:1|0:2,0:0:0:0:
352,115,194354,1,8,0:2:0:0:
335,267,194521,2,0,P|351:303|381:328,1,80,2|0,0:2|0:2,0:0:0:0:
269,141,194854,2,0,L|189:143,1,80,2|8,0:2|0:2,0:0:0:0:
207,328,195187,2,0,P|223:292|225:252,1,80,2|0,0:2|0:2,0:0:0:0:
118,105,195521,5,2,0:2:0:0:
140,272,195687,1,8,0:2:0:0:
75,196,195854,1,2,0:2:0:0:
255,183,196021,2,0,P|285:208|300:245,1,80,0|2,0:2|0:2,0:0:0:0:
175,189,196354,2,0,P|180:150|205:119,1,80,8|2,0:2|0:2,0:0:0:0:
334,92,196687,5,0,0:2:0:0:
400,208,196854,1,2,0:2:0:0:
464,132,197021,1,8,0:2:0:0:
284,155,197187,1,2,0:2:0:0:
471,234,197354,1,0,0:2:0:0:
408,58,197521,1,2,0:2:0:0:
408,58,197604,1,0,0:0:0:0:
408,58,197687,1,8,0:2:0:0:
309,233,197854,1,2,0:2:0:0:
301,63,198021,5,0,0:2:0:0:
132,186,198187,1,2,0:2:0:0:
381,154,198354,1,8,0:2:0:0:
306,325,198521,1,2,0:2:0:0:
167,110,198687,2,0,P|206:113|242:132,1,80,0|2,0:2|0:2,0:0:0:0:
70,304,199021,1,12,0:2:0:0:
44,168,199187,1,2,0:2:0:0:
230,252,199354,6,0,L|323:228,1,80,4|2,0:2|0:2,0:0:0:0:
421,205,199687,1,8,0:2:0:0:
356,45,199854,2,0,P|339:81|338:121,1,80,2|0,0:2|0:2,0:0:0:0:
357,351,200187,2,0,P|373:314|375:275,1,80,2|8,0:2|0:2,0:0:0:0:
241,153,200521,1,2,0:2:0:0:
433,121,200687,5,0,0:2:0:0:
237,229,200854,2,0,P|200:218|174:188,1,80,2|8,0:2|0:2,0:0:0:0:
68,336,201187,2,0,P|105:324|131:294,1,80,2|0,0:2|0:2,0:0:0:0:
75,121,201521,1,2,0:2:0:0:
62,259,201687,1,8,0:2:0:0:
237,229,201854,1,2,0:2:0:0:
205,60,202021,6,0,P|178:88|168:127,1,80,0|2,0:2|0:2,0:0:0:0:
215,319,202354,1,8,0:2:0:0:
413,225,202521,2,0,P|386:197|349:181,1,80,2|0,0:2|0:2,0:0:0:0:
448,330,202854,2,0,P|484:314|508:283,1,80,2|8,0:2|0:2,0:0:0:0:
440,46,203187,1,2,0:2:0:0:
491,182,203354,5,0,0:2:0:0:
273,206,203521,2,0,L|349:181,1,80,2|8,0:2|0:2,0:0:0:0:
234,298,203854,2,0,P|200:276|181:242,1,80,2|0,0:2|0:2,0:0:0:0:
185,36,204187,5,2,0:2:0:0:
342,255,204354,1,8,0:2:0:0:
70,206,204521,1,2,0:2:0:0:
369,66,204687,6,0,P|393:96|403:135,1,80,4|2,0:2|0:2,0:0:0:0:
361,348,205021,1,8,0:2:0:0:
162,177,205187,2,0,L|238:153,1,80,2|0,0:2|0:2,0:0:0:0:
135,344,205521,2,0,L|58:320,1,80,2|8,0:2|0:2,0:0:0:0:
34,62,205854,2,0,L|63:136,1,80,2|0,0:2|0:2,0:0:0:0:
139,272,206187,5,2,0:2:0:0:
276,100,206354,1,8,0:2:0:0:
240,292,206521,1,2,0:2:0:0:
172,121,206687,2,0,P|170:81|184:44,1,80,0|2,0:2|0:2,0:0:0:0:
338,268,207021,2,0,P|338:308|326:346,1,80,8|2,0:2|0:2,0:0:0:0:
267,98,207354,5,0,0:2:0:0:
429,184,207521,1,2,0:2:0:0:
177,237,207687,1,8,0:2:0:0:
378,78,207854,1,2,0:2:0:0:
338,268,208021,1,0,0:2:0:0:
196,150,208187,1,2,0:2:0:0:
196,150,208271,1,0,0:0:0:0:
196,150,208354,1,8,0:2:0:0:
343,157,208521,1,2,0:2:0:0:
200,38,208687,5,0,0:2:0:0:
240,246,208854,1,2,0:2:0:0:
408,102,209021,1,8,0:2:0:0:
102,93,209187,1,2,0:2:0:0:
220,323,209354,2,0,P|259:323|294:303,1,80,0|2,0:2|0:2,0:0:0:0:
408,102,209687,1,12,0:2:0:0:
452,292,209854,1,2,0:2:0:0:
277,173,210021,6,0,L|208:133,1,80,4|2,0:2|0:2,0:0:0:0:
43,126,210354,1,8,0:2:0:0:
92,348,210521,2,0,P|119:319|133:282,1,80,2|0,0:2|0:2,0:0:0:0:
161,56,210854,2,0,P|133:85|119:122,1,80,2|8,0:2|0:2,0:0:0:0:
158,318,211187,1,2,0:2:0:0:
45,184,211354,5,4,0:1:0:0:
282,187,211521,2,0,P|315:167|338:133,1,80,6|8,0:2|0:2,0:0:0:0:
177,164,211854,2,0,P|177:202|194:239,1,80,2|0,0:2|0:2,0:0:0:0:
241,83,212187,2,0,P|207:64|167:61,1,80,2|8,0:2|0:2,0:0:0:0:
48,168,212521,1,2,0:2:0:0:
157,304,212687,5,4,0:2:0:0:
282,187,212854,1,2,0:2:0:0:
154,146,213021,1,8,0:2:0:0:
313,319,213187,1,2,0:2:0:0:
425,94,213354,1,4,0:2:0:0:
208,235,213521,1,2,0:2:0:0:
208,235,213604,1,0,0:0:0:0:
208,235,213687,1,8,0:2:0:0:
459,262,213854,1,2,0:2:0:0:
212,33,214021,5,0,0:2:0:0:
314,257,214187,2,0,L|331:266,4,20,2|0|0|0|8,0:2|0:0|0:0|0:0|0:2,0:0:0:0:
97,155,214521,1,2,0:2:0:0:
385,147,214687,6,0,L|401:135,6,20,0|0|0|0|2|0|0,0:2|0:0|0:0|0:0|0:2|0:0|0:0,0:0:0:0:
321,178,215021,5,8,0:2:0:0:
283,189,215104,1,0,0:0:0:0:
243,185,215187,1,2,0:2:0:0:
203,178,215271,1,0,0:0:0:0:
162,185,215354,6,0,L|168:280,1,95.9999970703126,4|2,0:2|0:2,0:0:0:0:
48,328,215687,2,0,L|55:233,1,95.9999970703126,8|2,0:2|0:2,0:0:0:0:
168,280,216021,1,0,0:2:0:0:
59,197,216187,1,2,0:2:0:0:
283,189,216354,2,0,L|276:284,1,95.9999970703126,8|2,0:2|0:2,0:0:0:0:
168,280,216687,5,0,0:2:0:0:
316,168,216854,1,2,0:2:0:0:
164,184,217021,1,8,0:2:0:0:
312,300,217187,1,2,0:2:0:0:
456,233,217354,5,0,0:2:0:0:
479,191,217437,1,0,0:0:0:0:
479,142,217521,1,2,0:2:0:0:
456,100,217604,1,0,0:0:0:0:
408,89,217687,6,0,P|459:115|511:90,1,120.000004577637,8|2,0:2|0:2,0:0:0:0:
356,43,217937,1,0,0:0:0:0:
356,43,218021,6,0,L|359:139,1,95.9999970703126,4|2,0:2|0:2,0:0:0:0:
248,196,218354,2,0,P|233:150|240:103,1,95.9999970703126,8|2,0:2|0:2,0:0:0:0:
359,139,218687,1,0,0:2:0:0:
260,68,218854,1,2,0:2:0:0:
128,148,219021,2,0,L|130:243,1,95.9999970703126,8|2,0:2|0:2,0:0:0:0:
284,348,219354,5,0,0:2:0:0:
392,236,219521,1,2,0:2:0:0:
328,340,219687,1,8,0:2:0:0:
248,196,219854,1,2,0:2:0:0:
36,304,220021,5,0,0:2:0:0:
36,304,220354,1,0,0:2:0:0:
89,160,220521,1,2,0:2:0:0:
89,160,220604,1,0,0:0:0:0:
89,160,220687,6,0,P|82:206|103:249,1,95.9999970703126,4|2,0:2|0:2,0:0:0:0:
263,106,221021,2,0,P|269:152|248:195,1,95.9999970703126,8|2,0:2|0:2,0:0:0:0:
181,138,221354,1,0,0:2:0:0:
352,156,221521,1,2,0:2:0:0:
281,280,221687,2,0,P|234:286|191:265,1,95.9999970703126,8|2,0:2|0:2,0:0:0:0:
189,44,222021,5,0,0:2:0:0:
349,20,222187,1,2,0:2:0:0:
263,106,222354,1,8,0:2:0:0:
423,130,222521,1,2,0:2:0:0:
324,265,222687,5,0,0:2:0:0:
282,242,222771,1,0,0:0:0:0:
233,242,222854,1,2,0:2:0:0:
191,265,222937,1,0,0:0:0:0:
181,313,223021,6,0,P|188:255|133:204,1,120.000004577637,8|2,0:2|0:2,0:0:0:0:
21,280,223271,1,0,0:0:0:0:
21,280,223354,6,0,L|116:277,1,95.9999970703126,0|2,0:2|0:2,0:0:0:0:
308,172,223687,2,0,L|213:169,1,95.9999970703126,8|2,0:2|0:2,0:0:0:0:
260,320,224021,1,0,0:2:0:0:
333,206,224187,1,2,0:2:0:0:
220,77,224354,2,0,P|204:122|212:169,1,95.9999970703126,8|2,0:2|0:2,0:0:0:0:
421,78,224687,5,0,0:2:0:0:
333,206,224854,1,2,0:2:0:0:
313,98,225021,1,8,0:2:0:0:
441,186,225187,1,2,0:2:0:0:
421,78,225354,5,0,0:2:0:0:
285,274,225521,1,2,0:2:0:0:
313,98,225687,1,8,0:2:0:0:
509,234,225854,1,2,0:2:0:0:
510,59,226021,6,0,P|468:81|421:78,1,95.9999970703126,4|2,0:1|0:2,0:0:0:0:
255,164,226354,2,0,P|296:185|344:182,1,95.9999970703126,8|2,0:2|0:2,0:0:0:0:
189,109,226687,2,0,P|170:152|178:199,1,95.9999970703126,0|2,0:2|0:2,0:0:0:0:
410,232,227021,2,0,P|428:188|420:141,1,95.9999970703126,8|2,0:2|0:2,0:0:0:0:
265,78,227354,5,0,0:2:0:0:
345,182,227521,1,2,0:2:0:0:
317,10,227687,1,8,0:2:0:0:
178,199,227854,1,2,0:2:0:0:
12,72,228021,5,0,0:2:0:0:
54,49,228104,1,0,0:0:0:0:
103,49,228187,1,2,0:2:0:0:
145,72,228271,1,0,0:0:0:0:
156,120,228354,6,0,P|130:69|155:17,1,120.000004577637,8|2,0:2|0:2,0:0:0:0:
252,84,228604,1,0,0:0:0:0:
252,84,228687,6,0,L|233:178,1,95.9999970703126,0|2,0:2|0:2,0:0:0:0:
112,256,229021,2,0,P|87:215|90:168,1,95.9999970703126,8|2,0:2|0:2,0:0:0:0:
314,150,229354,2,0,P|316:197|292:237,1,95.9999970703126,0|2,0:2|0:2,0:0:0:0:
61,318,229687,2,0,P|104:336|151:327,1,95.9999970703126,8|2,0:2|0:2,0:0:0:0:
233,178,230021,5,0,0:2:0:0:
384,216,230187,1,2,0:2:0:0:
376,260,230271,1,0,0:0:0:0:
368,304,230354,1,8,0:2:0:0:
291,237,230521,1,2,0:2:0:0:
476,184,230687,5,0,0:2:0:0:
468,228,230771,1,0,0:0:0:0:
460,272,230854,1,2,0:2:0:0:
452,316,230937,1,0,0:0:0:0:
444,360,231021,1,12,0:1:0:0:
276,328,231187,1,2,0:2:0:0:
303,114,231354,6,0,P|325:121|343:136,1,47.9999985351563,4|0,0:1|0:0,0:0:0:0:
291,190,231521,2,0,P|296:213|291:236,1,47.9999985351563,2|0,0:2|0:0,0:0:0:0:
219,217,231687,2,0,P|201:233|178:240,1,47.9999985351563,8|0,0:2|0:0,0:0:0:0:
159,168,231854,2,0,P|136:160|118:145,1,47.9999985351563,2|0,0:2|0:0,0:0:0:0:
171,92,232021,2,0,P|165:68|170:45,1,47.9999985351563,0|0,0:2|0:0,0:0:0:0:
243,65,232187,2,0,P|260:48|283:41,1,47.9999985351563,2|0,0:2|0:0,0:0:0:0:
303,114,232354,2,0,P|325:121|343:136,1,47.9999985351563,8|0,0:2|0:0,0:0:0:0:
291,190,232521,2,0,P|296:213|291:236,1,47.9999985351563,2|0,0:2|0:0,0:0:0:0:
105,223,232687,6,0,P|82:231|66:248,1,47.9999985351563,4|0,0:2|0:0,0:0:0:0:
123,296,232854,2,0,P|119:319|126:342,1,47.9999985351563,2|0,0:2|0:0,0:0:0:0:
197,318,233021,2,0,P|215:332|239:337,1,47.9999985351563,8|0,0:2|0:0,0:0:0:0:
253,264,233187,2,0,P|274:254|291:236,1,47.9999985351563,2|0,0:2|0:0,0:0:0:0:
234,189,233354,2,0,P|237:165|230:142,1,47.9999985351563,0|0,0:2|0:0,0:0:0:0:
160,167,233521,2,0,P|141:152|118:146,1,47.9999985351563,2|0,0:2|0:0,0:0:0:0:
105,223,233687,2,0,P|82:231|66:248,1,47.9999985351563,8|0,0:2|0:0,0:0:0:0:
123,296,233854,2,0,P|119:319|126:342,1,47.9999985351563,2|0,0:2|0:0,0:0:0:0:
352,344,234021,5,4,0:2:0:0:
427,168,234187,1,2,0:2:0:0:
234,189,234354,1,8,0:2:0:0:
340,244,234521,1,2,0:2:0:0:
356,56,234687,6,0,L|332:53,2,23.9999992675781,4|0|0,0:2|0:0|0:0,0:0:0:0:
295,75,234854,2,0,L|271:72,2,23.9999992675781,2|0|0,0:2|0:0|0:0,0:0:0:0:
235,51,235021,2,0,L|187:45,1,47.9999985351563,8|0,0:2|0:0,0:0:0:0:
155,75,235187,2,0,L|107:69,1,47.9999985351563,2|0,0:2|0:0,0:0:0:0:
16,148,235354,5,4,0:2:0:0:
24,192,235437,1,0,0:0:0:0:
32,236,235521,1,2,0:2:0:0:
40,280,235604,1,0,0:0:0:0:
48,324,235687,2,0,L|104:336,1,47.9999985351563,8|0,0:2|0:0,0:0:0:0:
172,240,235854,2,0,L|116:252,1,47.9999985351563,2|0,0:2|0:0,0:0:0:0:
226,305,236021,5,0,0:2:0:0:
253,266,236104,1,0,0:0:0:0:
254,219,236187,1,2,0:2:0:0:
229,178,236271,1,0,0:0:0:0:
186,159,236354,1,8,0:2:0:0:
161,118,236437,1,0,0:0:0:0:
163,71,236521,1,2,0:2:0:0:
191,32,236604,1,0,0:0:0:0:
236,18,236687,5,4,0:1:0:0:
328,88,236854,2,0,L|312:133,2,47.9999985351563,2|0|8,0:2|0:0|0:2,0:0:0:0:
428,32,237187,2,0,L|443:77,1,47.9999985351563,2|0,0:2|0:0,0:0:0:0:
512,184,237354,5,0,0:2:0:0:
489,226,237437,1,0,0:0:0:0:
443,241,237521,1,2,0:2:0:0:
400,218,237604,1,0,0:0:0:0:
386,173,237687,1,8,0:2:0:0:
324,272,237854,1,2,0:2:0:0:
220,220,238021,5,0,0:2:0:0:
144,304,238187,2,0,L|97:314,2,47.9999985351563,2|0|8,0:2|0:0|0:2,0:0:0:0:
72,212,238521,2,0,L|25:201,1,47.9999985351563,2|0,0:2|0:0,0:0:0:0:
140,120,238687,5,0,0:2:0:0:
140,120,239021,1,0,0:2:0:0:
256,188,239187,1,2,0:2:0:0:
256,188,239271,1,0,0:0:0:0:
256,188,239354,5,0,0:2:0:0:
236,300,239521,2,0,L|244:348,2,47.9999985351563,2|0|8,0:2|0:0|0:2,0:0:0:0:
340,252,239854,2,0,L|348:204,1,47.9999985351563,2|0,0:2|0:0,0:0:0:0:
344,88,240021,5,0,0:2:0:0:
321,45,240104,1,0,0:0:0:0:
275,30,240187,1,2,0:2:0:0:
232,54,240271,1,0,0:0:0:0:
218,98,240354,1,8,0:2:0:0:
104,72,240521,1,2,0:2:0:0:
136,184,240687,5,0,0:2:0:0:
60,272,240854,2,0,L|13:261,2,47.9999985351563,2|0|8,0:2|0:0|0:2,0:0:0:0:
132,360,241187,2,0,L|178:349,1,47.9999985351563,2|0,0:2|0:0,0:0:0:0:
272,288,241354,6,0,P|309:222|268:159,1,160,0|12,0:2|0:2,0:0:0:0:
404,148,241854,1,2,0:2:0:0:
400,168,241937,1,0,0:0:0:0:
396,188,242021,5,4,0:2:0:0:
235,224,242187,2,0,L|187:215,2,47.9999985351563,2|0|8,0:2|0:0|0:2,0:0:0:0:
272,84,242521,2,0,L|319:75,1,47.9999985351563,2|0,0:2|0:0,0:0:0:0:
452,84,242687,5,0,0:2:0:0:
494,107,242771,1,0,0:0:0:0:
509,153,242854,1,2,0:2:0:0:
486,196,242937,1,0,0:0:0:0:
441,210,243021,1,8,0:2:0:0:
304,168,243187,1,2,0:2:0:0:
344,280,243354,5,0,0:2:0:0:
240,328,243521,2,0,L|225:373,2,47.9999985351563,2|0|8,0:2|0:0|0:2,0:0:0:0:
132,288,243854,2,0,L|117:242,1,47.9999985351563,2|0,0:2|0:0,0:0:0:0:
188,136,244021,5,0,0:2:0:0:
188,136,244354,1,0,0:2:0:0:
148,28,244521,1,2,0:2:0:0:
148,28,244604,1,0,0:0:0:0:
148,28,244687,5,0,0:2:0:0:
48,84,244854,2,0,L|1:72,2,47.9999985351563,2|0|8,0:2|0:0|0:2,0:0:0:0:
141,147,245187,2,0,L|188:136,1,47.9999985351563,2|0,0:2|0:0,0:0:0:0:
288,76,245354,5,0,0:2:0:0:
333,90,245437,1,0,0:0:0:0:
356,133,245521,1,2,0:2:0:0:
341,179,245604,1,0,0:0:0:0:
299,202,245687,1,8,0:2:0:0:
224,296,245854,1,2,0:2:0:0:
312,384,246021,5,0,0:2:0:0:
408,312,246187,2,0,L|419:232,2,80,2|8|2,0:2|0:2|0:2,0:0:0:0:
299,202,246687,5,0,0:2:0:0:
432,84,246854,1,2,0:2:0:0:
492,188,247021,1,12,0:2:0:0:
328,92,247187,1,2,0:2:0:0:
196,180,247354,5,4,0:2:0:0:
112,84,247521,2,0,L|104:36,2,47.9999985351563,2|0|8,0:2|0:0|0:2,0:0:0:0:
24,164,247854,2,0,L|16:211,1,47.9999985351563,2|0,0:2|0:0,0:0:0:0:
52,316,248021,5,0,0:2:0:0:
81,353,248104,1,0,0:0:0:0:
129,360,248187,1,2,0:2:0:0:
168,330,248271,1,0,0:0:0:0:
174,283,248354,1,8,0:2:0:0:
120,180,248521,1,2,0:2:0:0:
224,112,248687,5,0,0:2:0:0:
296,208,248854,2,0,L|343:198,2,47.9999985351563,2|0|8,0:2|0:0|0:2,0:0:0:0:
221,294,249187,2,0,L|174:283,1,47.9999985351563,2|0,0:2|0:0,0:0:0:0:
300,376,249354,5,0,0:2:0:0:
300,376,249687,1,0,0:2:0:0:
412,296,249854,1,2,0:2:0:0:
412,296,249937,1,0,0:0:0:0:
412,296,250021,5,0,0:2:0:0:
342,198,250187,2,0,L|334:150,2,47.9999985351563,2|0|8,0:2|0:0|0:2,0:0:0:0:
456,148,250521,2,0,L|464:100,1,47.9999985351563,2|0,0:2|0:0,0:0:0:0:
376,24,250687,5,0,0:2:0:0:
328,13,250771,1,0,0:0:0:0:
287,39,250854,1,2,0:2:0:0:
277,87,250937,1,0,0:0:0:0:
302,126,251021,1,8,0:2:0:0:
256,232,251187,1,2,0:2:0:0:
156,180,251354,5,0,0:2:0:0:
60,244,251521,2,0,L|13:233,2,47.9999985351563,2|0|8,0:2|0:0|0:2,0:0:0:0:
120,344,251854,2,0,L|166:333,1,47.9999985351563,2|0,0:2|0:0,0:0:0:0:
251,269,252021,5,0,0:2:0:0:
256,232,252104,1,0,0:0:0:0:
260,196,252187,1,2,0:2:0:0:
265,159,252271,1,0,0:0:0:0:
270,123,252354,2,0,L|283:218,1,95.9999970703126,12|2,0:2|0:2,0:0:0:0:
384,132,252687,5,4,0:2:0:0:
320,20,252854,2,0,L|272:11,2,47.9999985351563,2|0|8,0:2|0:0|0:2,0:0:0:0:
270,123,253187,2,0,L|222:114,1,47.9999985351563,2|0,0:2|0:0,0:0:0:0:
128,56,253354,5,0,0:2:0:0:
86,79,253437,1,0,0:0:0:0:
71,125,253521,1,2,0:2:0:0:
94,168,253604,1,0,0:0:0:0:
139,182,253687,1,8,0:2:0:0:
222,114,253854,1,2,0:2:0:0:
196,244,254021,5,4,0:2:0:0:
304,184,254187,2,0,L|352:175,2,47.9999985351563,2|0|8,0:2|0:0|0:2,0:0:0:0:
368,280,254521,2,0,L|416:271,1,47.9999985351563,2|0,0:2|0:0,0:0:0:0:
484,192,254687,5,0,0:2:0:0:
512,152,254771,1,0,0:0:0:0:
506,104,254854,1,2,0:2:0:0:
467,75,254937,1,0,0:0:0:0:
420,81,255021,1,8,0:2:0:0:
351,175,255187,1,2,0:2:0:0:
304,184,255271,1,0,0:0:0:0:
260,168,255354,6,0,L|248:72,1,95.9999970703126,4|2,0:2|0:2,0:0:0:0:
176,32,255604,1,0,0:0:0:0:
176,32,255687,2,0,L|164:127,1,95.9999970703126,8|2,0:2|0:2,0:0:0:0:
315,99,255937,1,0,0:0:0:0:
315,99,256021,2,0,P|318:52|290:13,1,95.9999970703126,4|2,0:2|0:2,0:0:0:0:
97,100,256271,1,0,0:0:0:0:
97,100,256354,2,0,P|93:146|121:185,1,95.9999970703126,8|2,0:2|0:2,0:0:0:0:
100,264,256604,1,0,0:0:0:0:
100,264,256687,6,0,L|53:276,1,47.9999985351563,0|0,0:2|0:0,0:0:0:0:
56,356,256854,2,0,L|102:368,1,47.9999985351563,2|0,0:2|0:0,0:0:0:0:
224,264,257021,2,0,L|177:276,1,47.9999985351563,8|0,0:2|0:0,0:0:0:0:
180,356,257187,2,0,L|226:368,1,47.9999985351563,2|0,0:2|0:0,0:0:0:0:
288,317,257354,5,0,0:2:0:0:
329,294,257437,1,0,0:0:0:0:
356,255,257521,1,2,0:2:0:0:
364,208,257604,1,0,0:0:0:0:
351,162,257687,1,8,0:2:0:0:
319,126,257771,1,0,0:0:0:0:
275,108,257854,1,2,0:2:0:0:
228,110,257937,1,0,0:0:0:0:
187,133,258021,5,4,0:0:0:0:
288,318,258687,1,0,0:2:0:0:
354,202,259354,1,2,0:2:0:0:
172,243,260021,1,0,0:2:0:0:
263,190,260687,5,2,0:2:0:0:
57,166,261354,1,0,0:2:0:0:
192,331,262021,1,2,0:2:0:0:
207,177,262687,1,0,0:2:0:0:
319,262,263354,5,2,0:2:0:0:
417,109,264021,1,0,0:2:0:0:
257,177,264687,1,2,0:2:0:0:
401,247,265354,1,0,0:2:0:0:
337,103,266021,5,2,0:2:0:0:
197,278,266687,1,0,0:2:0:0:
346,222,267354,1,2,0:2:0:0:
139,190,268021,1,0,0:2:0:0:
248,171,268687,6,0,L|252:126,2,26.6666666666667,4|0|0,0:2|0:0|0:0,0:0:0:0:
273,238,269021,2,0,L|278:264,2,26.6666666666667,2|0|0,0:2|0:0|0:0,0:0:0:0:
320,183,269354,2,0,L|324:138,2,26.6666666666667,0|0|0,0:2|0:0|0:0,0:0:0:0:
345,250,269687,2,0,L|350:276,2,26.6666666666667,2|0|0,0:2|0:0|0:0,0:0:0:0:
393,196,270021,6,0,L|397:151,2,26.6666666666667,0|0|0,0:2|0:0|0:0,0:0:0:0:
418,263,270354,2,0,L|423:289,2,26.6666666666667,2|0|0,0:2|0:0|0:0,0:0:0:0:
464,209,270687,1,0,0:2:0:0:
276,309,271354,6,0,L|242:317,2,26.6666666666667,0|0|0,0:2|0:0|0:0,0:0:0:0:
291,238,271687,2,0,L|287:211,2,26.6666666666667,2|0|0,0:2|0:0|0:0,0:0:0:0:
218,240,272021,2,0,L|184:248,2,26.6666666666667,0|0|0,0:2|0:0|0:0,0:0:0:0:
233,169,272354,2,0,L|229:142,2,26.6666666666667,2|0|0,0:2|0:0|0:0,0:0:0:0:
161,168,272687,6,0,L|127:176,2,26.6666666666667,0|0|0,0:2|0:0|0:0,0:0:0:0:
176,97,273021,2,0,L|172:70,2,26.6666666666667,2|0|0,0:2|0:0|0:0,0:0:0:0:
241,64,273354,2,0,L|237:37,2,26.6666666666667,0|0|0,0:2|0:0|0:0,0:0:0:0:
305,96,273687,2,0,L|330:89,2,26.6666666666667,2|0|0,0:2|0:0|0:0,0:0:0:0:
343,157,274021,6,0,L|368:150,2,26.6666666666667,0|0|0,0:2|0:0|0:0,0:0:0:0:
310,221,274354,2,0,L|306:247,2,26.6666666666667,2|0|0,0:2|0:0|0:0,0:0:0:0:
381,228,274687,2,0,L|390:252,2,26.6666666666667,0|0|0,0:2|0:0|0:0,0:0:0:0:
434,178,275021,2,0,L|454:194,2,26.6666666666667,2|0|0,0:2|0:0|0:0,0:0:0:0:
449,107,275354,6,0,L|475:110,2,26.6666666666667,0|0|0,0:2|0:0|0:0,0:0:0:0:
415,43,275687,2,0,L|439:33,2,26.6666666666667,2|0|0,0:2|0:0|0:0,0:0:0:0:
350,76,276021,1,0,0:2:0:0:
235,268,276687,6,0,L|221:302,2,26.6666666666667,0|0|0,0:2|0:0|0:0,0:0:0:0:
176,224,277021,2,0,L|146:246,2,26.6666666666667,2|0|0,0:2|0:0|0:0,0:0:0:0:
158,154,277354,2,0,L|121:158,2,26.6666666666667,0|0|0,0:2|0:0|0:0,0:0:0:0:
176,84,277687,2,0,L|142:70,2,26.6666666666667,2|0|0,0:2|0:0|0:0,0:0:0:0:
229,133,278021,6,0,L|249:150,2,26.6666666666667,0|0|0,0:2|2:0|2:0,0:0:0:0:
292,96,278354,2,0,L|318:101,2,26.6666666666667,2|0|0,0:2|2:0|2:0,0:0:0:0:
317,30,278687,2,0,L|342:21,2,26.6666666666667,0|0|0,0:2|2:0|2:0,0:0:0:0:
244,31,279021,2,0,L|254:0,2,26.6666666666667,2|0|0,0:2|2:0|2:0,0:0:0:0:
173,69,279354,6,0,L|140:91,3,40,4|0|2|0,0:1|0:0|0:2|0:0,0:0:0:0:
118,116,279687,2,0,L|101:152,3,40,0|0|2|0,0:2|0:0|0:2|0:0,0:0:0:0:
97,183,280020,2,0,L|100:222,3,40,0|0|2|0,0:2|0:0|0:2|0:0,0:0:0:0:
107,254,280354,2,0,L|129:286,3,40,0|0|2|0,0:2|0:0|0:2|0:0,0:0:0:0:
197,317,280687,5,0,0:2:0:0:
213,290,280770,1,0,0:0:0:0:
237,269,280854,1,2,0:2:0:0:
266,256,280937,1,0,0:0:0:0:
297,251,281020,2,0,L|335:265,1,40,0|0,0:2|0:0,0:0:0:0:
390,207,281187,2,0,L|352:192,1,40,2|0,0:2|0:0,0:0:0:0:
344,109,281354,2,0,L|381:123,1,40,0|0,0:2|0:0,0:0:0:0:
436,64,281520,2,0,L|398:49,1,40,2|0,0:2|0:0,0:0:0:0:
313,31,281687,5,0,0:2:0:0:
281,53,281770,1,0,0:0:0:0:
263,89,281854,1,2,0:2:0:0:
264,128,281937,1,0,0:0:0:0:
282,163,282020,6,0,L|279:203,3,40,0|0|2|0,0:2|0:0|0:2|0:0,0:0:0:0:
278,243,282354,2,0,L|274:282,3,40,0|0|2|0,0:2|0:0|0:2|0:0,0:0:0:0:
273,322,282687,1,0,0:2:0:0:
228,336,282770,1,0,0:0:0:0:
180,335,282854,1,2,0:2:0:0:
136,317,282937,1,0,0:0:0:0:
99,286,283020,1,0,0:2:0:0:
75,245,283104,1,0,0:0:0:0:
66,198,283187,1,2,0:2:0:0:
73,151,283270,1,0,0:0:0:0:
86,104,283354,6,0,L|99:65,1,40,0|0,0:2|0:0,0:0:0:0:
187,103,283520,2,0,L|184:143,1,40,2|0,0:2|0:0,0:0:0:0:
280,137,283687,2,0,L|272:96,1,40,0|0,0:2|0:0,0:0:0:0:
354,49,283854,2,0,L|372:83,1,40,2|0,0:2|0:0,0:0:0:0:
390,164,284020,5,0,2:2:0:0:
390,164,284104,1,0,2:0:0:0:
390,164,284187,1,2,2:2:0:0:
377,212,284270,1,0,2:0:0:0:
401,256,284354,1,0,2:2:0:0:
448,275,284437,1,0,2:0:0:0:
496,257,284520,1,2,2:2:0:0:
512,213,284604,1,0,2:0:0:0:
507,168,284687,6,0,L|497:129,3,40,4|0|2|0,0:2|0:0|0:2|0:0,0:0:0:0:
466,82,285020,2,0,L|431:61,3,40,0|0|2|0,0:2|0:0|0:2|0:0,0:0:0:0:
376,48,285354,2,0,L|337:57,3,40,0|0|2|0,0:2|0:0|0:2|0:0,0:0:0:0:
294,94,285687,2,0,L|273:128,3,40,0|0|2|0,0:2|0:0|0:2|0:0,0:0:0:0:
252,215,286020,5,0,0:2:0:0:
252,215,286104,1,0,0:0:0:0:
252,215,286187,2,0,L|248:254,1,40,2|0,0:2|0:0,0:0:0:0:
181,330,286354,1,0,0:2:0:0:
181,330,286437,1,0,0:0:0:0:
181,330,286520,2,0,L|177:290,1,40,2|0,0:2|0:0,0:0:0:0:
110,216,286687,5,0,0:2:0:0:
110,216,286770,1,0,0:0:0:0:
110,216,286854,2,0,L|106:255,1,40,2|0,0:2|0:0,0:0:0:0:
39,331,287020,1,0,0:2:0:0:
39,331,287104,1,0,0:0:0:0:
39,331,287187,2,0,L|35:291,1,40,2|0,0:2|0:0,0:0:0:0:
25,203,287354,5,0,0:2:0:0:
39,166,287437,1,0,0:0:0:0:
68,140,287520,1,2,0:2:0:0:
106,129,287604,1,0,0:0:0:0:
145,137,287687,1,0,0:2:0:0:
176,162,287770,1,0,0:0:0:0:
193,198,287854,1,2,0:2:0:0:
192,237,287937,1,0,0:0:0:0:
206,287,288020,5,0,0:2:0:0:
238,327,288104,1,0,0:0:0:0:
284,352,288187,1,2,0:2:0:0:
335,358,288270,1,0,0:0:0:0:
385,344,288354,1,0,0:2:0:0:
425,312,288437,1,0,0:0:0:0:
451,267,288520,1,2,0:2:0:0:
458,216,288604,1,0,0:0:0:0:
456,168,288687,6,0,L|452:127,1,40,0|0,0:2|0:0,0:0:0:0:
361,84,288854,2,0,L|350:122,1,40,2|0,0:2|0:0,0:0:0:0:
256,152,289020,2,0,L|252:111,1,40,0|0,0:2|0:0,0:0:0:0:
162,69,289187,2,0,L|151:107,1,40,2|0,0:2|0:0,0:0:0:0:
124,183,289354,5,0,0:2:0:0:
143,239,289437,1,0,0:0:0:0:
181,285,289520,1,2,0:2:0:0:
232,316,289604,1,0,0:0:0:0:
290,328,289687,1,0,0:2:0:0:
349,318,289770,1,0,0:0:0:0:
402,290,289854,1,2,0:2:0:0:
441,245,289937,1,0,0:0:0:0:
463,189,290020,5,6,0:1:0:0:
447,79,290354,2,0,P|416:75|385:82,1,64,0|2,0:2|0:2,0:0:0:0:
284,200,290854,1,2,0:2:0:0:
144,136,291187,1,2,0:2:0:0:
264,40,291520,2,0,P|274:69|271:101,2,64,2|0|2,0:2|0:2|0:2,0:0:0:0:
68,80,292020,2,0,P|131:86|195:82,1,128,0|2,0:2|0:2,0:0:0:0:
160,252,292687,6,0,P|152:221|151:189,1,64,0|2,0:2|0:2,0:0:0:0:
256,188,293020,2,0,P|248:218|247:250,1,64,0|2,0:2|0:2,0:0:0:0:
351,255,293354,2,0,P|343:224|342:193,1,64,0|2,0:2|0:2,0:0:0:0:
342,193,293604,1,0,0:0:0:0:
342,193,293687,1,0,0:2:0:0:
432,192,293854,1,2,0:2:0:0:
492,52,294020,5,0,0:2:0:0:
420,40,294187,1,2,0:2:0:0:
408,112,294354,1,0,0:2:0:0:
480,124,294520,1,2,0:2:0:0:
342,193,294687,2,0,L|332:129,1,64,0|2,0:2|0:2,0:0:0:0:
260,44,295020,2,0,L|250:107,1,64,0|2,0:2|0:2,0:0:0:0:
192,183,295354,5,0,0:2:0:0:
31,175,295687,2,0,P|24:145|28:113,1,64,0|2,0:2|0:2,0:0:0:0:
176,32,296187,1,2,0:2:0:0:
324,116,296520,2,0,P|329:147|321:178,2,64,2|0|2,0:2|0:2|0:2,0:0:0:0:
244,232,297187,2,0,P|307:223|369:235,1,128,2|2,0:2|0:2,0:0:0:0:
168,288,297854,1,2,0:2:0:0:
168,288,298020,6,0,P|155:258|150:227,1,64,0|2,0:2|0:2,0:0:0:0:
256,320,298354,2,0,P|254:351|243:381,1,64,0|2,0:2|0:2,0:0:0:0:
244,232,298687,1,0,0:2:0:0:
244,232,298854,2,0,P|245:200|256:170,1,64,2|0,0:2|0:2,0:0:0:0:
344,172,299187,1,2,0:2:0:0:
344,172,299354,6,0,L|353:235,1,64,0|2,0:2|0:2,0:0:0:0:
336,244,299854,2,0,L|352:117,1,128,2|2,0:2|0:2,0:0:0:0:
444,76,300354,1,0,0:2:0:0:
448,162,300520,1,2,0:2:0:0:
256,170,300687,5,4,0:1:0:0:
252,84,301020,5,0,0:2:0:0:
260,256,301187,1,2,0:2:0:0:
107,176,301520,5,2,0:2:0:0:
336,169,301854,6,0,L|256:170,1,80,2|0,0:2|0:2,0:0:0:0:
107,176,302187,1,2,0:2:0:0:
184,219,302354,1,0,0:2:0:0:
181,129,302520,1,2,0:2:0:0:
260,256,302687,1,0,0:2:0:0:
237,287,302770,1,0,0:0:0:0:
200,304,302854,1,2,0:2:0:0:
161,301,302937,1,0,0:0:0:0:
127,279,303020,1,0,0:2:0:0:
181,129,303354,5,0,0:2:0:0:
76,144,303520,1,2,0:2:0:0:
172,112,303687,1,0,0:2:0:0:
73,72,303854,1,2,0:2:0:0:
172,92,304020,1,0,0:2:0:0:
106,8,304187,1,2,0:2:0:0:
106,8,304270,1,0,0:0:0:0:
106,8,304354,1,0,0:2:0:0:
182,75,304520,1,2,0:2:0:0:
300,24,304687,6,0,L|379:12,1,80,0|2,0:2|0:2,0:0:0:0:
300,132,305020,2,0,L|379:143,1,80,0|2,0:2|0:2,0:0:0:0:
416,300,305354,1,0,0:2:0:0:
378,311,305437,1,0,0:0:0:0:
339,304,305520,1,2,0:2:0:0:
307,281,305604,1,0,0:0:0:0:
289,245,305687,1,0,0:2:0:0:
376,220,305854,1,2,0:2:0:0:
232,320,306020,5,0,0:2:0:0:
140,300,306187,1,2,0:2:0:0:
44,280,306354,1,0,0:2:0:0:
44,164,306520,1,2,0:2:0:0:
136,144,306687,1,0,0:2:0:0:
232,124,306854,1,2,0:2:0:0:
328,252,307020,1,0,0:2:0:0:
408,160,307187,1,2,0:2:0:0:
328,252,307354,6,0,L|248:263,1,80,0|2,0:2|0:2,0:0:0:0:
248,263,307604,1,0,0:0:0:0:
248,263,307687,1,0,0:2:0:0:
284,144,307854,1,2,0:2:0:0:
396,193,308020,1,0,0:2:0:0:
416,226,308103,1,0,0:0:0:0:
419,266,308187,1,2,0:2:0:0:
405,302,308270,1,0,0:0:0:0:
374,329,308353,2,0,L|294:340,1,80,0|2,0:2|0:2,0:0:0:0:
144,212,308687,5,0,0:2:0:0:
105,222,308770,1,0,0:0:0:0:
79,251,308853,1,2,0:2:0:0:
72,292,308937,1,0,0:0:0:0:
89,328,309020,1,0,0:2:0:0:
123,349,309103,1,0,0:0:0:0:
163,350,309187,1,2,0:2:0:0:
196,328,309270,1,0,0:0:0:0:
213,292,309353,6,0,L|216:331,1,40,0|0,0:2|0:0,0:0:0:0:
284,200,309520,1,2,0:2:0:0:
284,200,309603,1,0,0:0:0:0:
284,200,309687,2,0,L|280:239,1,40,0|0,0:2|0:0,0:0:0:0:
176,116,309853,2,0,L|180:155,1,40,2|0,0:2|0:0,0:0:0:0:
68,188,310020,6,0,P|32:119|68:50,1,160,0|0,0:2|0:2,0:0:0:0:
176,116,310520,1,2,0:2:0:0:
300,36,310687,1,0,0:2:0:0:
296,77,310770,1,0,0:0:0:0:
292,118,310853,1,2,0:2:0:0:
288,159,310937,1,0,0:0:0:0:
284,200,311020,2,0,L|263:234,1,40,0|0,0:2|0:0,0:0:0:0:
332,324,311187,2,0,L|352:289,1,40,2|0,0:2|0:0,0:0:0:0:
428,200,311353,5,4,0:1:0:0:
501,264,311520,1,2,0:2:0:0:
488,360,311687,1,8,0:2:0:0:
407,302,311853,2,0,P|367:306|331:323,1,80,2|0,0:2|0:2,0:0:0:0:
187,213,312187,2,0,P|227:216|263:234,1,80,2|8,0:2|0:2,0:0:0:0:
228,360,312520,2,0,P|188:356|152:339,1,80,2|0,0:2|0:2,0:0:0:0:
104,152,312853,5,2,0:2:0:0:
187,213,313020,1,8,0:2:0:0:
242,74,313187,1,2,0:2:0:0:
16,108,313353,2,0,P|7:146|13:185,1,80,0|2,0:2|0:2,0:0:0:0:
245,152,313687,2,0,P|251:112|242:74,1,80,8|2,0:2|0:2,0:0:0:0:
124,72,314020,5,0,0:2:0:0:
104,240,314187,1,2,0:2:0:0:
242,74,314353,1,8,0:2:0:0:
272,240,314520,1,2,0:2:0:0:
124,72,314687,1,0,0:2:0:0:
188,212,314853,1,2,0:2:0:0:
188,212,314937,1,0,0:0:0:0:
188,212,315020,1,8,0:2:0:0:
355,49,315187,1,2,0:2:0:0:
242,74,315353,5,0,0:2:0:0:
332,188,315520,1,2,0:2:0:0:
464,112,315687,1,8,0:2:0:0:
512,248,315853,1,2,0:2:0:0:
349,360,316020,2,0,P|333:324|336:285,1,80,0|2,0:2|0:2,0:0:0:0:
332,188,316353,2,0,P|293:198|264:225,1,80,12|2,0:2|0:2,0:0:0:0:
452,191,316687,6,0,L|464:111,1,80,4|2,0:2|0:2,0:0:0:0:
396,16,317020,1,8,0:2:0:0:
321,109,317187,2,0,L|333:189,1,80,2|0,0:2|0:2,0:0:0:0:
162,93,317520,2,0,P|153:54|164:16,1,80,2|8,0:2|0:2,0:0:0:0:
252,60,317853,1,2,0:2:0:0:
64,68,318020,5,0,0:2:0:0:
142,170,318187,2,0,L|162:93,1,80,2|8,0:2|0:2,0:0:0:0:
292,224,318520,2,0,L|215:246,1,80,2|0,0:2|0:2,0:0:0:0:
240,148,318853,1,2,0:2:0:0:
372,196,319020,1,8,0:2:0:0:
332,336,319187,1,2,0:2:0:0:
472,228,319353,6,0,P|478:188|471:149,1,80,0|2,0:2|0:2,0:0:0:0:
240,148,319687,2,0,P|232:186|239:225,1,80,8|2,0:2|0:2,0:0:0:0:
471,149,320020,1,0,0:2:0:0:
261,150,320187,2,0,P|253:188|260:227,1,80,2|8,0:2|0:2,0:0:0:0:
388,92,320520,1,2,0:2:0:0:
360,196,320687,5,0,0:2:0:0:
232,32,320853,2,0,L|312:21,1,80,2|8,0:2|0:2,0:0:0:0:
132,136,321187,2,0,L|127:57,1,80,2|0,0:2|0:2,0:0:0:0:
261,150,321520,5,2,0:2:0:0:
88,236,321687,1,8,0:2:0:0:
260,352,321853,1,2,0:2:0:0:
452,212,322020,6,0,P|413:203|375:214,1,80,4|2,0:2|0:2,0:0:0:0:
417,295,322353,1,8,0:2:0:0:
364,104,322520,2,0,L|443:96,1,80,2|0,0:2|0:2,0:0:0:0:
261,150,322853,2,0,L|181:142,1,80,2|8,0:2|0:2,0:0:0:0:
280,328,323187,2,0,P|289:289|284:250,1,80,2|0,0:2|0:2,0:0:0:0:
184,284,323520,5,2,0:2:0:0:
261,150,323687,1,8,0:2:0:0:
108,184,323853,1,2,0:2:0:0:
196,40,324020,2,0,L|276:48,1,80,0|2,0:2|0:2,0:0:0:0:
452,73,324353,2,0,P|421:98|382:109,1,80,8|2,0:2|0:2,0:0:0:0:
276,48,324687,5,0,0:2:0:0:
261,150,324853,1,2,0:2:0:0:
371,9,325020,1,8,0:2:0:0:
342,214,325187,1,2,0:2:0:0:
452,73,325353,1,0,0:2:0:0:
437,175,325520,1,2,0:2:0:0:
437,175,325603,1,0,0:0:0:0:
437,175,325687,1,8,0:2:0:0:
261,150,325853,1,2,0:2:0:0:
356,111,326020,5,0,0:2:0:0:
260,288,326187,1,2,0:2:0:0:
261,150,326353,1,8,0:2:0:0:
400,312,326520,1,2,0:2:0:0:
180,320,326687,2,0,P|173:280|185:243,1,80,0|2,0:2|0:2,0:0:0:0:
136,96,327020,2,0,P|96:102|59:90,1,80,12|2,0:2|0:2,0:0:0:0:
0,260,327353,6,0,L|79:252,1,80,4|2,0:2|0:2,0:0:0:0:
280,228,327687,1,8,0:2:0:0:
260,328,327853,2,0,L|180:320,1,80,2|0,0:2|0:2,0:0:0:0:
253,132,328187,2,0,P|293:128|330:142,1,80,2|8,0:2|0:2,0:0:0:0:
416,276,328520,1,2,0:2:0:0:
512,176,328687,5,4,0:1:0:0:
448,56,328853,2,0,L|368:63,1,80,6|8,0:2|0:2,0:0:0:0:
416,275,329187,2,0,P|425:237|417:198,1,80,2|0,0:2|0:2,0:0:0:0:
308,240,329520,1,2,0:2:0:0:
408,384,329687,2,0,P|447:381|482:361,1,80,8|2,0:2|0:2,0:0:0:0:
417,198,330020,5,4,0:2:0:0:
256,336,330187,1,2,0:2:0:0:
252,76,330353,1,8,0:2:0:0:
416,283,330520,1,2,0:2:0:0:
420,132,330687,1,4,0:2:0:0:
168,200,330853,1,2,0:2:0:0:
168,200,330937,1,0,0:0:0:0:
168,200,331020,1,8,0:2:0:0:
152,76,331187,1,2,0:2:0:0:
60,284,331353,5,4,0:2:0:0:
296,252,331520,1,2,0:2:0:0:
296,252,331603,1,0,0:0:0:0:
296,252,331687,1,8,0:2:0:0:
168,200,331853,1,2,0:2:0:0:
428,96,332020,1,4,0:2:0:0:
320,356,332187,1,2,0:2:0:0:
272,140,332353,1,12,0:2:0:0:
272,140,332437,1,0,0:0:0:0:
272,140,332520,2,0,L|311:146,1,40,2|0,0:2|0:0,0:0:0:0:
336,64,332687,6,0,P|299:52|259:55,1,80,4|2,0:1|0:2,0:0:0:0:
212,212,333020,1,8,0:2:0:0:
400,212,333187,2,0,P|419:177|424:137,1,80,2|0,0:2|0:2,0:0:0:0:
304,260,333520,2,0,L|312:340,1,80,2|8,0:2|0:2,0:0:0:0:
485,268,333853,2,0,P|501:232|502:192,1,80,2|0,0:2|0:2,0:0:0:0:
336,64,334187,5,2,0:2:0:0:
200,148,334353,1,8,0:2:0:0:
304,260,334520,1,2,0:2:0:0:
88,208,334687,2,0,L|77:128,1,80,0|2,0:2|0:2,0:0:0:0:
211,72,335020,2,0,P|216:111|200:148,1,80,8|2,0:2|0:2,0:0:0:0:
12,296,335353,5,0,0:2:0:0:
212,248,335520,1,2,0:2:0:0:
77,128,335687,1,8,0:2:0:0:
308,184,335853,1,2,0:2:0:0:
100,232,336020,1,0,0:2:0:0:
211,72,336187,1,2,0:2:0:0:
211,72,336270,1,0,0:0:0:0:
211,72,336353,1,8,0:2:0:0:
333,269,336520,1,2,0:2:0:0:
368,32,336687,5,0,0:2:0:0:
212,248,336853,1,2,0:2:0:0:
211,72,337020,1,8,0:2:0:0:
448,168,337187,1,2,0:2:0:0:
377,353,337353,2,0,P|338:363|300:355,1,80,0|2,0:2|0:2,0:0:0:0:
293,121,337687,2,0,P|331:112|369:123,1,80,12|2,0:2|0:2,0:0:0:0:
212,248,338020,6,0,L|204:168,1,80,4|2,0:2|0:2,0:0:0:0:
328,212,338353,1,8,0:2:0:0:
464,156,338520,2,0,P|471:116|462:78,1,80,2|0,0:2|0:2,0:0:0:0:
203,91,338853,2,0,P|194:129|204:168,1,80,2|8,0:2|0:2,0:0:0:0:
369,123,339187,1,2,0:2:0:0:
276,268,339353,5,0,0:2:0:0:
384,372,339520,2,0,L|462:357,1,80,2|8,0:2|0:2,0:0:0:0:
448,224,339853,2,0,P|410:212|370:217,1,80,2|0,0:2|0:2,0:0:0:0:
200,344,340187,1,2,0:2:0:0:
129,161,340353,1,8,0:2:0:0:
276,268,340520,1,2,0:2:0:0:
316,32,340687,6,0,P|278:24|239:31,1,80,0|2,0:2|0:2,0:0:0:0:
352,208,341020,2,0,P|365:172|365:131,1,80,8|2,0:2|0:2,0:0:0:0:
193,148,341353,1,0,0:2:0:0:
333,208,341520,2,0,P|346:172|346:131,1,80,2|8,0:2|0:2,0:0:0:0:
178,226,341853,1,2,0:2:0:0:
324,296,342020,5,0,0:2:0:0:
472,216,342187,2,0,L|458:137,1,80,2|8,0:2|0:2,0:0:0:0:
192,147,342520,2,0,L|178:225,1,80,2|0,0:2|0:2,0:0:0:0:
209,361,342853,5,2,0:2:0:0:
53,241,343020,1,8,0:2:0:0:
296,204,343187,1,2,0:2:0:0:
204,48,343353,6,0,P|164:42|126:53,1,80,4|2,0:2|0:2,0:0:0:0:
128,308,343687,1,8,0:2:0:0:
217,219,343853,2,0,L|295:204,1,80,2|0,0:2|0:2,0:0:0:0:
432,132,344187,2,0,L|417:210,1,80,2|8,0:2|0:2,0:0:0:0:
328,356,344520,2,0,P|366:367|405:361,1,80,2|0,0:2|0:2,0:0:0:0:
498,199,344853,5,2,0:2:0:0:
284,180,345020,1,8,0:2:0:0:
369,281,345187,1,2,0:2:0:0:
372,56,345353,2,0,L|292:48,1,80,0|2,0:2|0:2,0:0:0:0:
369,281,345687,2,0,L|448:273,1,80,8|2,0:2|0:2,0:0:0:0:
349,149,346020,5,0,0:2:0:0:
141,121,346187,1,2,0:2:0:0:
225,273,346353,1,8,0:2:0:0:
260,48,346520,1,2,0:2:0:0:
237,185,346687,1,0,0:2:0:0:
49,57,346853,1,2,0:2:0:0:
49,57,346937,1,0,0:0:0:0:
49,57,347020,1,8,0:2:0:0:
25,221,347187,1,2,0:2:0:0:
149,5,347353,5,0,0:2:0:0:
225,273,347520,1,2,0:2:0:0:
364,92,347687,1,8,0:2:0:0:
141,121,347853,1,2,0:2:0:0:
188,356,348020,2,0,P|226:366|264:356,1,80,0|2,0:2|0:2,0:0:0:0:
364,92,348353,1,12,0:2:0:0:
452,296,348520,1,2,0:2:0:0:
225,273,348687,6,0,L|145:268,1,80,0|2,0:2|0:2,0:0:0:0:
141,121,349020,1,8,0:2:0:0:
317,233,349187,2,0,P|323:272|314:310,1,80,2|0,0:2|0:2,0:0:0:0:
56,308,349520,2,0,P|47:269|53:230,1,80,2|8,0:2|0:2,0:0:0:0:
225,273,349853,1,2,0:2:0:0:
280,96,350020,5,4,0:1:0:0:
148,41,350187,2,0,L|140:121,1,80,6|8,0:2|0:2,0:0:0:0:
370,142,350520,2,0,P|383:104|381:65,1,80,2|0,0:2|0:2,0:0:0:0:
137,217,350853,1,2,0:2:0:0:
462,194,351020,2,0,P|475:156|473:117,1,80,8|2,0:2|0:2,0:0:0:0:
249,77,351353,5,4,0:2:0:0:
348,380,351520,1,2,0:2:0:0:
462,194,351687,1,8,0:2:0:0:
121,281,351853,1,2,0:2:0:0:
157,25,352020,1,4,0:2:0:0:
333,249,352187,1,2,0:2:0:0:
333,249,352270,1,0,0:0:0:0:
333,249,352353,1,8,0:2:0:0:
461,65,352520,1,2,0:2:0:0:
213,161,352687,5,4,0:2:0:0:
385,353,352853,2,0,L|379:372,4,20,2|0|0|0|8,0:2|0:0|0:0|0:0|0:2,0:0:0:0:
344,132,353187,5,2,0:2:0:0:
136,304,353353,2,0,L|130:323,6,20,0|0|0|0|2|0|0,0:2|0:0|0:0|0:0|0:2|0:0|0:0,0:0:0:0:
153,235,353687,5,8,0:2:0:0:
142,197,353770,1,0,0:0:0:0:
131,159,353853,1,2,0:2:0:0:
120,121,353937,1,0,0:0:0:0:
110,82,354020,5,4,0:1:0:0:
241,89,354187,1,2,0:2:0:0:
131,159,354353,1,8,0:2:0:0:
179,39,354520,1,2,0:2:0:0:
213,165,354687,1,0,0:2:0:0:
220,192,354770,1,0,0:0:0:0:
227,219,354853,1,2,0:2:0:0:
234,246,354937,1,0,0:0:0:0:
241,273,355020,1,8,0:2:0:0:
376,320,355187,1,2,0:2:0:0:
384,141,355353,5,0,0:2:0:0:
497,202,355520,1,2,0:2:0:0:
327,210,355687,1,8,0:2:0:0:
327,210,355770,1,0,0:0:0:0:
327,210,355853,1,2,0:2:0:0:
493,282,356020,1,0,0:2:0:0:
495,242,356103,1,0,0:0:0:0:
497,202,356187,1,2,0:2:0:0:
499,162,356270,1,0,0:0:0:0:
501,122,356353,5,8,0:2:0:0:
416,204,356520,1,2,0:2:0:0:
333,68,356687,5,0,0:2:0:0:
333,68,356770,1,0,0:0:0:0:
333,68,356853,1,2,0:2:0:0:
327,210,357020,1,8,0:2:0:0:
327,210,357103,1,0,0:0:0:0:
327,210,357187,1,2,0:2:0:0:
244,136,357353,1,0,0:2:0:0:
204,142,357437,1,0,0:0:0:0:
172,165,357520,1,2,0:2:0:0:
152,199,357603,1,0,0:0:0:0:
148,238,357687,1,8,0:2:0:0:
85,143,357853,1,2,0:2:0:0:
85,143,357937,1,0,0:0:0:0:
85,143,358020,5,0,0:2:0:0:
35,247,358187,1,2,0:2:0:0:
35,247,358270,1,0,0:0:0:0:
35,247,358353,1,8,0:2:0:0:
221,273,358520,1,2,0:2:0:0:
106,361,358687,1,0,0:2:0:0:
111,333,358770,1,0,0:0:0:0:
117,306,358853,1,2,0:2:0:0:
123,278,358937,1,0,0:0:0:0:
128,251,359020,2,0,L|140:204,1,40,12|0,0:2|0:0,0:0:0:0:
200,100,359187,2,0,L|225:130,1,40,2|0,0:2|0:0,0:0:0:0:
275,193,359353,5,4,0:2:0:0:
252,343,359520,1,2,0:2:0:0:
206,205,359687,1,8,0:2:0:0:
332,244,359853,1,2,0:2:0:0:
317,98,360020,1,0,0:2:0:0:
344,100,360103,1,0,0:0:0:0:
371,108,360187,1,2,0:2:0:0:
394,125,360270,1,0,0:0:0:0:
409,149,360353,2,0,L|449:80,1,80,8|2,0:2|0:2,0:0:0:0:
492,276,360687,6,0,L|451:207,1,80,0|2,0:2|0:2,0:0:0:0:
371,108,361020,1,8,0:2:0:0:
332,244,361187,1,2,0:2:0:0:
255,130,361353,1,0,0:2:0:0:
232,145,361437,1,0,0:0:0:0:
213,166,361520,1,2,0:2:0:0:
201,191,361603,1,0,0:0:0:0:
195,218,361687,1,8,0:2:0:0:
55,233,361853,1,2,0:2:0:0:
55,233,361937,1,0,0:0:0:0:
55,233,362020,6,0,L|54:153,1,80,0|2,0:2|0:2,0:0:0:0:
195,218,362353,2,0,L|171:141,1,80,8|2,0:2|0:2,0:0:0:0:
135,281,362687,1,0,0:2:0:0:
168,302,362770,1,0,0:0:0:0:
207,306,362853,1,2,0:2:0:0:
244,291,362937,1,0,0:0:0:0:
269,261,363020,2,0,L|295:337,1,80,8|2,0:2|0:2,0:0:0:0:
347,233,363353,6,0,L|372:157,1,80,2|2,0:2|0:2,0:0:0:0:
255,94,363687,2,0,L|280:169,1,80,8|2,0:2|0:2,0:0:0:0:
321,50,364020,1,0,0:2:0:0:
291,25,364103,1,0,0:0:0:0:
253,16,364187,1,2,0:2:0:0:
214,25,364270,1,0,0:0:0:0:
184,51,364353,2,0,L|158:81,1,40,8|0,0:2|0:0,0:0:0:0:
70,127,364520,2,0,L|44:96,1,40,2|0,0:2|0:0,0:0:0:0:
28,216,364687,6,0,L|122:197,1,95.9999970703126,4|2,0:2|0:2,0:0:0:0:
263,171,365020,1,8,0:2:0:0:
203,333,365187,1,2,0:2:0:0:
43,270,365353,1,0,0:2:0:0:
53,244,365437,1,0,0:0:0:0:
71,222,365520,1,2,0:2:0:0:
95,206,365603,1,0,0:0:0:0:
122,197,365687,1,8,0:2:0:0:
203,333,365853,1,2,0:2:0:0:
374,231,366020,6,0,L|278:243,1,95.9999970703126,0|2,0:2|0:2,0:0:0:0:
475,114,366353,2,0,L|379:102,1,95.9999970703126,8|2,0:2|0:2,0:0:0:0:
190,72,366687,1,0,0:2:0:0:
200,98,366770,1,0,0:0:0:0:
211,125,366853,1,2,0:2:0:0:
222,152,366937,1,0,0:0:0:0:
233,178,367020,1,8,0:2:0:0:
125,258,367187,1,2,0:2:0:0:
41,147,367353,5,0,0:2:0:0:
212,266,367520,1,2,0:2:0:0:
211,125,367687,1,8,0:2:0:0:
162,339,367853,1,2,0:2:0:0:
132,171,368020,1,0,0:2:0:0:
126,142,368103,1,0,0:0:0:0:
120,114,368187,1,2,0:2:0:0:
114,86,368270,1,0,0:0:0:0:
108,58,368353,2,0,L|50:134,1,95.9999970703126,8|2,0:2|0:2,0:0:0:0:
211,124,368687,6,0,P|255:107|289:74,1,95.9999970703126,0|2,0:2|0:2,0:0:0:0:
392,188,369020,2,0,P|384:235|396:281,1,95.9999970703126,8|2,0:2|0:2,0:0:0:0:
449,135,369353,1,0,0:2:0:0:
426,119,369437,1,0,0:0:0:0:
398,112,369520,1,2,0:2:0:0:
370,115,369603,1,0,0:0:0:0:
345,129,369687,1,8,0:2:0:0:
326,151,369770,1,0,0:0:0:0:
317,178,369853,1,6,0:2:0:0:
318,206,369937,1,0,0:0:0:0:
329,233,370020,5,4,0:1:0:0:
386,358,370187,1,2,0:2:0:0:
392,188,370353,1,8,0:2:0:0:
307,313,370520,1,2,0:2:0:0:
214,173,370687,1,0,0:2:0:0:
213,201,370770,1,0,0:0:0:0:
212,230,370853,1,2,0:2:0:0:
211,259,370937,1,0,0:0:0:0:
210,288,371020,1,8,0:2:0:0:
295,244,371187,1,2,0:2:0:0:
123,239,371353,5,4,0:2:0:0:
205,357,371520,1,2,0:2:0:0:
133,213,371687,1,8,0:2:0:0:
250,295,371853,1,2,0:2:0:0:
168,181,372020,1,0,0:2:0:0:
143,168,372103,1,0,0:0:0:0:
115,166,372187,1,2,0:2:0:0:
87,174,372270,1,0,0:0:0:0:
66,193,372353,1,8,0:2:0:0:
69,306,372520,1,2,0:2:0:0:
21,133,372687,5,4,0:2:0:0:
21,133,372770,1,0,0:0:0:0:
21,133,372853,1,2,0:2:0:0:
123,239,373020,1,8,0:2:0:0:
179,103,373187,1,2,0:2:0:0:
75,67,373353,1,4,0:2:0:0:
54,47,373437,1,0,0:0:0:0:
32,27,373520,1,2,0:2:0:0:
199,82,373687,1,8,0:2:0:0:
220,63,373770,1,0,0:0:0:0:
241,44,373853,1,2,0:2:0:0:
156,173,374020,5,0,0:2:0:0:
156,173,374103,1,0,0:0:0:0:
156,173,374187,1,2,0:2:0:0:
176,192,374270,1,0,0:0:0:0:
190,217,374353,1,8,0:2:0:0:
195,246,374437,1,0,0:0:0:0:
190,274,374520,1,2,0:2:0:0:
180,301,374603,1,0,0:0:0:0:
173,328,374687,5,0,0:2:0:0:
200,320,374770,1,0,0:0:0:0:
226,308,374853,1,2,0:2:0:0:
252,296,374937,1,0,0:0:0:0:
280,288,375020,1,8,0:2:0:0:
308,285,375103,1,0,0:0:0:0:
337,288,375187,1,2,0:2:0:0:
365,296,375270,1,0,0:0:0:0:
390,309,375353,6,0,L|404:214,1,95.9999970703126,4|2,0:1|0:2,0:0:0:0:
253,112,375687,2,0,L|329:172,1,95.9999970703126,8|2,0:2|0:2,0:0:0:0:
493,92,376020,2,0,L|404:128,1,95.9999970703126,0|2,0:2|0:2,0:0:0:0:
240,201,376353,1,8,0:2:0:0:
240,201,376437,1,0,0:0:0:0:
240,201,376520,1,2,0:2:0:0:
295,328,376687,5,0,0:2:0:0:
295,328,376770,1,0,0:0:0:0:
295,328,376853,1,2,0:2:0:0:
148,305,377020,2,0,L|238:274,1,95.9999970703126,8|2,0:2|0:2,0:0:0:0:
397,222,377353,2,0,L|306:252,1,95.9999970703126,0|2,0:2|0:2,0:0:0:0:
154,195,377687,1,8,0:2:0:0:
309,150,377853,1,2,0:2:0:0:
240,201,378020,5,0,0:2:0:0:
240,201,378103,1,0,0:0:0:0:
240,201,378187,1,2,0:2:0:0:
184,47,378353,1,8,0:2:0:0:
213,123,378520,1,2,0:2:0:0:
307,24,378687,1,0,0:2:0:0:
80,88,378853,1,2,0:2:0:0:
287,97,379020,1,8,0:2:0:0:
139,137,379187,1,2,0:2:0:0:
269,171,379353,5,0,0:2:0:0:
191,193,379520,1,2,0:2:0:0:
249,243,379687,1,8,0:2:0:0:
249,243,379853,1,2,0:2:0:0:
318,309,380020,2,0,L|331:214,1,95.9999970703126,0|2,0:2|0:2,0:0:0:0:
220,337,380353,2,0,L|162:260,1,95.9999970703126,12|2,0:2|0:2,0:0:0:0:
88,145,380687,5,4,0:2:0:0:
74,258,380853,1,2,0:2:0:0:
190,171,381020,1,8,0:2:0:0:
190,171,381187,1,2,0:2:0:0:
277,277,381353,1,0,0:2:0:0:
388,183,381520,1,2,0:2:0:0:
276,160,381687,1,8,0:2:0:0:
276,160,381853,1,2,0:2:0:0:
361,343,382020,6,0,P|367:296|351:251,1,95.9999970703126,0|2,0:2|0:2,0:0:0:0:
208,108,382353,2,0,P|192:152|198:200,1,95.9999970703126,8|2,0:2|0:2,0:0:0:0:
285,84,382687,1,0,0:2:0:0:
270,58,382770,1,0,0:0:0:0:
248,40,382853,1,2,0:2:0:0:
222,32,382937,1,0,0:0:0:0:
193,32,383020,1,8,0:2:0:0:
98,95,383187,1,2,0:2:0:0:
98,95,383270,1,0,0:0:0:0:
98,95,383353,6,0,L|108:190,1,95.9999970703126,0|2,0:2|0:2,0:0:0:0:
225,268,383687,2,0,L|214:363,1,95.9999970703126,8|2,0:2|0:2,0:0:0:0:
208,160,384020,1,0,0:2:0:0:
296,228,384187,1,2,0:2:0:0:
149,251,384353,1,8,0:2:0:0:
317,311,384520,1,2,0:2:0:0:
317,311,384603,1,0,0:0:0:0:
317,311,384687,6,0,L|434:278,1,95.9999970703126,0|2,0:2|0:2,0:0:0:0:
331,165,385020,2,0,L|423:191,1,95.9999970703126,8|2,0:2|0:2,0:0:0:0:
340,89,385353,1,0,0:2:0:0:
311,90,385437,1,0,0:0:0:0:
285,102,385520,1,2,0:2:0:0:
265,123,385603,1,0,0:0:0:0:
255,150,385687,1,12,0:2:0:0:
283,229,385853,1,2,0:2:0:0:
359,268,386020,5,4,0:2:0:0:
232,303,386187,1,2,0:2:0:0:
377,184,386353,1,8,0:2:0:0:
310,344,386520,1,2,0:2:0:0:
183,228,386687,1,0,0:2:0:0:
307,133,386853,1,2,0:2:0:0:
234,76,387020,1,8,0:2:0:0:
283,229,387187,1,2,0:2:0:0:
177,141,387353,6,0,B|112:137|112:137|83:148,1,95.9999970703126,0|2,0:2|0:2,0:0:0:0:
4,270,387687,2,0,B|32:281|32:281|97:277,1,95.9999970703126,8|2,0:2|0:2,0:0:0:0:
214,207,388020,1,0,0:2:0:0:
239,339,388187,1,2,0:2:0:0:
382,250,388353,2,0,P|339:228|291:222,1,95.9999970703126,8|2,0:2|0:2,0:0:0:0:
434,321,388687,6,0,P|461:283|466:236,1,95.9999970703126,0|2,0:2|0:2,0:0:0:0:
407,104,389020,1,8,0:2:0:0:
488,153,389187,1,2,0:2:0:0:
302,148,389353,1,0,0:2:0:0:
481,71,389520,1,2,0:2:0:0:
392,213,389687,1,8,0:2:0:0:
202,171,389853,1,2,0:2:0:0:
202,171,389937,1,0,0:0:0:0:
202,171,390020,6,0,L|150:91,1,95.9999970703126,0|2,0:2|0:2,0:0:0:0:
257,253,390353,2,0,L|310:334,1,95.9999970703126,8|2,0:2|0:2,0:0:0:0:
352,132,390687,2,0,L|271:184,1,95.9999970703126,0|2,0:2|0:2,0:0:0:0:
109,292,391020,2,0,L|189:239,1,95.9999970703126,12|2,0:2|0:2,0:0:0:0:
335,291,391353,5,4,0:2:0:0:
296,82,391520,1,2,0:2:0:0:
189,239,391687,1,8,0:2:0:0:
347,189,391853,1,2,0:2:0:0:
172,146,392020,1,0,0:2:0:0:
143,146,392103,1,0,0:0:0:0:
114,146,392187,1,2,0:2:0:0:
85,147,392270,1,0,0:0:0:0:
56,147,392353,1,8,0:2:0:0:
223,51,392520,1,2,0:2:0:0:
250,177,392687,5,0,0:2:0:0:
98,70,392853,1,2,0:2:0:0:
105,258,393020,1,8,0:2:0:0:
172,146,393187,1,2,0:2:0:0:
145,329,393353,1,0,0:2:0:0:
117,335,393437,1,0,0:0:0:0:
89,332,393520,1,2,0:2:0:0:
63,321,393603,1,0,0:0:0:0:
42,302,393687,2,0,L|21:244,1,47.9999985351563,8|0,0:2|0:0,0:0:0:0:
45,161,393853,2,0,L|98:173,1,47.9999985351563,2|0,0:2|0:0,0:0:0:0:
218,81,394020,6,0,L|124:57,1,95.9999970703126,0|2,0:2|0:2,0:0:0:0:
273,158,394353,2,0,L|366:134,1,95.9999970703126,8|2,0:2|0:2,0:0:0:0:
217,81,394687,1,0,0:2:0:0:
193,103,394770,1,0,0:0:0:0:
179,133,394853,1,2,0:2:0:0:
176,167,394937,1,0,0:0:0:0:
186,198,395020,2,0,L|210:239,1,47.9999985351563,8|0,0:2|0:0,0:0:0:0:
325,206,395187,2,0,L|301:248,1,47.9999985351563,2|0,0:2|0:0,0:0:0:0:
384,356,395353,6,0,L|387:261,1,95.9999970703126,4|2,0:2|0:2,0:0:0:0:
474,164,395687,2,0,L|471:259,1,95.9999970703126,12|2,0:2|0:2,0:0:0:0:
344,177,396020,1,0,0:2:0:0:
315,181,396103,1,0,0:0:0:0:
287,188,396187,1,2,0:2:0:0:
258,194,396270,1,0,0:0:0:0:
230,202,396353,2,0,L|226:255,1,47.9999985351563,8|0,0:2|0:0,0:0:0:0:
310,318,396520,2,0,L|306:270,1,47.9999985351563,2|0,0:2|0:0,0:0:0:0:
263,117,396687,6,0,P|216:115|172:134,1,95.9999970703126,4|2,0:1|0:2,0:0:0:0:
123,330,397020,1,8,0:2:0:0:
146,228,397187,1,2,0:2:0:0:
12,204,397353,2,0,P|35:245|78:265,1,95.9999970703126,0|2,0:2|0:2,0:0:0:0:
230,202,397687,2,0,L|245:296,1,95.9999970703126,8|2,0:2|0:2,0:0:0:0:
306,61,398020,6,0,L|292:156,1,95.9999970703126,0|2,0:2|0:2,0:0:0:0:
245,296,398353,1,8,0:2:0:0:
146,227,398520,1,2,0:2:0:0:
353,243,398687,1,0,0:2:0:0:
196,141,398853,1,2,0:2:0:0:
337,102,399020,1,8,0:2:0:0:
234,210,399187,1,2,0:2:0:0:
129,94,399353,6,0,P|167:66|214:63,1,95.9999970703126,0|2,0:2|0:2,0:0:0:0:
332,197,399687,1,8,0:2:0:0:
360,57,399853,1,2,0:2:0:0:
256,203,400020,2,0,P|275:246|315:271,1,95.9999970703126,0|2,0:2|0:2,0:0:0:0:
274,119,400353,2,0,P|226:125|188:153,1,95.9999970703126,8|2,0:2|0:2,0:0:0:0:
145,328,400687,5,4,0:2:0:0:
38,234,400853,1,2,0:2:0:0:
256,203,401020,1,12,0:2:0:0:
115,90,401187,1,2,0:2:0:0:
148,238,401353,2,0,P|161:192|187:152,1,95.9999970703126,0|2,0:2|0:2,0:0:0:0:
180,306,401687,1,8,0:2:0:0:
78,164,401853,1,4,0:1:0:0:
274,117,402020,5,4,0:2:0:0:
332,239,402187,1,2,0:2:0:0:
417,135,402353,1,8,0:2:0:0:
263,197,402520,1,2,0:2:0:0:
260,174,402603,1,0,0:0:0:0:
257,152,402687,1,0,0:2:0:0:
254,130,402770,1,0,0:0:0:0:
251,108,402853,2,0,L|345:125,1,95.9999970703126,2|8,0:2|0:2,0:0:0:0:
310,44,403187,1,2,0:2:0:0:
263,197,403353,5,0,0:2:0:0:
166,91,403520,1,2,0:2:0:0:
168,214,403687,2,0,L|262:197,1,95.9999970703126,8|2,0:2|0:2,0:0:0:0:
120,153,404020,1,0,0:2:0:0:
99,178,404103,1,0,0:0:0:0:
90,210,404187,1,2,0:2:0:0:
95,242,404270,1,0,0:0:0:0:
115,270,404353,1,8,0:2:0:0:
11,208,404520,1,2,0:2:0:0:
11,208,404603,1,0,0:0:0:0:
11,208,404687,5,0,0:2:0:0:
64,327,404853,1,2,0:2:0:0:
168,214,405020,1,8,0:2:0:0:
168,214,405103,1,0,0:0:0:0:
168,214,405187,1,2,0:2:0:0:
252,305,405353,1,0,0:2:0:0:
253,271,405437,1,0,0:0:0:0:
255,237,405520,1,2,0:2:0:0:
255,203,405603,1,0,0:0:0:0:
255,169,405687,1,8,0:2:0:0:
352,211,405853,1,2,0:2:0:0:
352,211,405937,1,0,0:0:0:0:
352,211,406020,6,0,L|370:305,1,95.9999970703126,4|2,0:2|0:2,0:0:0:0:
445,211,406353,1,12,0:2:0:0:
255,203,406520,1,2,0:2:0:0:
357,53,406687,1,0,0:2:0:0:
334,70,406770,1,0,0:0:0:0:
317,93,406853,1,2,0:2:0:0:
308,120,406937,1,0,0:0:0:0:
308,149,407020,1,8,0:2:0:0:
233,52,407187,1,2,0:2:0:0:
287,256,407353,5,4,0:2:0:0:
373,56,407520,1,2,0:2:0:0:
281,228,407687,1,8,0:2:0:0:
378,85,407853,1,2,0:2:0:0:
275,201,408020,1,0,0:2:0:0:
384,114,408187,1,2,0:2:0:0:
269,173,408353,1,8,0:2:0:0:
391,143,408520,1,2,0:2:0:0:
279,96,408687,6,0,P|232:105|199:139,1,95.9999970703126,0|2,0:2|0:2,0:0:0:0:
281,339,409020,2,0,P|327:329|360:295,1,95.9999970703126,8|2,0:2|0:2,0:0:0:0:
386,166,409353,1,0,0:2:0:0:
386,166,409437,1,0,0:0:0:0:
386,166,409520,1,2,0:2:0:0:
496,272,409687,2,0,L|405:240,1,95.9999970703126,8|2,0:2|0:2,0:0:0:0:
275,201,410020,5,0,0:2:0:0:
326,280,410187,1,2,0:2:0:0:
200,218,410353,1,8,0:2:0:0:
290,295,410520,1,2,0:2:0:0:
140,266,410687,1,0,0:2:0:0:
260,319,410853,1,2,0:2:0:0:
105,334,411020,1,8,0:2:0:0:
239,351,411187,1,2,0:2:0:0:
129,185,411353,6,0,L|84:99,1,95.9999970703126,4|2,0:2|0:2,0:0:0:0:
256,232,411687,2,0,L|256:136,1,95.9999970703126,12|2,0:2|0:2,0:0:0:0:
312,40,412020,1,0,0:2:0:0:
352,132,412187,1,2,0:2:0:0:
200,40,412353,1,8,0:2:0:0:
160,132,412520,1,2,0:2:0:0:
306,146,412687,6,0,L|354:131,3,47.9999985351563,4|0|2|0,0:2|0:0|0:2|0:0,0:0:0:0:
424,137,413020,2,0,L|461:174,3,47.9999985351563,8|0|2|0,0:2|0:0|0:2|0:0,0:0:0:0:
449,243,413353,1,0,0:2:0:0:
447,264,413437,1,0,0:0:0:0:
448,286,413520,1,2,0:2:0:0:
454,306,413603,1,0,0:0:0:0:
462,326,413687,2,0,L|414:334,1,47.9999985351563,8|0,0:2|0:0,0:0:0:0:
326,267,413853,2,0,L|373:275,1,47.9999985351563,2|0,0:2|0:0,0:0:0:0:
289,347,414020,6,0,L|241:355,1,47.9999985351563,0|0,0:2|0:0,0:0:0:0:
153,288,414187,2,0,L|200:296,1,47.9999985351563,2|0,0:2|0:0,0:0:0:0:
270,210,414353,2,0,L|222:218,1,47.9999985351563,8|0,0:2|0:0,0:0:0:0:
134,151,414520,2,0,L|181:159,1,47.9999985351563,2|0,0:2|0:0,0:0:0:0:
252,76,414687,1,0,0:2:0:0:
252,76,414770,1,0,0:0:0:0:
252,76,414853,2,0,L|204:84,1,47.9999985351563,2|0,0:2|0:0,0:0:0:0:
124,72,415020,2,0,L|76:63,1,47.9999985351563,8|0,0:2|0:0,0:0:0:0:
8,150,415187,2,0,L|55:141,1,47.9999985351563,2|0,0:2|0:0,0:0:0:0:
161,172,415353,6,0,L|205:194,3,47.9999985351563,0|0|2|0,0:2|0:0|0:2|0:0,0:0:0:0:
308,193,415687,2,0,L|351:172,3,47.9999985351563,8|0|2|0,0:2|0:0|0:2|0:0,0:0:0:0:
372,73,416020,1,0,0:2:0:0:
415,92,416103,1,0,0:0:0:0:
444,130,416187,1,2,0:2:0:0:
452,177,416270,1,0,0:0:0:0:
438,222,416353,2,0,L|445:269,1,47.9999985351563,8|0,0:2|0:0,0:0:0:0:
374,353,416520,2,0,L|366:305,1,47.9999985351563,2|0,0:2|0:0,0:0:0:0:
351,172,416687,5,4,0:2:0:0:
160,283,416853,1,2,0:2:0:0:
160,62,417020,1,8,0:2:0:0:
271,253,417187,1,4,0:1:0:0:
417,79,417353,1,0,0:2:0:0:
424,127,417437,1,0,0:0:0:0:
431,174,417520,1,2,0:2:0:0:
438,222,417603,1,0,0:0:0:0:
447,268,417687,2,0,L|453:315,1,47.9999985351563,8|0,0:2|0:0,0:0:0:0:
335,354,417853,2,0,L|341:306,1,47.9999985351563,2|0,0:2|0:0,0:0:0:0:
343,182,418020,6,0,L|249:166,1,95.9999970703126,4|2,1:1|0:2,0:0:0:0:
139,279,418353,2,0,L|233:263,1,95.9999970703126,0|2,0:2|0:2,0:0:0:0:
179,88,418687,2,0,L|155:180,1,95.9999970703126,0|2,0:2|0:2,0:0:0:0:
303,356,419020,2,0,L|327:264,1,95.9999970703126,0|2,0:2|0:2,0:0:0:0:
