osu file format v14

[General]
AudioFilename: audio.mp3
AudioLeadIn: 0
PreviewTime: -1
Countdown: 1
SampleSet: Normal
StackLeniency: 0.7
Mode: 0
LetterboxInBreaks: 0
WidescreenStoryboard: 0

[Editor]
Bookmarks: 22705
DistanceSpacing: 3.1
BeatDivisor: 4
GridSize: 4
TimelineZoom: 2.7

[Metadata]
Title:Notice Me Senpai (Nightcore Mix)
TitleUnicode:Notice Me Senpai (Nightcore Mix)
Artist:iHasCupquake
ArtistUnicode:iHasCupquake
Creator:Choc647
Version:Extra
Source:
Tags:
BeatmapID:1288713
BeatmapSetID:610345

[Difficulty]
HPDrainRate:6
CircleSize:4
OverallDifficulty:7.3
ApproachRate:9
SliderMultiplier:1.4
SliderTickRate:1

[Events]
//Background and Video events
0,0,"KTLkw7j.jpg",0,0
//Break Periods
//Storyboard Layer 0 (Background)
//Storyboard Layer 1 (Fail)
//Storyboard Layer 2 (Pass)
//Storyboard Layer 3 (Foreground)
//Storyboard Sound Samples

[TimingPoints]
5439,315.374507227332,4,1,0,70,1,0
25599,-100,4,1,0,70,0,1
45444,-100,4,1,0,70,0,0
67216,-100,4,1,0,70,0,1
87376,-100,4,1,0,70,0,0
91220,315.374507227332,4,1,0,70,1,0

[HitObjects]
415,81,398,6,0,B|368:148|370:145,1,70
317,76,713,2,0,B|270:143|272:140,1,70
213,77,1028,2,0,B|172:138|174:135,1,70
113,76,1343,2,0,B|66:143|68:140,1,70
62,313,1658,6,0,L|112:248,1,70
166,314,1973,2,0,L|216:249,1,70
267,318,2288,2,0,L|317:253,1,70
365,325,2603,2,0,L|415:260,1,70
436,168,2916,6,0,P|415:139|391:114,1,70
276,68,3233,1,0,0:0:0:0:
272,191,3389,1,0,0:0:0:0:
157,150,3546,5,0,0:0:0:0:
179,271,3704,1,0,0:0:0:0:
179,271,3783,1,0,0:0:0:0:
176,264,3862,1,0,0:0:0:0:
272,191,4021,1,0,0:0:0:0:
416,224,4177,2,0,P|406:190|392:158,1,70
268,56,4492,2,0,P|237:73|210:95,1,70
192,216,4808,2,0,P|205:248|224:277,1,70
344,336,5123,5,0,0:0:0:0:
429,242,5439,5,0,0:0:0:0:
352,142,5596,1,0,0:0:0:0:
236,184,5754,2,0,P|228:218|225:252,1,70
266,354,6069,2,0,P|300:350|334:342,1,70
411,251,6385,1,0,0:0:0:0:
286,266,6542,1,0,0:0:0:0:
296,148,6700,2,0,P|243:171|229:175,1,70
104,132,7015,2,0,P|156:108|170:104,1,70
280,52,7331,1,0,0:0:0:0:
231,175,7488,1,0,0:0:0:0:
346,212,7646,2,0,P|303:250|291:258,1,70
184,272,7961,2,0,P|137:238|127:228,1,70
126,112,8277,5,0,0:0:0:0:
237,57,8435,2,0,P|270:67|300:84,1,70
404,168,8750,1,0,0:0:0:0:
404,168,8829,1,0,0:0:0:0:
404,168,8908,1,0,0:0:0:0:
344,280,9065,2,0,P|309:281|274:276,1,70
176,208,9381,1,0,0:0:0:0:
72,292,9538,1,0,0:0:0:0:
184,356,9696,2,0,P|216:343|246:325,1,70
337,247,10011,5,0,0:0:0:0:
410,127,10169,1,0,0:0:0:0:
287,60,10327,1,0,0:0:0:0:
164,80,10484,6,0,P|177:112|197:140,1,70
304,192,10800,2,0,P|315:225|319:259,1,70
248,343,11115,2,0,P|282:353|317:357,1,70
408,252,11431,2,0,P|404:217|393:183,1,70
336,56,11746,2,0,P|301:62|269:76,1,70
248,204,12061,2,0,P|263:235|285:262,1,70
373,367,12377,2,0,P|338:372|303:371,1,70
192,328,12692,2,0,P|171:299|156:268,1,70
288,244,13007,2,0,P|280:209|265:178,1,70
120,96,13323,2,0,P|128:129|143:161,1,70
224,248,13638,2,0,P|236:215|242:180,1,70
154,101,13954,1,0,0:0:0:0:
73,202,14111,5,0,0:0:0:0:
186,287,14269,1,0,0:0:0:0:
279,176,14427,1,0,0:0:0:0:
166,91,14584,1,0,0:0:0:0:
73,202,14742,5,0,0:0:0:0:
186,287,14900,1,0,0:0:0:0:
279,176,15057,1,0,0:0:0:0:
362,282,15215,1,0,0:0:0:0:
384,164,15373,1,0,0:0:0:0:
264,56,15530,6,0,P|230:65|199:81,1,70
108,200,15846,2,0,P|137:219|169:232,1,70
296,168,16161,2,0,P|329:178|359:195,1,70
408,312,16477,2,0,P|377:329|344:340,1,70
216,308,16792,2,0,P|218:273|227:239,1,70
300,129,17107,2,0,P|283:99|260:73,1,70
136,104,17423,2,0,P|110:127|90:156,1,70
116,272,17738,2,0,P|146:288|179:299,1,70
248,200,18053,2,0,P|240:165|225:134,1,70
104,68,18369,2,0,P|133:49|166:37,1,70
304,40,18684,2,0,P|295:73|281:105,1,70
210,179,18921,1,0,0:0:0:0:
210,179,19000,2,0,P|193:210|184:244,1,70
216,376,19315,2,0,P|248:363|278:345,1,70
360,257,19630,5,0,0:0:0:0:
235,193,19788,1,0,0:0:0:0:
104,160,19946,6,0,P|99:125|101:90,1,70
236,36,20261,2,0,P|269:46|299:63,1,70
372,172,20576,2,0,P|370:206|362:240,1,70
263,327,20892,5,0,0:0:0:0:
388,315,21050,1,0,0:0:0:0:
283,193,21207,6,0,P|268:162|248:134,1,70
112,152,21523,2,0,P|88:178|70:208,1,70
20,327,21838,1,0,0:0:0:0:
160,356,21996,2,0,P|193:346|225:331,1,70
326,238,22311,5,0,0:0:0:0:
192,280,22469,2,0,P|222:296|255:307,1,70
416,328,22784,2,0,P|386:346|353:358,1,70
220,335,23099,5,0,0:0:0:0:
255,196,23257,1,0,0:0:0:0:
391,230,23415,1,0,0:0:0:0:
352,364,23573,1,0,0:0:0:0:
207,327,23730,1,0,0:0:0:0:
72,272,23888,6,0,P|67:237|69:202,1,70
156,84,24203,2,0,P|174:113|187:146,1,70
127,278,24519,1,0,0:0:0:0:
259,321,24676,1,0,0:0:0:0:
354,231,24992,5,0,0:0:0:0:
174,225,25307,1,0,0:0:0:0:
94,110,25465,5,0,0:0:0:0:
230,54,25622,6,0,P|257:77|280:104,1,70
204,236,25938,2,0,P|231:256|262:272,1,70
396,132,26253,6,0,P|374:159|348:182,1,70
162,218,26569,2,0,P|187:194|216:175,1,70
344,88,26884,1,0,0:0:0:0:
152,196,27042,1,0,0:0:0:0:
376,216,27199,1,0,0:0:0:0:
202,74,27357,1,0,0:0:0:0:
374,88,27515,6,0,P|403:121|414:218,1,140
200,264,27988,2,0,P|222:289|249:311,1,70
433,310,28303,1,0,0:0:0:0:
408,100,28461,5,0,0:0:0:0:
200,125,28619,1,0,0:0:0:0:
220,336,28776,1,0,0:0:0:0:
430,317,28934,5,0,0:0:0:0:
228,224,29092,1,0,0:0:0:0:
440,208,29249,1,0,0:0:0:0:
273,327,29407,5,0,0:0:0:0:
352,138,29565,1,0,0:0:0:0:
393,339,29722,1,0,0:0:0:0:
247,204,29880,1,0,0:0:0:0:
442,226,30038,1,0,0:0:0:0:
328,138,30195,5,0,0:0:0:0:
296,280,30353,2,0,P|276:308|252:334,1,70
128,280,30668,2,0,P|114:247|107:213,1,70
138,84,30984,5,0,0:0:0:0:
343,121,31142,1,0,0:0:0:0:
146,197,31299,1,0,0:0:0:0:
351,234,31457,5,0,0:0:0:0:
155,309,31615,1,0,0:0:0:0:
286,146,31772,1,0,0:0:0:0:
90,221,31930,1,0,0:0:0:0:
295,253,32088,5,0,0:0:0:0:
134,123,32245,1,0,0:0:0:0:
340,156,32403,1,0,0:0:0:0:
141,229,32561,1,0,0:0:0:0:
282,66,32718,1,0,0:0:0:0:
424,132,32876,2,0,P|436:164|443:198,1,70
332,271,33191,2,0,P|298:260|268:244,1,70
205,111,33507,5,0,0:0:0:0:
412,82,33665,1,0,0:0:0:0:
261,229,33822,1,0,0:0:0:0:
294,23,33980,5,0,0:0:0:0:
389,202,34138,1,0,0:0:0:0:
205,111,34295,1,0,0:0:0:0:
412,82,34453,5,0,0:0:0:0:
261,229,34611,1,0,0:0:0:0:
294,23,34768,1,0,0:0:0:0:
143,170,34926,5,0,0:0:0:0:
352,147,35084,1,0,0:0:0:0:
171,40,35241,1,0,0:0:0:0:
232,247,35399,6,0,P|198:236|168:220,1,70
171,40,35714,2,0,P|202:55|230:76,1,70
279,253,36030,5,0,0:0:0:0:
374,51,36188,1,0,0:0:0:0:
179,159,36345,1,0,0:0:0:0:
404,185,36503,1,0,0:0:0:0:
210,294,36661,5,0,0:0:0:0:
436,325,36818,1,0,0:0:0:0:
265,167,36976,1,0,0:0:0:0:
491,198,37134,1,0,0:0:0:0:
318,40,37291,5,0,0:0:0:0:
374,271,37449,1,0,0:0:0:0:
454,44,37607,1,0,0:0:0:0:
267,194,37764,1,0,0:0:0:0:
332,32,37922,6,0,P|357:55|379:82,1,70
388,256,38237,2,0,P|359:275|327:290,1,70
179,299,38553,5,0,0:0:0:0:
36,146,38711,1,0,0:0:0:0:
247,168,38868,1,0,0:0:0:0:
105,16,39026,1,0,0:0:0:0:
102,220,39184,5,0,0:0:0:0:
241,70,39341,1,0,0:0:0:0:
240,272,39499,1,0,0:0:0:0:
104,126,39657,1,0,0:0:0:0:
104,329,39814,5,0,0:0:0:0:
241,184,39972,1,0,0:0:0:0:
48,191,40130,1,0,0:0:0:0:
189,322,40287,1,0,0:0:0:0:
54,244,40445,6,0,P|44:210|40:176,1,70
204,68,40760,2,0,P|188:99|168:127,1,70
49,265,41076,5,0,0:0:0:0:
232,365,41234,1,0,0:0:0:0:
147,176,41391,1,0,0:0:0:0:
330,276,41549,1,0,0:0:0:0:
120,304,41707,5,0,0:0:0:0:
276,153,41864,1,0,0:0:0:0:
67,181,42022,1,0,0:0:0:0:
252,281,42180,1,0,0:0:0:0:
163,93,42337,5,0,0:0:0:0:
129,297,42495,1,0,0:0:0:0:
274,146,42653,1,0,0:0:0:0:
68,179,42810,1,0,0:0:0:0:
300,300,42968,6,0,P|279:273|253:249,1,70
96,228,43283,2,0,P|76:198|62:167,1,70
68,28,43599,5,0,0:0:0:0:
234,130,43757,1,0,0:0:0:0:
45,176,43914,1,0,0:0:0:0:
145,8,44072,1,0,0:0:0:0:
192,203,44230,1,0,0:0:0:0:
293,36,44387,1,0,0:0:0:0:
104,87,44545,1,0,0:0:0:0:
272,179,44703,1,0,0:0:0:0:
83,230,44860,1,0,0:0:0:0:
251,322,45018,1,0,0:0:0:0:
187,141,45176,1,0,0:0:0:0:
356,233,45333,1,0,0:0:0:0:
186,372,45491,2,0,P|160:366|47:310,1,140
208,324,47068,6,0,B|83:246,1,140
304,60,47541,2,0,B|422:134,1,140
410,274,48014,1,0,0:0:0:0:
124,144,48329,6,0,B|202:19,1,140
388,240,48802,2,0,B|313:358,1,140
174,346,49276,1,0,0:0:0:0:
304,60,49591,6,0,B|429:138,1,140
208,324,50064,2,0,B|90:249,1,140
102,110,50537,1,0,0:0:0:0:
208,324,50852,6,0,B|83:246,1,140
304,60,51325,2,0,B|422:134,1,140
410,274,51799,1,0,0:0:0:0:
332,172,52114,6,0,P|297:170|262:175,1,70
190,264,52429,6,0,L|141:314,1,70
328,126,52745,2,0,L|378:77,1,70
183,126,53060,2,0,L|134:77,1,70
321,264,53375,2,0,L|371:314,1,70
158,196,53691,6,0,L|88:196,1,70
353,196,54006,2,0,L|423:196,1,70
251,93,54322,2,0,L|251:24,1,70
251,288,54637,2,0,L|251:359,1,70
159,265,55268,6,0,L|114:193,1,70
353,119,55898,6,0,L|398:191,1,70
159,265,56529,6,0,L|114:193,1,70
148,40,56845,6,0,P|182:43|216:53,1,70
326,146,57160,1,0,0:0:0:0:
202,133,57318,2,0,P|229:111|261:96,1,70
392,32,57633,2,0,P|357:30|322:35,1,70
256,102,57948,1,0,0:0:0:0:
166,192,58106,1,0,0:0:0:0:
256,281,58264,1,0,0:0:0:0:
345,191,58421,1,0,0:0:0:0:
429,82,58579,6,0,P|400:62|368:49,1,70
241,110,58894,2,0,P|261:138|286:162,1,70
388,260,59210,2,0,P|358:278|325:290,1,70
188,256,59525,2,0,P|173:224|165:189,1,70
228,56,59841,2,0,P|256:76|280:102,1,70
264,248,60156,5,0,0:0:0:0:
136,308,60314,1,0,0:0:0:0:
112,172,60471,1,0,0:0:0:0:
112,172,60550,1,0,0:0:0:0:
112,172,60629,1,0,0:0:0:0:
224,88,60787,6,0,P|258:86|293:92,1,70
400,192,61102,2,0,P|370:210|337:222,1,70
220,144,61417,2,0,P|186:152|154:167,1,70
112,296,61733,2,0,P|146:303|180:305,1,70
260,208,62048,2,0,P|249:174|233:143,1,70
88,96,62364,6,0,P|118:78|151:66,1,70
288,40,62679,2,0,P|312:65|331:94,1,70
220,175,62994,2,0,P|226:209|240:242,1,70
350,322,63310,2,0,P|320:340|287:352,1,70
156,284,63625,2,0,P|145:250|142:215,1,70
176,88,63940,2,0,P|206:70|239:58,1,70
372,52,64256,2,0,P|402:68|430:90,1,70
440,252,64571,5,0,0:0:0:0:
292,335,64729,1,0,0:0:0:0:
257,195,64887,1,0,0:0:0:0:
120,230,65044,1,0,0:0:0:0:
159,364,65202,1,0,0:0:0:0:
305,327,65360,1,0,0:0:0:0:
424,264,65517,6,0,P|445:236|460:204,1,70
368,84,65833,2,0,P|346:111|330:142,1,70
385,278,66148,5,0,0:0:0:0:
253,321,66306,1,0,0:0:0:0:
156,232,66621,5,0,0:0:0:0:
338,224,66937,1,0,0:0:0:0:
104,72,67252,5,0,0:0:0:0:
320,76,67410,1,0,0:0:0:0:
368,288,67567,6,0,P|316:320|296:328,1,70
200,136,67883,2,0,P|236:104|264:88,1,70
368,276,68198,2,0,P|332:304|300:320,1,70
200,132,68513,2,0,P|236:112|280:96,1,70
216,312,68829,5,0,0:0:0:0:
104,128,68986,1,0,0:0:0:0:
292,240,69144,1,0,0:0:0:0:
432,76,69302,6,0,P|380:44|356:40,1,70
200,176,69617,2,0,P|152:192|112:192,1,70
72,56,69933,1,0,0:0:0:0:
284,96,70090,5,0,0:0:0:0:
148,264,70248,1,0,0:0:0:0:
115,51,70406,1,0,0:0:0:0:
293,168,70563,1,0,0:0:0:0:
91,217,70721,1,0,0:0:0:0:
182,40,70879,1,0,0:0:0:0:
263,223,71036,1,0,0:0:0:0:
352,56,71194,1,0,0:0:0:0:
300,224,71352,6,0,P|340:192|360:164,1,70
144,116,71667,2,0,P|112:148|96:176,1,70
260,316,71983,2,0,P|320:304|340:296,1,70
424,88,72298,2,0,P|380:56|344:44,1,70
152,124,72613,5,0,0:0:0:0:
348,216,72771,1,0,0:0:0:0:
220,40,72929,1,0,0:0:0:0:
247,256,73086,1,0,0:0:0:0:
327,51,73244,1,0,0:0:0:0:
158,194,73402,1,0,0:0:0:0:
375,146,73559,1,0,0:0:0:0:
160,90,73717,1,0,0:0:0:0:
316,256,73875,2,0,P|264:232|252:224,1,70
376,44,74190,2,0,P|428:68|440:76,1,70
428,256,74506,2,0,P|387:296|376:305,1,70
184,288,74821,2,0,P|132:264|120:256,1,70
156,32,75136,5,0,0:0:0:0:
272,212,75294,1,0,0:0:0:0:
352,8,75452,1,0,0:0:0:0:
160,108,75609,1,0,0:0:0:0:
368,172,75767,1,0,0:0:0:0:
172,268,75925,1,0,0:0:0:0:
256,68,76083,1,0,0:0:0:0:
288,284,76240,1,0,0:0:0:0:
136,128,76398,1,0,0:0:0:0:
344,180,76556,1,0,0:0:0:0:
136,240,76713,1,0,0:0:0:0:
280,80,76871,1,0,0:0:0:0:
288,296,77029,2,0,P|236:272|224:264,1,70
82,156,77344,2,0,P|94:123|125:81,1,70
303,109,77659,5,0,0:0:0:0:
161,36,77817,1,0,0:0:0:0:
161,191,77975,1,0,0:0:0:0:
350,188,78132,1,0,0:0:0:0:
211,275,78290,1,0,0:0:0:0:
205,111,78448,1,0,0:0:0:0:
351,323,78605,1,0,0:0:0:0:
440,179,78763,1,0,0:0:0:0:
139,172,78921,1,0,0:0:0:0:
271,60,79078,1,0,0:0:0:0:
270,337,79236,1,0,0:0:0:0:
359,196,79394,6,0,P|355:135|346:101,1,70
164,150,79709,6,0,P|168:211|177:245,1,70
318,313,80025,1,0,0:0:0:0:
340,98,80182,5,0,0:0:0:0:
174,241,80340,1,0,0:0:0:0:
390,265,80498,1,0,0:0:0:0:
221,107,80655,1,0,0:0:0:0:
236,322,80813,1,0,0:0:0:0:
383,132,80971,1,0,0:0:0:0:
158,222,81128,1,0,0:0:0:0:
291,47,81286,1,0,0:0:0:0:
77,137,81444,1,0,0:0:0:0:
261,276,81601,1,0,0:0:0:0:
372,57,81759,2,0,P|406:83|434:120,1,70
279,186,82075,2,0,P|236:148|213:122,1,70
75,61,82390,2,0,P|65:117|64:148,1,70
190,296,82705,1,0,0:0:0:0:
360,257,82863,1,0,0:0:0:0:
321,87,83021,1,0,0:0:0:0:
151,126,83178,1,0,0:0:0:0:
360,257,83336,1,0,0:0:0:0:
190,296,83494,1,0,0:0:0:0:
321,87,83651,1,0,0:0:0:0:
151,126,83809,1,0,0:0:0:0:
360,257,83967,1,0,0:0:0:0:
190,296,84124,2,0,P|135:268|116:253,1,70
220,117,84440,2,0,P|271:142|297:166,1,70
190,296,84755,2,0,P|135:268|116:253,1,70
98,101,85071,1,0,0:0:0:0:
342,128,85228,5,0,0:0:0:0:
267,331,85386,1,0,0:0:0:0:
209,126,85544,1,0,0:0:0:0:
420,25,85701,1,0,0:0:0:0:
411,254,85859,1,0,0:0:0:0:
168,251,86017,1,0,0:0:0:0:
49,66,86174,1,0,0:0:0:0:
61,283,86332,1,0,0:0:0:0:
182,103,86490,1,0,0:0:0:0:
281,289,86647,1,0,0:0:0:0:
392,162,86805,1,0,0:0:0:0:
265,51,86963,1,0,0:0:0:0:
155,178,87120,1,0,0:0:0:0:
281,289,87278,1,0,0:0:0:0:
357,106,87436,1,0,0:0:0:0:
117,106,87594,5,0,0:0:0:0:
368,202,87751,1,0,0:0:0:0:
87,186,87909,1,0,0:0:0:0:
389,286,88067,1,0,0:0:0:0:
58,268,88224,1,0,0:0:0:0:
408,368,88382,1,0,0:0:0:0:
158,243,88540,2,0,P|156:184|172:102,1,140
411,83,89013,5,0,0:0:0:0:
279,261,89170,1,0,0:0:0:0:
195,62,89328,1,0,0:0:0:0:
394,219,89486,1,0,0:0:0:0:
166,197,89643,1,0,0:0:0:0:
366,82,89801,2,0,P|385:137|393:220,1,140
210,326,90274,5,0,0:0:0:0:
91,138,90431,1,0,0:0:0:0:
307,131,90589,1,0,0:0:0:0:
89,261,90747,1,0,0:0:0:0:
191,56,90904,1,0,0:0:0:0:
90,261,91062,2,0,P|157:280|227:284,1,140
374,256,91535,1,0,0:0:0:0:
398,231,91613,1,0,0:0:0:0:
414,200,91692,1,0,0:0:0:0:
420,167,91771,1,0,0:0:0:0:
415,132,91850,1,0,0:0:0:0:
401,101,91929,1,0,0:0:0:0:
378,76,92008,1,0,0:0:0:0:
348,58,92086,1,0,0:0:0:0:
141,71,92166,1,0,0:0:0:0:
378,292,92323,5,0,0:0:0:0:
70,174,92481,1,0,0:0:0:0:
391,177,92639,1,0,0:0:0:0:
176,345,92796,1,0,0:0:0:0:
154,121,92954,1,0,0:0:0:0:
396,179,93112,1,0,0:0:0:0:
485,371,93269,1,0,0:0:0:0:
221,264,93427,5,0,0:0:0:0:
97,48,93585,1,0,0:0:0:0:
351,51,93742,1,0,0:0:0:0:
221,264,93900,1,0,0:0:0:0:
97,48,94058,5,0,0:0:0:0:
59,286,94216,5,0,0:0:0:0:
295,372,94373,1,0,0:0:0:0:
212,103,94531,1,0,0:0:0:0:
20,178,94689,1,0,0:0:0:0:
212,103,94846,1,0,0:0:0:0:
286,295,95004,1,0,0:0:0:0:
93,370,95162,1,0,0:0:0:0:
20,178,95319,1,0,0:0:0:0:
202,300,95477,5,0,0:0:0:0:
305,127,95635,1,0,0:0:0:0:
501,211,95792,1,0,0:0:0:0:
311,276,95950,1,0,0:0:0:0:
160,120,96108,5,0,0:0:0:0:
420,33,96265,1,0,0:0:0:0:
181,231,96423,1,0,0:0:0:0:
454,117,96581,1,0,0:0:0:0:
205,340,96739,1,0,0:0:0:0:
492,197,96896,1,0,0:0:0:0:
405,376,97054,1,0,0:0:0:0:
175,106,97212,5,0,0:0:0:0:
61,343,97369,1,0,0:0:0:0:
289,302,97527,1,0,0:0:0:0:
326,283,97605,1,0,0:0:0:0:
359,257,97684,1,0,0:0:0:0:
384,224,97763,1,0,0:0:0:0:
402,186,97842,1,0,0:0:0:0:
416,151,97921,1,0,0:0:0:0:
403,118,98000,2,0,P|379:87|360:69,4,35
356,74,98394,1,0,0:0:0:0:
314,69,98472,1,0,0:0:0:0:
272,73,98551,1,0,0:0:0:0:
233,87,98630,1,0,0:0:0:0:
198,109,98709,1,0,0:0:0:0:
167,131,98788,1,0,0:0:0:0:
144,162,98867,2,0,P|124:195|113:219,4,35
113,223,99262,1,0,0:0:0:0:
102,263,99340,1,0,0:0:0:0:
115,302,99419,1,0,0:0:0:0:
148,327,99498,1,0,0:0:0:0:
195,330,99577,1,0,0:0:0:0:
231,321,99656,1,0,0:0:0:0:
307,112,99735,6,0,P|272:102|237:98,1,70
305,281,100051,2,0,P|338:269|368:253,1,70
125,113,100366,6,0,P|143:142|166:169,1,70
396,160,100682,2,0,P|374:132|348:109,1,70
157,59,100997,1,0,0:0:0:0:
379,238,101155,1,0,0:0:0:0:
90,232,101312,1,0,0:0:0:0:
338,73,101470,1,0,0:0:0:0:
112,65,101628,6,0,P|78:93|54:188,1,140
316,228,102101,2,0,P|290:249|260:267,1,70
64,284,102416,1,0,0:0:0:0:
131,49,102574,5,0,0:0:0:0:
372,106,102732,1,0,0:0:0:0:
295,343,102889,1,0,0:0:0:0:
66,291,103047,5,0,0:0:0:0:
325,223,103205,1,0,0:0:0:0:
71,182,103362,1,0,0:0:0:0:
183,339,103520,5,0,0:0:0:0:
199,114,103678,1,0,0:0:0:0:
65,307,103835,1,0,0:0:0:0:
308,129,103993,1,0,0:0:0:0:
67,199,104151,1,0,0:0:0:0:
251,49,104308,5,0,0:0:0:0:
204,273,104466,2,0,P|220:304|240:333,1,70
429,324,104781,2,0,P|447:293|459:260,1,70
426,76,105097,5,0,0:0:0:0:
179,109,105255,1,0,0:0:0:0:
398,218,105412,1,0,0:0:0:0:
121,209,105570,5,0,0:0:0:0:
351,326,105728,1,0,0:0:0:0:
179,109,105885,1,0,0:0:0:0:
398,218,106043,1,0,0:0:0:0:
177,287,106201,5,0,0:0:0:0:
346,77,106358,1,0,0:0:0:0:
110,181,106516,1,0,0:0:0:0:
364,244,106674,1,0,0:0:0:0:
226,35,106831,1,0,0:0:0:0:
55,154,106989,2,0,P|38:184|26:216,1,70
160,329,107304,2,0,P|195:322|227:311,1,70
317,118,107620,5,0,0:0:0:0:
92,48,107778,1,0,0:0:0:0:
255,274,107935,1,0,0:0:0:0:
257,6,108093,5,0,0:0:0:0:
72,218,108251,1,0,0:0:0:0:
358,116,108408,1,0,0:0:0:0:
92,48,108566,5,0,0:0:0:0:
255,274,108724,1,0,0:0:0:0:
257,6,108880,1,0,0:0:0:0:
358,116,109039,5,0,0:0:0:0:
72,218,109197,1,0,0:0:0:0:
268,93,109354,1,0,0:0:0:0:
284,314,109511,6,0,P|319:307|351:296,1,70
361,53,109827,2,0,P|328:63|297:80,1,70
207,270,110143,5,0,0:0:0:0:
158,35,110301,1,0,0:0:0:0:
345,190,110458,1,0,0:0:0:0:
22,165,110616,1,0,0:0:0:0:
287,299,110774,5,0,0:0:0:0:
29,299,110931,1,0,0:0:0:0:
281,162,111089,1,0,0:0:0:0:
22,165,111247,1,0,0:0:0:0:
215,32,111404,5,0,0:0:0:0:
128,253,111562,1,0,0:0:0:0:
80,17,111720,1,0,0:0:0:0:
281,162,111877,1,0,0:0:0:0:
203,22,112035,6,0,P|175:42|149:65,1,70
116,237,112350,2,0,P|142:259|172:279,1,70
362,344,112666,5,0,0:0:0:0:
479,177,112824,1,0,0:0:0:0:
216,165,112981,1,0,0:0:0:0:
429,30,113139,1,0,0:0:0:0:
394,264,113297,5,0,0:0:0:0:
272,42,113454,1,0,0:0:0:0:
262,281,113612,1,0,0:0:0:0:
479,177,113770,1,0,0:0:0:0:
387,348,113927,5,0,0:0:0:0:
271,186,114085,1,0,0:0:0:0:
479,177,114243,1,0,0:0:0:0:
230,306,114400,1,0,0:0:0:0:
448,271,114558,6,0,P|463:239|472:206,1,70
324,76,114873,2,0,P|336:109|352:139,1,70
454,295,115189,5,0,0:0:0:0:
224,352,115347,1,0,0:0:0:0:
350,170,115504,1,0,0:0:0:0:
125,229,115662,1,0,0:0:0:0:
375,321,115820,5,0,0:0:0:0:
265,122,115977,1,0,0:0:0:0:
468,206,116135,1,0,0:0:0:0:
234,307,116293,1,0,0:0:0:0:
361,106,116450,5,0,0:0:0:0:
367,313,116608,1,0,0:0:0:0:
244,143,116766,1,0,0:0:0:0:
468,206,116923,1,0,0:0:0:0:
197,292,117081,6,0,P|221:269|251:248,1,70
409,249,117396,2,0,P|433:222|451:194,1,70
444,32,117712,5,0,0:0:0:0:
244,143,117870,1,0,0:0:0:0:
467,205,118027,1,0,0:0:0:0:
391,25,118185,1,0,0:0:0:0:
330,243,118343,1,0,0:0:0:0:
256,22,118500,1,0,0:0:0:0:
421,109,118658,1,0,0:0:0:0:
191,200,118815,1,0,0:0:0:0:
457,227,118973,1,0,0:0:0:0:
225,328,119130,1,0,0:0:0:0:
320,79,119289,1,0,0:0:0:0:
151,218,119446,1,0,0:0:0:0:
300,379,119604,2,0,P|326:377|446:337,1,140
