osu file format v14

[General]
AudioFilename: audio.mp3
AudioLeadIn: 0
PreviewTime: 11981
Countdown: 0
SampleSet: Soft
StackLeniency: 0.4
Mode: 0
LetterboxInBreaks: 0
WidescreenStoryboard: 0

[Editor]
DistanceSpacing: 1
BeatDivisor: 12
GridSize: 8
TimelineZoom: 2.1

[Metadata]
Title:Over You
TitleUnicode:Over You
Artist:iFeature
ArtistUnicode:iFeature
Creator:DeRandom Otaku
Version:Extreme
Source:
Tags:drumstep dnb drum and bass dubstep wub english dance electronic ren reform kujinn fuju chiga
BeatmapID:2287350
BeatmapSetID:1094434

[Difficulty]
HPDrainRate:6
CircleSize:4
OverallDifficulty:8.8
ApproachRate:9.4
SliderMultiplier:2
SliderTickRate:1

[Events]
//Background and Video events
0,0,"bg.jpg",0,0
//Break Periods
2,113123,116794
2,118770,122441
//Storyboard Layer 0 (Background)
//Storyboard Layer 1 (Fail)
//Storyboard Layer 2 (Pass)
//Storyboard Layer 3 (Foreground)
//Storyboard Layer 4 (Overlay)
//Storyboard Sound Samples

[TimingPoints]
-18,352.941176470588,4,2,1,50,1,0
12158,-200,4,2,1,35,0,0
33511,-250,4,2,1,35,0,0
33864,-55.5555555555556,4,2,1,75,0,0
34393,-71.4285714285714,4,2,1,75,0,0
35452,-58.8235294117647,4,2,1,75,0,0
35805,-76.9230769230769,4,2,1,75,0,0
36687,-50,4,2,1,75,0,0
37217,-71.4285714285714,4,2,1,75,0,0
38099,-90.9090909090909,4,2,1,75,0,0
38276,-66.6666666666667,4,2,1,75,0,0
38452,-90.9090909090909,4,2,1,75,0,0
38629,-66.6666666666667,4,2,1,75,0,0
38805,-71.4285714285714,4,2,1,75,0,0
39511,-55.5555555555556,4,2,1,75,0,0
40040,-71.4285714285714,4,2,1,75,0,0
40923,-100,4,2,1,75,0,0
41099,-71.4285714285714,4,2,1,75,0,0
41276,-100,4,2,1,75,0,0
41452,-71.4285714285714,4,2,1,75,0,0
41629,-66.6666666666667,4,2,1,75,0,0
42334,-54.054054054054,4,2,1,75,0,0
43040,-71.4285714285714,4,2,1,75,0,0
43746,-100,4,2,1,75,0,0
43923,-71.4285714285714,4,2,1,75,0,0
44099,-100,4,2,1,75,0,0
44276,-71.4285714285714,4,2,1,75,0,0
44452,-62.5,4,2,1,75,0,0
45158,-45.4545454545455,4,2,1,75,0,0
45687,-66.6666666666667,4,2,1,75,0,0
46746,-62.5,4,2,1,75,0,0
47099,-71.4285714285714,4,2,1,75,0,0
47981,-55.5555555555556,4,2,1,75,0,0
48511,-71.4285714285714,4,2,1,75,0,0
49393,-100,4,2,1,75,0,0
49570,-66.6666666666667,4,2,1,75,0,0
49746,-100,4,2,1,75,0,0
49923,-66.6666666666667,4,2,1,75,0,0
50099,-71.4285714285714,4,2,1,75,0,0
50805,-50,4,2,1,75,0,0
51334,-66.6666666666667,4,2,1,75,0,0
52217,-100,4,2,1,75,0,0
52393,-66.6666666666667,4,2,1,75,0,0
52570,-100,4,2,1,75,0,0
52746,-66.6666666666667,4,2,1,75,0,0
53629,-52.6315789473684,4,2,1,75,0,0
54511,-71.4285714285714,4,2,1,75,0,0
55040,-250,4,2,1,75,0,0
56452,-125,4,2,1,55,0,0
62099,-83.3333333333333,4,2,1,60,0,0
64570,-125,4,2,1,60,0,0
64923,-71.4285714285714,4,2,1,65,0,0
67746,-76.9230769230769,4,2,1,65,0,0
68099,-125,4,2,1,65,0,0
68452,-76.9230769230769,4,2,1,65,0,0
68805,-125,4,2,1,65,0,0
69158,-76.9230769230769,4,2,1,65,0,0
69511,-125,4,2,1,65,0,0
69864,-83.3333333333333,4,2,1,65,0,0
70570,-76.9230769230769,4,2,1,65,0,0
70834,-76.9230769230769,4,2,1,5,0,0
70923,-333.333333333333,4,2,1,65,0,0
71187,-333.333333333333,4,2,1,5,0,0
71276,-76.9230769230769,4,2,1,65,0,0
71540,-76.9230769230769,4,2,1,5,0,0
71629,-333.333333333333,4,2,1,65,0,0
71893,-333.333333333333,4,2,1,5,0,0
71981,-76.9230769230769,4,2,1,65,0,0
72245,-76.9230769230769,4,2,1,5,0,0
72334,-333.333333333333,4,2,1,65,0,0
72598,-333.333333333333,4,2,1,5,0,0
72599,-333.333333333333,4,2,1,5,0,0
72687,-105.263157894737,4,2,1,65,0,0
73393,-76.9230769230769,4,2,1,65,0,0
73746,-125,4,2,1,65,0,0
74099,-76.9230769230769,4,2,1,65,0,0
74452,-125,4,2,1,65,0,0
74805,-76.9230769230769,4,2,1,65,0,0
75158,-125,4,2,1,65,0,0
75511,-83.3333333333333,4,2,1,65,0,0
76217,-83.3333333333333,4,2,1,65,0,0
76481,-83.3333333333333,4,2,1,5,0,0
76570,-76.9230769230769,4,2,1,65,0,0
76834,-76.9230769230769,4,2,1,5,0,0
76923,-66.6666666666667,4,2,1,65,0,0
77187,-66.6666666666667,4,2,1,5,0,0
77276,-58.8235294117647,4,2,1,65,0,0
77540,-58.8235294117647,4,2,1,5,0,0
77629,-58.8235294117647,4,2,1,75,0,0
79040,-50,4,2,1,85,0,0
79305,-50,4,2,1,5,0,0
79393,-58.8235294117647,4,2,1,85,0,0
79746,-50,4,2,1,85,0,0
80099,-58.8235294117647,4,2,1,85,0,0
80452,-50,4,2,1,85,0,0
80805,-58.8235294117647,4,2,1,85,0,0
81158,-54.054054054054,4,2,1,85,0,0
81864,-47.6190476190476,4,2,1,85,0,0
82129,-47.6190476190476,4,2,1,5,0,0
82217,-250,4,2,1,85,0,0
82481,-250,4,2,1,5,0,0
82569,-250,4,2,1,85,0,0
82570,-50,4,2,1,85,0,0
82834,-50,4,2,1,5,0,0
82922,-50,4,2,1,85,0,0
82923,-250,4,2,1,85,0,0
83187,-250,4,2,1,5,0,0
83275,-250,4,2,1,85,0,0
83276,-47.6190476190476,4,2,1,85,0,0
83540,-47.6190476190476,4,2,1,5,0,0
83628,-47.6190476190476,4,2,1,85,0,0
83629,-250,4,2,1,85,0,0
83893,-250,4,2,1,5,0,0
83981,-58.8235294117647,4,2,1,85,0,0
84687,-37.037037037037,4,2,1,85,0,0
85040,-58.8235294117647,4,2,1,85,0,0
85393,-47.6190476190476,4,2,1,85,0,0
85746,-58.8235294117647,4,2,1,85,0,0
86099,-47.6190476190476,4,2,1,85,0,0
86452,-58.8235294117647,4,2,1,85,0,0
86805,-50,4,2,1,85,0,0
87511,-48.780487804878,4,2,1,85,0,0
87776,-48.780487804878,4,2,1,5,0,0
87864,-250,4,2,1,85,0,0
88129,-250,4,2,1,5,0,0
88217,-48.780487804878,4,2,1,85,0,0
88481,-48.780487804878,4,2,1,5,0,0
88569,-48.780487804878,4,2,1,85,0,0
88570,-250,4,2,1,85,0,0
88834,-250,4,2,1,5,0,0
88922,-250,4,2,1,85,0,0
88923,-48.780487804878,4,2,1,85,0,0
89187,-48.780487804878,4,2,1,5,0,0
89275,-48.780487804878,4,2,1,85,0,0
89276,-250,4,2,1,85,0,0
89540,-250,4,2,1,5,0,0
89628,-250,4,2,1,85,0,0
89629,-55.5555555555556,4,2,1,85,0,0
90334,-50,4,2,1,85,0,0
90687,-55.5555555555556,4,2,1,85,0,0
91040,-50,4,2,1,85,0,0
92629,-58.8235294117647,4,2,1,85,0,0
92805,-58.8235294117647,4,2,1,85,0,0
93423,-58.8235294117647,4,2,1,5,0,0
93511,-285.714285714286,4,2,1,85,0,0
93776,-285.714285714286,4,2,1,5,0,0
93864,-52.6315789473684,4,2,1,85,0,0
94129,-52.6315789473684,4,2,1,5,0,0
94217,-285.714285714286,4,2,1,85,0,0
94481,-285.714285714286,4,2,1,5,0,0
94569,-285.714285714286,4,2,1,85,0,0
94570,-46.5116279069767,4,2,1,85,0,0
94834,-46.5116279069767,4,2,1,5,0,0
94922,-46.5116279069767,4,2,1,85,0,0
94923,-285.714285714286,4,2,1,85,0,0
95187,-285.714285714286,4,2,1,5,0,0
95275,-285.714285714286,4,2,1,85,0,0
95276,-55.5555555555556,4,2,1,85,0,0
95981,-47.6190476190476,4,2,1,85,0,0
96334,-58.8235294117647,4,2,1,85,0,0
96687,-47.6190476190476,4,2,1,85,0,0
98276,-54.054054054054,4,2,1,85,0,0
98805,-50,4,2,1,85,0,0
99070,-50,4,2,1,5,0,0
99158,-285.714285714286,4,2,1,85,0,0
99423,-285.714285714286,4,2,1,5,0,0
99511,-50,4,2,1,85,0,0
99776,-50,4,2,1,5,0,0
99864,-285.714285714286,4,2,1,85,0,0
100129,-285.714285714286,4,2,1,5,0,0
100217,-41.6666666666667,4,2,1,85,0,0
100923,-52.6315789473684,4,2,1,85,0,0
101276,-62.5,4,2,1,85,0,0
101629,-58.8235294117647,4,2,1,85,0,0
101981,-66.6666666666667,4,2,1,85,0,0
102687,-76.9230769230769,4,2,1,85,0,0
103923,-66.6666666666667,4,2,1,85,0,0
104452,-58.8235294117647,4,2,1,85,0,0
104717,-58.8235294117647,4,2,1,5,0,0
104805,-250,4,2,1,85,0,0
105070,-250,4,2,1,5,0,0
105158,-58.8235294117647,4,2,1,85,0,0
105423,-58.8235294117647,4,2,1,5,0,0
105511,-250,4,2,1,85,0,0
105776,-250,4,2,1,5,0,0
105864,-58.8235294117647,4,2,1,85,0,0
106129,-58.8235294117647,4,2,1,5,0,0
106217,-250,4,2,1,85,0,0
106481,-250,4,2,1,5,0,0
106569,-250,4,2,1,85,0,0
106570,-58.8235294117647,4,2,1,85,0,0
106923,-38.4615384615385,4,2,1,85,0,0
107276,-50,4,2,1,85,0,0
107629,-62.5,4,2,1,85,0,0
107981,-50,4,2,1,85,0,0
108334,-83.3333333333333,4,2,1,85,0,0
109570,-58.8235294117647,4,2,1,85,0,0
109746,-40,4,2,1,85,0,0
110099,-60.6060606060606,4,2,1,85,0,0
110364,-60.6060606060606,4,2,1,5,0,0
110452,-333.333333333333,4,2,1,85,0,0
110717,-333.333333333333,4,2,1,5,0,0
110805,-54.054054054054,4,2,1,85,0,0
111070,-54.054054054054,4,2,1,5,0,0
111158,-285.714285714286,4,2,1,85,0,0
111423,-285.714285714286,4,2,1,5,0,0
111511,-285.714285714286,4,2,1,85,0,0
117158,-285.714285714286,4,2,1,35,0,0
117511,-125,4,2,1,35,0,0
129864,-125,4,2,1,40,0,0
131276,-153.846153846154,4,2,1,45,0,0
132687,-125,4,2,1,50,0,0
134099,-125,4,2,1,55,0,0
135511,-58.8235294117647,4,2,1,75,0,0
136393,-71.4285714285714,4,2,1,75,0,0
138334,-58.8235294117647,4,2,1,75,0,0
139040,-71.4285714285714,4,2,1,75,0,0
141158,-55.5555555555556,4,2,1,75,0,0
142040,-71.4285714285714,4,2,1,75,0,0
143981,-55.5555555555556,4,2,1,75,0,0
144511,-71.4285714285714,4,2,1,75,0,0
146805,-40,4,2,1,75,0,0
147334,-71.4285714285714,4,2,1,75,0,0
149629,-52.6315789473684,4,2,1,75,0,0
150158,-71.4285714285714,4,2,1,75,0,0
152452,-57.1428571428571,4,2,1,75,0,0
152981,-71.4285714285714,4,2,1,75,0,0
155276,-55.5555555555556,4,2,1,75,0,0
155805,-71.4285714285714,4,2,1,75,0,0
156687,-222.222222222222,4,2,1,75,0,0
158099,-125,4,2,1,55,0,0
163746,-83.3333333333333,4,2,1,60,0,0
166217,-125,4,2,1,60,0,0
166570,-71.4285714285714,4,2,1,65,0,0
169393,-76.9230769230769,4,2,1,65,0,0
169746,-125,4,2,1,65,0,0
170099,-76.9230769230769,4,2,1,65,0,0
170452,-125,4,2,1,65,0,0
170805,-76.9230769230769,4,2,1,65,0,0
171158,-125,4,2,1,65,0,0
171511,-83.3333333333333,4,2,1,65,0,0
172217,-76.9230769230769,4,2,1,65,0,0
172481,-76.9230769230769,4,2,1,5,0,0
172570,-333.333333333333,4,2,1,65,0,0
172834,-333.333333333333,4,2,1,5,0,0
172923,-76.9230769230769,4,2,1,65,0,0
173187,-76.9230769230769,4,2,1,5,0,0
173276,-333.333333333333,4,2,1,65,0,0
173540,-333.333333333333,4,2,1,5,0,0
173629,-76.9230769230769,4,2,1,65,0,0
173893,-76.9230769230769,4,2,1,5,0,0
173981,-333.333333333333,4,2,1,5,0,0
173982,-333.333333333333,4,2,1,65,0,0
174246,-333.333333333333,4,2,1,5,0,0
174334,-105.263157894737,4,2,1,5,0,0
174335,-105.263157894737,4,2,1,65,0,0
175040,-76.9230769230769,4,2,1,65,0,0
175393,-125,4,2,1,65,0,0
175746,-76.9230769230769,4,2,1,65,0,0
176099,-125,4,2,1,65,0,0
176452,-76.9230769230769,4,2,1,65,0,0
176805,-125,4,2,1,65,0,0
177158,-83.3333333333333,4,2,1,65,0,0
177864,-83.3333333333333,4,2,1,70,0,0
179276,-83.3333333333333,4,2,1,75,0,0
180687,-50,4,2,1,85,0,0
181040,-62.5,4,2,1,85,0,0
181393,-47.6190476190476,4,2,1,85,0,0
181746,-50,4,2,1,85,0,0
182099,-47.6190476190476,4,2,1,85,0,0
182452,-55.5555555555556,4,2,1,85,0,0
182805,-47.6190476190476,4,2,1,85,0,0
183158,-55.5555555555556,4,2,1,85,0,0
183511,-47.6190476190476,4,2,1,85,0,0
183776,-47.6190476190476,4,2,1,5,0,0
183864,-250,4,2,1,85,0,0
184129,-250,4,2,1,5,0,0
184217,-47.6190476190476,4,2,1,85,0,0
184481,-47.6190476190476,4,2,1,5,0,0
184569,-47.6190476190476,4,2,1,85,0,0
184570,-250,4,2,1,85,0,0
184834,-250,4,2,1,5,0,0
184922,-250,4,2,1,85,0,0
184923,-47.6190476190476,4,2,1,85,0,0
185187,-47.6190476190476,4,2,1,5,0,0
185275,-47.6190476190476,4,2,1,85,0,0
185276,-250,4,2,1,85,0,0
185540,-250,4,2,1,5,0,0
185628,-250,4,2,1,85,0,0
185629,-62.5,4,2,1,85,0,0
185981,-37.037037037037,4,2,1,85,0,0
186334,-45.4545454545455,4,2,1,85,0,0
186687,-60.6060606060606,4,2,1,85,0,0
187040,-47.6190476190476,4,2,1,85,0,0
187393,-55.5555555555556,4,2,1,85,0,0
187746,-34.4827586206897,4,2,1,85,0,0
188099,-55.5555555555556,4,2,1,85,0,0
188452,-60.6060606060606,4,2,1,85,0,0
189158,-45.4545454545455,4,2,1,85,0,0
189423,-45.4545454545455,4,2,1,5,0,0
189511,-250,4,2,1,85,0,0
189776,-250,4,2,1,5,0,0
189864,-45.4545454545455,4,2,1,85,0,0
190129,-45.4545454545455,4,2,1,5,0,0
190217,-250,4,2,1,85,0,0
190481,-250,4,2,1,5,0,0
190569,-250,4,2,1,85,0,0
190570,-55.5555555555556,4,2,1,85,0,0
190923,-166.666666666667,4,2,1,85,0,0
191276,-55.5555555555556,4,2,1,85,0,0
191981,-40,4,2,1,85,0,0
192334,-58.8235294117647,4,2,1,85,0,0
192687,-40,4,2,1,85,0,0
194099,-55.5555555555556,4,2,1,85,0,0
194805,-40,4,2,1,85,0,0
195158,-55.5555555555556,4,2,1,85,0,0
195511,-40,4,2,1,85,0,0
195864,-62.5,4,2,1,85,0,0
196217,-40,4,2,1,85,0,0
196570,-62.5,4,2,1,85,0,0
197629,-40,4,2,1,85,0,0
197981,-62.5,4,2,1,85,0,0
198334,-40,4,2,1,85,0,0
199746,-62.5,4,2,1,85,0,0
200099,-50,4,2,1,85,0,0
200452,-40,4,2,1,85,0,0
200805,-62.5,4,2,1,85,0,0
201158,-40,4,2,1,85,0,0
201423,-62.5,4,2,1,85,0,0
201864,-40,4,2,1,85,0,0
202129,-62.5,4,2,1,85,0,0
203276,-55.5555555555556,4,2,1,85,0,0
208570,-166.666666666667,4,2,1,85,0,0
208923,-55.5555555555556,4,2,1,85,0,0
211746,-55.5555555555556,4,2,1,85,0,0
212011,-55.5555555555556,4,2,1,5,0,0
212099,-250,4,2,1,85,0,0
212364,-250,4,2,1,5,0,0
212452,-55.5555555555556,4,2,1,85,0,0
212717,-55.5555555555556,4,2,1,5,0,0
212805,-250,4,2,1,85,0,0
213070,-250,4,2,1,5,0,0
213158,-55.5555555555556,4,2,1,85,0,0
213511,-83.3333333333333,4,2,1,85,0,0
214570,-200,4,2,1,85,0,0
215452,-200,4,2,1,35,0,0
239981,-200,4,2,1,60,0,0
240070,-200,4,2,1,60,0,0
240158,-200,4,2,1,5,0,0

[Colours]
Combo1 : 255,91,91
Combo2 : 98,176,255
Combo3 : 255,128,255
Combo4 : 255,168,81

[HitObjects]
23,191,12158,5,2,0:2:0:0:
23,191,12334,2,0,P|66:213|113:187,2,100,2|2|2,0:2|0:2|0:2,0:0:0:0:
23,191,13923,1,2,0:2:0:0:
213,116,15158,6,0,B|275:120|244:150|311:148,2,100,2|2|2,0:2|0:2|0:2,0:0:0:0:
213,116,16746,1,2,0:2:0:0:
213,116,17099,1,2,0:2:0:0:
350,215,17981,6,0,P|378:183|379:119,2,100,2|2|2,0:2|0:2|0:2,0:0:0:0:
350,215,19570,1,2,0:2:0:0:
256,358,20805,5,2,0:2:0:0:
256,358,20982,2,0,P|215:333|164:343,1,100,2|2,0:2|0:2,0:0:0:0:
20,377,22217,5,2,0:2:0:0:
20,377,22393,2,0,P|27:346|29:322,1,50,2|0,0:2|0:0,0:0:0:0:
92,281,22746,2,0,P|80:232|75:182,1,100,2|0,0:2|0:0,0:0:0:0:
107,20,23452,5,2,0:2:0:0:
166,70,23629,2,0,P|196:78|225:81,1,50,2|0,0:2|0:0,0:0:0:0:
273,34,23982,2,0,P|258:86|271:133,1,100,2|2,0:2|0:2,0:0:0:0:
359,329,25217,2,0,B|262:337|318:289|214:294,1,150,2|0,0:2|0:0,0:0:0:0:
219,294,26452,6,0,P|195:315|168:321,1,50,2|0,0:2|0:0,0:0:0:0:
121,366,26805,2,0,P|136:321|124:266,1,100,2|2,0:2|0:2,0:0:0:0:
53,120,28040,1,2,0:2:0:0:
53,120,28393,1,2,0:2:0:0:
385,113,29276,6,0,P|340:93|295:112,2,100,2|2|2,0:2|0:2|0:2,0:0:0:0:
335,304,30864,2,0,B|308:260|308:260|340:168,1,150,2|0,0:2|0:0,0:0:0:0:
420,28,32099,5,2,0:2:0:0:
420,28,32276,2,0,P|391:39|368:45,1,50,2|0,0:2|0:0,0:0:0:0:
491,82,32629,1,2,0:2:0:0:
383,151,33511,6,0,P|353:160|325:149,1,60,2|0,0:2|0:0,0:0:0:0:
224,109,33864,6,0,B|276:87|313:59|313:59|265:248,1,269.999991760254,6|0,1:2|0:0,0:0:0:0:
267,241,34217,1,2,0:2:0:0:
169,244,34393,6,0,P|166:209|186:181,1,69.9999978637696,2|0,0:2|0:0,0:0:0:0:
218,304,34570,1,8,0:2:0:0:
109,293,34746,1,0,0:0:0:0:
109,293,34834,1,0,0:0:0:0:
109,293,34922,1,2,0:2:0:0:
267,241,35099,1,2,1:2:0:0:
157,358,35276,1,2,0:2:0:0:
96,181,35452,6,0,B|56:163|56:163|4:181,1,85.0000016212464,2|0,0:2|0:0,0:0:0:0:
188,237,35629,2,0,B|228:255|228:255|266:241,1,85.0000016212464,2|0,1:2|0:0,0:0:0:0:
226,80,35805,1,2,0:2:0:0:
226,80,35893,1,0,0:0:0:0:
226,80,35981,6,0,P|236:113|228:144,1,64.9999970245363,10|0,0:2|0:0,0:0:0:0:
160,291,36158,2,0,P|166:259|188:235,1,64.9999970245363,2|0,0:2|0:0,0:0:0:0:
331,119,36334,2,0,P|322:151|300:174,1,64.9999970245363,2|0,0:2|0:0,0:0:0:0:
264,331,36511,2,0,P|255:300|261:268,1,64.9999970245363,2|0,0:2|0:0,0:0:0:0:
334,38,36687,6,0,B|300:73|255:83|255:83|481:58,1,300,6|0,1:2|0:0,0:0:0:0:
487,57,37040,1,2,0:2:0:0:
430,228,37217,6,0,B|416:195|416:195|432:147,1,69.9999978637696,2|0,0:2|0:0,0:0:0:0:
508,190,37393,1,10,0:2:0:0:
376,316,37570,1,2,0:0:0:0:
361,294,37658,1,0,0:0:0:0:
339,279,37746,1,0,0:0:0:0:
314,272,37834,1,0,0:0:0:0:
288,274,37923,1,2,1:2:0:0:
132,373,38099,6,0,L|192:368,1,55.0000016784668,2|0,0:2|0:0,0:0:0:0:
188,219,38276,2,0,B|150:207|150:207|109:229,1,75.0000028610231,2|0,0:2|0:0,0:0:0:0:
186,369,38452,6,0,L|246:364,1,55.0000016784668,2|0,1:2|0:0,0:0:0:0:
119,223,38629,2,0,B|83:241|83:241|70:285,1,75.0000028610231,2|0,0:2|0:0,0:0:0:0:
290,249,38805,6,0,B|299:214|299:214|288:181,1,69.9999978637696,10|0,0:2|0:0,0:0:0:0:
296,6,38981,2,0,B|287:41|287:41|298:74,1,69.9999978637696,2|0,0:2|0:0,0:0:0:0:
394,177,39158,2,0,B|375:145|375:145|344:130,1,69.9999978637696,2|0,0:2|0:0,0:0:0:0:
192,78,39334,2,0,B|210:109|210:109|241:124,1,69.9999978637696,2|0,0:2|0:0,0:0:0:0:
512,83,39511,6,0,B|415:88|415:88|425:265,1,269.999991760254,6|0,1:2|0:0,0:0:0:0:
426,283,39864,1,2,0:2:0:0:
272,165,40040,6,0,B|259:131|259:131|272:88,1,69.9999978637696,2|0,0:2|0:0,0:0:0:0:
302,237,40217,1,8,0:2:0:0:
343,62,40393,1,0,0:0:0:0:
328,40,40481,1,0,0:0:0:0:
307,24,40569,1,2,0:2:0:0:
282,17,40657,1,0,0:0:0:0:
256,19,40745,1,2,1:2:0:0:
121,189,40923,6,0,L|184:185,1,50,2|0,0:2|0:0,0:0:0:0:
147,49,41099,2,0,B|133:84|133:84|143:115,1,69.9999978637696,2|0,0:2|0:0,0:0:0:0:
242,270,41276,6,0,L|305:266,1,50,2|0,1:2|0:0,0:0:0:0:
268,130,41452,2,0,B|254:165|254:165|264:196,1,69.9999978637696,2|0,0:2|0:0,0:0:0:0:
364,365,41629,6,0,P|361:328|360:291,1,75.0000028610231,10|0,0:2|0:0,0:0:0:0:
445,115,41805,2,0,P|443:152|440:189,1,75.0000028610231,2|0,0:2|0:0,0:0:0:0:
442,358,41981,2,0,P|438:320|437:283,1,75.0000028610231,2|0,0:2|0:0,0:0:0:0:
366,106,42158,2,0,P|364:143|361:180,1,75.0000028610231,2|0,0:2|0:0,0:0:0:0:
291,370,42334,6,0,B|199:363|199:363|237:181,1,277.499998941422,6|0,1:2|0:0,0:0:0:0:
242,159,42687,1,0,0:0:0:0:
179,219,42864,1,0,0:0:0:0:
305,99,43040,1,10,0:2:0:0:
183,55,43217,1,0,0:0:0:0:
163,72,43305,1,0,0:0:0:0:
154,97,43393,1,2,0:2:0:0:
156,122,43481,1,0,0:0:0:0:
170,145,43569,1,2,1:2:0:0:
352,109,43746,6,0,P|329:99|305:99,1,50,2|0,0:2|0:0,0:0:0:0:
181,241,43923,2,0,L|272:231,1,69.9999978637696,2|0,0:2|0:0,0:0:0:0:
304,99,44099,6,0,P|280:108|263:125,1,50,2|0,1:2|0:0,0:0:0:0:
275,313,44276,2,0,L|332:241,1,69.9999978637696,2|0,0:2|0:0,0:0:0:0:
191,82,44452,6,0,B|173:120|173:120|185:155,1,80,10|0,0:2|0:0,0:0:0:0:
39,262,44629,2,0,B|77:280|77:280|112:267,1,80,2|0,0:2|0:0,0:0:0:0:
78,141,44805,2,0,B|92:180|92:180|126:197,1,80,2|0,0:2|0:0,0:0:0:0:
97,375,44981,2,0,B|136:360|136:360|153:326,1,80,2|0,0:2|0:0,0:0:0:0:
333,232,45158,6,0,B|298:191|230:191|208:247|224:299|280:320|318:291|367:245|391:251|441:272,1,330.000010070801,6|0,1:2|0:0,0:0:0:0:
454,279,45511,1,2,0:2:0:0:
297,383,45687,6,0,B|282:347|282:347|296:308,1,75.0000028610231,2|0,0:2|0:0,0:0:0:0:
368,345,45864,1,8,0:2:0:0:
333,232,46040,1,0,0:0:0:0:
328,204,46128,1,0,0:0:0:0:
335,177,46216,1,2,0:2:0:0:
354,156,46304,1,0,0:0:0:0:
379,145,46392,1,2,1:2:0:0:
295,313,46570,1,2,0:2:0:0:
251,142,46746,6,0,B|212:128|212:128|166:145,1,80,2|0,0:2|0:0,0:0:0:0:
176,222,46923,2,0,B|215:236|215:236|261:219,1,80,2|0,1:2|0:0,0:0:0:0:
443,159,47099,6,0,P|406:141|376:147,1,69.9999978637696,2|0,0:2|0:0,0:0:0:0:
206,93,47276,2,0,P|220:125|251:142,1,69.9999978637696,10|0,0:2|0:0,0:0:0:0:
360,284,47452,2,0,P|367:251|353:219,1,69.9999978637696,2|0,0:2|0:0,0:0:0:0:
347,40,47629,2,0,P|322:63|314:96,1,69.9999978637696,2|0,0:2|0:0,0:0:0:0:
214,244,47805,2,0,P|248:241|273:218,1,69.9999978637696,2|0,0:2|0:0,0:0:0:0:
107,60,47981,6,0,B|191:8|191:8|148:209,1,269.999991760254,6|0,1:2|0:0,0:0:0:0:
152,200,48334,1,2,0:2:0:0:
67,239,48511,6,0,B|54:205|54:205|68:165,1,69.9999978637696,2|0,0:2|0:0,0:0:0:0:
133,278,48687,1,10,0:2:0:0:
132,131,48864,1,0,0:0:0:0:
115,110,48952,1,0,0:0:0:0:
93,97,49040,1,0,0:0:0:0:
67,92,49128,1,0,0:0:0:0:
41,96,49216,1,2,1:2:0:0:
206,255,49393,6,0,L|269:251,1,50,2|0,0:2|0:0,0:0:0:0:
313,139,49570,2,0,B|284:112|284:112|232:117,1,75.0000028610231,2|0,0:2|0:0,0:0:0:0:
344,256,49746,6,0,L|372:199,1,50,2|0,1:2|0:0,0:0:0:0:
248,115,49923,2,0,B|210:126|210:126|188:174,1,75.0000028610231,2|0,0:2|0:0,0:0:0:0:
306,327,50099,6,0,P|340:337|390:321,1,69.9999978637696,10|0,0:2|0:0,0:0:0:0:
342,175,50276,2,0,P|368:151|380:118,1,69.9999978637696,2|0,0:2|0:0,0:0:0:0:
344,256,50452,2,0,P|378:248|405:225,1,69.9999978637696,2|0,0:2|0:0,0:0:0:0:
300,105,50629,2,0,P|310:70|294:21,1,69.9999978637696,2|0,0:2|0:0,0:0:0:0:
91,181,50805,6,0,B|170:154|220:222|220:222|224:220|224:220|218:226|218:226|222:224|222:224|274:289|360:250,1,300,6|0,1:2|0:0,0:0:0:0:
368,246,51158,1,2,0:2:0:0:
300,105,51334,6,0,B|288:143|288:143|299:176,1,75.0000028610231,2|0,0:2|0:0,0:0:0:0:
380,138,51511,1,8,0:2:0:0:
267,29,51687,1,0,0:0:0:0:
240,22,51775,1,0,0:0:0:0:
213,28,51863,1,2,0:2:0:0:
192,47,51951,1,0,0:0:0:0:
183,73,52039,1,2,1:2:0:0:
380,138,52217,6,0,L|451:134,1,50,2|0,0:2|0:0,0:0:0:0:
300,175,52393,2,0,B|288:137|288:137|299:103,1,75.0000028610231,2|0,0:2|0:0,0:0:0:0:
379,66,52570,6,0,L|450:62,1,50,2|0,1:2|0:0,0:0:0:0:
298,103,52746,2,0,B|286:65|286:65|297:31,1,75.0000028610231,2|0,0:2|0:0,0:0:0:0:
446,207,52923,6,0,L|371:211,1,75.0000028610231,10|0,0:2|0:0,0:0:0:0:
301,247,53099,2,0,L|226:251,1,75.0000028610231,2|0,0:2|0:0,0:0:0:0:
452,283,53276,2,0,L|377:287,1,75.0000028610231,2|0,0:2|0:0,0:0:0:0:
307,323,53452,2,0,L|232:327,1,75.0000028610231,2|0,0:2|0:0,0:0:0:0:
37,238,53629,6,0,B|88:146|201:167|201:167|148:182|137:240,1,284.999992389679,6|0,1:2|0:0,0:0:0:0:
136,253,53981,1,0,0:0:0:0:
233,258,54158,5,0,0:0:0:0:
233,258,54246,1,0,0:0:0:0:
233,258,54334,1,10,0:2:0:0:
201,167,54511,1,0,0:0:0:0:
192,142,54599,1,0,0:0:0:0:
192,116,54687,1,2,0:2:0:0:
200,91,54775,1,0,0:0:0:0:
215,70,54863,1,2,1:2:0:0:
484,131,55040,6,0,B|450:131|450:131|454:127|454:127|446:131|446:131|426:131|426:131|430:135|430:135|422:131|422:131|402:131|402:131|406:127|406:127|398:131|398:131|374:131|374:131|378:135|378:135|370:131|370:131|350:131|350:131|354:127|354:127|346:131|346:131|326:131|326:131|330:135|330:135|322:131|322:131|296:131|296:131|298:127|298:127|290:131|290:131|271:131,1,280,2|0,1:2|0:0,0:0:0:0:
95,72,56452,6,0,P|89:48|95:25,3,40,6|0|0|0,1:2|0:0|0:0|0:0,0:0:0:0:
171,29,56805,2,0,P|177:53|171:76,3,40,2|0|0|0,0:2|0:0|0:0|0:0,0:0:0:0:
143,167,57158,6,0,P|137:143|143:120,3,40,2|0|0|0,0:2|0:0|0:0|0:0,0:0:0:0:
219,124,57511,2,0,P|225:148|219:171,3,40,2|0|0|0,0:2|0:0|0:0|0:0,0:0:0:0:
191,262,57864,6,0,P|185:238|191:215,3,40,2|0|0|0,0:2|0:0|0:0|0:0,0:0:0:0:
267,219,58217,2,0,P|273:243|267:266,3,40,2|0|0|0,0:2|0:0|0:0|0:0,0:0:0:0:
239,357,58570,6,0,P|233:333|239:310,3,40,2|0|0|0,0:2|0:0|0:0|0:0,0:0:0:0:
315,314,58923,2,0,P|321:338|315:361,1,40,2|0,0:2|0:0,0:0:0:0:
328,313,59099,2,0,P|334:337|328:360,1,40,2|0,0:2|0:0,0:0:0:0:
267,219,59276,5,2,0:2:0:0:
262,204,59364,1,0,0:0:0:0:
261,189,59452,1,0,0:0:0:0:
264,174,59540,1,0,0:0:0:0:
269,161,59628,1,2,0:2:0:0:
278,148,59717,1,0,0:0:0:0:
289,138,59805,1,0,0:0:0:0:
302,131,59893,1,0,0:0:0:0:
316,127,59981,5,2,0:2:0:0:
330,122,60070,1,0,0:0:0:0:
343,115,60158,1,0,0:0:0:0:
354,105,60246,1,0,0:0:0:0:
362,93,60335,1,2,0:2:0:0:
368,79,60423,1,0,0:0:0:0:
371,64,60511,1,0,0:0:0:0:
370,49,60599,1,0,0:0:0:0:
365,35,60687,5,2,0:2:0:0:
351,40,60776,1,0,0:0:0:0:
338,47,60864,1,0,0:0:0:0:
327,57,60952,1,0,0:0:0:0:
319,69,61041,1,2,0:2:0:0:
313,83,61129,1,0,0:0:0:0:
310,98,61217,1,0,0:0:0:0:
311,113,61305,1,0,0:0:0:0:
316,127,61393,5,2,0:2:0:0:
321,141,61481,1,0,0:0:0:0:
322,156,61569,1,0,0:0:0:0:
319,171,61657,1,0,0:0:0:0:
313,185,61746,2,0,L|316:222,6,20,2|0|0|0|0|0|0,0:2|0:0|0:0|0:0|0:0|0:0|0:0,0:0:0:0:
256,100,62099,5,2,1:2:0:0:
189,264,62276,2,0,L|199:199,1,59.9999981689454,2|0,0:2|0:0,0:0:0:0:
256,92,62452,5,2,1:2:0:0:
323,264,62629,2,0,L|313:199,1,59.9999981689454,2|0,0:2|0:0,0:0:0:0:
256,84,62805,5,2,1:2:0:0:
148,249,62981,2,0,L|184:194,1,59.9999981689454,2|0,0:2|0:0,0:0:0:0:
256,76,63158,5,2,1:2:0:0:
364,249,63334,2,0,L|327:194,1,59.9999981689454,2|0,0:2|0:0,0:0:0:0:
256,68,63511,5,2,1:2:0:0:
117,218,63687,2,0,L|173:183,1,59.9999981689454,2|0,0:2|0:0,0:0:0:0:
256,60,63864,5,2,1:2:0:0:
395,218,64040,2,0,L|338:183,1,59.9999981689454,2|0,0:2|0:0,0:0:0:0:
256,52,64217,5,2,1:2:0:0:
256,247,64393,1,2,0:2:0:0:
256,44,64570,6,0,L|256:11,6,20,2|0|0|0|0|0|0,0:2|0:0|0:0|0:0|0:0|0:0|0:0,0:0:0:0:
359,109,64923,6,0,L|435:100,1,69.9999978637696,2|0,1:2|0:0,0:0:0:0:
153,109,65099,2,0,L|77:100,1,69.9999978637696,2|0,1:2|0:0,0:0:0:0:
369,198,65276,2,0,L|438:206,1,69.9999978637696,2|0,1:2|0:0,0:0:0:0:
143,198,65452,2,0,L|73:206,1,69.9999978637696,2|0,1:2|0:0,0:0:0:0:
256,24,65629,5,2,1:2:0:0:
300,49,65717,1,2,1:2:0:0:
318,97,65805,1,2,1:2:0:0:
300,146,65893,1,2,1:2:0:0:
256,171,65981,1,2,1:2:0:0:
212,196,66070,1,2,1:2:0:0:
194,245,66158,1,2,1:2:0:0:
212,293,66246,1,2,1:2:0:0:
257,319,66334,1,4,1:2:0:0:
276,290,67746,6,0,B|340:274|340:274|336:145,1,194.999991073609,6|0,1:2|0:0,0:0:0:0:
291,79,68099,6,0,P|315:59|339:57,1,40,2|0,0:2|0:0,0:0:0:0:
367,121,68276,2,0,P|354:136|336:145,1,40,2|0,0:2|0:0,0:0:0:0:
189,172,68452,6,0,B|242:151|277:193|277:193|311:236|364:220,1,194.999991073609,2|0,0:2|0:0,0:0:0:0:
433,183,68805,6,0,P|453:178|477:188,1,40,2|0,0:2|0:0,0:0:0:0:
470,262,68981,2,0,P|450:267|426:257,1,40,2|0,0:2|0:0,0:0:0:0:
337,145,69158,6,0,B|316:198|358:233|358:233|401:267|385:320,1,194.999991073609,2|0,0:2|0:0,0:0:0:0:
317,293,69511,6,0,P|301:282|281:280,1,40,2|0,0:2|0:0,0:0:0:0:
261,356,69687,2,0,P|277:367|297:369,1,40,2|0,0:2|0:0,0:0:0:0:
85,274,69864,6,0,B|72:303|72:303|82:335,1,59.9999981689454,2|0,0:2|0:0,0:0:0:0:
188,334,70040,2,0,B|201:305|201:305|191:273,1,59.9999981689454,2|0,0:2|0:0,0:0:0:0:
142,161,70217,1,2,0:2:0:0:
142,161,70305,1,2,0:2:0:0:
142,161,70393,2,0,L|146:232,1,59.9999981689454,2|0,0:2|0:0,0:0:0:0:
345,112,70570,6,0,B|342:57|342:57|183:62,1,194.999991073609,2|0,0:2|0:0,0:0:0:0:
131,83,70923,6,0,L|181:82,1,44.999998626709,2|0,0:2|0:0,0:0:0:0:
200,161,71276,6,0,B|132:163|132:163|148:295,1,194.999991073609,2|0,0:2|0:0,0:0:0:0:
134,363,71629,6,0,B|128:315,1,44.999998626709,2|0,0:2|0:0,0:0:0:0:
258,314,71981,6,0,B|340:314|340:314|364:336|364:336|465:336,1,194.999991073609,2|0,0:2|0:0,0:0:0:0:
508,297,72334,6,0,L|461:297,1,44.999998626709,2|0,0:2|0:0,0:0:0:0:
398,233,72687,6,0,P|396:206|407:183,1,47.4999987316132,2|0,0:2|0:0,0:0:0:0:
330,117,72864,2,0,P|356:115|379:126,1,47.4999987316132,2|0,0:2|0:0,0:0:0:0:
445,48,73040,2,0,P|446:74|435:97,1,47.4999987316132,2|0,0:2|0:0,0:0:0:0:
512,165,73217,2,0,P|485:166|462:155,1,47.4999987316132,2|0,0:2|0:0,0:0:0:0:
288,19,73393,6,0,P|297:101|308:225,1,194.999991073609,2|0,0:2|0:0,0:0:0:0:
281,287,73746,6,0,P|257:283|235:260,1,40,2|0,0:2|0:0,0:0:0:0:
271,200,73923,2,0,P|295:204|317:227,1,40,2|0,0:2|0:0,0:0:0:0:
447,360,74099,6,0,B|394:372|363:324|363:324|340:281|281:287,1,194.999991073609,2|0,0:2|0:0,0:0:0:0:
174,299,74452,6,0,P|191:308|210:308,1,40,2|0,0:2|0:0,0:0:0:0:
227,230,74629,2,0,P|209:220|190:220,1,40,2|0,0:2|0:0,0:0:0:0:
36,344,74805,6,0,B|91:373|91:373|71:236,1,194.999991073609,2|0,0:2|0:0,0:0:0:0:
51,166,75158,6,0,P|72:155|97:158,1,40,2|0,0:2|0:0,0:0:0:0:
109,231,75334,2,0,P|88:242|63:239,1,40,2|0,0:2|0:0,0:0:0:0:
198,40,75511,6,0,L|192:106,1,59.9999981689454,2|0,0:2|0:0,0:0:0:0:
227,230,75687,2,0,L|232:170,1,59.9999981689454,2|0,0:2|0:0,0:0:0:0:
122,119,75864,6,0,P|203:129|326:145,1,179.999994506836,2|0,0:2|0:0,0:0:0:0:
474,189,76217,6,0,B|425:169|393:208|393:208|361:247|313:233,1,179.999994506836,2|0,0:2|0:0,0:0:0:0:
300,141,76570,6,0,B|353:120|388:162|388:162|422:205|475:189,1,194.999991073609,2|0,0:2|0:0,0:0:0:0:
502,85,76923,6,0,B|440:60|400:109|400:109|361:158|299:140,1,225.000008583069,2|0,0:2|0:0,0:0:0:0:
274,22,77276,6,0,B|343:-5|388:49|388:49|433:105|502:84,1,255.000004863739,2|0,0:2|0:0,0:0:0:0:
316,102,77629,5,10,0:2:0:0:
466,1,77805,1,10,0:2:0:0:
232,85,77981,1,10,0:2:0:0:
496,258,78158,1,10,0:2:0:0:
150,176,78334,5,10,0:2:0:0:
153,228,78422,1,10,0:2:0:0:
157,281,78510,1,10,0:2:0:0:
165,338,78598,1,10,0:2:0:0:
165,338,78687,6,0,B|137:314|104:304|104:304|291:330,1,255.000004863739,2|0,0:2|0:0,0:0:0:0:
410,304,79040,6,0,B|424:258|367:214|367:214|281:286|356:384,1,300,6|0,1:2|0:0,0:0:0:0:
310,163,79393,6,0,P|345:137|401:151,1,85.0000016212464,2|0,0:2|0:0,0:0:0:0:
287,329,79570,2,0,P|245:331|211:306,1,85.0000016212464,2|0,0:2|0:0,0:0:0:0:
36,227,79746,6,0,B|122:175|122:175|70:381,1,300,10|0,0:2|0:0,0:0:0:0:
177,101,80099,6,0,B|216:91|216:91|253:116,1,85.0000016212464,2|0,0:2|0:0,0:0:0:0:
212,307,80276,2,0,B|172:316|172:316|135:291,1,85.0000016212464,2|0,0:2|0:0,0:0:0:0:
397,41,80452,6,0,B|425:111|387:169|387:169|407:190|407:190|368:251|400:324,1,300,2|0,1:2|0:0,0:0:0:0:
253,116,80805,6,0,B|270:89|270:89|322:96,1,85.0000016212464,2|0,0:2|0:0,0:0:0:0:
314,299,80981,2,0,B|297:326|297:326|244:318,1,85.0000016212464,2|0,0:2|0:0,0:0:0:0:
66,57,81158,6,0,P|78:114|84:165,1,92.4999996471405,10|0,0:2|0:0,0:0:0:0:
120,383,81334,2,0,P|126:337|136:292,1,92.4999996471405,2|0,0:2|0:0,0:0:0:0:
177,43,81511,1,2,0:2:0:0:
177,43,81599,1,2,0:2:0:0:
177,43,81687,2,0,B|220:23|220:23|271:51,1,92.4999996471405,2|0,0:2|0:0,0:0:0:0:
468,278,81864,6,0,B|411:278|411:278|415:282|415:282|409:278|409:278|360:278|360:278|408:88,1,314.999990386963,2|0,1:2|0:0,0:0:0:0:
461,17,82217,6,0,P|485:32|494:63,1,60,2|0,0:2|0:0,0:0:0:0:
150,40,82570,6,0,B|220:5|277:61|277:61|282:60|282:60|275:66|275:66|281:65|281:65|343:126|408:88,1,300,10|0,0:2|0:0,0:0:0:0:
461,17,82923,6,0,P|485:32|494:63,1,60,2|0,0:2|0:0,0:0:0:0:
224,179,83276,6,0,B|318:171|318:171|310:180|310:180|319:171|319:171|436:162|436:162|398:61,1,314.999990386963,2|0,1:2|0:0,0:0:0:0:
461,17,83629,6,0,P|485:32|494:63,1,60,2|0,0:2|0:0,0:0:0:0:
322,299,83981,6,0,B|305:261|305:261|317:220,1,85.0000016212464,10|0,0:2|0:0,0:0:0:0:
221,5,84158,2,0,B|239:44|239:44|225:83,1,85.0000016212464,2|0,0:2|0:0,0:0:0:0:
123,320,84334,2,0,L|214:311,1,85.0000016212464,2|0,0:2|0:0,0:0:0:0:
410,89,84511,2,0,L|319:80,1,85.0000016212464,2|0,0:2|0:0,0:0:0:0:
64,135,84687,6,0,B|58:81|118:46|118:46|177:127|120:198|120:198|156:265|123:320,1,405.000001544952,6|0,1:2|0:0,0:0:0:0:
35,259,85040,6,0,P|60:273|34:261,1,85.0000016212464,2|0,0:2|0:0,0:0:0:0:
264,177,85217,2,0,P|239:191|265:179,1,85.0000016212464,2|0,0:2|0:0,0:0:0:0:
253,383,85393,6,0,B|219:330|250:276|250:276|330:281|330:281|347:292|347:292|462:299,1,314.999990386963,10|0,0:2|0:0,0:0:0:0:
512,255,85746,6,0,P|482:219|434:225,1,85.0000016212464,2|0,0:2|0:0,0:0:0:0:
185,240,85923,2,0,P|215:276|263:270,1,85.0000016212464,2|0,0:2|0:0,0:0:0:0:
512,82,86099,6,0,B|416:122|363:13|363:13|368:93|305:118,1,314.999990386963,2|0,1:2|0:0,0:0:0:0:
192,19,86452,6,0,B|233:23|233:23|239:30|239:30|274:35,1,85.0000016212464,2|0,0:2|0:0,0:0:0:0:
332,261,86629,2,0,B|291:265|291:265|285:272|285:272|250:276,1,85.0000016212464,2|0,0:2|0:0,0:0:0:0:
54,36,86805,6,0,B|30:83|30:83|46:127,1,100,10|0,0:2|0:0,0:0:0:0:
118,383,86981,2,0,B|134:338|134:338|110:291,1,100,2|0,0:2|0:0,0:0:0:0:
137,96,87158,1,2,0:2:0:0:
137,96,87246,1,2,0:2:0:0:
137,96,87334,2,0,P|187:104|247:110,1,100,2|0,0:2|0:0,0:0:0:0:
505,368,87511,6,0,B|430:310|457:234|457:234|483:159|409:98,1,307.500004692078,2|0,1:2|0:0,0:0:0:0:
349,47,87864,6,0,P|367:25|398:21,1,60,2|0,0:2|0:0,0:0:0:0:
432,383,88217,6,0,B|375:308|421:241|421:241|464:176|410:98,1,307.500004692078,10|0,0:2|0:0,0:0:0:0:
349,47,88570,6,0,P|367:25|398:21,1,60,2|0,0:2|0:0,0:0:0:0:
357,378,88923,6,0,B|321:291|383:239|383:239|442:187|410:98,1,307.500004692078,2|0,1:2|0:0,0:0:0:0:
349,47,89276,6,0,P|367:25|398:21,1,60,2|0,0:2|0:0,0:0:0:0:
314,318,89629,6,0,B|270:314|270:314|265:310|265:310|223:307,1,89.9999972534181,10|0,0:2|0:0,0:0:0:0:
75,216,89805,2,0,B|116:212|116:212|121:208|121:208|165:204,1,89.9999972534181,2|0,0:2|0:0,0:0:0:0:
410,98,89981,5,2,0:2:0:0:
367,39,90069,1,2,0:2:0:0:
299,61,90157,1,2,0:2:0:0:
299,133,90245,1,2,0:2:0:0:
367,155,90334,6,0,B|465:134|465:134|408:351,1,300,6|0,1:2|0:0,0:0:0:0:
294,359,90687,6,0,B|303:332|298:315|298:315|312:306|322:274,1,89.9999972534181,2|0,0:2|0:0,0:0:0:0:
194,81,90864,2,0,B|203:109|217:118|217:118|212:136|222:162,1,89.9999972534181,2|0,0:2|0:0,0:0:0:0:
495,108,91040,6,0,B|491:28|491:28|409:30|409:30|415:34|415:34|405:30|405:30|256:33,1,300,10|0,0:2|0:0,0:0:0:0:
58,106,91393,5,2,0:2:0:0:
72,126,91481,1,2,0:2:0:0:
93,139,91569,1,2,0:2:0:0:
118,144,91657,1,2,0:2:0:0:
194,81,91746,5,2,1:2:0:0:
157,130,91834,1,2,0:2:0:0:
156,192,91922,1,2,0:2:0:0:
191,243,92010,1,2,0:2:0:0:
248,264,92098,1,2,0:2:0:0:
305,245,92188,1,2,0:2:0:0:
364,264,92276,1,2,0:2:0:0:
402,313,92364,1,2,0:2:0:0:
403,374,92452,1,10,0:2:0:0:
418,73,92629,6,0,P|364:79|312:84,1,85.0000016212464,2|0,0:2|0:0,0:0:0:0:
106,49,92805,2,0,B|194:8|194:8|162:169,1,255.000004863739,2|0,0:2|0:0,0:0:0:0:
112,275,93158,6,0,P|165:187|204:282,1,255.000004863739,2|0,1:2|0:0,0:0:0:0:
153,384,93511,6,0,P|145:363|160:332,1,52.4999983978272,2|0,0:2|0:0,0:0:0:0:
204,283,93864,6,0,P|167:176|112:275,1,284.999992389679,10|0,0:2|0:0,0:0:0:0:
153,384,94217,6,0,P|145:363|160:332,1,52.4999983978272,2|0,0:2|0:0,0:0:0:0:
112,275,94570,6,0,P|169:163|201:286,1,322.50000492096,2|0,1:2|0:0,0:0:0:0:
153,384,94923,6,0,P|145:363|160:332,1,52.4999983978272,2|0,0:2|0:0,0:0:0:0:
28,130,95276,6,0,B|73:135|73:135|75:140|75:140|79:136|79:136|121:141,1,89.9999972534181,10|0,0:2|0:0,0:0:0:0:
191,221,95452,2,0,B|236:226|236:226|238:231|238:231|242:227|242:227|284:232,1,89.9999972534181,2|0,0:2|0:0,0:0:0:0:
325,41,95629,2,0,B|370:46|370:46|372:51|372:51|376:47|376:47|418:52,1,89.9999972534181,2|0,0:2|0:0,0:0:0:0:
422,294,95805,2,0,B|467:299|467:299|469:304|469:304|473:300|473:300|515:305,1,89.9999972534181,2|0,0:2|0:0,0:0:0:0:
204,142,95981,6,0,B|313:126|313:126|279:352,1,314.999990386963,6|0,1:2|0:0,0:0:0:0:
144,182,96334,6,0,P|131:142|149:93,1,85.0000016212464,2|0,0:2|0:0,0:0:0:0:
398,87,96511,2,0,P|411:127|393:176,1,85.0000016212464,2|0,0:2|0:0,0:0:0:0:
141,329,96687,6,0,B|213:286|273:356|273:356|281:342|281:342|350:404|433:343,1,314.999990386963,10|0,0:2|0:0,0:0:0:0:
398,87,97040,5,2,0:2:0:0:
364,105,97128,1,2,0:2:0:0:
347,140,97216,1,2,0:2:0:0:
354,179,97304,1,2,0:2:0:0:
452,240,97393,5,2,1:2:0:0:
397,209,97481,1,2,0:2:0:0:
335,214,97569,1,2,0:2:0:0:
286,252,97657,1,2,0:2:0:0:
266,311,97745,1,2,0:2:0:0:
226,359,97835,1,2,0:2:0:0:
166,377,97923,1,2,0:2:0:0:
107,359,98011,1,2,0:2:0:0:
67,311,98099,1,10,0:2:0:0:
163,17,98276,6,0,P|168:69|173:129,1,92.4999996471405,2|0,0:2|0:0,0:0:0:0:
296,334,98452,2,0,B|383:323|383:323|365:133,1,277.499998941422,2|0,0:2|0:0,0:0:0:0:
296,112,98805,6,0,B|282:58|282:58|358:21|358:21|449:48|449:48|434:112,1,300,2|0,1:2|0:0,0:0:0:0:
369,186,99158,6,0,B|365:134,1,52.4999983978272,2|0,0:2|0:0,0:0:0:0:
439,209,99511,6,0,B|452:262|452:262|376:299|376:299|285:272|285:272|300:208,1,300,10|0,0:2|0:0,0:0:0:0:
365,134,99864,6,0,B|369:186,1,52.4999983978272,2|0,0:2|0:0,0:0:0:0:
167,58,100217,6,0,B|209:37|234:-8|234:-8|206:64|203:166,1,239.999992675781,2|0,1:2|0:0,0:0:0:0:
113,204,100481,2,0,B|142:159|142:159|271:159|271:159|300:207,1,239.999992675781,2|0,0:2|0:0,0:0:0:0:
157,289,100746,2,0,B|187:276|203:251|203:251|188:277|195:326,1,119.999996337891,2|0,0:2|0:0,0:0:0:0:
433,316,100923,6,0,B|378:277|378:277|316:309|316:309|310:304|310:304|308:315|308:315|243:342|243:342|185:302,1,284.999992389679,10|0,0:2|0:0,0:0:0:0:
5,294,101276,2,0,B|78:302|141:242|141:242|104:273|110:322,1,240,2|0,0:2|0:0,0:0:0:0:
356,364,101629,6,0,B|303:290|195:309|195:309|246:340|254:394,1,255.000004863739,6|0,1:2|0:0,0:0:0:0:
393,295,101981,6,0,P|357:265|325:251,1,75.0000028610231,2|0,0:2|0:0,0:0:0:0:
134,351,102158,2,0,P|167:334|195:309,1,75.0000028610231,2|0,0:2|0:0,0:0:0:0:
378,148,102334,6,0,B|314:147|278:99|278:99|276:155|222:188,1,225.000008583069,10|0,0:2|0:0,0:0:0:0:
152,99,102687,6,0,L|185:102,1,32.4999985122681,2|0,0:2|0:0,0:0:0:0:
341,232,102864,2,0,L|308:229,1,32.4999985122681,2|0,0:2|0:0,0:0:0:0:
371,34,103040,1,0,1:2:0:0:
191,186,103217,6,0,L|223:188,1,32.4999985122681,2|0,0:2|0:0,0:0:0:0:
410,150,103393,2,0,L|378:148,1,32.4999985122681,2|0,0:2|0:0,0:0:0:0:
221,3,103570,2,0,L|223:35,1,32.4999985122681,2|0,0:2|0:0,0:0:0:0:
341,232,103746,1,8,0:2:0:0:
129,123,103923,6,0,P|103:161|111:214,1,75.0000028610231,2|0,0:2|0:0,0:0:0:0:
195,335,104099,2,0,P|193:260|191:186,1,150.000005722046,2|2,0:2|0:2,0:0:0:0:
371,34,104452,6,0,P|463:12|429:125,1,255.000004863739,2|0,1:2|0:0,0:0:0:0:
316,133,104805,6,0,P|341:110|365:107,1,60,2|0,0:2|0:0,0:0:0:0:
375,231,105158,6,0,P|348:321|267:235,1,255.000004863739,10|0,0:2|0:0,0:0:0:0:
316,133,105511,6,0,P|323:166|314:188,1,60,2|0,0:2|0:0,0:0:0:0:
202,136,105864,6,0,P|136:67|251:40,1,255.000004863739,2|0,1:2|0:0,0:0:0:0:
316,133,106217,6,0,P|283:122|268:103,1,60,2|0,0:2|0:0,0:0:0:0:
498,21,106570,6,0,P|490:72|485:111,1,85.0000016212464,10|0,0:2|0:0,0:0:0:0:
375,231,106746,2,0,P|381:272|387:315,1,85.0000016212464,2|0,0:2|0:0,0:0:0:0:
342,53,106923,6,0,B|252:60|252:60|219:19|219:19|162:115|162:115|123:77|123:77|14:91,1,389.999982147218,2|0,0:2|0:0,0:0:0:0:
82,324,107276,6,0,B|188:306|188:306|162:112,1,300,6|0,1:2|0:0,0:0:0:0:
17,257,107629,6,0,L|100:243,1,80,2|0,0:2|0:0,0:0:0:0:
242,102,107805,2,0,L|163:115,1,80,2|0,0:2|0:0,0:0:0:0:
386,369,107981,6,0,B|439:244|335:183|335:183|372:210|371:260,1,300,10|0,0:2|0:0,0:0:0:0:
260,255,108334,6,0,L|290:250,1,29.9999990844727,2|0,0:2|0:0,0:0:0:0:
505,194,108511,2,0,L|475:188,1,29.9999990844727,2|0,0:2|0:0,0:0:0:0:
325,317,108687,1,0,1:2:0:0:
404,92,108864,6,0,L|402:147,1,29.9999990844727,2|0,0:2|0:0,0:0:0:0:
484,336,109040,2,0,L|485:306,1,29.9999990844727,2|0,0:2|0:0,0:0:0:0:
306,182,109217,2,0,L|335:183,1,29.9999990844727,2|0,0:2|0:0,0:0:0:0:
503,63,109393,1,8,0:2:0:0:
204,7,109570,6,0,P|207:56|209:116,1,85.0000016212464,2|0,0:2|0:0,0:0:0:0:
153,338,109746,2,0,B|104:296|51:312|51:312|173:240|191:381|323:328,1,375,2|0,0:2|0:0,0:0:0:0:
460,233,110099,6,0,P|386:304|483:335,1,247.500002360344,2|0,1:2|0:0,0:0:0:0:
465,218,110452,6,0,P|440:212|422:216,1,44.999998626709,2|0,1:2|0:0,0:0:0:0:
223,288,110805,6,0,B|302:336|302:336|273:152,1,277.499998941422,10|0,1:2|0:0,0:0:0:0:
219,304,111158,6,0,B|265:332,1,52.4999983978272,2|0,1:2|0:0,0:0:0:0:
361,152,111511,5,2,1:2:0:0:
90,211,111687,1,2,1:2:0:0:
290,43,111864,1,2,1:2:0:0:
219,304,112040,1,2,1:2:0:0:
128,50,112217,1,10,1:2:0:0:
335,259,112393,1,2,1:2:0:0:
62,118,112570,1,2,1:2:0:0:
382,64,112746,1,2,1:2:0:0:
403,69,112834,1,0,1:2:0:0:
425,75,112923,5,6,1:2:0:0:
316,79,117334,5,2,0:2:0:0:
316,79,117511,2,0,L|307:160,1,80,2|2,0:2|0:2,0:0:0:0:
196,79,117864,2,0,L|205:160,1,80,2|2,0:2|0:2,0:0:0:0:
254,17,118217,1,2,0:2:0:0:
196,79,118393,1,2,0:2:0:0:
316,79,118570,1,2,0:2:0:0:
316,305,122981,5,2,0:2:0:0:
316,305,123158,2,0,L|307:224,1,80,2|2,0:2|0:2,0:0:0:0:
196,305,123511,2,0,L|205:224,1,80,2|2,0:2|0:2,0:0:0:0:
254,367,123864,1,2,0:2:0:0:
196,305,124040,1,2,0:2:0:0:
316,305,124217,5,2,0:2:0:0:
307,225,124570,1,2,0:2:0:0:
205,225,124923,1,2,0:2:0:0:
196,305,125276,1,2,0:2:0:0:
256,192,125629,5,2,0:2:0:0:
245,164,125981,1,2,0:2:0:0:
256,136,126334,1,2,0:2:0:0:
245,108,126687,1,2,0:2:0:0:
353,14,127040,5,2,0:2:0:0:
342,42,127392,1,2,0:2:0:0:
353,70,127745,1,2,0:2:0:0:
342,98,128098,1,2,0:2:0:0:
162,60,128452,5,2,0:2:0:0:
129,134,128629,1,2,0:2:0:0:
129,134,128805,2,0,L|48:143,1,80,2|2,0:2|0:2,0:0:0:0:
129,250,129159,2,0,L|48:241,1,80,2|0,0:2|0:0,0:0:0:0:
191,192,129512,1,2,0:2:0:0:
129,250,129688,1,2,0:2:0:0:
129,130,129865,5,2,0:2:0:0:
383,250,130217,1,2,0:2:0:0:
129,250,130570,1,2,0:2:0:0:
383,130,130923,1,2,0:2:0:0:
256,23,131276,6,0,L|256:88,1,64.9999970245363,2|0,0:2|0:0,0:0:0:0:
164,62,131629,2,0,L|186:123,1,64.9999970245363,2|0,0:2|0:0,0:0:0:0:
90,130,131981,2,0,L|131:179,1,64.9999970245363,2|0,0:2|0:0,0:0:0:0:
43,219,132334,2,0,L|99:251,1,64.9999970245363,2|0,0:2|0:0,0:0:0:0:
209,357,132687,6,0,L|197:260,1,80,2|0,0:2|0:0,0:0:0:0:
306,320,133040,2,0,L|261:232,1,80,2|0,0:2|0:0,0:0:0:0:
383,251,133393,2,0,L|311:184,1,80,2|0,0:2|0:0,0:0:0:0:
434,161,133746,2,0,L|343:122,1,80,2|0,0:2|0:0,0:0:0:0:
164,62,134099,5,2,0:2:0:0:
164,62,134276,1,0,0:0:0:0:
328,34,134452,1,2,0:2:0:0:
328,34,134629,1,0,0:0:0:0:
201,163,134805,5,2,0:2:0:0:
243,3,134981,1,0,0:0:0:0:
132,129,135158,1,2,0:2:0:0:
311,108,135334,1,0,0:0:0:0:
37,89,135511,6,0,B|81:71|112:40|112:40|70:227,1,255.000004863739,6|0,1:2|0:0,0:0:0:0:
72,222,135864,1,0,0:0:0:0:
165,195,136040,5,0,0:0:0:0:
11,164,136217,1,8,0:2:0:0:
138,292,136393,1,2,0:2:0:0:
162,283,136481,1,0,0:0:0:0:
187,275,136569,1,2,0:2:0:0:
213,269,136657,1,0,0:0:0:0:
238,263,136745,1,2,1:2:0:0:
351,357,136923,6,0,P|314:349|270:347,1,69.9999978637696,2|0,0:2|0:0,0:0:0:0:
333,178,137099,2,0,P|296:186|252:188,1,69.9999978637696,2|0,0:2|0:0,0:0:0:0:
138,292,137276,1,2,1:2:0:0:
138,292,137364,1,0,0:0:0:0:
138,292,137452,6,0,L|130:212,1,69.9999978637696,2|0,0:2|0:0,0:0:0:0:
191,45,137629,1,10,0:2:0:0:
32,128,137805,6,0,P|73:116|114:111,1,69.9999978637696,2|0,0:2|0:0,0:0:0:0:
194,31,137981,2,0,P|235:43|276:48,1,69.9999978637696,2|0,0:2|0:0,0:0:0:0:
356,128,138158,2,0,P|397:116|438:111,1,69.9999978637696,2|0,0:2|0:0,0:0:0:0:
465,346,138334,6,0,B|397:388|397:388|406:308|406:308|399:291|399:291|409:192,1,255.000004863739,6|0,1:2|0:0,0:0:0:0:
409,194,138687,1,0,0:0:0:0:
485,237,138864,1,0,0:0:0:0:
317,310,139040,6,0,P|276:301|215:295,1,69.9999978637696,8|0,0:0|0:0,0:0:0:0:
245,158,139217,2,0,P|255:192|268:224,1,69.9999978637696,2|0,0:2|0:0,0:0:0:0:
150,297,139393,2,0,P|174:271|196:243,1,69.9999978637696,2|0,0:2|0:0,0:0:0:0:
315,100,139570,5,2,1:2:0:0:
315,100,139658,1,0,0:0:0:0:
315,100,139746,2,0,P|273:87|249:73,1,69.9999978637696,2|0,0:2|0:0,0:0:0:0:
57,99,139923,2,0,P|90:90|121:74,1,69.9999978637696,2|0,0:2|0:0,0:0:0:0:
186,27,140099,1,2,1:2:0:0:
184,204,140276,6,0,P|182:166|183:130,1,69.9999978637696,2|0,0:2|0:0,0:0:0:0:
186,27,140452,1,10,0:2:0:0:
284,207,140629,6,0,P|317:216|350:207,1,69.9999978637696,2|0,0:2|0:0,0:0:0:0:
401,66,140805,2,0,P|376:90|367:123,1,69.9999978637696,2|0,0:2|0:0,0:0:0:0:
464,237,140981,2,0,P|455:203|430:179,1,69.9999978637696,2|0,0:2|0:0,0:0:0:0:
265,26,141158,6,0,B|240:80|269:133|269:133|250:179|250:179|275:226|252:290,1,269.999991760254,6|0,1:2|0:0,0:0:0:0:
250,306,141511,1,0,0:0:0:0:
172,237,141687,5,0,0:0:0:0:
172,237,141776,1,0,0:0:0:0:
172,237,141864,1,8,0:0:0:0:
329,181,142040,1,2,0:2:0:0:
353,189,142128,1,0,0:0:0:0:
379,195,142216,1,2,0:2:0:0:
405,199,142304,1,0,0:0:0:0:
431,201,142392,1,2,1:2:0:0:
512,54,142570,6,0,P|487:80|468:114,1,69.9999978637696,2|0,0:2|0:0,0:0:0:0:
350,54,142746,2,0,P|375:80|394:114,1,69.9999978637696,2|0,0:2|0:0,0:0:0:0:
431,201,142923,1,2,1:2:0:0:
238,136,143099,6,0,B|269:134|269:134|277:130|277:130|307:130,1,69.9999978637696,2|0,0:2|0:0,0:0:0:0:
431,201,143276,1,10,0:2:0:0:
310,272,143452,6,0,P|295:240|283:191,1,69.9999978637696,2|0,0:2|0:0,0:0:0:0:
351,76,143629,2,0,P|330:104|294:139,1,69.9999978637696,2|0,0:2|0:0,0:0:0:0:
161,139,143805,2,0,P|196:142|244:156,1,69.9999978637696,2|0,0:2|0:0,0:0:0:0:
376,373,143981,6,0,B|410:297|410:297|332:306|332:306|314:301|314:301|206:310,1,269.999991760254,6|0,1:2|0:0,0:0:0:0:
203,311,144334,1,0,0:0:0:0:
24,350,144511,6,0,B|56:366|56:366|89:357,1,69.9999978637696,0|0,0:0|0:0,0:0:0:0:
216,235,144687,1,8,0:0:0:0:
11,222,144864,6,0,B|43:206|43:206|76:214,1,69.9999978637696,2|0,0:2|0:0,0:0:0:0:
203,311,145040,2,0,B|169:319|169:319|137:303,1,69.9999978637696,2|0,0:2|0:0,0:0:0:0:
190,122,145217,1,2,1:2:0:0:
190,122,145305,1,0,0:0:0:0:
190,122,145393,6,0,P|226:113|266:85,1,69.9999978637696,2|0,0:2|0:0,0:0:0:0:
432,122,145570,2,0,P|396:113|356:85,1,69.9999978637696,2|0,0:2|0:0,0:0:0:0:
311,21,145746,1,2,1:2:0:0:
307,227,145923,6,0,P|307:182|308:142,1,69.9999978637696,2|0,0:2|0:0,0:0:0:0:
311,21,146099,1,10,0:2:0:0:
253,96,146276,6,0,P|222:114|189:122,1,69.9999978637696,2|0,0:2|0:0,0:0:0:0:
369,97,146452,2,0,P|399:114|432:122,1,69.9999978637696,2|0,0:2|0:0,0:0:0:0:
306,226,146629,2,0,P|305:191|308:157,1,69.9999978637696,2|0,0:2|0:0,0:0:0:0:
161,8,146805,6,0,B|99:41|69:98|57:176|93:241|147:247|225:204|207:136|182:111,1,375,6|0,1:2|0:0,0:0:0:0:
178,104,147158,1,2,0:0:0:0:
343,8,147334,6,0,B|356:44|356:44|345:78,1,69.9999978637696,2|0,0:0|0:0,0:0:0:0:
310,196,147511,1,8,0:0:0:0:
178,104,147687,1,2,0:2:0:0:
189,80,147775,1,0,0:0:0:0:
207,61,147863,1,2,0:2:0:0:
230,49,147951,1,0,0:0:0:0:
255,44,148039,1,2,1:2:0:0:
439,171,148217,6,0,P|400:163|366:146,1,69.9999978637696,2|0,0:2|0:0,0:0:0:0:
244,217,148393,2,0,P|275:202|310:196,1,69.9999978637696,2|0,0:2|0:0,0:0:0:0:
426,250,148570,1,2,1:2:0:0:
220,138,148746,6,0,P|251:123|286:117,1,69.9999978637696,2|0,0:2|0:0,0:0:0:0:
439,171,148923,1,10,0:2:0:0:
350,267,149099,6,0,P|354:302|364:336,1,69.9999978637696,2|0,0:2|0:0,0:0:0:0:
439,171,149276,2,0,P|466:150|491:124,1,69.9999978637696,2|0,0:2|0:0,0:0:0:0:
311,142,149452,2,0,P|279:128|245:121,1,69.9999978637696,2|0,0:2|0:0,0:0:0:0:
182,365,149629,6,0,B|74:357|74:357|107:160,1,284.999992389679,6|0,1:2|0:0,0:0:0:0:
109,163,149981,1,2,0:0:0:0:
237,276,150158,6,0,B|202:284|202:284|168:270,1,69.9999978637696,2|0,0:0|0:0,0:0:0:0:
213,131,150334,1,8,0:0:0:0:
295,328,150511,6,0,P|312:291|308:243,1,69.9999978637696,2|0,0:2|0:0,0:0:0:0:
213,131,150687,2,0,P|236:164|280:184,1,69.9999978637696,2|0,0:2|0:0,0:0:0:0:
390,160,150864,1,2,1:2:0:0:
234,48,151040,6,0,P|183:56|148:59,1,69.9999978637696,2|0,0:2|0:0,0:0:0:0:
170,209,151217,2,0,P|135:203|100:199,1,69.9999978637696,2|0,0:2|0:0,0:0:0:0:
54,11,151393,1,2,1:2:0:0:
57,36,151481,1,0,0:0:0:0:
61,62,151569,1,2,0:2:0:0:
64,89,151657,1,0,0:0:0:0:
66,115,151745,1,10,0:2:0:0:
164,278,151923,6,0,L|170:209,1,69.9999978637696,2|0,0:2|0:0,0:0:0:0:
234,48,152099,2,0,L|228:117,1,69.9999978637696,2|0,0:2|0:0,0:0:0:0:
85,218,152276,2,0,L|90:148,1,69.9999978637696,2|0,0:2|0:0,0:0:0:0:
318,39,152452,6,0,B|388:39|388:39|395:34|395:34|403:39|403:39|439:39|439:39|446:36|446:36|503:36|503:36|475:120,1,262.500002503395,6|0,1:2|0:0,0:0:0:0:
474,127,152805,1,2,0:0:0:0:
325,281,152981,6,0,B|315:246|315:246|331:204,1,69.9999978637696,2|0,0:0|0:0,0:0:0:0:
453,357,153158,1,8,0:0:0:0:
395,185,153334,1,2,0:2:0:0:
380,163,153422,1,0,0:0:0:0:
358,148,153510,1,2,0:2:0:0:
333,141,153598,1,0,0:0:0:0:
307,143,153686,1,2,1:2:0:0:
136,254,153864,6,0,L|212:249,1,69.9999978637696,2|0,0:2|0:0,0:0:0:0:
307,143,154040,2,0,L|237:138,1,69.9999978637696,2|0,0:2|0:0,0:0:0:0:
338,253,154217,1,2,1:2:0:0:
181,89,154393,6,0,P|163:126|169:165,1,69.9999978637696,2|0,0:2|0:0,0:0:0:0:
268,304,154570,1,10,0:2:0:0:
377,148,154746,6,0,L|307:143,1,69.9999978637696,2|0,0:2|0:0,0:0:0:0:
205,249,154923,2,0,L|244:190,1,69.9999978637696,2|0,0:2|0:0,0:0:0:0:
203,49,155099,2,0,L|233:112,1,69.9999978637696,2|0,0:2|0:0,0:0:0:0:
362,335,155276,6,0,B|367:215|501:242|501:242|455:285|457:332,1,269.999991760254,6|0,1:2|0:0,0:0:0:0:
460,321,155629,1,0,0:0:0:0:
268,304,155805,6,0,B|259:273|259:273|270:236,1,69.9999978637696,0|0,0:0|0:0,0:0:0:0:
299,375,155981,1,8,0:0:0:0:
339,199,156158,1,2,0:2:0:0:
324,177,156246,1,0,0:0:0:0:
302,162,156334,1,2,0:2:0:0:
277,156,156422,1,0,0:0:0:0:
251,159,156510,1,2,1:2:0:0:
144,328,156687,6,0,B|160:280|140:240|140:240|120:224|120:224|116:204|108:192|108:192|101:192|101:192|108:192|108:192|116:180|120:160|120:160|140:144|140:144|160:104|144:56,1,314.999990386963,2|0,1:2|0:0,0:0:0:0:
303,19,158099,6,0,L|300:62,3,40,6|0|0|0,1:2|0:0|0:0|0:0,0:0:0:0:
375,64,158452,2,0,L|377:24,3,40,2|0|0|0,0:2|0:0|0:0|0:0,0:0:0:0:
333,122,158805,6,0,L|330:165,3,40,2|0|0|0,0:2|0:0|0:0|0:0,0:0:0:0:
405,167,159158,2,0,L|407:127,3,40,2|0|0|0,0:2|0:0|0:0|0:0,0:0:0:0:
363,225,159511,6,0,L|360:268,3,40,2|0|0|0,0:2|0:0|0:0|0:0,0:0:0:0:
435,270,159864,2,0,L|437:230,3,40,2|0|0|0,0:2|0:0|0:0|0:0,0:0:0:0:
393,328,160217,6,0,L|390:371,3,40,2|0|0|0,0:2|0:0|0:0|0:0,0:0:0:0:
465,373,160570,2,0,L|467:333,1,40,2|0,0:2|0:0,0:0:0:0:
480,375,160746,2,0,L|482:335,1,40,2|0,0:2|0:0,0:0:0:0:
437,230,160923,5,2,0:2:0:0:
431,214,161011,1,0,0:0:0:0:
422,201,161099,1,0,0:0:0:0:
410,190,161187,1,0,0:0:0:0:
396,182,161275,1,2,0:2:0:0:
380,178,161364,1,0,0:0:0:0:
364,178,161452,1,0,0:0:0:0:
348,181,161540,1,0,0:0:0:0:
334,188,161628,5,2,0:2:0:0:
320,195,161717,1,0,0:0:0:0:
304,198,161805,1,0,0:0:0:0:
288,198,161893,1,0,0:0:0:0:
272,194,161982,1,2,0:2:0:0:
258,186,162070,1,0,0:0:0:0:
246,175,162158,1,0,0:0:0:0:
237,162,162246,1,0,0:0:0:0:
231,146,162334,5,2,0:2:0:0:
245,139,162423,1,0,0:0:0:0:
261,136,162511,1,0,0:0:0:0:
277,136,162599,1,0,0:0:0:0:
293,140,162688,1,2,0:2:0:0:
307,148,162776,1,0,0:0:0:0:
319,159,162864,1,0,0:0:0:0:
328,172,162952,1,0,0:0:0:0:
334,188,163040,5,2,0:2:0:0:
340,204,163128,1,0,0:0:0:0:
349,217,163216,1,0,0:0:0:0:
361,228,163304,1,0,0:0:0:0:
375,236,163393,2,0,L|413:234,6,20,2|0|0|0|0|0|0,0:2|0:0|0:0|0:0|0:0|0:0|0:0,0:0:0:0:
266,202,163746,5,2,1:2:0:0:
400,75,163923,2,0,P|379:107|354:135,1,59.9999981689454,2|0,0:2|0:0,0:0:0:0:
255,206,164099,5,2,1:2:0:0:
256,6,164276,2,0,P|267:43|274:80,1,59.9999981689454,2|0,0:2|0:0,0:0:0:0:
244,202,164452,5,2,1:2:0:0:
114,72,164629,2,0,P|149:87|182:105,1,59.9999981689454,2|0,0:2|0:0,0:0:0:0:
241,191,164805,5,2,1:2:0:0:
73,226,164981,2,0,P|107:208|142:195,1,59.9999981689454,2|0,0:2|0:0,0:0:0:0:
244,180,165158,5,2,1:2:0:0:
165,353,165334,2,0,P|173:316|185:281,1,59.9999981689454,2|0,0:2|0:0,0:0:0:0:
255,177,165511,5,2,1:2:0:0:
377,332,165687,2,0,P|344:312|315:288,1,59.9999981689454,2|0,0:2|0:0,0:0:0:0:
266,180,165864,5,2,1:2:0:0:
441,189,166040,1,2,0:2:0:0:
275,191,166217,6,0,L|273:219,6,20,2|0|0|0|0|0|0,0:2|0:0|0:0|0:0|0:0|0:0|0:0,0:0:0:0:
198,115,166570,6,0,P|182:82|180:42,1,69.9999978637696,2|0,1:2|0:0,0:0:0:0:
198,269,166746,2,0,P|182:302|180:342,1,69.9999978637696,2|0,1:2|0:0,0:0:0:0:
314,115,166923,2,0,P|330:82|332:42,1,69.9999978637696,2|0,1:2|0:0,0:0:0:0:
314,269,167099,2,0,P|330:302|332:342,1,69.9999978637696,2|0,1:2|0:0,0:0:0:0:
108,151,167276,5,2,1:2:0:0:
147,117,167364,1,2,1:2:0:0:
198,115,167452,1,2,1:2:0:0:
240,145,167540,1,2,1:2:0:0:
253,195,167628,1,2,1:2:0:0:
286,233,167717,1,2,1:2:0:0:
337,241,167805,1,2,1:2:0:0:
382,217,167893,1,2,1:2:0:0:
402,170,167981,1,4,1:2:0:0:
402,170,169393,6,0,B|373:122|373:122|234:122,1,194.999991073609,6|0,1:2|0:0,0:0:0:0:
159,145,169746,6,0,P|145:119|149:94,1,40,2|0,0:2|0:0,0:0:0:0:
220,86,169923,2,0,P|231:102|234:121,1,40,2|0,0:2|0:0,0:0:0:0:
219,253,170099,6,0,B|248:205|248:205|386:205,1,194.999991073609,2|0,0:2|0:0,0:0:0:0:
462,228,170452,6,0,P|476:202|472:177,1,40,2|0,0:2|0:0,0:0:0:0:
402,170,170629,2,0,P|390:186|387:205,1,40,2|0,0:2|0:0,0:0:0:0:
400,337,170805,6,0,B|371:289|371:289|232:289,1,194.999991073609,2|0,0:2|0:0,0:0:0:0:
157,312,171158,6,0,P|143:286|147:261,1,40,2|0,0:2|0:0,0:0:0:0:
219,253,171335,2,0,P|230:269|233:288,1,40,2|0,0:2|0:0,0:0:0:0:
62,178,171511,6,0,P|72:142|74:114,1,59.9999981689454,2|0,0:2|0:0,0:0:0:0:
128,5,171687,2,0,P|131:34|139:63,1,59.9999981689454,2|0,0:2|0:0,0:0:0:0:
168,170,171864,1,2,0:2:0:0:
168,170,171952,1,2,0:2:0:0:
168,170,172040,2,0,B|199:179|199:179|226:168,1,59.9999981689454,2|0,0:2|0:0,0:0:0:0:
344,77,172217,6,0,B|312:67|288:42|288:42|321:172,1,194.999991073609,2|0,0:2|0:0,0:0:0:0:
352,235,172570,6,0,L|339:187,1,44.999998626709,2|0,0:2|0:0,0:0:0:0:
454,288,172923,6,0,B|384:288|384:288|340:266|340:266|238:266,1,194.999991073609,2|0,0:2|0:0,0:0:0:0:
191,289,173276,6,0,B|237:289,1,44.999998626709,2|0,0:2|0:0,0:0:0:0:
160,211,173629,6,0,P|108:287|157:365,1,194.999991073609,2|0,0:2|0:0,0:0:0:0:
232,361,173981,6,0,B|187:361,1,44.999998626709,2|0,0:2|0:0,0:0:0:0:
304,315,174334,6,0,P|308:284|299:254,1,47.4999987316132,2|0,0:2|0:0,0:0:0:0:
275,127,174511,2,0,P|270:151|273:174,1,47.4999987316132,2|0,0:2|0:0,0:0:0:0:
383,207,174687,2,0,P|359:202|336:205,1,47.4999987316132,2|0,0:2|0:0,0:0:0:0:
196,236,174864,2,0,P|226:240|256:231,1,47.4999987316132,2|0,0:2|0:0,0:0:0:0:
426,115,175040,6,0,B|407:161|425:196|425:196|417:221|417:221|438:258|421:302,1,194.999991073609,2|0,0:2|0:0,0:0:0:0:
426,381,175393,6,0,L|476:377,1,40,2|0,0:2|0:0,0:0:0:0:
461,299,175570,2,0,L|421:302,1,40,2|0,0:2|0:0,0:0:0:0:
309,378,175746,6,0,B|290:332|308:296|308:296|300:271|300:271|321:234|304:190,1,194.999991073609,2|0,0:2|0:0,0:0:0:0:
309,112,176099,6,0,L|359:116,1,40,2|0,0:2|0:0,0:0:0:0:
344,194,176276,2,0,L|304:190,1,40,2|0,0:2|0:0,0:0:0:0:
192,115,176452,6,0,B|173:161|191:196|191:196|183:221|183:221|204:258|187:302,1,194.999991073609,2|0,0:2|0:0,0:0:0:0:
192,381,176805,6,0,L|242:377,1,40,2|0,0:2|0:0,0:0:0:0:
227,300,176981,2,0,L|187:303,1,40,2|0,0:2|0:0,0:0:0:0:
22,336,177158,6,0,P|13:305|24:274,1,59.9999981689454,2|0,0:2|0:0,0:0:0:0:
100,276,177334,2,0,P|109:307|98:338,1,59.9999981689454,2|0,0:2|0:0,0:0:0:0:
58,216,177511,1,2,0:2:0:0:
58,216,177599,1,2,0:2:0:0:
58,216,177687,2,0,L|61:147,1,59.9999981689454,2|0,0:2|0:0,0:0:0:0:
69,10,177864,5,10,0:2:0:0:
381,76,178217,1,10,0:2:0:0:
61,156,178570,1,10,0:2:0:0:
373,222,178923,1,10,0:2:0:0:
147,25,179276,5,10,0:2:0:0:
170,239,179452,1,10,0:2:0:0:
350,8,179629,1,10,0:2:0:0:
373,222,179805,1,10,0:2:0:0:
70,321,179981,5,10,0:2:0:0:
78,270,180069,1,10,0:2:0:0:
118,237,180157,1,10,0:2:0:0:
170,239,180245,1,10,0:2:0:0:
207,273,180333,5,2,0:3:0:0:
251,197,180423,5,2,0:3:0:0:
184,143,180511,5,2,0:3:0:0:
228,67,180599,5,2,0:3:0:0:
161,13,180687,6,0,B|140:44|93:55|93:55|347:25,1,300,6|0,1:2|0:0,0:0:0:0:
483,128,181040,6,0,B|498:91|498:91|475:42,1,80,10|0,0:2|0:0,0:0:0:0:
404,59,181217,2,0,B|389:96|389:96|412:145,1,80,2|0,0:2|0:0,0:0:0:0:
510,363,181393,6,0,B|449:363|431:307|431:307|410:245|354:246,1,209.999993591309,2|0,0:2|1:0,0:0:0:0:
47,382,181746,6,0,B|52:335|52:335|49:330|49:330|54:323|54:323|58:284,1,100,10|0,0:2|0:0,0:0:0:0:
94,104,181923,2,0,B|98:142|98:142|103:149|103:149|100:155|100:155|105:201,1,100,2|0,0:2|0:0,0:0:0:0:
184,380,182099,6,0,B|272:373|272:373|262:267|262:267|265:255|265:255|262:264|262:264|252:149,1,314.999990386963,2|0,1:2|0:0,0:0:0:0:
136,6,182452,6,0,P|92:3|59:41,1,89.9999972534181,10|0,0:2|0:0,0:0:0:0:
94,104,182629,2,0,P|138:107|171:69,1,89.9999972534181,2|0,0:2|0:0,0:0:0:0:
386,3,182805,6,0,B|377:60|377:60|385:90|385:90|369:140|369:140|377:165|377:165|373:207,1,209.999993591309,2|2,0:2|1:2,0:0:0:0:
294,358,183070,1,0,0:0:0:0:
294,358,183158,2,0,P|334:332|375:328,1,89.9999972534181,10|2,0:2|0:2,0:0:0:0:
294,170,183334,2,0,P|338:179|373:207,1,89.9999972534181,2|0,0:2|0:0,0:0:0:0:
212,378,183511,6,0,B|158:312|194:240|194:240|190:235|190:235|201:237|201:237|196:232|196:232|233:158|162:81,1,314.999990386963,2|0,1:2|0:0,0:0:0:0:
111,55,183864,6,0,P|133:30|165:23,1,60,10|0,0:2|0:0,0:0:0:0:
115,373,184217,6,0,B|87:293|146:238|146:238|143:232|143:232|153:237|153:237|150:231|150:231|210:174|170:78,1,314.999990386963,2|0,0:2|0:0,0:0:0:0:
111,55,184570,6,0,P|133:30|165:23,1,60,10|0,0:2|0:0,0:0:0:0:
26,335,184923,6,0,B|27:250|101:218|101:218|100:212|100:212|108:220|108:220|107:213|107:213|183:180|178:76,1,314.999990386963,2|0,1:2|0:0,0:0:0:0:
111,55,185276,6,0,P|133:30|165:23,1,60,10|0,0:2|0:0,0:0:0:0:
323,196,185629,6,0,B|287:191|287:191|281:185|281:185|246:181,1,80,2|0,0:2|0:0,0:0:0:0:
115,310,185805,2,0,B|151:305|151:305|157:299|157:299|191:295,1,80,2|0,1:2|0:0,0:0:0:0:
409,210,185981,6,0,B|467:133|448:63|354:54|292:94|341:246|448:318,1,405.000001544952,10|0,0:2|0:0,0:0:0:0:
358,365,186334,6,0,B|375:326|427:302|427:302|375:326|333:306|333:306|304:322|304:322|256:297|201:319,1,330.000010070801,6|0,1:2|0:0,0:0:0:0:
5,338,186687,6,0,P|14:297|19:256,1,82.5000007867813,10|0,0:2|0:0,0:0:0:0:
88,45,186864,2,0,P|92:85|102:126,1,82.5000007867813,2|0,0:2|0:0,0:0:0:0:
204,318,187040,6,0,B|146:337|111:290|111:290|71:238|19:257,1,209.999993591309,2|0,0:2|1:0,0:0:0:0:
237,47,187393,6,0,B|279:30|279:30|318:51,1,89.9999972534181,10|0,0:2|0:0,0:0:0:0:
175,243,187570,2,0,B|158:200|158:200|179:161,1,89.9999972534181,2|0,0:2|0:0,0:0:0:0:
442,303,187746,6,0,B|463:312|510:301|526:258|511:177|378:181|353:285|353:285|338:355|269:369|222:343,1,435.000013275147,2|0,1:2|0:0,0:0:0:0:
256,165,188099,2,0,B|273:208|273:208|252:247,1,89.9999972534181,10|0,0:2|0:0,0:0:0:0:
87,374,188276,2,0,B|70:331|70:331|91:292,1,89.9999972534181,2|0,0:2|0:0,0:0:0:0:
173,50,188452,6,0,P|169:109|166:151,1,82.5000007867813,2|0,0:2|0:0,0:0:0:0:
247,358,188629,1,2,1:2:0:0:
247,358,188717,1,0,0:0:0:0:
247,358,188805,2,0,P|252:275|258:193,1,165.000001573563,10|2,0:2|0:2,0:0:0:0:
493,201,189158,6,0,B|486:155|434:126|384:153|375:196|375:196|364:241|312:264|265:234|259:194,1,330.000010070801,2|0,1:2|0:0,0:0:0:0:
222,127,189511,6,0,P|248:113|277:117,1,60,10|0,0:2|0:0,0:0:0:0:
25,202,189864,6,0,B|31:156|83:127|133:154|142:197|142:197|153:242|205:265|252:235|259:194,1,330.000010070801,2|0,1:2|0:0,0:0:0:0:
277,117,190217,6,0,P|248:113|222:127,1,60,10|0,0:2|0:0,0:0:0:0:
252,283,190570,6,0,L|259:194,1,89.9999972534181,2|0,1:2|0:0,0:0:0:0:
24,25,190746,1,2,1:2:0:0:
280,34,190923,6,0,L|238:32,1,29.9999990844727,10|0,0:2|0:0,0:0:0:0:
84,248,191099,1,2,1:2:0:0:
420,67,191276,5,2,1:2:0:0:
416,123,191364,1,0,1:0:0:0:
413,179,191452,1,2,1:2:0:0:
410,235,191540,1,0,1:0:0:0:
407,291,191629,5,2,0:2:0:0:
360,231,191717,1,2,0:2:0:0:
284,230,191805,1,2,0:2:0:0:
236,289,191893,1,2,0:2:0:0:
253,363,191981,6,0,B|258:248|258:248|242:218|242:218|248:97,1,250,6|0,1:2|0:0,0:0:0:0:
357,191,192246,1,0,3:0:0:0:
357,191,192334,2,0,B|303:197|334:220|263:236,1,85.0000016212464,10|0,0:2|0:0,0:0:0:0:
187,76,192511,2,0,P|222:49|277:52,1,85.0000016212464,2|0,3:2|0:0,0:0:0:0:
443,241,192687,6,0,B|382:297|382:297|401:123,1,250,2|0,0:2|1:0,0:0:0:0:
508,20,192952,1,0,3:0:0:0:
508,20,193040,5,10,0:2:0:0:
500,49,193128,1,2,0:2:0:0:
476,70,193216,1,2,3:2:0:0:
446,75,193304,1,2,0:2:0:0:
324,8,193393,5,2,1:2:0:0:
376,25,193481,1,2,0:2:0:0:
407,74,193569,1,2,0:2:0:0:
401,130,193657,1,2,3:2:0:0:
362,171,193745,1,10,0:2:0:0:
323,212,193834,1,2,0:2:0:0:
317,268,193922,1,2,3:2:0:0:
348,317,194010,1,2,0:2:0:0:
400,334,194099,6,0,P|407:268|401:217,1,89.9999972534181,2|0,0:2|0:0,0:0:0:0:
251,52,194276,2,0,P|249:96|256:141,1,89.9999972534181,2|0,1:2|3:0,0:0:0:0:
497,187,194452,2,0,B|425:191|425:191|398:208|398:208|323:212,1,179.999994506836,10|0,0:2|3:0,0:0:0:0:
44,139,194805,6,0,B|97:119|133:65|133:65|111:232,1,250,2|0,1:2|0:0,0:0:0:0:
43,349,195070,1,0,3:0:0:0:
43,349,195158,2,0,B|30:305|30:305|47:258,1,89.9999972534181,10|0,0:2|0:0,0:0:0:0:
188,261,195334,2,0,B|201:305|201:305|184:352,1,89.9999972534181,0|0,3:0|0:0,0:0:0:0:
133,65,195511,6,0,B|186:33|247:68|247:68|239:78|239:78|295:121|362:81,1,250,2|0,0:2|1:0,0:0:0:0:
482,33,195776,1,0,3:0:0:0:
481,32,195864,2,0,P|450:6|411:0,1,80,10|0,0:2|0:0,0:0:0:0:
418,170,196040,2,0,P|457:163|487:138,1,80,0|0,3:0|0:0,0:0:0:0:
195,9,196217,6,0,B|212:116|212:116|198:147|198:147|214:267,1,250,2|0,1:2|0:0,0:0:0:0:
297,367,196481,1,0,3:0:0:0:
297,367,196570,2,0,B|309:326|309:326|291:283,1,80,10|0,0:2|0:0,0:0:0:0:
140,309,196746,2,0,B|128:350|128:350|146:393,1,80,0|0,3:0|0:0,0:0:0:0:
212,117,196923,6,0,P|165:125|102:129,1,80,2|0,0:2|0:0,0:0:0:0:
349,200,197099,1,2,1:2:0:0:
349,200,197187,1,0,3:0:0:0:
349,200,197276,2,0,P|354:153|363:101,1,80,10|0,0:2|0:0,0:0:0:0:
276,0,197452,2,0,P|282:39|286:79,1,80,2|0,3:2|0:0,0:0:0:0:
248,380,197629,6,0,B|216:330|246:276|246:276|433:295,1,250,6|0,1:2|0:0,0:0:0:0:
508,366,197893,1,0,3:0:0:0:
508,366,197981,2,0,B|469:380|469:380|422:363,1,80,10|0,0:2|0:0,0:0:0:0:
435,217,198158,2,0,B|474:203|474:203|521:220,1,80,2|0,3:2|0:0,0:0:0:0:
246,276,198334,6,0,B|253:210|253:210|243:190|243:190|278:132|278:132|266:107|266:107|278:41,1,250,2|0,0:2|1:0,0:0:0:0:
118,74,198599,1,0,3:0:0:0:
118,74,198688,5,10,0:2:0:0:
131,102,198776,1,2,0:2:0:0:
157,120,198864,1,2,0:2:0:0:
187,123,198952,1,2,3:2:0:0:
279,42,199040,5,2,1:2:0:0:
229,77,199128,1,2,0:2:0:0:
216,137,199216,1,2,0:2:0:0:
245,190,199304,1,2,3:2:0:0:
303,210,199392,1,10,0:2:0:0:
349,252,199481,1,2,0:2:0:0:
355,312,199569,1,2,3:2:0:0:
319,362,199657,1,2,0:2:0:0:
260,375,199746,6,0,P|259:332|261:293,1,80,2|0,0:2|0:0,0:0:0:0:
371,95,199923,2,0,P|372:134|371:174,1,80,2|0,1:2|3:0,0:0:0:0:
159,256,200099,2,0,B|275:199|236:300|356:248,1,200,10|0,0:2|3:0,0:0:0:0:
371,95,200452,6,0,B|331:85|293:27|293:27|302:170,1,250,2|0,1:2|0:0,0:0:0:0:
416,294,200717,1,0,3:0:0:0:
415,293,200805,2,0,P|427:255|421:217,1,80,10|0,0:2|0:0,0:0:0:0:
183,217,200981,2,0,P|176:256|189:294,1,80,0|0,3:0|0:0,0:0:0:0:
294,27,201158,6,0,B|223:32|223:32|175:123|175:123|97:131,1,250,2|0,0:2|1:0,0:0:0:0:
21,24,201423,1,0,3:0:0:0:
21,24,201511,2,0,L|111:17,1,80,10|0,0:2|0:0,0:0:0:0:
183,218,201687,2,0,L|103:226,1,80,0|0,3:0|0:0,0:0:0:0:
371,95,201864,6,0,B|442:138|442:138|398:310,1,250,2|0,1:2|0:0,0:0:0:0:
307,367,202129,1,2,3:2:0:0:
306,366,202217,2,0,P|294:329|304:291,1,80,10|0,0:2|0:0,0:0:0:0:
498,292,202393,2,0,P|511:332|498:371,1,80,2|0,3:2|0:0,0:0:0:0:
371,95,202570,6,0,P|412:88|463:76,1,80,2|0,0:2|0:0,0:0:0:0:
213,216,202746,1,2,1:2:0:0:
213,216,202834,1,0,3:0:0:0:
213,216,202923,2,0,P|205:164|195:121,1,80,10|0,0:2|0:0,0:0:0:0:
354,22,203099,2,0,P|395:15|446:3,1,80,2|0,3:2|0:0,0:0:0:0:
424,280,203276,6,0,P|330:221|431:177,1,269.999991760254,6|0,1:2|0:0,0:0:0:0:
440,301,203629,2,0,P|395:313|340:299,1,89.9999972534181,2|0,1:2|0:0,0:0:0:0:
358,144,203805,2,0,P|402:141|444:157,1,89.9999972534181,2|0,0:2|0:0,0:0:0:0:
280,312,203981,2,0,B|181:320|181:320|138:276|138:276|17:286,1,269.999991760254,10|0,0:2|0:0,0:0:0:0:
89,130,204334,5,2,1:2:0:0:
80,108,204423,1,2,0:0:0:0:
103,104,204511,1,2,0:2:0:0:
94,82,204600,1,2,0:0:0:0:
0,35,204687,6,0,B|68:-6|118:55|118:55|165:118|237:84,1,269.999991760254,0|0,0:2|0:0,0:0:0:0:
379,29,205040,2,0,P|339:10|298:25,1,89.9999972534181,2|0,0:2|0:0,0:0:0:0:
299,140,205217,2,0,P|339:155|379:136,1,89.9999972534181,2|0,0:2|0:0,0:0:0:0:
192,16,205393,1,8,0:2:0:0:
218,300,205570,6,0,B|233:258|233:258|219:214,1,89.9999972534181,2|0,0:2|0:0,0:0:0:0:
94,82,205746,2,0,B|69:119|17:136|17:136|189:103,1,269.999991760254,2|0,0:2|0:0,0:0:0:0:
330,17,206099,6,0,B|327:99|394:113|394:113|395:121|395:121|394:113|394:113|454:79|425:2,1,269.999991760254,2|0,1:2|0:0,0:0:0:0:
258,41,206452,2,0,P|267:92|290:133,1,89.9999972534181,2|0,0:2|0:0,0:0:0:0:
497,108,206629,2,0,P|508:57|503:10,1,89.9999972534181,2|0,0:0|0:0,0:0:0:0:
311,223,206805,2,0,B|389:239|458:176|458:176|412:216|412:277,1,269.999991760254,10|0,0:2|0:0,0:0:0:0:
284,125,207158,5,2,1:2:0:0:
288,138,207246,1,0,0:0:0:0:
228,182,207334,1,2,1:2:0:0:
224,195,207422,1,2,0:0:0:0:
311,223,207511,6,0,B|124:231|124:231|179:299,1,269.999991760254,2|0,0:2|0:0,0:0:0:0:
365,282,207864,2,0,P|392:229|376:179,1,89.9999972534181,2|0,0:2|0:0,0:0:0:0:
265,56,208040,2,0,P|263:100|288:138,1,89.9999972534181,2|0,0:0|0:0,0:0:0:0:
476,151,208217,2,0,B|529:87|529:87|342:79,1,269.999991760254,10|0,0:2|0:0,0:0:0:0:
204,139,208570,6,0,B|247:155|247:155|287:138,1,89.9999972534181,2|0,0:2|0:0,0:0:0:0:
85,38,208923,6,0,B|183:38|183:38|157:219,1,269.999991760254,6|0,1:2|0:0,0:0:0:0:
115,279,209276,2,0,P|86:247|80:200,1,89.9999972534181,2|0,1:2|0:0,0:0:0:0:
204,139,209452,2,0,P|232:170|238:217,1,89.9999972534181,2|0,0:2|0:0,0:0:0:0:
182,360,209629,2,0,B|151:322|114:310|114:310|316:344,1,269.999991760254,10|0,0:2|0:0,0:0:0:0:
497,367,209981,1,2,1:2:0:0:
497,367,210334,6,0,B|472:287|401:285|401:285|332:282|304:202,1,269.999991760254,2|0,0:2|0:0,0:0:0:0:
350,121,210687,2,0,P|383:148|401:201,1,89.9999972534181,2|0,0:2|0:0,0:0:0:0:
260,289,210864,2,0,P|227:262|209:209,1,89.9999972534181,2|0,0:2|0:0,0:0:0:0:
305,205,211040,1,8,0:2:0:0:
130,358,211217,6,0,P|76:347|26:342,1,89.9999972534181,2|0,0:2|0:0,0:0:0:0:
70,183,211393,2,0,B|117:154|147:109|147:109|105:265,1,269.999991760254,2|0,0:2|0:0,0:0:0:0:
42,343,211746,6,0,B|7:274|7:274|195:312,1,269.999991760254,2|0,1:2|0:0,0:0:0:0:
254,365,212099,6,0,P|272:338|274:306,1,60,2|0,1:2|0:0,0:0:0:0:
93,202,212452,6,0,B|90:124|90:124|245:239,1,269.999991760254,10|0,0:2|0:0,0:0:0:0:
275,311,212805,6,0,P|302:294|318:265,1,60,2|0,1:2|0:0,0:0:0:0:
199,96,213158,6,0,B|229:24|229:24|321:194,1,269.999991760254,2|0,1:2|0:0,0:0:0:0:
317,271,213511,6,0,P|349:267|375:248,1,60,2|0,1:2|0:0,0:0:0:0:
326,118,213687,2,0,P|293:121|267:140,1,60,2|0,1:2|0:0,0:0:0:0:
422,160,213864,1,10,1:2:0:0:
221,229,214040,1,2,1:2:0:0:
428,84,214217,1,2,1:2:0:0:
463,95,214305,1,0,1:0:0:0:
489,121,214393,1,2,1:2:0:0:
498,157,214481,1,0,1:2:0:0:
489,193,214569,5,6,0:2:0:0:
489,193,215452,1,2,0:2:0:0:
489,193,215629,2,0,P|446:171|399:197,2,100,2|2|2,0:2|0:2|0:2,0:0:0:0:
489,193,217217,1,2,0:2:0:0:
299,268,218452,6,0,B|237:264|268:234|201:236,2,100,2|2|2,0:2|0:2|0:2,0:0:0:0:
299,268,220040,1,2,0:2:0:0:
299,268,220393,1,2,0:2:0:0:
162,169,221276,6,0,P|134:201|133:265,2,100,2|2|2,0:2|0:2|0:2,0:0:0:0:
162,169,222864,1,2,0:2:0:0:
256,26,224099,5,2,0:2:0:0:
256,26,224276,2,0,P|297:51|348:41,1,100,2|2,0:2|0:2,0:0:0:0:
492,7,225511,5,2,0:2:0:0:
492,7,225687,2,0,P|485:38|483:62,1,50,2|0,0:2|0:0,0:0:0:0:
420,103,226040,2,0,P|432:152|437:202,1,100,2|0,0:2|0:0,0:0:0:0:
405,364,226746,5,2,0:2:0:0:
346,314,226923,2,0,P|316:306|287:303,1,50,2|0,0:2|0:0,0:0:0:0:
239,350,227276,2,0,P|254:298|241:251,1,100,2|2,0:2|0:2,0:0:0:0:
153,55,228511,2,0,B|250:47|194:95|298:90,1,150,2|0,0:2|0:0,0:0:0:0:
293,90,229746,6,0,P|317:69|344:63,1,50,2|0,0:2|0:0,0:0:0:0:
391,18,230099,2,0,P|376:63|388:118,1,100,2|2,0:2|0:2,0:0:0:0:
459,264,231334,1,2,0:2:0:0:
459,264,231687,1,2,0:2:0:0:
385,113,232570,6,0,P|340:93|295:112,2,100,2|2|2,0:2|0:2|0:2,0:0:0:0:
335,304,234158,2,0,B|308:260|308:260|340:168,1,150,2|0,0:2|0:0,0:0:0:0:
420,28,235393,5,2,0:2:0:0:
420,28,235570,2,0,P|391:39|368:45,1,50,2|0,0:2|0:0,0:0:0:0:
308,4,235923,2,0,P|323:42|327:104,1,100,2|0,0:2|0:0,0:0:0:0:
288,273,236805,5,2,0:2:0:0:
288,273,236981,1,2,0:2:0:0:
256,192,237158,12,4,239981,0:0:0:0:
256,192,240070,12,0,244702,0:0:0:0:
