osu file format v14

[General]
AudioFilename: audio.mp3
AudioLeadIn: 0
PreviewTime: -1
Countdown: 0
SampleSet: Soft
StackLeniency: 0.4
Mode: 0
LetterboxInBreaks: 0
WidescreenStoryboard: 0

[Editor]
Bookmarks: 574,5102,9587,14073,18559,23063,25327,32126,41168,45653,50139,59111
DistanceSpacing: 0.4
BeatDivisor: 4
GridSize: 32
TimelineZoom: 2.3

[Metadata]
Title:funee monkee gif
TitleUnicode:funee monkee gif
Artist:i9bonsai
ArtistUnicode:i9bonsai
Creator:E-why
Version:Look
Source:
Tags:
BeatmapID:3052144
BeatmapSetID:1488860

[Difficulty]
HPDrainRate:6
CircleSize:4
OverallDifficulty:8
ApproachRate:9
SliderMultiplier:3.2
SliderTickRate:1

[Events]
//Background and Video events
0,0,"vlc_2021-06-11_04-36-25.png",0,0
//Break Periods
2,32326,37133
//Storyboard Layer 0 (Background)
//Storyboard Layer 1 (Fail)
//Storyboard Layer 2 (Pass)
//Storyboard Layer 3 (Foreground)
//Storyboard Layer 4 (Overlay)
//Storyboard Sound Samples

[TimingPoints]
574,566.037735849057,4,2,0,75,1,0
5102,280.373831775701,4,2,0,75,1,0
14073,283.018867924528,4,2,0,75,1,0
23063,-200,4,2,0,75,0,0
25335,283.018867924528,4,2,0,75,1,0
32126,560.747663551402,4,2,0,75,1,0
41140,280.373831775701,4,2,0,75,1,0
50140,280.373831775701,4,2,0,75,1,0
58551,-60.2409638554217,4,2,0,75,0,0
59532,-100,4,2,0,75,0,0

[HitObjects]
30,115,574,6,0,B|136:20|136:20|157:197,1,320
438,150,1706,6,0,B|349:38|349:38|298:209,1,320
348,300,2838,6,0,B|278:358|223:256|223:256|151:347|92:277,1,315.000012016297
69,179,3687,5,0,0:0:0:0:
388,207,3970,1,0,0:0:0:0:
235,113,4253,2,0,L|228:192,2,80
212,384,4819,1,0,0:0:0:0:
39,281,5102,6,0,P|75:220|134:260,1,160
297,122,5382,2,0,B|234:173|234:173|215:94,1,160
29,39,5662,6,0,P|97:74|163:35,1,160
248,330,5943,2,0,P|210:263|134:260,1,160
126,267,6153,1,0,0:0:0:0:
118,275,6223,2,0,L|277:261,1,160
436,247,6503,6,0,P|470:291|423:261,1,160
183,128,6784,1,0,0:0:0:0:
344,115,6924,2,0,P|400:113|347:134,1,160
103,248,7204,1,0,0:0:0:0:
62,25,7344,6,0,L|17:192,1,160
195,7,7625,2,0,L|172:165,1,160
359,27,7905,2,0,L|326:183,1,160
480,66,8186,5,0,0:0:0:0:
493,225,8326,1,0,0:0:0:0:
485,233,8396,1,0,0:0:0:0:
477,241,8466,1,0,0:0:0:0:
326,183,8606,5,0,0:0:0:0:
486,145,8746,1,0,0:0:0:0:
199,248,8887,5,0,0:0:0:0:
359,286,9027,2,0,L|337:127,1,160
35,143,9307,1,0,0:0:0:0:
27,151,9377,1,0,0:0:0:0:
19,159,9447,1,0,0:0:0:0:
2,320,9587,6,0,P|37:381|96:341,1,160
247,218,9868,2,0,B|184:269|184:269|165:190,1,160
432,374,10148,5,0,0:0:0:0:
272,357,10288,1,0,0:0:0:0:
478,309,10429,2,0,P|445:238|460:161,1,160
452,169,10639,5,0,0:0:0:0:
444,177,10709,1,0,0:0:0:0:
436,185,10779,1,0,0:0:0:0:
428,193,10849,1,0,0:0:0:0:
420,201,10919,1,0,0:0:0:0:
412,209,10989,6,0,P|377:253|425:223,1,160
164,141,11270,2,0,L|322:162,1,160
53,278,11550,2,0,L|211:257,1,160
43,153,11830,6,0,P|72:84|13:38,1,160
161,284,12111,2,0,L|319:305,1,160
512,97,12391,2,0,L|354:118,1,160
427,380,12672,6,0,L|383:225,1,160
375,233,12882,1,0,0:0:0:0:
367,241,12952,2,0,L|209:220,1,160
43,153,13232,2,0,L|201:132,1,160
333,347,13513,6,0,P|265:376|219:318,1,160
427,4,13793,2,0,L|383:158,1,160
129,141,14073,6,0,L|287:119,1,160
383,243,14356,2,0,L|224:264,1,160
129,141,14639,2,0,L|287:119,1,160
383,243,14922,2,0,L|224:264,1,160
129,141,15205,2,0,L|287:119,1,160
383,243,15488,2,0,L|224:264,1,160
129,141,15771,1,0,0:0:0:0:
129,141,16337,6,0,L|287:119,1,160
383,243,16620,2,0,L|224:264,1,160
129,141,16903,2,0,L|287:119,1,160
383,243,17186,2,0,L|224:264,1,160
129,141,17469,2,0,L|287:119,1,160
383,243,17752,2,0,L|224:264,1,160
129,141,18035,1,0,0:0:0:0:
1,316,18601,6,0,P|67:354|137:322,1,160
341,187,18884,5,0,0:0:0:0:
218,208,19025,1,0,0:0:0:0:
438,299,19167,6,0,L|459:140,1,160
137,322,19450,2,0,L|115:163,1,160
284,222,19733,5,0,0:0:0:0:
276,230,19804,1,0,0:0:0:0:
268,238,19874,1,0,0:0:0:0:
339,294,20016,5,0,0:0:0:0:
212,166,20157,1,0,0:0:0:0:
438,299,20299,6,0,L|459:140,1,160
137,322,20582,2,0,L|115:163,1,160
381,352,20865,5,0,0:0:0:0:
373,360,20935,1,0,0:0:0:0:
365,368,21005,1,0,0:0:0:0:
317,228,21148,5,0,0:0:0:0:
481,272,21289,1,0,0:0:0:0:
231,291,21431,2,0,L|252:132,1,160
439,203,21714,2,0,L|417:44,1,160
409,52,21926,1,0,0:0:0:0:
400,59,21997,2,0,L|242:38,1,160
157,270,22280,5,0,0:0:0:0:
198,125,22422,1,0,0:0:0:0:
316,354,22563,2,0,L|294:195,1,160
61,384,22846,2,0,L|83:225,1,160
198,380,23129,6,0,P|278:374|347:336,1,160
353,329,24261,1,0,0:0:0:0:
286,243,24497,1,0,0:0:0:0:
278,251,24639,1,0,0:0:0:0:
270,259,24780,1,0,0:0:0:0:
353,329,25063,1,0,0:0:0:0:
455,290,25335,6,0,P|429:136|307:38,1,320
353,328,25759,2,0,P|329:177|186:124,1,320
465,195,26184,6,0,L|305:208,1,160
37,59,26467,2,0,L|196:45,1,160
353,276,26750,1,0,0:0:0:0:
193,263,26891,1,0,0:0:0:0:
501,160,27033,6,0,L|485:319,1,160
262,179,27316,2,0,L|277:338,1,160
56,153,27599,5,0,0:0:0:0:
202,118,27740,1,0,0:0:0:0:
104,45,27882,2,0,P|196:319|472:233,1,640
172,200,28731,6,0,L|155:359,1,160
420,217,29014,1,0,0:0:0:0:
251,248,29155,1,0,0:0:0:0:
497,203,29297,6,0,L|507:363,1,160
335,225,29580,2,0,L|325:385,1,160
15,203,29863,6,0,L|5:363,1,160
177,225,30146,2,0,L|187:385,1,160
497,203,30429,2,0,L|507:363,1,160
177,225,30712,2,0,L|187:385,1,160
497,203,30995,6,0,L|507:363,1,160
15,203,31278,6,0,L|5:363,1,160
264,184,31561,1,0,0:0:0:0:
256,192,31702,1,0,0:0:0:0:
248,200,31844,1,0,0:0:0:0:
256,96,32126,1,0,0:0:0:0:
300,310,37733,6,0,L|304:150,1,160
209,203,38294,2,0,L|204:43,1,160
379,384,38854,6,0,L|383:224,1,160
133,384,39415,2,0,L|128:224,1,160
307,43,39976,6,0,L|303:203,1,160
204,340,40537,2,0,L|209:181,1,160
434,252,41140,6,0,B|419:330|419:330|355:282,1,160
229,72,41420,2,0,P|253:146|224:219,1,160
53,339,41700,6,0,B|68:261|68:261|132:309,1,160
356,156,41981,1,0,0:0:0:0:
91,99,42121,1,0,0:0:0:0:
240,328,42261,5,0,0:0:0:0:
240,328,42331,1,0,0:0:0:0:
240,328,42401,1,0,0:0:0:0:
505,271,42541,5,0,0:0:0:0:
446,97,42682,1,0,0:0:0:0:
415,330,42822,6,0,L|449:173,1,160
224,384,43102,2,0,L|189:227,1,160
2,90,43382,6,0,L|160:68,1,160
510,294,43663,2,0,L|351:315,1,160
2,90,43943,2,0,L|160:68,1,160
510,294,44224,6,0,L|412:166,1,160
2,90,44504,2,0,L|100:215,1,160
510,294,44785,6,0,L|361:355,1,160
2,90,45065,2,0,B|149:29|149:29|296:93|296:93|286:256,1,480
286,253,45625,1,0,0:0:0:0:
286,253,45906,5,0,0:0:0:0:
286,253,46046,1,0,0:0:0:0:
286,253,46186,1,0,0:0:0:0:
286,253,46467,1,0,0:0:0:0:
286,253,46747,1,0,0:0:0:0:
286,253,46887,1,0,0:0:0:0:
286,253,47027,1,0,0:0:0:0:
286,253,47308,1,0,0:0:0:0:
286,253,47588,1,0,0:0:0:0:
286,253,47868,1,0,0:0:0:0:
286,253,48009,1,0,0:0:0:0:
286,253,48149,1,0,0:0:0:0:
286,253,48429,1,0,0:0:0:0:
60,348,50140,6,0,L|88:29,1,320
452,348,51261,1,0,0:0:0:0:
423,29,52382,1,0,0:0:0:0:
423,29,52803,1,0,0:0:0:0:
423,29,53224,1,0,0:0:0:0:
423,29,53504,1,0,0:0:0:0:
423,29,53784,1,0,0:0:0:0:
423,29,54065,1,0,0:0:0:0:
60,348,54625,6,0,L|88:29,1,320
452,348,55747,2,0,L|423:29,2,320
423,29,56588,1,0,0:0:0:0:
60,348,56868,6,0,L|88:29,1,320
452,348,57429,2,0,L|423:29,1,320
60,348,57990,2,0,L|88:29,1,320
256,192,58551,6,0,B|32:192|32:96|32:32|128:32|256:32|384:32|480:32|480:96|480:192|480:288|480:352|384:352|256:352|128:352,1,1062.40001540039
329,47,59532,6,0,P|325:166|366:278,1,240
182,336,59953,2,0,P|186:217|145:105,1,240
325,166,60303,1,0,0:0:0:0:
186,217,60443,1,0,0:0:0:0:
281,261,60654,5,0,0:0:0:0:
230,122,60794,1,0,0:0:0:0:
272,199,60864,5,0,0:0:0:0:
239,184,60934,1,0,0:0:0:0:
272,199,61004,1,0,0:0:0:0:
239,184,61074,1,0,0:0:0:0:
