osu file format v14

[General]
AudioFilename: audio.mp3
AudioLeadIn: 0
PreviewTime: -1
Countdown: 0
SampleSet: Soft
StackLeniency: 0.4
Mode: 0
LetterboxInBreaks: 0
WidescreenStoryboard: 1

[Editor]
Bookmarks: 574,5102,9587,14073,18559,23063,25327,32126,37733,41168,45653,50139,59111
DistanceSpacing: 0.4
BeatDivisor: 4
GridSize: 32
TimelineZoom: 2.3

[Metadata]
Title:funee monkee gif
TitleUnicode:funee monkee gif
Artist:i9bonsai
ArtistUnicode:i9bonsai
Creator:E-why
Version:Haiku
Source:
Tags:
BeatmapID:3063717
BeatmapSetID:1488860

[Difficulty]
HPDrainRate:5
CircleSize:3
OverallDifficulty:6
ApproachRate:7
SliderMultiplier:3.2
SliderTickRate:1

[Events]
//Background and Video events
0,0,"vlc_2021-06-11_04-36-25.png",0,0
//Break Periods
2,32326,36833
//Storyboard Layer 0 (Background)
//Storyboard Layer 1 (Fail)
//Storyboard Layer 2 (Pass)
//Storyboard Layer 3 (Foreground)
//Storyboard Layer 4 (Overlay)
//Storyboard Sound Samples

[TimingPoints]
574,566.037735849057,4,2,0,75,1,0
5102,280.373831775701,4,2,0,75,1,0
14073,283.018867924528,4,2,0,75,1,0
23063,566.037735849057,4,2,0,75,1,0
25335,283.018867924528,4,2,0,75,1,0
27882,-90.9090909090909,4,2,0,75,0,0
29014,-100,4,2,0,75,0,0
32126,560.747663551402,4,2,0,75,1,0
41140,280.373831775701,4,2,0,75,1,0
50140,280.373831775701,4,2,0,75,1,0
50140,-200,4,2,0,75,0,0
52382,-151.515151515152,4,2,0,75,0,0
54625,-100,4,2,0,75,0,0

[HitObjects]
39,49,574,6,0,P|156:145|296:84,1,320
387,2,1706,2,0,L|406:321,1,320
288,352,2838,1,0,0:0:0:0:
256,192,2979,12,0,5102,0:0:0:0:
465,356,5662,5,0,0:0:0:0:
429,251,5943,1,0,0:0:0:0:
356,335,6223,1,0,0:0:0:0:
319,229,6503,6,0,P|96:242|18:31,2,480
381,137,7765,5,0,0:0:0:0:
231,61,8186,5,0,0:0:0:0:
141,128,8466,1,0,0:0:0:0:
154,239,8746,1,0,0:0:0:0:
167,350,9027,2,0,L|180:30,1,320
180,30,9587,1,0,0:0:0:0:
236,250,10148,6,0,P|366:176|481:273,4,320
245,62,11830,6,0,P|114:136|0:39,1,320
127,23,12391,2,0,L|122:342,1,320
233,350,12952,2,0,L|237:30,1,320
347,37,13513,1,0,0:0:0:0:
452,233,14073,6,0,L|142:153,1,320
95,255,14639,2,0,L|404:334,1,320
452,233,15205,2,0,L|142:153,1,320
95,255,15771,1,0,0:0:0:0:
452,233,16337,6,0,L|142:153,1,320
95,255,16903,2,0,L|404:334,1,320
452,233,17469,2,0,L|142:153,1,320
95,255,18035,1,0,0:0:0:0:
242,84,18601,5,0,0:0:0:0:
208,192,18884,2,0,L|50:169,2,160
174,300,19450,1,0,0:0:0:0:
317,125,20016,6,0,L|475:102,2,160
351,233,20582,1,0,0:0:0:0:
286,324,20865,5,0,0:0:0:0:
286,324,20936,1,0,0:0:0:0:
286,324,21006,1,0,0:0:0:0:
173,312,21148,2,0,P|96:293|18:302,1,160
18,302,21431,1,0,0:0:0:0:
18,302,21714,1,0,0:0:0:0:
45,202,21997,5,0,0:0:0:0:
109,111,22280,1,0,0:0:0:0:
109,111,22422,1,0,0:0:0:0:
109,111,22563,1,0,0:0:0:0:
203,51,22846,1,0,0:0:0:0:
256,192,23063,12,0,25335,0:0:0:0:
256,192,25759,5,0,0:0:0:0:
256,192,26184,1,0,0:0:0:0:
256,192,26467,1,0,0:0:0:0:
256,192,26750,1,0,0:0:0:0:
256,192,27033,1,0,0:0:0:0:
256,192,27599,5,0,0:0:0:0:
256,192,27740,1,0,0:0:0:0:
256,192,27882,2,0,B|32:192|32:96|32:32|128:32|256:32|384:32|480:32|480:96|480:192|480:288|480:352|384:352|256:352|128:352,1,1056.00003222656
68,373,29014,6,0,L|40:215,2,160
178,383,29580,1,0,0:0:0:0:
289,383,29863,1,0,0:0:0:0:
402,383,30146,1,0,0:0:0:0:
458,285,30429,1,0,0:0:0:0:
458,172,30712,1,0,0:0:0:0:
360,115,30995,1,0,0:0:0:0:
249,115,31278,1,0,0:0:0:0:
138,115,31561,5,0,0:0:0:0:
138,115,31702,1,0,0:0:0:0:
138,115,31844,1,0,0:0:0:0:
249,115,32126,1,0,0:0:0:0:
452,40,37733,6,0,B|306:103|306:103|376:247|376:247|228:308,1,480
228,308,38854,6,0,B|376:247|376:247|306:103|306:103|452:40,1,480
452,40,39976,6,0,B|306:103|306:103|376:247|376:247|228:308,1,480
227,308,41140,6,0,L|232:228,1,80
505,93,41981,6,0,L|492:252,2,160
395,67,42541,2,0,L|342:220,1,160
342,218,42822,1,0,0:0:0:0:
342,218,43102,1,0,0:0:0:0:
271,304,43382,5,0,0:0:0:0:
161,288,43663,1,0,0:0:0:0:
177,178,43943,1,0,0:0:0:0:
161,288,44224,5,0,0:0:0:0:
271,304,44504,1,0,0:0:0:0:
177,178,44784,5,0,0:0:0:0:
83,52,45065,1,0,0:0:0:0:
347,254,45906,6,0,L|187:264,2,160
347,254,46467,1,0,0:0:0:0:
325,148,46747,6,0,L|165:158,2,160
325,148,47308,1,0,0:0:0:0:
350,46,47588,5,0,0:0:0:0:
350,46,47868,2,0,L|190:56,2,160
350,46,48429,1,0,0:0:0:0:
30,115,50140,6,0,B|136:20|136:20|157:197,1,320
438,150,51261,6,0,B|349:38|349:38|298:209,1,320
348,300,52382,6,0,B|278:358|223:256|223:256|151:347|91:274,2,316.799999033203
304,223,53504,5,0,0:0:0:0:
234,84,53784,1,0,0:0:0:0:
149,214,54065,1,0,0:0:0:0:
298,377,54625,5,0,0:0:0:0:
0,49,55747,1,0,0:0:0:0:
434,143,56868,1,0,0:0:0:0:
358,294,57289,5,0,0:0:0:0:
266,153,57710,1,0,0:0:0:0:
155,153,57990,1,0,0:0:0:0:
119,372,58551,2,0,P|342:307|443:97,1,480
256,192,59532,12,0,59953,0:0:0:0:
256,192,60233,12,0,60513,0:0:0:0:
256,192,60654,12,0,60794,0:0:0:0:
256,192,60934,12,0,61074,0:0:0:0:
256,192,61214,12,0,61354,0:0:0:0:
