osu file format v14

[General]
AudioFilename: FIX+UR+GOD+DAMN+MP3.mp3
AudioLeadIn: 0
PreviewTime: 54783
Countdown: 0
SampleSet: Soft
StackLeniency: 0.7
Mode: 0
LetterboxInBreaks: 0
WidescreenStoryboard: 1

[Editor]
Bookmarks: 34816,79893
DistanceSpacing: 1.5
BeatDivisor: 4
GridSize: 4
TimelineZoom: 1

[Metadata]
Title:Hanikamu Kimi ni Koi Suru Watashi
TitleUnicode:はにかむキミに恋するワタシ
Artist:i.o
ArtistUnicode:i.o
Creator:Syph
Version:Extra
Source:はにかみCLOVER
Tags:すたじお緑茶 eroge visual novel opening op Meg iMage-- Lazer -Tochi HikaruR Sekaii Sekai-nyan Anxient Hikaru_Rose Slayed
BeatmapID:1040644
BeatmapSetID:427558

[Difficulty]
HPDrainRate:6.5
CircleSize:4
OverallDifficulty:9.2
ApproachRate:9.3
SliderMultiplier:1.8
SliderTickRate:1

[Events]
//Background and Video events
0,0,"ss+(2015-12-30+at+04.39.35).jpg",0,0
//Break Periods
//Storyboard Layer 0 (Background)
//Storyboard Layer 1 (Fail)
//Storyboard Layer 2 (Pass)
//Storyboard Layer 3 (Foreground)
//Storyboard Sound Samples

[TimingPoints]
528,317.460317460317,4,2,8,60,1,0
4178,-100,4,2,8,60,0,0
5686,-100,4,2,8,5,0,0
5766,-100,4,2,8,60,0,0
6956,-100,4,2,8,5,0,0
7036,-100,4,2,8,60,0,0
8226,-100,4,2,8,5,0,0
8306,-100,4,2,8,60,0,0
9258,-83.3333333333333,4,2,8,60,0,0
9496,-83.3333333333333,4,2,8,5,0,0
9575,-100,4,2,8,60,0,0
10766,-100,4,2,8,5,0,0
10846,-100,4,2,8,60,0,0
12035,-100,4,2,8,5,0,0
12115,-100,4,2,8,60,0,0
13464,-100,4,2,8,25,0,0
13543,-100,4,2,8,60,0,0
13623,-100,4,2,8,25,0,0
13702,-100,4,2,8,60,0,0
13781,-100,4,2,8,25,0,0
13860,-100,4,2,8,60,0,0
16004,-100,4,2,8,5,0,0
16083,-100,4,2,8,60,0,0
16162,-100,4,2,8,5,0,0
16242,-71.4285714285714,4,2,8,60,0,0
16877,-100,4,2,8,60,0,0
17194,-100,4,2,8,60,0,0
19099,-111.111111111111,4,2,8,60,0,0
19416,-100,4,2,8,60,0,0
21639,-83.3333333333333,4,2,8,60,0,0
21956,-71.4285714285714,4,2,8,60,0,0
22274,-100,4,2,8,60,0,0
24496,-100,4,2,8,60,0,0
24813,-76.9230769230769,4,2,8,63,0,0
25131,-76.9230769230769,4,2,8,66,0,0
25448,-76.9230769230769,4,2,8,70,0,0
25766,-117.647058823529,4,2,8,65,0,0
26559,-117.647058823529,4,2,8,60,0,0
27035,-90.9090909090909,4,2,8,70,0,0
27512,-100,4,2,8,70,0,0
32591,-90.9090909090909,4,2,8,70,0,0
33782,-90.9090909090909,4,2,8,5,0,0
33861,-90.9090909090909,4,2,8,70,0,0
35051,-90.9090909090909,4,2,8,5,0,0
35131,-90.9090909090909,4,2,8,70,0,0
35369,-90.9090909090909,4,2,8,5,0,0
35448,-90.9090909090909,4,2,8,70,0,0
36083,-83.3333333333333,4,2,8,70,0,0
36401,-90.9090909090909,4,2,8,70,0,0
37353,-100,4,2,8,70,0,0
37591,-100,4,2,8,5,0,0
37670,-95.2380952380952,4,2,8,70,0,0
37909,-95.2380952380952,4,2,8,5,0,0
37988,-81.9672131147541,4,2,8,70,0,0
38226,-81.9672131147541,4,2,8,5,0,0
38305,-100,4,2,8,70,0,0
38702,-100,4,2,8,5,0,0
38782,-100,4,2,8,70,0,0
39893,-100,4,2,8,70,0,0
40131,-100,4,2,8,5,0,0
40210,-95.2380952380952,4,2,8,70,0,0
40449,-95.2380952380952,4,2,8,5,0,0
40527,-81.9672131147541,4,2,8,5,0,0
40528,-81.9672131147541,4,2,8,70,0,0
40766,-81.9672131147541,4,2,8,5,0,0
40845,-100,4,2,8,70,0,0
42432,-100,4,2,8,70,0,0
42670,-100,4,2,8,5,0,0
42750,-100,4,2,8,70,0,0
44813,-90.9090909090909,4,2,8,70,0,0
50050,-75.7575757575758,4,2,8,70,0,0
52670,-75.7575757575758,4,2,8,5,0,0
52750,-100,4,2,8,70,0,0
54653,-75.7575757575758,4,2,8,70,0,0
54813,-142.857142857143,4,2,8,70,0,0
55051,-75.7575757575758,4,2,8,5,0,0
55131,-83.3333333333333,4,2,8,80,0,1
55369,-83.3333333333333,4,2,8,5,0,1
55448,-83.3333333333333,4,2,8,80,0,1
56639,-83.3333333333333,4,2,8,5,0,1
56718,-83.3333333333333,4,2,8,80,0,1
59178,-83.3333333333333,4,2,8,5,0,1
59258,-83.3333333333333,4,2,8,80,0,1
61401,-83.3333333333333,4,2,8,5,0,1
61480,-76.9230769230769,4,2,8,80,0,1
61718,-76.9230769230769,4,2,8,5,0,1
61796,-76.9230769230769,4,2,8,80,0,1
62670,-83.3333333333333,4,2,8,5,0,1
62750,-71.4285714285714,4,2,8,80,0,1
62988,-71.4285714285714,4,2,8,5,0,1
63067,-83.3333333333333,4,2,8,80,0,1
64813,-71.4285714285714,4,2,8,80,0,0
65289,-62.5,4,2,8,80,0,1
65448,-83.3333333333333,4,2,8,80,0,1
66797,-83.3333333333333,4,2,8,5,0,1
66877,-83.3333333333333,4,2,8,80,0,1
69020,-80,4,2,8,5,0,1
69099,-80,4,2,8,80,0,1
69337,-80,4,2,8,5,0,1
69416,-80,4,2,8,80,0,1
70369,-83.3333333333333,4,2,8,80,0,1
72829,-83.3333333333333,4,2,8,5,0,1
72909,-83.3333333333333,4,2,8,80,0,1
73147,-83.3333333333333,4,2,8,5,0,1
73226,-83.3333333333333,4,2,8,80,0,1
75131,-83.3333333333333,4,2,8,80,0,0
75369,-83.3333333333333,4,2,8,5,0,0
75448,-76.9230769230769,4,2,8,80,0,1
77909,-76.9230769230769,4,2,8,5,0,1
77988,-76.9230769230769,4,2,8,80,0,1
78226,-76.9230769230769,4,2,8,5,0,1
78305,-76.9230769230769,4,2,8,80,0,1
84178,-70.4225352112676,4,2,8,80,0,1
85289,-70.4225352112676,4,2,8,80,0,0
85448,-83.3333333333333,4,2,8,70,0,0
90527,-83.3333333333333,4,2,8,70,0,0
94734,-83.3333333333333,4,2,8,25,0,0
94813,-83.3333333333333,4,2,8,70,0,0
94893,-83.3333333333333,4,2,8,25,0,0
94972,-83.3333333333333,4,2,8,70,0,0
95051,-83.3333333333333,4,2,8,25,0,0
95130,-83.3333333333333,4,2,8,70,0,0
96877,-71.4285714285714,4,2,8,70,0,0
97115,-62.5,4,2,8,5,0,0
97194,-70.4225352112676,4,2,8,70,0,0
100051,-111.111111111111,4,2,8,70,0,0
100527,-111.111111111111,4,2,8,5,0,0

[Colours]
Combo1 : 224,73,88
Combo2 : 64,48,154
Combo3 : 215,57,117
Combo4 : 234,194,36

[HitObjects]
116,136,4178,6,0,L|217:134,1,90,4|0,0:0|0:0,0:0:0:0:
62,67,4496,1,0,0:0:0:0:
153,209,4654,2,0,L|254:207,1,90,2|0,0:0|0:0,0:0:0:0:
369,206,4972,1,0,3:0:0:0:
305,315,5131,1,0,3:0:0:0:
305,315,5289,1,0,3:0:0:0:
420,147,5448,6,0,P|384:129|298:175,1,135,4|0,0:0|0:0,0:0:0:0:
369,206,5766,1,0,0:0:0:0:
452,326,5924,1,2,0:0:0:0:
509,178,6083,1,0,0:0:0:0:
509,178,6242,1,0,3:0:0:0:
369,206,6401,2,0,L|274:198,1,90,0|0,3:0|0:0,0:0:0:0:
109,107,6718,6,0,B|87:130|87:130|95:247,1,135,4|0,0:0|0:0,0:0:0:0:
97,261,7035,1,0,0:0:0:0:
190,133,7194,2,0,L|285:125,1,90,2|0,0:0|0:0,0:0:0:0:
406,113,7512,1,0,3:0:0:0:
331,14,7670,1,0,3:0:0:0:
331,14,7829,1,0,3:0:0:0:
465,171,7988,6,0,P|410:194|335:153,1,135,4|0,0:0|0:0,0:0:0:0:
406,113,8305,1,0,3:0:0:0:
303,267,8464,1,2,0:0:0:0:
340,46,8623,1,0,0:0:0:0:
368,333,8781,1,0,0:0:0:0:
251,167,8940,1,8,0:0:0:0:
231,182,9019,1,8,0:0:0:0:
211,197,9099,2,0,P|205:170|208:149,1,45,8|8,0:0|0:0,0:0:0:0:
268,13,9258,6,0,B|217:28|217:28|101:18,1,161.999995056153,4|0,0:0|0:0,0:0:0:0:
76,12,9575,1,0,3:0:0:0:
17,188,9734,2,0,P|5:144|22:98,1,90,8|0,0:0|0:0,0:0:0:0:
92,284,10051,1,0,0:0:0:0:
218,149,10210,1,0,0:0:0:0:
174,357,10369,1,8,0:0:0:0:
96,149,10527,6,0,P|139:172|236:120,1,135,4|0,0:0|0:0,0:0:0:0:
156,94,10845,1,0,0:0:0:0:
323,191,11004,1,8,0:0:0:0:
280,73,11162,1,0,0:0:0:0:
239,278,11321,1,0,0:0:0:0:
292,44,11480,2,0,P|335:35|383:50,1,90,0|8,0:0|0:0,0:0:0:0:
433,263,11797,6,0,B|453:217|453:217|450:110,1,135,4|0,0:0|0:0,0:0:0:0:
450,104,12115,1,0,0:0:0:0:
288,192,12274,2,0,L|194:186,1,90,8|0,0:0|0:0,0:0:0:0:
344,289,12591,1,0,0:0:0:0:
323,124,12750,1,0,0:0:0:0:
266,354,12908,1,8,0:0:0:0:
339,95,13067,6,0,P|294:78|239:86,1,90,4|0,0:0|0:0,0:0:0:0:
95,166,13385,2,0,L|101:116,1,45,2|0,0:0|0:0,0:0:0:0:
160,234,13543,2,0,L|154:284,1,45,8|0,0:0|0:0,0:0:0:0:
27,127,13702,2,0,L|33:77,1,45,2|0,0:0|0:0,0:0:0:0:
229,265,13861,2,0,L|217:354,1,90,14|8,0:0|0:0,0:0:0:0:
296,317,14099,1,8,0:0:0:0:
296,317,14178,2,0,L|302:263,1,45,8|8,0:0|0:0,0:0:0:0:
326,98,14337,6,0,B|230:62|237:122|142:95,1,180,4|0,0:0|0:0,0:0:0:0:
10,43,14813,1,8,0:0:0:0:
61,180,14972,1,0,0:0:0:0:
123,6,15131,1,8,0:0:0:0:
55,208,15289,1,0,0:0:0:0:
262,100,15448,1,8,0:0:0:0:
14,114,15607,6,0,L|128:109,1,90,4|0,0:0|0:0,0:0:0:0:
241,220,15924,2,0,L|235:270,1,45,2|0,0:0|0:0,0:0:0:0:
176,152,16082,2,0,L|182:102,1,45,10|0,0:0|0:0,0:0:0:0:
311,260,16242,6,0,L|294:389,1,125.999996154785,4|0,0:0|0:0,0:0:0:0:
311,260,16559,1,0,3:0:0:0:
176,152,16718,1,8,0:0:0:0:
331,85,16877,6,0,L|319:182,1,90,4|0,0:0|0:0,0:0:0:0:
249,104,17194,1,0,0:0:0:0:
377,22,17353,2,0,P|332:7|285:22,1,90,2|0,0:0|0:0,0:0:0:0:
274,236,17670,2,0,P|319:251|368:233,1,90,0|0,3:0|0:0,0:0:0:0:
449,179,17988,1,2,0:0:0:0:
449,179,18147,1,0,0:0:0:0:
332,384,18305,5,0,0:0:0:0:
274,236,18464,1,0,0:0:0:0:
396,285,18623,1,2,0:0:0:0:
228,361,18781,1,0,0:0:0:0:
185,201,18940,1,0,0:0:0:0:
105,211,19099,2,0,L|195:200,1,80.9999975280763,0|2,0:0|0:0,0:0:0:0:
51,278,19416,6,0,P|20:226|84:127,1,180,8|0,0:0|0:0,0:0:0:0:
105,211,19893,1,2,0:0:0:0:
105,211,20051,1,0,0:0:0:0:
174,45,20210,2,0,L|165:144,1,90
174,45,20527,1,2,0:0:0:0:
73,130,20686,1,0,0:0:0:0:
269,35,20845,5,0,0:0:0:0:
269,35,21004,1,0,0:0:0:0:
165,134,21162,1,2,0:0:0:0:
321,96,21321,6,0,L|426:89,1,90,12|0,0:0|0:0,0:0:0:0:
269,177,21639,6,0,L|378:169,1,107.999996704102,12|0,0:0|0:0,0:0:0:0:
220,259,21956,6,0,L|346:250,1,125.999996154785,8|0,0:0|0:0,0:0:0:0:
220,259,22274,1,0,0:0:0:0:
132,172,22432,2,0,P|119:128|132:85,1,90,2|0,0:0|0:0,0:0:0:0:
220,259,22750,2,0,P|234:303|220:346,1,90
208,185,23067,1,2,0:0:0:0:
339,266,23226,1,0,0:0:0:0:
160,302,23385,6,0,B|93:296|93:296|48:311|48:311|-22:304,1,180,2|2,0:0|0:0,0:0:0:0:
221,344,23861,2,0,P|234:302|220:259,1,90
130,86,24178,2,0,P|119:129|132:172,1,90,0|2,0:0|0:0,0:0:0:0:
251,10,24496,5,8,0:0:0:0:
204,141,24654,1,8,0:0:0:0:
325,86,24813,5,8,0:0:0:0:
236,248,24972,1,8,0:0:0:0:
343,62,25131,5,8,0:0:0:0:
141,84,25289,1,8,0:0:0:0:
372,217,25448,5,8,0:0:0:0:
251,10,25607,1,8,0:0:0:0:
299,331,25766,6,0,P|310:293|305:255,1,76.5000014591217,12|0,0:0|0:0,0:0:0:0:
255,157,26083,1,0,0:0:0:0:
179,240,26242,1,0,0:0:0:0:
280,138,26401,1,8,0:0:0:0:
130,314,26559,1,10,0:0:0:0:
105,288,26638,1,8,0:0:0:0:
92,256,26717,1,10,0:0:0:0:
93,221,26797,1,8,0:0:0:0:
106,189,26876,1,8,0:0:0:0:
131,165,26955,1,8,0:0:0:0:
164,152,27035,6,0,P|180:104|163:52,1,99.0000030212403,4|0,0:0|0:0,0:0:0:0:
82,6,27353,1,0,0:0:0:0:
164,152,27512,2,0,L|276:146,1,90,8|0,0:0|0:0,0:0:0:0:
397,138,27829,1,0,0:0:0:0:
323,59,27988,1,0,0:0:0:0:
375,260,28147,2,0,P|419:272|464:261,1,90,8|0,0:0|0:0,0:0:0:0:
309,194,28464,5,8,0:0:0:0:
204,351,28623,1,0,0:0:0:0:
214,132,28781,1,8,0:0:0:0:
302,301,28940,1,0,0:0:0:0:
117,180,29099,1,0,3:0:0:0:
314,91,29258,1,0,3:0:0:0:
87,198,29416,1,8,0:0:0:0:
204,351,29575,6,0,P|259:286|209:201,1,180,4|0,0:0|0:0,0:0:0:0:
87,198,30051,1,8,0:0:0:0:
181,275,30210,1,0,0:0:0:0:
120,80,30369,2,0,L|217:71,1,90,2|0,0:0|0:0,0:0:0:0:
412,144,30686,2,0,L|322:152,1,90,10|0,0:0|0:0,0:0:0:0:
145,177,31004,5,2,0:0:0:0:
265,246,31162,1,0,0:0:0:0:
209,71,31321,1,8,0:0:0:0:
145,177,31480,1,0,0:0:0:0:
412,144,31639,2,0,P|428:100|412:55,1,90,4|8,0:1|0:0,0:0:0:0:
354,99,31877,1,8,0:0:0:0:
318,97,31956,1,8,0:0:0:0:
282,96,32035,1,8,0:0:0:0:
224,57,32115,6,0,P|211:99|227:140,1,90,4|0,0:0|0:0,0:0:0:0:
319,193,32432,1,0,0:0:0:0:
128,221,32591,2,0,L|125:323,1,99.0000030212403,8|0,0:0|0:0,0:0:0:0:
68,149,32908,1,0,0:0:0:0:
244,247,33067,1,0,0:0:0:0:
33,313,33226,2,0,L|35:214,1,99.0000030212403,8|0,0:0|0:0,0:0:0:0:
44,27,33543,6,0,B|153:46|153:46|197:37,1,148.50000453186,4|0,0:0|0:0,0:0:0:0:
218,30,33861,1,8,0:0:0:0:
134,190,34020,1,0,0:0:0:0:
326,86,34178,1,0,0:0:0:0:
90,106,34337,1,0,0:0:0:0:
253,265,34496,2,0,P|272:217|255:166,1,99.0000030212403,8|0,0:0|0:0,0:0:0:0:
184,11,34813,6,0,B|257:-2|255:40|338:12,1,148.50000453186,4|0,0:0|0:0,0:0:0:0:
360,3,35131,2,0,B|346:42|346:42|356:148,1,148.50000453186,8|0,0:0|0:0,0:0:0:0:
361,182,35448,1,2,0:0:0:0:
455,65,35607,1,0,0:0:0:0:
260,98,35766,1,8,0:0:0:0:
389,252,35924,1,0,0:0:0:0:
455,65,36083,6,0,P|407:37|334:48,1,107.999996704102,4|0,0:0|0:0,0:0:0:0:
264,196,36401,2,0,L|258:75,1,99.0000030212403,8|0,0:0|0:0,0:0:0:0:
221,278,36718,1,12,2:0:0:0:
361,209,36877,1,8,3:0:0:0:
128,156,37035,1,8,3:0:0:0:
142,326,37194,1,8,3:0:0:0:
73,101,37353,6,0,P|50:149|85:224,1,135,4|0,0:0|0:0,0:0:0:0:
128,156,37670,2,0,L|273:150,1,141.749995674133,0|0,0:0|0:0,0:0:0:0:
337,109,37988,6,0,L|173:115,1,164.699993214569,8|0,0:0|0:0,0:0:0:0:
139,118,38305,1,0,0:0:0:0:
243,42,38464,6,0,L|348:38,1,90,0|0,0:0|0:0,0:0:0:0:
158,43,38781,1,8,0:0:0:0:
196,211,38940,1,0,0:0:0:0:
196,211,39099,1,0,0:0:0:0:
12,148,39258,2,0,L|108:136,1,90,12|0,0:0|0:0,0:0:0:0:
196,211,39575,2,0,L|260:206,1,45,8|8,0:3|0:3,0:0:0:0:
332,340,39734,2,0,L|268:335,1,45,8|8,0:3|0:3,0:0:0:0:
423,94,39893,6,0,P|446:142|411:217,1,135,4|0,0:0|0:3,0:0:0:0:
368,149,40210,2,0,L|223:143,1,141.749995674133,0|0,0:0|0:0,0:0:0:0:
159,102,40527,6,0,L|323:108,1,164.699993214569,8|0,0:0|0:0,0:0:0:0:
357,111,40845,1,0,0:0:0:0:
248,34,41004,6,0,L|143:30,1,90
42,23,41321,1,8,0:0:0:0:
152,195,41480,1,0,0:0:0:0:
238,109,41639,1,0,0:0:0:0:
82,168,41797,2,0,P|76:193|80:218,1,45,12|0,0:0|0:0,0:0:0:0:
210,340,41956,2,0,P|216:315|212:290,1,45
164,126,42115,1,8,0:0:0:0:
195,124,42194,1,8,0:0:0:0:
226,123,42273,1,8,0:0:0:0:
258,122,42353,1,8,0:0:0:0:
289,121,42432,6,0,B|278:166|278:166|281:261,1,135,8|0,0:0|0:0,0:0:0:0:
285,286,42750,2,0,P|330:273|381:282,1,90,8|0,0:0|0:0,0:0:0:0:
210,340,43067,1,2,0:0:0:0:
350,201,43226,1,0,0:0:0:0:
122,302,43385,2,0,P|109:257|128:209,1,90,8|0,0:0|0:0,0:0:0:0:
250,90,43702,6,0,L|149:79,1,90,4|0,0:0|0:0,0:0:0:0:
357,105,44020,1,8,0:0:0:0:
209,9,44178,2,0,L|108:-2,1,90,4|0,0:0|0:0,0:0:0:0:
250,90,44496,1,2,0:0:0:0:
119,0,44654,1,8,0:0:0:0:
160,242,44813,6,0,P|179:192|164:140,1,99.0000030212403,4|2,0:0|0:0,0:0:0:0:
68,62,45131,1,0,0:0:0:0:
97,189,45289,1,8,0:0:0:0:
146,19,45448,1,0,0:0:0:0:
10,126,45607,1,0,0:0:0:0:
236,91,45766,1,0,0:0:0:0:
52,46,45924,1,8,0:0:0:0:
145,269,46083,1,4,0:0:0:0:
139,295,46401,5,0,0:0:0:0:
101,156,46559,1,4,0:0:0:0:
272,226,46718,1,0,0:0:0:0:
179,373,46877,1,8,0:3:0:0:
238,154,47035,1,8,0:3:0:0:
238,154,47115,1,0,0:0:0:0:
238,154,47194,1,0,0:0:0:0:
90,248,47353,6,0,L|-9:243,1,99.0000030212403,4|0,0:0|0:0,0:0:0:0:
158,306,47670,1,0,0:0:0:0:
75,168,47829,2,0,L|-25:163,1,99.0000030212403,8|0,0:0|0:0,0:0:0:0:
133,94,48147,2,0,L|233:99,1,99.0000030212403,0|0,0:0|0:0,0:0:0:0:
392,108,48464,1,8,0:0:0:0:
275,237,48623,1,0,0:0:0:0:
340,49,48781,6,0,P|382:29|438:44,1,99.0000030212403,4|0,0:0|0:0,0:0:0:0:
231,98,49099,1,8,0:0:0:0:
327,293,49258,2,0,P|285:313|229:298,1,99.0000030212403,4|2,0:0|0:0,0:0:0:0:
101,222,49575,1,8,0:0:0:0:
275,237,49734,1,8,0:3:0:0:
165,115,49893,1,8,0:3:0:0:
119,330,50051,5,8,0:0:0:0:
56,103,50210,1,0,0:0:0:0:
273,162,50369,1,8,0:0:0:0:
21,266,50527,5,0,0:0:0:0:
201,26,50686,1,8,0:0:0:0:
325,309,50845,1,0,0:0:0:0:
26,88,51004,5,8,0:0:0:0:
335,121,51162,1,0,0:0:0:0:
146,356,51321,1,8,0:0:0:0:
261,33,51480,5,0,0:0:0:0:
44,225,51639,1,8,0:0:0:0:
350,326,51797,1,0,0:0:0:0:
18,212,51956,5,8,0:0:0:0:
149,10,52115,2,0,L|150:81,1,59.3999998187256,0|0,3:0|3:0,0:0:0:0:
263,274,52274,2,0,L|265:204,1,59.3999998187256,8|0,0:0|0:0,0:0:0:0:
350,24,52432,6,0,B|479:53|479:53|429:85,1,178.199999456177,4|0,0:0|0:0,0:0:0:0:
355,118,52750,1,8,3:0:0:0:
121,229,52908,1,8,3:0:0:0:
432,209,53067,1,10,0:0:0:0:
241,357,53226,1,8,0:0:0:0:
225,54,53385,1,8,0:0:0:0:
82,384,53543,1,10,0:0:0:0:
376,332,53702,6,0,P|338:294|294:291,1,90,4|0,0:1|0:0,0:0:0:0:
270,291,53940,1,0,0:0:0:0:
250,281,54020,1,0,0:0:0:0:
232,268,54099,1,0,0:0:0:0:
215,253,54178,1,0,0:0:0:0:
203,234,54257,1,0,0:0:0:0:
197,212,54337,1,0,0:0:0:0:
198,190,54416,1,0,0:0:0:0:
204,168,54495,1,0,0:0:0:0:
216,149,54575,1,0,0:0:0:0:
232,134,54654,2,0,L|165:122,1,59.3999998187256,8|8,0:3|0:3,0:0:0:0:
279,204,54813,6,0,P|312:163|314:120,1,94.499997116089,8|0,0:3|0:0,0:0:0:0:
279,45,55131,6,0,B|399:35|399:35|334:15,1,161.999995056153,4|0,0:1|0:0,0:0:0:0:
448,97,55448,2,0,P|474:58|466:-4,1,107.999996704102,8|0,0:0|0:0,0:0:0:0:
390,173,55766,1,0,0:0:0:0:
399,35,55924,1,0,0:0:0:0:
341,236,56083,2,0,P|390:253|441:236,1,107.999996704102,8|0,0:0|0:0,0:0:0:0:
234,95,56401,6,0,B|219:222|219:222|215:261,1,161.999995056153,0|0,0:0|0:0,0:0:0:0:
135,300,56718,2,0,L|148:189,1,107.999996704102,8|0,0:0|0:0,0:0:0:0:
171,32,57035,1,0,0:0:0:0:
52,142,57194,1,0,0:0:0:0:
298,174,57353,2,0,L|308:64,1,107.999996704102,8|0,0:0|0:0,0:0:0:0:
287,273,57670,5,0,0:0:0:0:
217,86,57829,1,0,0:0:0:0:
448,190,57988,2,0,P|468:137|451:82,1,107.999996704102,8|0,0:0|0:0,0:0:0:0:
287,273,58305,2,0,L|409:267,1,107.999996704102,0|0,0:0|0:0,0:0:0:0:
208,212,58623,1,8,0:0:0:0:
253,384,58781,1,0,0:0:0:0:
258,140,58940,6,0,B|176:100|176:164|97:133,1,161.999995056153,4|0,0:0|0:0,0:0:0:0:
73,126,59258,1,8,0:0:0:0:
102,284,59416,1,0,0:0:0:0:
136,57,59575,1,4,0:0:0:0:
34,202,59734,1,0,0:0:0:0:
154,32,59893,2,0,P|183:25|212:26,1,53.9999983520508,8|8,0:0|0:0,0:0:0:0:
359,103,60051,2,0,P|366:132|365:161,1,53.9999983520508,8|8,0:0|0:0,0:0:0:0:
342,309,60210,5,8,0:0:0:0:
445,155,60369,1,0,0:0:0:0:
475,380,60527,1,8,0:0:0:0:
312,293,60686,1,0,0:0:0:0:
509,229,60845,1,0,3:0:0:0:
256,197,61004,1,0,0:0:0:0:
378,383,61162,2,0,B|392:330|392:330|387:279|387:279|399:218,1,161.999995056153,8|0,0:0|0:0,0:0:0:0:
407,195,61480,6,0,P|358:186|334:75,1,175.499991966248,4|0,0:0|0:0,0:0:0:0:
395,120,61797,6,0,L|261:112,1,116.999994644165,8|0,0:0|0:0,0:0:0:0:
78,105,62115,1,0,0:0:0:0:
171,289,62274,1,0,0:0:0:0:
152,18,62432,2,0,B|179:61|179:61|163:188,1,175.499991966248,8|0,0:0|0:0,0:0:0:0:
160,212,62750,6,0,P|201:171|297:263,1,188.999994232178,4|0,0:0|0:0,0:0:0:0:
228,239,63067,1,8,0:0:0:0:
351,137,63226,1,0,0:0:0:0:
223,347,63385,2,0,L|229:236,1,107.999996704102,0|0,0:0|0:0,0:0:0:0:
240,62,63702,1,8,0:0:0:0:
109,224,63861,6,0,B|-4:205|-4:205|55:185,1,161.999995056153,4|0,0:0|0:0,0:0:0:0:
139,151,64178,1,8,0:0:0:0:
139,151,64258,1,8,0:0:0:0:
139,151,64337,2,0,L|135:88,1,53.9999983520508,8|8,0:0|0:0,0:0:0:0:
151,317,64496,1,12,0:0:0:0:
139,151,64813,5,8,0:0:0:0:
151,317,64972,2,0,P|135:281|139:253,1,62.9999980773926,8|8,0:3|0:3,0:0:0:0:
264,98,65131,2,0,P|280:134|276:162,1,62.9999980773926,8|8,0:3|0:3,0:0:0:0:
261,262,65289,5,4,0:0:0:0:
397,169,65448,1,0,0:0:0:0:
206,144,65607,1,8,0:0:0:0:
206,144,65766,1,0,0:0:0:0:
336,318,65924,1,0,0:0:0:0:
381,87,66083,1,0,0:0:0:0:
225,226,66242,2,0,P|168:221|128:177,1,107.999996704102,8|0,0:0|0:0,0:0:0:0:
227,23,66559,6,0,B|207:144|207:144|241:111,1,161.999995056153,0|0,0:0|0:0,0:0:0:0:
310,55,66877,2,0,L|433:53,1,107.999996704102,8|0,0:0|0:0,0:0:0:0:
235,116,67194,1,0,0:0:0:0:
445,54,67353,1,0,0:0:0:0:
401,244,67512,1,8,0:0:0:0:
401,244,67670,1,0,0:0:0:0:
498,114,67829,5,0,0:0:0:0:
284,172,67988,1,0,0:0:0:0:
463,303,68147,2,0,P|486:250|474:200,1,107.999996704102,8|0,0:0|0:0,0:0:0:0:
364,84,68464,1,0,0:0:0:0:
401,244,68623,1,0,0:0:0:0:
352,53,68781,2,0,P|288:38|221:107,1,161.999995056153,8|8,0:0|0:0,0:0:0:0:
302,116,69099,6,0,L|128:108,1,168.75,4|0,0:0|0:0,0:0:0:0:
101,106,69416,1,8,0:0:0:0:
146,230,69575,1,0,0:0:0:0:
43,44,69734,2,0,P|79:24|148:35,1,112.5,6|0,0:0|0:0,0:0:0:0:
237,191,70051,1,8,0:0:0:0:
263,161,70130,1,8,0:0:0:0:
297,142,70209,1,8,0:0:0:0:
336,136,70289,1,8,0:0:0:0:
374,142,70369,6,0,B|352:209|352:209|370:355,2,215.999993408203,4|8|0,0:0|0:0|3:0,0:0:0:0:
457,19,71162,1,0,0:0:0:0:
306,80,71321,1,8,0:0:0:0:
452,187,71480,1,0,0:0:0:0:
283,51,71639,6,0,L|155:44,1,107.999996704102,2|0,0:0|0:0,0:0:0:0:
48,209,71956,2,0,P|34:158|55:98,1,107.999996704102,8|0,0:0|0:0,0:0:0:0:
109,273,72274,1,0,0:0:0:0:
117,158,72432,1,0,0:0:0:0:
53,331,72591,2,0,P|97:353|187:295,1,161.999995056153,8|0,0:0|0:0,0:0:0:0:
109,273,72908,6,0,L|286:268,1,161.999995056153,4|0,0:0|0:0,0:0:0:0:
299,268,73226,1,8,0:0:0:0:
200,139,73385,1,0,0:0:0:0:
254,349,73543,1,0,0:0:0:0:
254,349,73702,1,0,0:0:0:0:
343,122,73861,1,8,0:0:0:0:
139,190,74020,6,0,P|120:147|142:84,1,107.999996704102,4|0,0:0|0:0,0:0:0:0:
275,7,74337,1,0,3:0:0:0:
79,31,74496,1,8,0:0:0:0:
200,139,74654,1,0,0:0:0:0:
53,7,74813,2,0,L|46:129,1,107.999996704102,2|0,0:0|0:0,0:0:0:0:
41,278,75131,2,0,B|148:291|148:291|205:272,1,161.999995056153,4|0,0:3|0:0,0:0:0:0:
230,261,75448,5,8,0:0:0:0:
128,151,75607,1,0,0:0:0:0:
349,186,75766,1,8,0:0:0:0:
259,349,75924,1,0,0:0:0:0:
323,98,76083,1,8,0:0:0:0:
395,287,76242,1,0,0:0:0:0:
243,59,76401,1,8,0:0:0:0:
453,144,76559,1,0,0:0:0:0:
223,258,76718,5,8,0:0:0:0:
318,12,76877,1,0,0:0:0:0:
335,352,77035,1,8,0:0:0:0:
183,119,77194,2,0,B|142:111|142:111|65:117,1,116.999994644165,0|8,0:0|0:0,0:0:0:0:
246,202,77512,1,0,0:0:0:0:
14,180,77670,2,0,P|-14:128|55:36,1,175.499991966248,12|0,0:0|0:0,0:0:0:0:
67,116,77988,6,0,L|57:295,1,175.499991966248,12|0,0:0|0:0,0:0:0:0:
55,325,78305,1,8,0:0:0:0:
232,152,78464,1,0,0:0:0:0:
212,380,78623,1,8,0:0:0:0:
7,205,78781,1,0,0:0:0:0:
266,145,78940,1,8,0:0:0:0:
105,368,79099,6,0,B|95:325|95:325|101:242,1,116.999994644165,0|8,0:0|0:0,0:0:0:0:
135,64,79416,1,0,0:0:0:0:
381,145,79575,2,0,B|337:136|337:136|254:145,1,116.999994644165,8|0,0:0|0:0,0:0:0:0:
8,237,79893,2,0,P|-17:182|9:126,1,116.999994644165,4|8,0:1|0:3,0:0:0:0:
56,181,80131,1,8,0:3:0:0:
84,185,80210,1,8,0:3:0:0:
113,180,80289,1,8,0:3:0:0:
140,168,80369,1,8,0:3:0:0:
289,77,80527,5,8,0:0:0:0:
216,306,80686,1,0,0:0:0:0:
214,14,80845,1,8,0:0:0:0:
389,222,81004,1,0,0:0:0:0:
139,104,81162,1,8,0:0:0:0:
408,26,81321,1,0,0:0:0:0:
305,291,81480,1,8,0:0:0:0:
445,120,81639,1,0,0:0:0:0:
205,178,81797,5,8,0:0:0:0:
401,358,81956,1,0,0:0:0:0:
283,70,82115,1,8,0:0:0:0:
179,278,82274,1,0,0:0:0:0:
306,45,82432,6,0,L|299:175,1,116.999994644165,12|0,0:0|0:0,0:0:0:0:
296,237,82670,1,0,0:0:0:0:
291,196,82749,1,12,0:0:0:0:
266,165,82828,1,8,0:0:0:0:
228,151,82908,2,0,P|191:146|154:151,1,58.4999973220826,8|8,0:0|0:0,0:0:0:0:
5,198,83067,5,4,0:0:0:0:
5,198,83385,5,8,0:0:0:0:
123,349,83543,1,8,0:0:0:0:
102,89,83861,5,8,0:0:0:0:
145,222,84020,1,0,0:0:0:0:
191,36,84178,5,4,0:0:0:0:
102,89,84496,1,4,0:0:0:0:
197,139,84813,5,8,0:0:0:0:
170,329,84972,1,8,0:0:0:0:
102,89,85289,5,0,3:0:0:0:
252,244,85448,6,0,B|360:276|358:197|470:232,1,215.999993408203,4|0,0:0|0:0,0:0:0:0:
300,152,85924,1,8,0:0:0:0:
159,240,86083,1,0,0:0:0:0:
253,84,86242,1,0,3:0:0:0:
213,314,86401,1,0,3:0:0:0:
274,55,86559,1,8,3:2:0:0:
67,160,86718,6,0,B|143:155|143:155|196:173|196:173|288:160,1,215.999993408203,4|0,0:0|0:0,0:0:0:0:
439,138,87194,1,8,0:0:0:0:
303,47,87353,1,0,0:0:0:0:
361,276,87512,1,0,3:0:0:0:
295,17,87670,2,0,P|245:8|190:37,1,107.999996704102,0|8,3:0|3:2,0:0:0:0:
245,253,87988,6,0,B|254:88|254:88|215:129,1,215.999993408203,4|0,0:0|0:0,0:0:0:0:
113,248,88464,2,0,L|0:233,1,107.999996704102,8|0,0:0|0:0,0:0:0:0:
176,330,88781,1,0,0:0:0:0:
112,149,88940,1,0,3:0:0:0:
75,380,89099,1,8,0:0:0:0:
119,123,89258,6,0,B|165:136|205:124|205:124|232:107|272:104|272:104|248:135|265:170,1,215.999993408203,4|0,0:0|3:0,0:0:0:0:
310,312,89734,1,8,0:0:0:0:
331,146,89893,1,0,0:0:0:0:
446,355,90051,1,12,0:0:0:0:
334,93,90210,2,0,L|331:165,1,53.9999983520508,8|8,0:0|0:0,0:0:0:0:
307,365,90369,2,0,L|309:292,1,53.9999983520508,8|8,0:0|0:0,0:0:0:0:
331,146,90527,6,0,B|261:162|261:162|105:141,1,215.999993408203,4|0,0:0|3:0,0:0:0:0:
394,198,91004,2,0,P|412:150|385:89,1,107.999996704102,8|0,0:0|0:0,0:0:0:0:
240,46,91321,1,0,0:0:0:0:
262,206,91480,1,0,0:0:0:0:
328,0,91639,1,8,0:0:0:0:
254,288,91797,6,0,P|195:253|236:128,1,215.999993408203,4|0,0:0|0:0,0:0:0:0:
382,73,92274,1,8,0:0:0:0:
262,206,92432,1,0,0:0:0:0:
407,49,92591,1,0,0:0:0:0:
341,304,92750,2,0,L|348:180,1,107.999996704102,0|8,0:0|0:0,0:0:0:0:
137,86,93067,6,0,B|283:73|283:73|223:120,1,215.999993408203,4|0,0:0|0:0,0:0:0:0:
88,198,93543,2,0,L|85:320,1,107.999996704102,8|0,0:0|0:0,0:0:0:0:
29,130,93861,1,0,0:0:0:0:
176,197,94020,1,0,0:0:0:0:
91,4,94178,1,8,0:0:0:0:
204,222,94337,6,0,L|210:109,1,107.999996704102,4|0,0:0|0:0,0:0:0:0:
343,213,94654,2,0,L|337:266,1,53.9999983520508
278,145,94813,2,0,L|283:92,1,53.9999983520508,8|0,0:0|0:0,0:0:0:0:
411,252,94971,2,0,L|404:307,1,53.9999983520508,2|0,0:0|0:0,0:0:0:0:
209,114,95130,2,0,L|223:5,1,107.999996704102,14|8,0:0|0:0,0:0:0:0:
138,83,95369,1,8,0:0:0:0:
138,83,95448,2,0,L|132:137,1,53.9999983520508,8|8,0:0|0:0,0:0:0:0:
112,306,95607,6,0,B|210:346|220:258|334:311,1,215.999993408203,4|0,0:0|0:0,0:0:0:0:
468,374,96083,1,8,0:0:0:0:
321,305,96242,1,0,0:0:0:0:
476,177,96401,1,8,0:0:0:0:
376,373,96559,1,0,0:0:0:0:
315,117,96718,1,8,0:0:0:0:
495,260,96877,6,0,B|366:255|366:255|303:233,1,188.999994232178,4|0,0:0|0:0,0:0:0:0:
232,178,97194,2,0,L|217:253,1,63.8999967823793,10|0,0:0|0:0,0:0:0:0:
89,373,97353,2,0,L|104:298,1,63.8999967823793,8|0,0:0|0:0,0:0:0:0:
155,92,97512,2,0,P|119:51|117:159,1,255.599987129517,4|0,0:0|0:0,0:0:0:0:
284,114,97988,1,8,0:3:0:0:
220,348,98147,1,4,0:0:0:0:
256,192,98226,12,4,99258,3:3:0:0:
166,73,99575,5,12,0:0:0:0:
317,320,99734,1,8,0:0:0:0:
70,231,99893,1,8,0:0:0:0:
372,112,100051,2,0,P|410:91|377:181,1,242.999992584229,12|0,0:0|0:0,0:0:0:0:
