osu file format v14

[General]
AudioFilename: audio.mp3
AudioLeadIn: 0
PreviewTime: 51200
Countdown: 0
SampleSet: Soft
StackLeniency: 0.7
Mode: 0
LetterboxInBreaks: 0
WidescreenStoryboard: 0

[Editor]
DistanceSpacing: 0.8
BeatDivisor: 8
GridSize: 4
TimelineZoom: 2.7

[Metadata]
Title:Hanikamu Kimi ni Koi Suru Watashi
TitleUnicode:はにかむキミに恋するワタシ
Artist:i.o
ArtistUnicode:i.o
Creator:Alexsander
Version:Normal
Source:はにかみCLOVER
Tags:すたじお緑茶 hanikami eroge visual novel opening op j-pop jpop japanese pop video game vn すたじお緑茶 CLOVER i.o.sound
BeatmapID:2727032
BeatmapSetID:1295673

[Difficulty]
HPDrainRate:4
CircleSize:3.4
OverallDifficulty:4
ApproachRate:5.5
SliderMultiplier:1.2
SliderTickRate:1

[Events]
//Background and Video events
0,0,"bg.jpg",0,0
//Break Periods
//Storyboard Layer 0 (Background)
//Storyboard Layer 1 (Fail)
//Storyboard Layer 2 (Pass)
//Storyboard Layer 3 (Foreground)
//Storyboard Layer 4 (Overlay)
//Storyboard Sound Samples

[TimingPoints]
-863,317.460317460317,4,2,1,60,1,0
5327,-100,4,2,1,70,0,0
12946,-100,4,2,1,45,0,0
23104,-100,4,2,1,60,0,0
32946,-100,4,2,1,60,0,0
33422,-100,4,2,1,50,0,0
38184,-100,4,2,1,50,0,0
38501,-100,4,2,1,60,0,0
46120,-100,4,2,1,70,0,0
51200,-100,4,2,1,85,0,1
81517,-100,4,2,1,70,0,0
94216,-100,4,2,1,50,0,0
95327,-100,4,2,1,60,0,0
96597,-100,4,2,1,40,0,0

[Colours]
Combo1 : 93,204,57
Combo2 : 255,36,56
Combo3 : 251,251,177
Combo4 : 155,98,190

[HitObjects]
344,351,248,6,0,P|366:310|345:240,1,120,14|8,3:2|3:2,0:0:0:0:
307,214,724,1,8,0:0:0:0:
79,291,1517,2,0,L|212:273,1,120,10|8,3:2|3:2,0:0:0:0:
241,254,1994,2,0,L|300:263,1,60,8|8,0:0|0:0,0:0:0:0:
345,245,2311,1,2,0:0:0:0:
345,245,2470,1,2,0:0:0:0:
351,149,2787,6,0,P|307:121|233:135,1,120,14|8,3:2|3:2,0:0:0:0:
205,160,3263,1,8,0:0:0:0:
13,15,4057,2,0,P|47:47|51:127,1,120,10|8,3:2|0:0,0:0:0:0:
33,160,4533,1,8,0:0:0:0:
64,250,4851,2,0,L|123:237,1,60,8|8,0:0|0:0,0:0:0:0:
162,209,5168,1,8,0:0:0:0:
162,209,5327,6,0,P|205:239|206:323,1,120,6|2,3:2|0:0,0:0:0:0:
208,349,5803,1,8,0:0:0:0:
299,320,6121,2,0,L|311:255,2,60,0|0|8,3:0|3:0|0:0,0:0:0:0:
326,359,6597,2,0,P|377:328|436:331,1,120,6|0,3:2|0:0,0:0:0:0:
483,324,7073,2,0,L|502:265,1,60,8|0,0:0|0:0,0:0:0:0:
498,218,7390,2,0,L|487:153,1,60,0|2,3:0|3:2,0:0:0:0:
428,83,7867,6,0,P|390:108|311:101,1,120,6|2,3:2|0:0,0:0:0:0:
279,74,8343,1,8,0:0:0:0:
213,143,8660,2,0,L|229:213,2,60,0|0|8,3:0|3:0|0:0,0:0:0:0:
182,105,9136,2,0,P|129:88|70:116,1,120,6|0,3:2|0:0,0:0:0:0:
45,152,9613,1,10,0:0:0:0:
108,224,9930,2,0,P|123:256|125:286,1,60,6|8,3:2|0:0,0:0:0:0:
117,327,10248,1,8,0:0:0:0:
117,327,10406,6,0,L|241:300,1,120,6|0,3:2|3:0,0:0:0:0:
278,281,10883,2,0,P|299:239|265:168,1,120,8|4,0:0|0:3,0:0:0:0:
200,121,11517,1,8,0:0:0:0:
200,121,11676,2,0,P|237:88|311:94,1,120,6|4,3:2|0:3,0:0:0:0:
347,110,12152,1,8,0:0:0:0:
347,110,12311,2,0,L|473:104,1,120,6|0,3:2|3:0,0:0:0:0:
502,136,12787,1,8,0:0:0:0:
502,136,12946,5,6,3:2:0:0:
398,235,13422,2,0,P|380:278|380:308,1,60,2|0,3:2|0:0,0:0:0:0:
376,338,13740,2,0,P|340:307|264:313,1,120,2|0,3:2|3:0,0:0:0:0:
200,375,14375,1,2,3:2:0:0:
124,315,14692,1,2,3:2:0:0:
170,233,15010,1,0,3:0:0:0:
170,233,15168,2,0,P|188:198|191:165,1,60,2|0,0:0|3:0,0:0:0:0:
191,129,15486,6,0,L|-1:110,1,180,10|0,0:0|3:0,0:0:0:0:
137,39,16438,2,0,L|204:46,1,60,2|0,0:0|3:0,0:0:0:0:
243,36,16756,2,0,P|286:86|275:150,1,120,2|0,0:0|0:0,0:0:0:0:
263,231,17390,2,0,P|296:214|329:217,1,60,12|0,0:0|3:0,0:0:0:0:
364,229,17708,2,0,L|354:295,1,60,14|0,0:0|3:0,0:0:0:0:
354,336,18025,6,0,P|394:315|469:327,1,120,10|0,0:0|0:0,0:0:0:0:
499,359,18502,2,0,L|512:226,1,120,2|2,3:2|3:2,0:0:0:0:
476,149,19136,1,0,3:0:0:0:
476,149,19295,2,0,P|426:127|367:156,1,120,2|0,0:0|0:0,0:0:0:0:
344,193,19771,1,2,3:2:0:0:
222,116,20248,2,0,L|243:49,1,60,2|0,0:0|3:0,0:0:0:0:
226,12,20565,6,0,L|96:33,1,120,10|10,0:0|0:0,0:0:0:0:
66,56,21041,2,0,L|79:122,1,60,0|8,3:0|0:0,0:0:0:0:
108,151,21359,2,0,L|98:219,1,60,10|8,0:2|0:0,0:0:0:0:
72,251,21676,1,8,0:0:0:0:
72,251,21835,1,10,0:0:0:0:
301,322,22629,2,0,P|329:324|364:306,1,60,10|8,0:0|0:0,0:0:0:0:
387,275,22946,1,8,0:0:0:0:
387,275,23105,6,0,L|366:148,1,120,6|0,3:2|0:0,0:0:0:0:
331,125,23581,2,0,L|343:60,1,60,10|0,0:0|0:0,0:0:0:0:
378,34,23898,1,2,3:2:0:0:
473,28,24216,1,8,0:0:0:0:
503,118,24533,2,0,L|485:236,1,120,2|8,3:2|0:0,0:0:0:0:
489,288,25010,1,2,0:0:0:0:
489,288,25168,2,0,P|449:262|376:280,1,120,0|8,3:0|0:0,0:0:0:0:
354,315,25644,6,0,L|215:294,1,120,2|0,3:2|0:0,0:0:0:0:
188,307,26121,1,8,0:0:0:0:
106,256,26438,2,0,L|40:259,2,60,0|0|10,3:0|3:0|0:0,0:0:0:0:
151,235,26914,1,2,0:0:0:0:
151,235,27073,2,0,L|128:100,1,120,2|8,3:2|0:0,0:0:0:0:
128,68,27549,1,2,0:0:0:0:
128,68,27708,1,6,3:2:0:0:
225,90,28025,1,8,0:0:0:0:
225,90,28184,6,0,P|282:108|343:87,1,120,6|0,3:2|0:0,0:0:0:0:
381,70,28660,1,10,0:0:0:0:
412,160,28978,2,0,L|404:227,1,60,2|0,3:2|3:0,0:0:0:0:
409,267,29295,1,10,0:0:0:0:
504,261,29613,1,0,3:0:0:0:
510,167,29930,2,0,P|509:129|497:104,1,60,10|0,0:0|0:0,0:0:0:0:
473,68,30248,2,0,L|411:74,1,60,2|0,3:2|3:0,0:0:0:0:
370,50,30565,1,10,0:0:0:0:
286,97,30883,5,0,3:0:0:0:
206,43,31200,1,10,0:0:0:0:
134,106,31517,2,0,P|97:100|76:88,2,60,2|0|10,3:2|3:0|0:0,0:0:0:0:
173,142,31994,1,0,0:0:0:0:
173,142,32152,2,0,L|149:282,1,120,2|14,3:2|0:0,0:0:0:0:
92,335,32787,1,14,0:0:0:0:
92,335,32946,2,0,P|140:315|210:348,1,120,8|8,0:3|0:3,0:0:0:0:
226,378,33422,5,6,3:2:0:0:
300,317,33740,1,2,3:2:0:0:
236,244,34057,2,0,P|215:210|230:129,1,120,14|2,0:0|3:2,0:0:0:0:
258,98,34533,2,0,L|387:106,1,120,2|8,3:2|0:0,0:0:0:0:
420,83,35010,1,2,3:2:0:0:
490,148,35327,2,0,L|477:232,1,60,14|2,0:0|0:0,0:0:0:0:
441,235,35644,2,0,L|452:305,1,60,8|8,0:3|0:3,0:0:0:0:
459,341,35962,6,0,P|407:317|332:337,1,120,6|2,3:2|3:2,0:0:0:0:
258,364,36597,2,0,L|118:353,1,120,14|2,0:0|3:2,0:0:0:0:
98,327,37073,2,0,P|129:271|106:202,1,120,2|8,3:2|0:0,0:0:0:0:
88,181,37549,1,2,3:2:0:0:
128,94,37867,2,0,L|205:86,1,60,14|8,0:0|0:0,0:0:0:0:
235,91,38184,2,0,P|256:125|257:161,1,60,8|8,0:3|0:3,0:0:0:0:
261,192,38502,6,0,P|304:166|372:176,1,120,6|8,3:2|0:0,0:0:0:0:
455,219,39136,2,0,L|444:288,2,60,2|0|10,3:2|3:0|0:0,0:0:0:0:
455,122,39771,2,0,P|421:82|351:77,1,120,2|8,3:2|0:0,0:0:0:0:
310,88,40248,2,0,L|185:74,1,120,2|0,3:2|3:0,0:0:0:0:
96,55,40883,6,0,P|72:99|87:165,1,120,2|0,3:2|0:0,0:0:0:0:
124,194,41359,1,8,0:0:0:0:
58,264,41676,1,0,3:0:0:0:
58,264,41835,2,0,L|66:327,1,60,0|8,3:0|0:0,0:0:0:0:
102,354,42152,2,0,P|145:320|221:325,1,120,6|0,3:2|3:0,0:0:0:0:
251,339,42629,1,14,0:0:0:0:
325,277,42946,2,0,L|341:215,1,60,10|8,0:0|3:0,0:0:0:0:
322,174,43263,1,8,3:0:0:0:
322,174,43422,6,0,L|184:163,1,120,6|2,3:2|0:0,0:0:0:0:
157,147,43898,2,0,P|137:92|174:33,1,120,10|0,0:0|3:0,0:0:0:0:
256,15,44533,2,0,L|327:21,1,60,10|0,0:0|0:0,0:0:0:0:
360,37,44851,2,0,P|393:84|381:160,1,120,2|8,3:2|0:0,0:0:0:0:
366,186,45327,2,0,L|243:182,1,120,2|10,3:2|0:0,0:0:0:0:
211,215,45803,1,4,0:3:0:0:
234,307,46121,6,0,L|299:308,2,60,14|2|8,0:0|0:0|0:0,0:0:0:0:
189,324,46597,1,2,3:2:0:0:
189,324,46756,2,0,P|139:278|80:283,1,120,8|10,0:0|0:0,0:0:0:0:
14,219,47390,1,12,0:0:0:0:
14,219,47549,2,0,L|25:147,1,60,2|10,3:2|0:0,0:0:0:0:
80,82,48025,2,0,P|107:72|149:75,1,60,10|4,0:0|0:3,0:0:0:0:
189,85,48343,1,4,0:3:0:0:
189,85,48502,6,0,L|171:212,1,120,6|8,3:2|0:0,0:0:0:0:
201,241,48978,1,8,0:0:0:0:
294,220,49295,1,0,3:0:0:0:
373,283,49613,1,8,0:0:0:0:
373,283,49771,2,0,B|422:186|422:186|396:114,2,180,6|2|0,0:0|0:0|3:0,0:0:0:0:
337,316,50883,1,8,0:0:0:0:
253,363,51200,6,0,P|205:331|134:343,1,120,6|10,3:2|0:0,0:0:0:0:
50,322,51835,2,0,L|64:260,1,60,2|0,3:2|3:0,0:0:0:0:
104,238,52152,2,0,L|94:164,1,60,10|0,0:0|0:0,0:0:0:0:
116,134,52470,1,2,3:2:0:0:
208,160,52787,1,10,0:0:0:0:
304,165,53105,2,0,P|305:199|293:232,2,60,2|0|10,3:2|3:0|0:0,0:0:0:0:
295,68,53740,6,0,L|276:9,1,60,2|2,3:2|0:0,0:0:0:0:
228,12,54057,2,0,P|184:39|114:34,1,120,10|2,0:0|3:2,0:0:0:0:
24,59,54692,2,0,L|37:129,1,60,10|2,0:0|0:0,0:0:0:0:
68,152,55010,2,0,L|58:276,1,120,6|8,3:2|0:0,0:0:0:0:
61,323,55486,1,2,0:0:0:0:
61,323,55644,2,0,P|90:296|178:314,1,120,6|8,3:2|0:0,0:0:0:0:
245,356,56279,6,0,L|392:335,1,120,6|10,3:2|0:0,0:0:0:0:
402,309,56756,1,2,0:0:0:0:
402,309,56914,1,2,3:2:0:0:
426,216,57232,1,10,0:0:0:0:
370,139,57549,2,0,P|325:120|259:142,1,120,2|10,3:2|0:0,0:0:0:0:
206,221,58184,1,2,3:2:0:0:
125,168,58502,1,10,0:0:0:0:
62,241,58819,6,0,P|29:185|52:110,1,120,6|8,3:2|0:0,0:0:0:0:
62,92,59295,1,0,0:0:0:0:
62,92,59454,2,0,L|184:78,1,120,2|8,0:0|0:0,0:0:0:0:
221,51,59930,1,6,3:2:0:0:
304,97,60248,2,0,L|298:177,1,60,8|8,0:0|0:0,0:0:0:0:
326,196,60565,1,8,0:0:0:0:
396,131,60883,2,0,P|431:111|462:112,1,60,6|8,3:2|0:0,0:0:0:0:
491,134,61200,1,8,0:3:0:0:
491,134,61359,6,0,L|470:262,1,120,6|10,3:2|0:0,0:0:0:0:
410,326,61994,2,0,P|370:312|343:315,1,60,2|0,3:2|3:0,0:0:0:0:
322,350,62311,2,0,L|257:345,1,60,10|0,0:0|0:0,0:0:0:0:
217,327,62629,2,0,L|238:205,1,120,2|10,3:2|0:0,0:0:0:0:
196,121,63263,2,0,L|186:57,2,60,2|0|10,3:2|3:0|0:0,0:0:0:0:
133,193,63898,6,0,P|96:207|65:207,1,60,2|2,3:2|0:0,0:0:0:0:
30,190,64216,1,10,0:0:0:0:
8,283,64533,2,0,L|25:350,1,60,2|0,3:2|3:0,0:0:0:0:
61,369,64851,1,10,0:0:0:0:
133,306,65168,2,0,P|185:278|257:304,1,120,2|10,3:2|0:0,0:0:0:0:
311,357,65803,1,6,3:2:0:0:
391,303,66121,1,8,0:0:0:0:
311,222,66438,6,0,P|289:168|315:104,1,120,6|8,3:2|0:0,0:0:0:0:
371,39,67073,2,0,L|430:50,2,60,0|2|10,3:0|3:2|0:0,0:0:0:0:
281,3,67708,2,0,L|156:26,1,120,2|10,3:2|0:0,0:0:0:0:
70,51,68343,2,0,P|102:84|104:121,1,60,2|0,3:2|3:0,0:0:0:0:
109,144,68660,2,0,L|176:133,1,60,10|0,0:0|0:0,0:0:0:0:
213,151,68978,6,0,L|202:275,1,120,6|8,3:2|0:0,0:0:0:0:
254,351,69613,2,0,P|300:318|365:326,1,120,2|8,3:2|0:0,0:0:0:0:
404,344,70089,2,0,L|417:206,1,120,6|8,0:0|0:3,0:0:0:0:
394,181,70565,1,8,0:0:0:0:
306,141,70883,1,10,0:0:0:0:
219,182,71200,1,10,0:0:0:0:
139,128,71517,6,0,P|118:76|139:18,1,120,6|8,3:2|0:0,0:0:0:0:
186,12,71994,2,0,P|237:31|311:24,1,120,2|2,3:2|0:0,0:0:0:0:
349,24,72470,1,8,0:0:0:0:
423,83,72787,2,0,L|408:148,1,60,10|2,0:0|0:0,0:0:0:0:
422,192,73105,1,10,0:0:0:0:
422,192,73263,2,0,L|301:184,1,120,2|0,3:2|3:0,0:0:0:0:
260,160,73740,1,10,0:0:0:0:
185,221,74057,6,0,P|169:278|200:338,1,120,2|8,3:2|0:0,0:0:0:0:
233,356,74533,1,2,3:2:0:0:
317,311,74851,1,2,0:0:0:0:
403,353,75168,2,0,P|429:309|406:231,1,120,2|0,3:2|3:0,0:0:0:0:
380,211,75644,1,10,0:0:0:0:
297,161,75962,2,0,L|177:176,1,120,14|8,0:0|0:3,0:0:0:0:
83,192,76597,6,0,L|65:126,1,60,6|0,3:2|0:0,0:0:0:0:
42,92,76914,1,12,0:0:0:0:
42,92,77073,2,0,P|85:62|153:69,1,120,2|2,3:2|0:0,0:0:0:0:
188,96,77549,1,10,0:0:0:0:
264,38,77867,2,0,P|284:74|286:97,1,60,10|2,0:0|0:0,0:0:0:0:
302,137,78184,1,10,0:0:0:0:
302,137,78343,2,0,L|282:271,1,120,2|8,3:2|0:0,0:0:0:0:
257,295,78819,1,8,0:0:0:0:
319,367,79136,6,0,P|364:334|434:340,1,120,14|10,0:2|0:0,0:0:0:0:
473,345,79613,1,6,3:2:0:0:
510,256,79930,1,14,0:0:0:0:
429,203,80248,2,0,L|365:193,1,60,10|0,0:0|0:0,0:0:0:0:
330,165,80565,1,10,0:0:0:0:
269,239,80883,1,10,0:0:0:0:
269,239,81041,1,10,0:0:0:0:
177,211,81359,1,0,3:0:0:0:
177,211,81517,6,0,L|190:91,1,120,6|2,3:2|0:0,0:0:0:0:
226,61,81994,1,8,0:0:0:0:
311,104,82311,2,0,L|375:106,2,60,0|0|8,3:0|3:0|0:0,0:0:0:0:
286,145,82787,2,0,P|324:195|314:255,1,120,6|0,3:2|0:0,0:0:0:0:
330,295,83263,2,0,L|408:290,1,60,10|0,0:0|0:0,0:0:0:0:
436,280,83581,2,0,L|457:218,1,60,0|2,3:0|3:2,0:0:0:0:
474,127,84057,6,0,P|432:94|363:111,1,120,6|2,3:2|0:0,0:0:0:0:
335,138,84533,1,8,0:0:0:0:
255,85,84851,2,0,L|271:15,2,60,0|0|8,3:0|3:0|0:0,0:0:0:0:
219,117,85327,2,0,L|93:105,1,120,6|0,3:2|0:0,0:0:0:0:
58,80,85803,1,10,0:0:0:0:
9,163,86121,2,0,P|7:202|14:226,1,60,6|8,3:2|0:0,0:0:0:0:
32,270,86438,1,8,0:0:0:0:
32,270,86597,6,0,L|160:251,1,120,6|2,3:2|0:0,0:0:0:0:
192,274,87073,1,8,0:0:0:0:
279,235,87390,2,0,L|268:171,2,60,0|0|8,3:0|3:0|0:0,0:0:0:0:
315,266,87867,2,0,P|376:275|423:236,1,120,6|0,3:2|0:0,0:0:0:0:
465,225,88343,2,0,L|480:303,1,60,8|0,0:0|0:0,0:0:0:0:
476,332,88660,2,0,L|406:349,1,60,0|2,3:0|3:2,0:0:0:0:
324,368,89136,6,0,L|197:350,1,120,6|2,3:2|0:0,0:0:0:0:
161,371,89613,1,8,0:0:0:0:
91,304,89930,2,0,L|19:308,2,60,0|0|8,3:0|3:0|0:0,0:0:0:0:
133,280,90406,2,0,P|155:234|130:159,1,120,6|0,3:2|0:0,0:0:0:0:
103,136,90883,1,8,0:0:0:0:
160,58,91200,2,0,L|224:47,1,60,6|8,3:2|0:0,0:0:0:0:
266,57,91517,1,8,0:0:0:0:
266,57,91676,6,0,L|249:184,1,120,6|0,3:2|0:0,0:0:0:0:
255,223,92152,1,8,0:0:0:0:
333,279,92470,1,8,0:3:0:0:
418,236,92787,1,8,0:0:0:0:
418,236,92946,2,0,P|438:189|418:124,1,120,6|4,3:2|0:3,0:0:0:0:
379,97,93422,1,8,0:0:0:0:
379,97,93581,2,0,L|257:85,1,120,6|0,3:2|3:0,0:0:0:0:
216,106,94057,1,8,0:0:0:0:
216,106,94216,5,6,3:2:0:0:
20,379,95327,1,8,0:0:0:0:
102,330,95644,6,0,L|92:266,1,60,12|8,0:0|0:3,0:0:0:0:
61,241,95962,1,8,0:0:0:0:
61,241,96121,2,0,B|106:258|106:258|171:220|232:244,1,180,6|0,0:0|0:0,0:0:0:0:
