osu file format v14

[General]
AudioFilename: audio.mp3
AudioLeadIn: 0
PreviewTime: 51200
Countdown: 0
SampleSet: Soft
StackLeniency: 0.4
Mode: 0
LetterboxInBreaks: 0
WidescreenStoryboard: 0

[Editor]
DistanceSpacing: 0.7
BeatDivisor: 4
GridSize: 4
TimelineZoom: 4.399998

[Metadata]
Title:Hanikamu Kimi ni Koi Suru Watashi
TitleUnicode:はにかむキミに恋するワタシ
Artist:i.o
ArtistUnicode:i.o
Creator:Alexsander
Version:Expert
Source:はにかみCLOVER
Tags:すたじお緑茶 hanikami eroge visual novel opening op j-pop jpop japanese pop video game vn すたじお緑茶 CLOVER i.o.sound
BeatmapID:2688295
BeatmapSetID:1295673

[Difficulty]
HPDrainRate:6
CircleSize:4
OverallDifficulty:8.7
ApproachRate:9.2
SliderMultiplier:1.9
SliderTickRate:1

[Events]
//Background and Video events
0,0,"bg.jpg",0,0
//Break Periods
//Storyboard Layer 0 (Background)
//Storyboard Layer 1 (Fail)
//Storyboard Layer 2 (Pass)
//Storyboard Layer 3 (Foreground)
//Storyboard Layer 4 (Overlay)
//Storyboard Sound Samples

[TimingPoints]
-863,317.460317460317,4,2,1,60,1,0
5327,-100,4,2,1,70,0,0
12946,-133.333333333333,4,2,1,45,0,0
23104,-100,4,2,1,60,0,0
32946,-111.111111111111,4,2,1,60,0,0
33422,-125,4,2,1,50,0,0
38184,-100,4,2,1,50,0,0
38501,-100,4,2,1,60,0,0
46120,-100,4,2,1,70,0,0
49970,-100,4,2,1,30,0,0
50248,-100,4,2,1,70,0,0
50287,-100,4,2,1,30,0,0
50565,-100,4,2,1,70,0,0
51200,-90.9090909090909,4,2,1,85,0,1
81517,-100,4,2,1,70,0,0
94216,-125,4,2,1,50,0,0
95327,-100,4,2,1,60,0,0
96597,-100,4,2,1,40,0,0

[Colours]
Combo1 : 93,204,57
Combo2 : 255,36,56
Combo3 : 251,251,177
Combo4 : 155,98,190

[HitObjects]
434,90,248,6,0,B|384:132|384:132|243:105,1,190,14|8,3:2|3:2,0:0:0:0:
362,5,724,1,8,0:0:0:0:
251,192,1041,2,0,B|202:196|202:196|157:168,2,95,2|0|0,0:0|0:0|0:0,0:0:0:0:
159,83,1517,6,0,P|77:120|98:221,1,190,10|8,3:2|3:2,0:0:0:0:
251,192,1994,1,8,0:0:0:0:
163,171,2152,1,8,0:0:0:0:
248,275,2311,1,2,0:0:0:0:
324,234,2470,1,2,0:0:0:0:
447,373,2787,6,0,B|465:313|465:313|441:247|441:247|460:184,1,190,14|8,3:2|3:2,0:0:0:0:
365,318,3263,1,8,0:0:0:0:
349,98,3581,2,0,P|378:63|436:52,2,95,2|0|0,0:0|0:0|0:0,0:0:0:0:
248,275,4057,6,0,L|222:180,1,95,10|0,3:2|0:0,0:0:0:0:
195,369,4375,1,8,0:0:0:0:
333,267,4533,1,8,0:0:0:0:
141,191,4692,1,8,0:0:0:0:
287,348,4851,1,8,0:0:0:0:
187,115,5010,5,8,0:0:0:0:
143,96,5089,1,8,0:0:0:0:
98,105,5168,1,8,0:0:0:0:
65,139,5248,1,8,0:0:0:0:
56,185,5327,6,0,L|94:357,1,142.5,6|0,3:2|0:0,0:0:0:0:
108,349,5644,1,2,0:0:0:0:
242,198,5803,2,0,P|278:182|337:194,1,95,8|0,0:0|0:0,0:0:0:0:
187,257,6121,1,0,3:0:0:0:
208,109,6279,1,0,3:0:0:0:
292,265,6438,1,8,0:0:0:0:
122,121,6597,6,0,P|159:38|262:42,1,190,6|0,3:2|0:0,0:0:0:0:
165,188,7073,2,0,P|121:200|65:177,1,95,8|0,0:0|0:0,0:0:0:0:
204,103,7390,1,0,3:0:0:0:
242,260,7549,2,0,L|237:354,1,95,2|8,3:2|0:0,0:0:0:0:
479,244,7867,6,0,P|418:209|351:236,1,142.5,6|0,3:2|0:0,0:0:0:0:
338,266,8184,1,2,0:0:0:0:
254,135,8343,1,8,0:0:0:0:
164,216,8502,1,0,0:0:0:0:
238,41,8660,1,0,3:0:0:0:
344,153,8819,1,0,3:0:0:0:
149,88,8978,1,8,0:0:0:0:
407,45,9136,6,0,B|434:151|351:135|381:235,1,190,6|0,3:2|0:0,0:0:0:0:
496,334,9613,2,0,L|492:235,1,95,10|0,0:0|0:0,0:0:0:0:
393,370,9930,1,6,3:2:0:0:
281,227,10089,5,8,0:0:0:0:
238,208,10168,1,8,0:0:0:0:
191,211,10248,1,8,0:0:0:0:
151,235,10327,1,8,0:0:0:0:
127,276,10406,6,0,B|91:224|91:224|136:95,1,190,6|0,3:2|3:0,0:0:0:0:
238,208,10883,1,8,0:0:0:0:
286,130,11041,1,8,0:3:0:0:
341,245,11200,1,4,0:3:0:0:
390,107,11359,1,8,0:3:0:0:
450,272,11517,1,8,0:0:0:0:
474,54,11676,6,0,P|416:68|328:44,1,142.5,6|0,3:2|0:0,0:0:0:0:
302,34,11994,1,4,0:3:0:0:
220,155,12152,1,8,0:0:0:0:
69,34,12311,2,0,P|154:9|216:80,1,190,6|0,3:2|3:0,0:0:0:0:
79,117,12787,1,8,0:0:0:0:
210,199,12946,6,0,L|193:355,1,142.500005435944,6|0,3:2|0:0,0:0:0:0:
129,256,13422,2,0,L|46:257,1,71.2500027179719,2|0,3:2|0:0,0:0:0:0:
53,345,13740,2,0,L|196:341,1,142.500005435944,2|0,3:2|3:0,0:0:0:0:
195,341,14375,6,0,P|230:331|268:340,1,71.2500027179719,2|0,3:2|0:0,0:0:0:0:
367,372,14692,1,2,3:2:0:0:
421,312,14851,1,0,0:0:0:0:
501,365,15010,1,0,3:0:0:0:
501,365,15168,2,0,L|511:289,1,71.2500027179719,2|0,0:0|3:0,0:0:0:0:
442,179,15486,6,0,B|402:153|402:153|298:173,2,142.500005435944,10|0|0,0:0|0:0|0:0,0:0:0:0:
442,179,16438,1,2,0:0:0:0:
492,119,16597,1,0,3:0:0:0:
397,54,16756,6,0,B|242:52,1,142.500005435944,2|0,0:0|0:0,0:0:0:0:
179,19,17232,1,0,3:0:0:0:
79,156,17390,2,0,P|111:127|161:119,1,71.2500027179719,12|0,0:0|3:0,0:0:0:0:
209,238,17708,2,0,P|177:209|127:201,1,71.2500027179719,14|0,0:0|3:0,0:0:0:0:
2,276,18025,6,0,B|51:268|51:268|87:287|87:287|153:282,1,142.500005435944,10|0,0:0|0:0,0:0:0:0:
242,347,18502,2,0,L|157:355,1,71.2500027179719,2|0,3:2|0:0,0:0:0:0:
283,273,18819,2,0,P|321:307|326:339,1,71.2500027179719,2|0,3:2|0:0,0:0:0:0:
212,251,19136,1,0,3:0:0:0:
352,224,19295,6,0,L|516:215,1,142.500005435944,2|0,0:0|0:0,0:0:0:0:
468,317,19771,2,0,L|325:324,1,142.500005435944,2|0,3:2|3:0,0:0:0:0:
242,347,20248,1,2,0:0:0:0:
161,292,20406,1,0,3:0:0:0:
72,384,20565,6,0,L|48:300,1,71.2500027179719,10|0,0:0|3:0,0:0:0:0:
92,236,20883,1,10,0:0:0:0:
161,292,21041,1,0,3:0:0:0:
155,156,21200,1,8,0:0:0:0:
238,287,21359,1,10,0:2:0:0:
231,87,21517,1,8,0:0:0:0:
313,255,21676,1,8,0:0:0:0:
144,74,21835,1,10,0:0:0:0:
145,74,22629,6,0,L|163:125,1,35.625001358986,10|8,0:0|0:3,0:0:0:0:
272,146,22787,1,8,0:0:0:0:
307,143,22867,1,8,0:0:0:0:
343,141,22946,1,8,0:0:0:0:
378,138,23025,1,8,0:0:0:0:
417,138,23105,6,0,P|476:183|462:291,1,190,6|0,3:2|0:0,0:0:0:0:
306,233,23581,2,0,L|404:230,1,95,10|0,0:0|0:0,0:0:0:0:
306,365,23898,2,0,L|211:367,1,95,2|0,3:2|3:0,0:0:0:0:
194,197,24216,2,0,P|217:251|195:310,1,95,8|0,0:0|0:0,0:0:0:0:
72,138,24533,5,2,3:2:0:0:
216,81,24692,1,2,0:0:0:0:
117,203,24851,1,8,0:0:0:0:
126,54,25010,1,2,0:0:0:0:
194,197,25168,1,0,3:0:0:0:
311,77,25327,2,0,L|217:81,1,95,2|8,3:2|0:0,0:0:0:0:
14,187,25644,6,0,B|36:244|36:244|23:310|23:310|56:394,1,190,2|0,3:2|0:0,0:0:0:0:
200,309,26121,2,0,L|106:302,1,95,8|0,0:0|0:0,0:0:0:0:
259,239,26438,1,0,3:0:0:0:
219,384,26597,1,0,3:0:0:0:
176,191,26756,1,10,0:0:0:0:
105,301,26914,1,2,0:0:0:0:
22,106,27073,5,2,3:2:0:0:
108,224,27232,1,2,0:0:0:0:
189,49,27390,1,8,0:0:0:0:
84,151,27549,1,2,0:0:0:0:
0,3,27708,1,6,3:2:0:0:
188,179,27867,5,8,0:0:0:0:
196,216,27946,1,8,0:0:0:0:
197,253,28025,1,8,0:0:0:0:
177,285,28105,1,8,0:0:0:0:
148,310,28184,6,0,L|366:296,1,190,6|0,3:2|0:0,0:0:0:0:
393,147,28660,2,0,P|422:190|408:255,1,95,10|0,0:0|0:0,0:0:0:0:
343,371,28978,1,2,3:2:0:0:
339,213,29136,1,0,3:0:0:0:
512,328,29295,2,0,L|410:310,1,95,10|0,0:0|0:0,0:0:0:0:
240,169,29613,6,0,P|278:139|340:142,1,95,0|0,3:0|0:0,0:0:0:0:
196,247,29930,1,10,0:0:0:0:
182,114,30089,1,0,0:0:0:0:
304,208,30248,1,2,3:2:0:0:
171,95,30406,1,0,3:0:0:0:
126,303,30565,2,0,P|170:285|199:229,1,95,10|0,0:0|0:0,0:0:0:0:
38,84,30883,6,0,L|20:235,1,142.5,0|0,3:0|0:0,0:0:0:0:
36,261,31200,2,0,P|67:224|113:213,1,95,10|0,0:0|0:0,0:0:0:0:
227,336,31517,1,2,3:2:0:0:
246,171,31676,1,0,3:0:0:0:
126,303,31835,1,10,0:0:0:0:
297,241,31994,1,0,0:0:0:0:
119,118,32152,6,0,L|110:214,1,95,2|0,3:2|0:0,0:0:0:0:
227,336,32470,2,0,L|218:240,1,95,14|0,0:0|0:0,0:0:0:0:
109,384,32787,5,14,0:0:0:0:
33,342,32946,2,0,P|23:302|38:257,1,85.4999973907472,8|8,0:3|0:3,0:0:0:0:
110,212,33263,1,8,0:3:0:0:
227,336,33422,5,6,3:2:0:0:
294,157,33740,1,2,3:2:0:0:
468,238,34057,6,0,P|482:200|479:154,1,76,14|0,0:0|0:0,0:0:0:0:
342,37,34375,1,2,3:2:0:0:
485,70,34533,2,0,P|443:83|400:79,1,76,2|0,3:2|0:0,0:0:0:0:
264,11,34851,5,8,0:0:0:0:
189,128,35010,1,2,3:2:0:0:
40,0,35168,1,0,3:0:0:0:
190,48,35327,1,14,0:0:0:0:
29,158,35486,1,2,0:0:0:0:
187,280,35644,5,8,0:3:0:0:
187,242,35724,1,8,0:3:0:0:
187,204,35803,1,8,0:3:0:0:
188,166,35883,1,8,0:3:0:0:
189,128,35962,5,6,3:2:0:0:
64,262,36279,1,2,3:2:0:0:
270,285,36597,6,0,L|360:279,1,76,14|0,0:0|0:0,0:0:0:0:
231,365,36914,1,2,3:2:0:0:
398,368,37073,2,0,L|308:362,1,76,2|0,3:2|0:0,0:0:0:0:
187,280,37390,5,8,0:0:0:0:
299,203,37549,1,2,3:2:0:0:
231,365,37708,1,0,3:0:0:0:
204,178,37867,1,14,0:0:0:0:
119,337,38025,1,8,0:0:0:0:
96,353,38105,1,8,0:0:0:0:
66,364,38184,6,0,L|10:349,1,47.5,8|8,0:3|0:3,0:0:0:0:
0,211,38343,2,0,L|56:196,1,47.5,8|8,0:3|0:3,0:0:0:0:
187,280,38502,6,0,P|251:290|315:250,1,142.5,6|0,3:2|0:0,0:0:0:0:
339,220,38819,2,0,L|329:113,1,95,8|0,0:0|0:0,0:0:0:0:
363,317,39136,1,2,3:2:0:0:
240,214,39295,1,0,3:0:0:0:
411,114,39454,2,0,L|419:208,1,95,10|0,0:0|0:0,0:0:0:0:
272,34,39771,6,0,P|319:13|369:21,1,95,2|0,3:2|0:0,0:0:0:0:
259,140,40089,1,8,0:0:0:0:
145,20,40248,2,0,P|98:-1|48:7,1,95,2|0,3:2|0:0,0:0:0:0:
95,173,40565,1,0,3:0:0:0:
198,76,40724,1,8,0:0:0:0:
218,253,40883,6,0,B|156:241|156:241|99:261|99:261|14:242,1,190,2|0,3:2|0:0,0:0:0:0:
165,331,41359,1,8,0:0:0:0:
30,372,41517,2,0,L|15:318,1,47.5,2|0,0:0|0:0,0:0:0:0:
95,173,41676,1,0,3:0:0:0:
95,329,41835,1,0,3:0:0:0:
13,169,41994,1,8,0:0:0:0:
238,323,42152,6,0,B|295:356|295:356|362:332|369:253,1,190,6|0,3:2|3:0,0:0:0:0:
242,84,42629,1,14,0:0:0:0:
287,264,42787,1,2,0:0:0:0:
356,61,42946,1,10,0:0:0:0:
183,184,43105,1,8,3:0:0:0:
217,181,43184,1,8,3:0:0:0:
250,177,43263,1,8,3:0:0:0:
94,76,43422,6,0,L|-5:65,1,95,6|0,3:2|0:0,0:0:0:0:
97,223,43740,1,2,0:0:0:0:
235,77,43898,2,0,P|304:62|390:138,1,190,10|0,0:0|3:0,0:0:0:0:
353,301,44375,1,0,3:0:0:0:
297,147,44533,1,10,0:0:0:0:
443,252,44692,1,0,0:0:0:0:
232,211,44851,6,0,L|129:210,1,95,2|0,3:2|0:0,0:0:0:0:
12,316,45168,1,8,0:0:0:0:
15,124,45327,2,0,L|41:222,1,95,2|0,3:2|0:0,0:0:0:0:
127,345,45644,1,10,0:0:0:0:
210,305,45803,1,4,0:3:0:0:
308,365,45962,1,8,0:3:0:0:
351,170,46121,5,14,0:0:0:0:
289,291,46279,1,2,0:0:0:0:
188,198,46438,1,8,0:0:0:0:
376,140,46597,5,2,3:2:0:0:
308,273,46756,1,8,0:0:0:0:
197,170,46914,1,2,0:0:0:0:
401,112,47073,5,10,0:0:0:0:
327,258,47232,1,0,3:0:0:0:
205,145,47390,1,12,0:0:0:0:
423,77,47549,5,2,3:2:0:0:
342,237,47708,1,10,0:0:0:0:
208,113,47867,1,2,3:2:0:0:
213,214,48025,5,10,0:0:0:0:
361,42,48184,1,4,0:3:0:0:
466,238,48343,1,4,0:3:0:0:
220,27,48502,6,0,B|175:15|175:15|137:46|73:52,1,142.5,6|0,3:2|0:0,0:0:0:0:
49,40,48819,1,8,0:0:0:0:
184,106,48978,1,8,0:0:0:0:
43,229,49136,1,8,0:0:0:0:
241,342,49295,5,0,3:0:0:0:
241,342,49375,1,0,3:0:0:0:
241,342,49454,1,0,3:0:0:0:
95,146,49613,1,8,0:0:0:0:
15,310,49771,1,6,0:0:0:0:
168,223,49930,6,0,L|200:224,6,23.75,2|0|0|0|0|0|0,0:0|0:0|0:0|0:0|0:0|0:0|0:0,0:0:0:0:
258,287,50248,2,0,L|298:280,6,23.75,2|0|0|0|0|0|0,0:0|0:0|0:0|0:0|0:0|0:0|0:0,0:0:0:0:
283,182,50565,2,0,L|335:179,1,47.5,2|0,0:0|0:0,0:0:0:0:
429,258,50724,6,0,L|419:303,2,31.6666666666667,0|0|0,3:0|3:0|3:0,0:0:0:0:
452,230,50883,1,8,0:0:0:0:
204,28,51200,6,0,L|226:207,1,156.750004783631,6|0,3:2|0:0,0:0:0:0:
243,220,51517,2,0,P|192:198|137:211,1,104.500003189087,10|0,0:0|0:0,0:0:0:0:
20,316,51835,1,2,3:2:0:0:
186,272,51994,1,0,3:0:0:0:
40,144,52152,2,0,L|65:259,1,104.500003189087,10|0,0:0|0:0,0:0:0:0:
135,63,52470,6,0,P|191:22|278:52,1,156.750004783631,2|0,3:2|0:0,0:0:0:0:
299,72,52787,2,0,L|411:64,1,104.500003189087,10|0,0:0|0:0,0:0:0:0:
261,170,53105,1,2,3:2:0:0:
406,243,53263,1,0,3:0:0:0:
276,367,53422,2,0,P|250:314|260:263,1,104.500003189087,10|0,0:0|0:0,0:0:0:0:
415,154,53740,5,2,3:2:0:0:
330,307,53898,1,2,0:0:0:0:
299,72,54057,2,0,L|338:183,1,104.500003189087,10|0,0:0|0:0,0:0:0:0:
156,198,54375,2,0,P|190:161|251:154,1,104.500003189087,2|0,3:2|3:0,0:0:0:0:
144,292,54692,1,10,0:0:0:0:
81,146,54851,1,2,0:0:0:0:
260,254,55010,6,0,L|52:245,1,209.000006378174,6|8,3:2|0:0,0:0:0:0:
183,166,55486,1,2,0:0:0:0:
253,347,55644,1,6,3:2:0:0:
330,196,55803,1,0,3:0:0:0:
431,305,55962,5,8,0:0:0:0:
468,269,56041,1,8,0:0:0:0:
485,220,56121,1,8,0:0:0:0:
477,169,56200,1,8,0:0:0:0:
446,128,56279,6,0,L|340:125,1,104.500003189087,6|0,3:2|0:0,0:0:0:0:
200,204,56597,1,10,0:0:0:0:
330,261,56756,1,2,0:0:0:0:
217,129,56914,2,0,P|166:137|130:176,1,104.500003189087,2|0,3:2|3:0,0:0:0:0:
174,378,57232,2,0,L|189:260,1,104.500003189087,10|0,0:0|0:0,0:0:0:0:
85,88,57549,6,0,P|92:138|131:175,1,104.500003189087,2|0,3:2|0:0,0:0:0:0:
314,132,57867,2,0,P|265:113|215:129,1,104.500003189087,10|0,0:0|0:0,0:0:0:0:
83,285,58184,2,0,L|196:273,1,104.500003189087,2|0,3:2|3:0,0:0:0:0:
366,211,58502,2,0,L|253:199,1,104.500003189087,10|0,0:0|0:0,0:0:0:0:
66,10,58819,6,0,B|120:119|0:111|75:234,1,209.000006378174,6|8,3:2|0:0,0:0:0:0:
148,357,59295,1,0,0:0:0:0:
313,198,59454,2,0,P|219:133|131:173,1,209.000006378174,2|8,0:0|0:0,0:0:0:0:
350,109,59930,6,0,P|393:176|376:274,1,156.750004783631,6|0,3:2|0:0,0:0:0:0:
335,313,60248,1,8,0:0:0:0:
288,304,60327,1,8,0:0:0:0:
242,296,60406,1,8,0:0:0:0:
196,288,60486,1,8,0:0:0:0:
149,280,60565,1,8,0:0:0:0:
350,109,60883,5,6,3:2:0:0:
261,43,61041,1,8,0:0:0:0:
257,79,61121,1,8,0:0:0:0:
253,115,61200,2,0,L|265:185,1,52.2500015945435,8|8,0:3|0:3,0:0:0:0:
149,280,61359,5,6,3:2:0:0:
61,157,61517,1,2,0:0:0:0:
22,345,61676,1,10,0:0:0:0:
136,196,61835,1,2,0:0:0:0:
215,380,61994,2,0,L|92:361,1,104.500003189087,2|0,3:2|3:0,0:0:0:0:
282,247,62311,2,0,L|405:228,1,104.500003189087,10|0,0:0|0:0,0:0:0:0:
482,83,62629,6,0,P|442:131|440:180,1,104.500003189087,2|0,3:2|0:0,0:0:0:0:
512,326,62946,2,0,P|490:267|448:241,1,104.500003189087,10|0,0:0|0:0,0:0:0:0:
319,163,63263,1,2,3:2:0:0:
434,316,63422,1,0,3:0:0:0:
252,228,63581,2,0,L|135:204,1,104.500003189087,10|0,0:0|0:0,0:0:0:0:
8,305,63898,5,2,3:2:0:0:
54,140,64057,1,2,0:0:0:0:
184,290,64216,2,0,L|67:266,1,104.500003189087,10|0,0:0|0:0,0:0:0:0:
252,228,64533,1,2,3:2:0:0:
163,373,64692,1,0,3:0:0:0:
182,183,64851,2,0,P|226:146|275:146,1,104.500003189087,10|0,0:0|0:0,0:0:0:0:
343,313,65168,6,0,L|363:204,1,104.500003189087,2|0,3:2|0:0,0:0:0:0:
252,42,65486,2,0,L|272:151,1,104.500003189087,10|0,0:0|0:0,0:0:0:0:
158,13,65803,1,6,3:2:0:0:
336,43,65962,1,0,3:0:0:0:
152,118,66121,5,8,0:0:0:0:
108,145,66200,1,8,0:0:0:0:
88,192,66279,1,8,0:0:0:0:
99,242,66359,1,8,0:0:0:0:
138,277,66438,6,0,B|205:263|205:263|262:281|262:281|359:263,1,209.000006378174,6|8,3:2|0:0,0:0:0:0:
448,190,66914,1,0,0:0:0:0:
377,344,67073,1,0,3:0:0:0:
332,159,67232,1,2,3:2:0:0:
508,279,67390,1,10,0:0:0:0:
341,266,67549,1,2,0:0:0:0:
469,87,67708,6,0,L|446:196,1,104.500003189087,2|0,3:2|0:0,0:0:0:0:
310,56,68025,2,0,L|333:165,1,104.500003189087,10|0,0:0|0:0,0:0:0:0:
155,164,68343,2,0,P|193:133|252:133,1,104.500003189087,2|0,3:2|3:0,0:0:0:0:
124,268,68660,2,0,P|78:250|48:199,1,104.500003189087,10|0,0:0|0:0,0:0:0:0:
237,33,68978,6,0,B|283:89|283:89|238:239,1,209.000006378174,6|8,3:2|0:0,0:0:0:0:
104,109,69454,1,2,0:0:0:0:
24,325,69613,2,0,P|82:272|204:322,1,209.000006378174,2|8,3:2|0:0,0:0:0:0:
379,165,70089,6,0,L|358:49,1,104.500003189087,6|0,0:0|0:0,0:0:0:0:
335,238,70406,1,8,0:3:0:0:
459,126,70565,1,8,0:0:0:0:
271,50,70724,1,6,3:2:0:0:
379,165,70883,2,0,P|413:215|406:279,1,104.500003189087,10|0,0:0|3:0,0:0:0:0:
262,367,71200,2,0,P|193:313|118:340,1,156.750004783631,10|0,0:0|0:0,0:0:0:0:
92,339,71517,6,0,L|66:232,1,104.500003189087,6|0,3:2|0:0,0:0:0:0:
115,55,71835,1,8,0:0:0:0:
242,171,71994,2,0,L|128:159,1,104.500003189087,2|8,3:2|0:0,0:0:0:0:
332,120,72311,1,2,0:0:0:0:
175,243,72470,1,8,0:0:0:0:
260,91,72629,1,2,3:2:0:0:
239,312,72787,5,10,0:0:0:0:
138,160,72946,1,2,0:0:0:0:
316,286,73105,1,10,0:0:0:0:
90,290,73263,2,0,P|126:250|185:245,1,104.500003189087,2|8,3:2|0:0,0:0:0:0:
298,364,73581,1,0,3:0:0:0:
432,184,73740,2,0,P|396:144|337:139,1,104.500003189087,10|0,0:0|0:0,0:0:0:0:
171,69,74057,6,0,L|276:38,1,104.500003189087,2|0,3:2|0:0,0:0:0:0:
157,186,74375,1,8,0:0:0:0:
77,0,74533,2,0,L|46:105,1,104.500003189087,2|8,3:2|0:0,0:0:0:0:
233,249,74851,2,0,P|202:203|158:187,1,104.500003189087,2|8,0:0|0:0,0:0:0:0:
37,308,75168,6,0,L|148:278,1,104.500003189087,2|8,3:2|0:0,0:0:0:0:
239,137,75486,1,0,3:0:0:0:
305,347,75644,2,0,L|194:317,1,104.500003189087,10|0,0:0|3:0,0:0:0:0:
82,174,75962,1,14,0:0:0:0:
286,252,76121,5,8,0:3:0:0:
319,267,76200,1,8,0:3:0:0:
354,272,76279,1,8,0:3:0:0:
389,266,76359,1,8,0:3:0:0:
423,254,76438,1,8,0:3:0:0:
451,231,76517,1,8,0:3:0:0:
465,197,76597,5,6,3:2:0:0:
440,349,76756,1,0,0:0:0:0:
363,135,76914,1,12,0:0:0:0:
232,281,77073,2,0,P|291:291|335:272,1,104.500003189087,2|8,3:2|0:0,0:0:0:0:
167,196,77390,1,2,0:0:0:0:
265,379,77549,1,10,0:0:0:0:
273,203,77708,1,0,3:0:0:0:
138,378,77867,5,10,0:0:0:0:
81,168,78025,1,2,0:0:0:0:
232,281,78184,1,10,0:0:0:0:
180,93,78343,2,0,L|167:204,1,104.500003189087,2|12,3:2|0:0,0:0:0:0:
270,53,78660,5,8,0:0:0:0:
232,17,78740,1,8,0:0:0:0:
181,7,78819,1,8,0:0:0:0:
132,24,78898,1,8,0:0:0:0:
99,63,78978,5,8,0:3:0:0:
77,47,79057,1,8,0:3:0:0:
53,32,79136,6,0,L|38:149,1,104.500003189087,14|0,0:2|0:0,0:0:0:0:
98,287,79454,1,10,0:0:0:0:
187,92,79613,2,0,L|202:209,1,104.500003189087,6|0,3:2|0:0,0:0:0:0:
24,260,79930,2,0,P|60:216|127:216,1,104.500003189087,14|8,0:0|0:3,0:0:0:0:
267,341,80248,5,10,0:0:0:0:
297,335,80565,1,10,0:0:0:0:
323,329,80883,1,10,0:0:0:0:
397,248,81041,2,0,L|404:141,1,104.500003189087,10|0,0:0|0:0,0:0:0:0:
322,5,81359,1,0,3:0:0:0:
232,150,81517,6,0,P|165:158|96:107,1,142.5,6|0,3:2|0:0,0:0:0:0:
96,80,81835,1,2,0:0:0:0:
295,102,81994,2,0,P|311:156|298:197,1,95,8|0,0:0|0:0,0:0:0:0:
192,303,82311,1,0,3:0:0:0:
232,150,82470,1,0,3:0:0:0:
289,347,82629,1,8,0:0:0:0:
471,214,82787,6,0,B|433:173|433:173|285:194,1,190,6|0,3:2|0:0,0:0:0:0:
131,145,83263,2,0,L|114:33,1,95,10|0,0:0|0:0,0:0:0:0:
83,228,83581,1,0,3:0:0:0:
202,80,83740,2,0,L|216:173,1,95,2|8,3:2|0:0,0:0:0:0:
362,339,84057,6,0,P|310:301|232:323,1,142.5,6|0,3:2|0:0,0:0:0:0:
219,352,84375,1,2,0:0:0:0:
297,184,84533,1,8,0:0:0:0:
160,269,84692,1,0,0:0:0:0:
279,105,84851,1,0,3:0:0:0:
308,301,85010,1,0,3:0:0:0:
211,134,85168,1,8,0:0:0:0:
145,345,85327,6,0,L|110:151,1,190,6|0,3:2|0:0,0:0:0:0:
18,0,85803,2,0,L|14:99,1,95,10|0,0:0|0:0,0:0:0:0:
48,231,86121,1,6,3:2:0:0:
219,134,86279,5,8,0:0:0:0:
262,115,86359,1,8,0:0:0:0:
309,118,86438,1,8,0:0:0:0:
349,142,86517,1,8,0:0:0:0:
373,183,86597,6,0,B|353:356,1,142.5,6|0,3:2|0:0,0:0:0:0:
338,359,86914,1,2,0:0:0:0:
225,240,87073,2,0,P|177:216|132:224,1,95,8|0,0:0|0:0,0:0:0:0:
28,355,87390,1,0,3:0:0:0:
168,297,87549,1,0,3:0:0:0:
78,145,87708,1,8,0:0:0:0:
122,364,87867,6,0,B|187:349|187:349|241:373|241:373|331:363,1,190,6|0,3:2|0:0,0:0:0:0:
276,197,88343,2,0,L|255:295,1,95,8|0,0:0|0:0,0:0:0:0:
216,123,88660,1,0,3:0:0:0:
375,230,88819,2,0,L|354:132,1,95,2|8,3:2|0:0,0:0:0:0:
204,25,89136,6,0,P|155:69|64:65,1,142.5,6|0,3:2|0:0,0:0:0:0:
49,50,89454,1,2,0:0:0:0:
228,148,89613,1,8,0:0:0:0:
95,235,89771,1,0,0:0:0:0:
143,73,89930,1,0,3:0:0:0:
235,222,90089,1,0,3:0:0:0:
28,176,90248,1,8,0:0:0:0:
270,77,90406,6,0,P|338:116|337:220,1,190,6|0,3:2|0:0,0:0:0:0:
215,346,90883,1,8,0:0:0:0:
157,169,91041,1,0,3:0:0:0:
321,322,91200,1,6,3:2:0:0:
201,104,91359,5,8,0:0:0:0:
155,91,91438,1,8,0:0:0:0:
111,106,91517,1,8,0:0:0:0:
82,143,91597,1,8,0:0:0:0:
79,189,91676,6,0,L|272:176,1,190,6|0,3:2|0:0,0:0:0:0:
418,268,92152,1,8,0:0:0:0:
259,262,92311,1,4,0:3:0:0:
437,175,92470,2,0,L|417:274,1,95,8|8,0:3|0:3,0:0:0:0:
347,99,92787,1,8,0:0:0:0:
326,311,92946,6,0,B|285:349|285:349|149:326,1,190,6|4,3:2|0:3,0:0:0:0:
37,202,93422,1,8,0:0:0:0:
275,168,93581,2,0,L|259:262,1,95,6|0,3:2|0:0,0:0:0:0:
190,104,93898,1,0,3:0:0:0:
103,253,94057,1,8,0:0:0:0:
0,75,94216,6,0,B|83:-1|164:75|164:75|80:140|134:233|134:233|201:157|298:206,1,532,6|8,3:2|0:0,0:0:0:0:
285,200,95644,5,12,0:0:0:0:
384,120,95803,1,8,0:3:0:0:
482,212,95962,1,8,0:0:0:0:
417,41,96121,6,0,B|361:37|361:37|305:81|305:81|212:26|142:106,1,285,6|0,0:0|0:0,0:0:0:0:
