osu file format v14

[General]
AudioFilename: audio.mp3
AudioLeadIn: 0
PreviewTime: 51200
Countdown: 0
SampleSet: Soft
StackLeniency: 0.4
Mode: 0
LetterboxInBreaks: 0
WidescreenStoryboard: 1

[Editor]
DistanceSpacing: 0.8
BeatDivisor: 8
GridSize: 4
TimelineZoom: 4.399998

[Metadata]
Title:Hanikamu Kimi ni Koi Suru Watashi
TitleUnicode:はにかむキミに恋するワタシ
Artist:i.o
ArtistUnicode:i.o
Creator:Alexsander
Version:Clover
Source:はにかみCLOVER
Tags:すたじお緑茶 hanikami eroge visual novel opening op j-pop jpop japanese pop video game vn すたじお緑茶 CLOVER i.o.sound
BeatmapID:3018869
BeatmapSetID:1295673

[Difficulty]
HPDrainRate:6.5
CircleSize:4.5
OverallDifficulty:9
ApproachRate:9.3
SliderMultiplier:1.9
SliderTickRate:1

[Events]
//Background and Video events
0,0,"bg.jpg",0,0
//Break Periods
//Storyboard Layer 0 (Background)
//Storyboard Layer 1 (Fail)
//Storyboard Layer 2 (Pass)
//Storyboard Layer 3 (Foreground)
//Storyboard Layer 4 (Overlay)
//Storyboard Sound Samples

[TimingPoints]
-863,317.460317460317,4,2,1,60,1,0
5327,-100,4,2,1,70,0,0
12946,-133.333333333333,4,2,1,45,0,0
23104,-100,4,2,1,60,0,0
32946,-111.111111111111,4,2,1,60,0,0
33422,-125,4,2,1,50,0,0
38184,-100,4,2,1,50,0,0
38501,-100,4,2,1,60,0,0
46120,-100,4,2,1,70,0,0
49970,-100,4,2,1,30,0,0
50248,-100,4,2,1,70,0,0
50287,-100,4,2,1,30,0,0
50565,-100,4,2,1,70,0,0
51200,-83.3333333333333,4,2,1,85,0,1
81517,-100,4,2,1,70,0,0
94216,-125,4,2,1,50,0,0
95327,-100,4,2,1,60,0,0
96597,-100,4,2,1,40,0,0

[Colours]
Combo1 : 93,204,57
Combo2 : 255,36,56
Combo3 : 251,251,177
Combo4 : 155,98,190

[HitObjects]
11,33,248,6,0,B|36:91|36:91|31:154|31:154|59:221,1,190,14|8,3:2|3:2,0:0:0:0:
108,19,724,1,8,0:0:0:0:
267,196,1041,5,2,0:0:0:0:
353,203,1200,1,0,0:0:0:0:
424,161,1359,1,0,0:0:0:0:
245,111,1517,6,0,P|184:137|213:254,1,190,10|8,3:2|3:2,0:0:0:0:
366,271,1994,1,8,0:0:0:0:
254,189,2152,1,8,0:0:0:0:
427,69,2311,1,2,0:0:0:0:
351,175,2470,1,2,0:0:0:0:
452,384,2787,6,0,P|411:317|303:333,1,190,14|8,3:2|3:2,0:0:0:0:
489,225,3263,1,8,0:0:0:0:
340,27,3581,1,2,0:0:0:0:
304,97,3740,1,0,0:0:0:0:
246,147,3898,1,0,0:0:0:0:
114,13,4057,6,0,L|93:114,1,95,10|0,3:2|0:0,0:0:0:0:
134,277,4375,1,8,0:0:0:0:
0,181,4533,1,8,0:0:0:0:
115,358,4692,1,8,0:0:0:0:
72,174,4851,1,8,0:0:0:0:
264,336,5010,5,8,0:0:0:0:
311,328,5089,1,8,0:0:0:0:
346,296,5168,1,8,0:0:0:0:
358,250,5248,1,8,0:0:0:0:
351,202,5327,6,0,B|316:180|316:180|283:233|227:250,1,142.5,6|0,3:2|0:0,0:0:0:0:
167,231,5644,1,2,0:0:0:0:
380,126,5803,2,0,L|476:122,1,95,8|0,0:0|0:0,0:0:0:0:
333,275,6121,1,0,3:0:0:0:
234,169,6279,1,0,3:0:0:0:
347,34,6438,1,8,0:0:0:0:
231,276,6597,6,0,B|174:253|174:253|112:276|112:276|34:255,1,190,6|0,3:2|0:0,0:0:0:0:
3,84,7073,1,8,0:0:0:0:
113,178,7232,1,0,0:0:0:0:
152,0,7390,1,0,3:0:0:0:
19,191,7549,2,0,L|128:176,1,95,2|8,3:2|0:0,0:0:0:0:
410,31,7867,6,0,B|380:4|380:4|320:0|294:56,1,142.5,6|0,3:2|0:0,0:0:0:0:
322,120,8184,1,2,0:0:0:0:
512,84,8343,5,8,0:0:0:0:
451,176,8502,1,0,0:0:0:0:
220,55,8660,5,0,3:0:0:0:
289,200,8819,1,0,3:0:0:0:
484,13,8978,1,8,0:0:0:0:
248,135,9136,6,0,B|268:241|198:218|222:325,1,190,6|0,3:2|0:0,0:0:0:0:
112,160,9613,2,0,P|66:147|16:171,1,95,10|0,0:0|0:0,0:0:0:0:
294,280,9930,1,6,3:2:0:0:
129,263,10089,5,8,0:0:0:0:
171,242,10168,1,8,0:0:0:0:
213,222,10248,1,8,0:0:0:0:
259,209,10327,1,8,0:0:0:0:
303,193,10406,6,0,B|426:171|426:171|456:183|469:231,1,190,6|0,3:2|3:0,0:0:0:0:
294,280,10883,1,8,0:0:0:0:
209,156,11041,1,8,0:3:0:0:
389,65,11200,1,4,0:3:0:0:
303,193,11359,1,8,0:3:0:0:
88,100,11517,1,8,0:0:0:0:
181,85,11676,6,0,L|164:246,1,142.5,6|0,3:2|0:0,0:0:0:0:
169,303,11994,1,4,0:3:0:0:
23,168,12152,1,8,0:0:0:0:
268,278,12311,2,0,B|321:296|321:296|396:252|350:177,1,190,6|0,3:2|3:0,0:0:0:0:
475,361,12787,1,8,0:0:0:0:
500,272,12946,6,0,L|353:265,1,142.500005435944,6|0,3:2|0:0,0:0:0:0:
300,374,13422,2,0,L|284:292,1,71.2500027179719,2|0,3:2|0:0,0:0:0:0:
196,214,13740,2,0,L|226:361,1,142.500005435944,2|0,3:2|3:0,0:0:0:0:
224,353,14375,6,0,P|194:338|149:339,1,71.2500027179719,2|0,3:2|0:0,0:0:0:0:
20,346,14692,1,2,3:2:0:0:
85,305,14851,1,0,0:0:0:0:
17,214,15010,1,0,3:0:0:0:
17,214,15168,2,0,P|47:229|92:228,1,71.2500027179719,2|0,0:0|3:0,0:0:0:0:
168,86,15486,6,0,B|200:119|198:170|198:170|165:228,2,142.500005435944,10|0|0,0:0|0:0|0:0,0:0:0:0:
168,86,16438,1,2,0:0:0:0:
117,139,16597,1,0,3:0:0:0:
105,25,16756,6,0,P|173:-2|246:43,1,142.500005435944,2|0,0:0|0:0,0:0:0:0:
267,91,17232,1,0,3:0:0:0:
444,47,17390,6,0,L|528:21,1,71.2500027179719,12|0,0:0|3:0,0:0:0:0:
385,168,17708,2,0,L|301:142,1,71.2500027179719,14|0,0:0|3:0,0:0:0:0:
175,197,18025,6,0,P|242:187|286:265,1,142.500005435944,10|0,0:0|0:0,0:0:0:0:
133,268,18502,2,0,P|104:243|94:211,1,71.2500027179719,2|0,3:2|0:0,0:0:0:0:
213,269,18819,2,0,P|205:306|183:331,1,71.2500027179719,2|0,3:2|0:0,0:0:0:0:
175,197,19136,1,0,3:0:0:0:
286,239,19295,6,0,P|359:239|413:177,1,142.500005435944,2|0,0:0|0:0,0:0:0:0:
359,62,19771,2,0,P|289:60|238:107,1,142.500005435944,2|0,3:2|3:0,0:0:0:0:
157,40,20248,1,2,0:0:0:0:
109,146,20406,1,0,3:0:0:0:
0,3,20565,6,0,L|18:73,1,71.2500027179719,10|0,0:0|3:0,0:0:0:0:
34,232,20883,1,10,0:0:0:0:
109,146,21041,1,0,3:0:0:0:
198,307,21200,1,8,0:0:0:0:
221,117,21359,1,10,0:2:0:0:
369,285,21517,1,8,0:0:0:0:
337,67,21676,1,8,0:0:0:0:
288,350,21835,1,10,0:0:0:0:
288,350,22629,5,10,0:0:0:0:
288,350,22708,1,8,0:3:0:0:
288,350,22787,5,8,0:0:0:0:
251,327,22867,1,8,0:0:0:0:
209,320,22946,1,8,0:0:0:0:
169,337,23025,1,8,0:0:0:0:
141,375,23105,6,0,B|121:318|121:318|139:259|139:259|114:185,1,190,6|0,3:2|0:0,0:0:0:0:
0,65,23581,2,0,L|100:80,1,95,10|0,0:0|0:0,0:0:0:0:
308,44,23898,1,2,3:2:0:0:
196,2,24057,1,0,3:0:0:0:
261,203,24216,2,0,L|280:99,1,95,8|0,0:0|0:0,0:0:0:0:
388,278,24533,5,2,3:2:0:0:
346,175,24692,1,2,0:0:0:0:
329,363,24851,1,8,0:0:0:0:
409,210,25010,1,2,0:0:0:0:
512,380,25168,1,0,3:0:0:0:
482,275,25327,2,0,P|477:221|502:184,1,95,2|8,3:2|0:0,0:0:0:0:
358,16,25644,6,0,P|309:84|200:72,1,190,2|0,3:2|0:0,0:0:0:0:
0,84,26121,2,0,P|90:76|147:148,1,190,8|0,0:0|3:0,0:0:0:0:
103,278,26597,1,0,3:0:0:0:
57,150,26756,1,10,0:0:0:0:
115,250,26914,1,2,0:0:0:0:
307,156,27073,5,2,3:2:0:0:
147,148,27232,1,2,0:0:0:0:
327,246,27390,1,8,0:0:0:0:
232,124,27549,1,2,0:0:0:0:
242,361,27708,1,6,3:2:0:0:
406,260,27867,5,8,0:0:0:0:
434,221,27946,1,8,0:0:0:0:
435,173,28025,1,8,0:0:0:0:
419,128,28105,1,8,0:0:0:0:
380,99,28184,6,0,B|336:75|336:75|250:88|253:182,1,190,6|0,3:2|0:0,0:0:0:0:
136,37,28660,2,0,P|172:69|176:132,1,95,10|0,0:0|0:0,0:0:0:0:
75,271,28978,1,2,3:2:0:0:
105,109,29136,1,0,3:0:0:0:
74,300,29295,2,0,P|106:336|169:340,1,95,10|0,0:0|0:0,0:0:0:0:
339,239,29613,6,0,L|357:338,1,95,0|0,3:0|0:0,0:0:0:0:
252,185,29930,1,10,0:0:0:0:
380,170,30089,1,0,0:0:0:0:
217,257,30248,1,2,3:2:0:0:
366,167,30406,1,0,3:0:0:0:
141,207,30565,2,0,L|123:306,1,95,10|0,0:0|0:0,0:0:0:0:
6,83,30883,6,0,P|65:133|141:124,1,142.5,0|0,3:0|0:0,0:0:0:0:
163,109,31200,2,0,P|209:98|255:121,1,95,10|0,0:0|0:0,0:0:0:0:
377,270,31517,1,2,3:2:0:0:
465,180,31676,1,0,3:0:0:0:
309,59,31835,1,10,0:0:0:0:
368,167,31994,1,0,0:0:0:0:
494,24,32152,6,0,L|394:10,1,95,2|0,3:2|0:0,0:0:0:0:
273,180,32470,2,0,L|373:166,1,95,14|0,0:0|0:0,0:0:0:0:
122,45,32787,5,14,0:0:0:0:
190,5,32946,2,0,P|201:54|182:94,1,85.4999973907472,8|8,0:3|0:3,0:0:0:0:
102,121,33263,1,8,0:3:0:0:
292,85,33422,5,6,3:2:0:0:
351,285,33740,1,2,3:2:0:0:
138,380,34057,6,0,L|125:295,1,76,14|0,0:0|0:0,0:0:0:0:
0,171,34375,1,2,3:2:0:0:
33,99,34533,2,0,L|116:94,1,76,2|0,3:2|0:0,0:0:0:0:
303,194,34851,5,8,0:0:0:0:
215,264,35010,1,2,3:2:0:0:
95,214,35168,1,0,3:0:0:0:
236,344,35327,1,14,0:0:0:0:
297,270,35486,1,2,0:0:0:0:
81,294,35644,5,8,0:3:0:0:
116,280,35724,1,8,0:3:0:0:
147,259,35803,1,8,0:3:0:0:
162,223,35883,1,8,0:3:0:0:
170,181,35962,5,6,3:2:0:0:
0,298,36279,1,2,3:2:0:0:
5,61,36597,6,0,P|43:46|95:55,1,76,14|0,0:0|0:0,0:0:0:0:
4,151,36914,1,2,3:2:0:0:
156,144,37073,2,0,P|118:129|66:138,1,76,2|0,3:2|0:0,0:0:0:0:
244,252,37390,5,8,0:0:0:0:
320,189,37549,1,2,3:2:0:0:
197,68,37708,1,0,3:0:0:0:
394,0,37867,1,14,0:0:0:0:
224,121,38025,1,8,0:0:0:0:
208,98,38105,1,8,0:0:0:0:
197,68,38184,6,0,L|212:12,1,47.5,8|8,0:3|0:3,0:0:0:0:
330,142,38343,2,0,L|316:205,1,47.5,8|8,0:3|0:3,0:0:0:0:
159,253,38502,6,0,P|246:240|287:283,1,142.5,6|0,3:2|0:0,0:0:0:0:
300,306,38819,2,0,L|395:292,1,95,8|0,0:0|0:0,0:0:0:0:
481,155,39136,1,2,3:2:0:0:
470,304,39295,1,0,3:0:0:0:
482,121,39454,2,0,P|444:92|392:94,1,95,10|0,0:0|0:0,0:0:0:0:
244,236,39771,6,0,L|341:223,1,95,2|0,3:2|0:0,0:0:0:0:
197,160,40089,1,8,0:0:0:0:
273,332,40248,2,0,L|176:319,1,95,2|0,3:2|0:0,0:0:0:0:
369,292,40565,1,0,3:0:0:0:
481,384,40724,1,8,0:0:0:0:
346,190,40883,6,0,B|386:280|312:285|355:373,1,190,2|0,3:2|0:0,0:0:0:0:
232,217,41359,1,8,0:0:0:0:
150,265,41517,2,0,P|136:243|129:214,1,47.5,2|0,0:0|0:0,0:0:0:0:
181,144,41676,1,0,3:0:0:0:
52,249,41835,1,0,3:0:0:0:
251,179,41994,1,8,0:0:0:0:
19,61,42152,6,0,L|53:254,1,190,6|0,3:2|3:0,0:0:0:0:
138,62,42629,1,14,0:0:0:0:
218,248,42787,1,2,0:0:0:0:
308,131,42946,1,10,0:0:0:0:
365,301,43105,1,8,3:0:0:0:
331,298,43184,1,8,3:0:0:0:
298,294,43263,1,8,3:0:0:0:
389,103,43422,6,0,L|488:92,1,95,6|0,3:2|0:0,0:0:0:0:
347,213,43740,1,2,0:0:0:0:
246,36,43898,2,0,B|239:101|239:101|207:147|207:147|204:249,1,190,10|0,0:0|3:0,0:0:0:0:
293,357,44375,1,0,3:0:0:0:
418,237,44533,1,10,0:0:0:0:
501,308,44692,1,0,0:0:0:0:
259,290,44851,6,0,L|156:289,1,95,2|0,3:2|0:0,0:0:0:0:
286,176,45168,1,8,0:0:0:0:
112,179,45327,2,0,L|206:179,1,95,2|0,3:2|0:0,0:0:0:0:
371,111,45644,5,10,0:0:0:0:
292,74,45803,1,4,0:3:0:0:
212,105,45962,1,8,0:3:0:0:
412,241,46121,5,14,0:0:0:0:
455,148,46279,1,2,0:0:0:0:
366,32,46438,1,8,0:0:0:0:
285,241,46597,5,2,3:2:0:0:
332,138,46756,1,8,0:0:0:0:
234,11,46914,1,2,0:0:0:0:
175,289,47073,5,10,0:0:0:0:
226,175,47232,1,0,3:0:0:0:
118,36,47390,1,12,0:0:0:0:
70,319,47549,5,0,3:0:0:0:
126,193,47708,1,10,0:0:0:0:
7,40,47867,1,2,3:2:0:0:
136,271,48025,5,10,0:0:0:0:
294,192,48184,1,4,0:3:0:0:
449,270,48343,1,4,0:3:0:0:
205,138,48502,6,0,L|62:132,1,142.5,6|0,3:2|0:0,0:0:0:0:
9,176,48819,1,8,0:0:0:0:
150,61,48978,1,8,0:0:0:0:
111,231,49136,1,8,0:0:0:0:
352,127,49295,5,0,3:0:0:0:
352,127,49375,1,0,3:0:0:0:
352,127,49454,1,0,3:0:0:0:
485,267,49613,1,8,0:0:0:0:
512,22,49771,1,6,0:0:0:0:
437,82,49930,6,0,L|446:119,6,23.75,2|0|0|0|0|0|0,0:0|0:0|0:0|0:0|0:0|0:0|0:0,0:0:0:0:
497,157,50248,2,0,L|492:194,6,23.75,2|0|0|0|0|0|0,0:0|0:0|0:0|0:0|0:0|0:0|0:0,0:0:0:0:
411,252,50565,2,0,L|345:239,1,47.5,2|0,0:0|0:0,0:0:0:0:
227,183,50724,6,0,L|218:147,2,31.6666666666667,0|0|0,3:0|3:0|3:0,0:0:0:0:
211,228,50883,1,8,0:0:0:0:
34,384,51200,6,0,B|18:321|18:321|26:274|26:274|5:201,1,170.999994781494,6|0,3:2|0:0,0:0:0:0:
52,135,51517,2,0,P|96:106|155:121,1,113.999996520996,10|0,0:0|0:0,0:0:0:0:
266,291,51835,1,2,3:2:0:0:
357,198,51994,1,0,3:0:0:0:
123,219,52152,2,0,L|241:197,1,113.999996520996,10|0,0:0|0:0,0:0:0:0:
444,3,52470,6,0,B|409:53|409:53|445:160,1,170.999994781494,2|0,3:2|0:0,0:0:0:0:
494,239,52787,2,0,L|365:229,1,113.999996520996,10|0,0:0|0:0,0:0:0:0:
216,355,53105,1,2,3:2:0:0:
300,188,53263,1,0,3:0:0:0:
492,346,53422,2,0,L|363:336,1,113.999996520996,10|0,0:0|0:0,0:0:0:0:
198,154,53740,5,2,3:2:0:0:
308,263,53898,1,2,0:0:0:0:
479,176,54057,2,0,P|501:125|482:69,1,113.999996520996,10|0,0:0|0:0,0:0:0:0:
280,179,54375,2,0,P|258:128|277:72,1,113.999996520996,2|0,3:2|3:0,0:0:0:0:
383,222,54692,1,10,0:0:0:0:
241,319,54851,1,2,0:0:0:0:
77,128,55010,6,0,B|25:248|132:235|76:372,1,227.999993041992,6|8,3:2|0:0,0:0:0:0:
148,180,55486,2,0,P|162:155|172:124,1,56.9999982604981,2|0,0:0|0:0,0:0:0:0:
0,120,55644,1,6,3:2:0:0:
86,261,55803,1,0,3:0:0:0:
230,68,55962,5,8,0:0:0:0:
246,116,56041,1,8,0:0:0:0:
264,163,56121,1,8,0:0:0:0:
284,210,56200,1,8,0:0:0:0:
302,257,56279,5,6,3:2:0:0:
343,142,56438,1,0,0:0:0:0:
207,284,56597,1,10,0:0:0:0:
104,151,56756,1,2,0:0:0:0:
325,280,56914,2,0,L|438:284,1,113.999996520996,2|0,3:2|3:0,0:0:0:0:
288,96,57232,2,0,L|284:209,1,113.999996520996,10|0,0:0|0:0,0:0:0:0:
112,361,57549,6,0,P|74:316|79:260,1,113.999996520996,2|0,3:2|0:0,0:0:0:0:
216,123,57867,2,0,P|135:155|56:102,1,170.999994781494,10|0,0:0|0:0,0:0:0:0:
7,59,58184,2,0,L|-10:178,1,113.999996520996,2|0,3:2|3:0,0:0:0:0:
210,31,58502,2,0,L|240:241,1,170.999994781494,10|0,0:0|0:0,0:0:0:0:
357,235,58819,6,0,B|311:193|311:193|206:192|229:313,1,227.999993041992,6|8,3:2|0:0,0:0:0:0:
407,309,59295,1,0,0:0:0:0:
400,89,59454,2,0,B|257:67|257:67|207:85|231:155,1,227.999993041992,2|8,0:0|0:0,0:0:0:0:
459,148,59930,6,0,P|474:67|418:7,1,170.999994781494,6|0,3:2|0:0,0:0:0:0:
329,4,60248,1,8,0:0:0:0:
285,42,60327,1,8,0:0:0:0:
230,58,60406,1,8,0:0:0:0:
173,60,60486,1,8,0:0:0:0:
122,32,60565,1,8,0:0:0:0:
364,194,60883,5,6,3:2:0:0:
268,278,61041,1,8,0:0:0:0:
225,268,61121,1,8,0:0:0:0:
183,249,61200,2,0,L|175:193,1,56.9999982604981,8|8,0:3|0:3,0:0:0:0:
27,84,61359,5,6,3:2:0:0:
97,231,61517,1,2,0:0:0:0:
116,0,61676,1,10,0:0:0:0:
15,188,61835,1,2,0:0:0:0:
236,65,61994,2,0,P|290:42|344:63,1,113.999996520996,2|0,3:2|3:0,0:0:0:0:
319,293,62311,2,0,L|290:117,1,170.999994781494,10|0,0:0|0:0,0:0:0:0:
232,192,62629,6,0,L|223:318,1,113.999996520996,2|0,3:2|0:0,0:0:0:0:
379,140,62946,2,0,L|388:266,1,113.999996520996,10|0,0:0|0:0,0:0:0:0:
291,124,63263,1,2,3:2:0:0:
457,291,63422,1,0,3:0:0:0:
264,110,63581,2,0,L|139:85,1,113.999996520996,10|0,0:0|0:0,0:0:0:0:
3,224,63898,5,2,3:2:0:0:
39,77,64057,1,2,0:0:0:0:
152,251,64216,2,0,P|184:303|178:361,1,113.999996520996,10|0,0:0|0:0,0:0:0:0:
74,159,64533,1,2,3:2:0:0:
10,323,64692,1,0,3:0:0:0:
102,137,64851,2,0,P|146:100|200:97,1,113.999996520996,10|0,0:0|0:0,0:0:0:0:
377,264,65168,6,0,B|321:252|321:252|275:270|275:270|192:261,1,170.999994781494,2|0,3:2|0:0,0:0:0:0:
129,250,65486,2,0,L|150:368,1,113.999996520996,10|0,0:0|0:0,0:0:0:0:
259,174,65803,1,6,3:2:0:0:
371,290,65962,1,0,3:0:0:0:
472,142,66121,5,8,0:0:0:0:
459,91,66200,1,8,0:0:0:0:
417,61,66279,1,8,0:0:0:0:
366,55,66359,1,8,0:0:0:0:
319,77,66438,6,0,B|246:60|246:60|184:81|184:81|94:63,1,227.999993041992,6|8,3:2|0:0,0:0:0:0:
13,199,66914,1,0,0:0:0:0:
82,295,67073,1,0,3:0:0:0:
259,174,67232,1,2,3:2:0:0:
57,129,67390,1,10,0:0:0:0:
155,302,67549,1,2,0:0:0:0:
115,66,67708,6,0,L|-3:45,1,113.999996520996,2|0,3:2|0:0,0:0:0:0:
248,171,68025,2,0,L|130:192,1,113.999996520996,10|0,0:0|0:0,0:0:0:0:
318,44,68343,2,0,P|373:24|432:53,1,113.999996520996,2|0,3:2|3:0,0:0:0:0:
248,171,68660,2,0,P|303:191|362:162,1,113.999996520996,10|0,0:0|0:0,0:0:0:0:
509,350,68978,6,0,B|474:335|458:305|458:305|395:374|298:358,1,227.999993041992,6|8,3:2|0:0,0:0:0:0:
145,254,69454,1,2,0:0:0:0:
254,80,69613,2,0,L|240:320,1,227.999993041992,2|8,3:2|0:0,0:0:0:0:
154,141,70089,6,0,L|132:18,1,113.999996520996,6|0,0:0|0:0,0:0:0:0:
320,234,70406,1,8,0:3:0:0:
486,114,70565,1,8,0:0:0:0:
370,63,70724,1,6,3:2:0:0:
458,224,70883,2,0,L|486:113,1,113.999996520996,10|0,0:0|3:0,0:0:0:0:
506,355,71200,2,0,P|437:301|357:329,1,170.999994781494,10|0,0:0|0:0,0:0:0:0:
289,356,71517,6,0,L|160:335,1,113.999996520996,6|0,3:2|0:0,0:0:0:0:
93,152,71835,1,8,0:0:0:0:
263,265,71994,2,0,L|149:253,1,113.999996520996,2|8,3:2|0:0,0:0:0:0:
0,145,72311,1,2,0:0:0:0:
82,279,72470,1,8,0:0:0:0:
40,46,72629,1,2,3:2:0:0:
18,312,72787,5,10,0:0:0:0:
180,157,72946,1,2,0:0:0:0:
346,291,73105,1,10,0:0:0:0:
441,224,73263,2,0,P|405:184|339:179,1,113.999996520996,2|8,3:2|0:0,0:0:0:0:
512,167,73581,1,0,3:0:0:0:
276,230,73740,2,0,P|215:193|196:95,1,170.999994781494,10|0,0:0|0:0,0:0:0:0:
281,43,74057,6,0,L|396:62,1,113.999996520996,2|0,3:2|0:0,0:0:0:0:
115,153,74375,1,8,0:0:0:0:
314,154,74533,2,0,L|199:173,1,113.999996520996,2|8,3:2|0:0,0:0:0:0:
10,53,74851,2,0,L|125:72,1,113.999996520996,2|8,0:0|0:0,0:0:0:0:
370,271,75168,6,0,P|321:233|260:240,1,113.999996520996,2|8,3:2|0:0,0:0:0:0:
107,356,75486,1,0,3:0:0:0:
191,203,75644,1,10,0:0:0:0:
74,284,75803,1,0,3:0:0:0:
158,69,75962,1,14,0:0:0:0:
20,167,76121,5,8,0:3:0:0:
34,188,76200,1,8,0:3:0:0:
55,207,76279,5,8,0:3:0:0:
98,178,76359,1,8,0:3:0:0:
149,176,76438,1,8,0:3:0:0:
191,203,76517,1,8,0:3:0:0:
206,252,76597,5,6,3:2:0:0:
319,101,76756,1,0,0:0:0:0:
431,327,76914,1,12,0:0:0:0:
512,171,77073,2,0,L|387:170,1,113.999996520996,2|8,3:2|0:0,0:0:0:0:
319,328,77390,1,2,0:0:0:0:
239,109,77549,1,10,0:0:0:0:
130,206,77708,1,0,3:0:0:0:
322,83,77867,5,10,0:0:0:0:
72,151,78025,1,2,0:0:0:0:
286,261,78184,1,10,0:0:0:0:
60,373,78343,1,2,3:2:0:0:
278,175,78502,1,12,0:0:0:0:
125,308,78660,5,8,0:0:0:0:
100,256,78740,1,8,0:0:0:0:
79,203,78819,1,8,0:0:0:0:
56,150,78898,1,8,0:0:0:0:
39,95,78978,5,8,0:3:0:0:
69,110,79057,1,8,0:3:0:0:
100,123,79136,6,0,L|213:103,1,113.999996520996,14|0,0:2|0:0,0:0:0:0:
397,10,79454,1,10,0:0:0:0:
281,151,79613,2,0,L|268:271,1,113.999996520996,6|0,3:2|0:0,0:0:0:0:
439,216,79930,2,0,L|426:96,1,113.999996520996,14|8,0:0|0:3,0:0:0:0:
179,200,80248,5,10,0:0:0:0:
85,146,80565,1,10,0:0:0:0:
138,59,80883,5,10,0:0:0:0:
94,249,81041,1,10,0:0:0:0:
89,262,81359,5,0,3:0:0:0:
211,137,81517,6,0,P|281:131|318:203,1,142.5,6|0,3:2|0:0,0:0:0:0:
247,202,81835,1,2,0:0:0:0:
419,74,81994,2,0,L|405:172,1,95,8|0,0:0|0:0,0:0:0:0:
326,51,82311,1,0,3:0:0:0:
199,142,82470,1,0,3:0:0:0:
27,63,82629,1,8,0:0:0:0:
247,75,82787,6,0,P|281:156|209:225,1,190,6|0,3:2|0:0,0:0:0:0:
67,182,83263,1,10,0:0:0:0:
158,308,83422,1,0,0:0:0:0:
0,142,83581,1,0,3:0:0:0:
186,315,83740,2,0,L|295:300,1,95,2|8,3:2|0:0,0:0:0:0:
490,193,84057,6,0,L|336:171,1,142.5,6|0,3:2|0:0,0:0:0:0:
298,226,84375,1,2,0:0:0:0:
159,70,84533,5,8,0:0:0:0:
258,118,84692,1,0,0:0:0:0:
96,15,84851,5,0,3:0:0:0:
20,161,85010,1,0,3:0:0:0:
198,280,85168,1,8,0:0:0:0:
116,111,85327,6,0,B|126:173|126:173|102:227|102:227|109:298,1,190,6|0,3:2|0:0,0:0:0:0:
304,164,85803,1,10,0:0:0:0:
175,235,85962,1,0,0:0:0:0:
367,320,86121,1,6,3:2:0:0:
202,122,86279,5,8,0:0:0:0:
218,166,86359,1,8,0:0:0:0:
231,211,86438,1,8,0:0:0:0:
245,256,86517,1,8,0:0:0:0:
262,299,86597,6,0,L|442:266,1,142.5,6|0,3:2|0:0,0:0:0:0:
464,318,86914,1,2,0:0:0:0:
292,384,87073,2,0,L|191:364,1,95,8|0,0:0|0:0,0:0:0:0:
53,280,87390,1,0,3:0:0:0:
188,194,87549,1,0,3:0:0:0:
24,84,87708,1,8,0:0:0:0:
218,210,87867,6,0,P|298:215|363:131,1,190,6|0,3:2|0:0,0:0:0:0:
100,152,88343,1,8,0:0:0:0:
200,291,88502,1,0,0:0:0:0:
252,99,88660,1,0,3:0:0:0:
424,210,88819,2,0,L|315:195,1,95,2|8,3:2|0:0,0:0:0:0:
166,22,89136,6,0,P|210:80|186:148,1,142.5,6|0,3:2|0:0,0:0:0:0:
139,201,89454,1,2,0:0:0:0:
329,134,89613,5,8,0:0:0:0:
408,208,89771,1,0,0:0:0:0:
244,328,89930,5,0,3:0:0:0:
331,210,90089,1,0,3:0:0:0:
479,379,90248,1,8,0:0:0:0:
237,229,90406,6,0,B|186:198|186:198|114:193|77:276,1,190,6|0,3:2|0:0,0:0:0:0:
276,148,90883,2,0,P|321:127|378:137,1,95,8|0,0:0|3:0,0:0:0:0:
195,100,91200,1,6,3:2:0:0:
400,216,91359,5,8,0:0:0:0:
442,196,91438,1,8,0:0:0:0:
461,152,91517,1,8,0:0:0:0:
454,104,91597,1,8,0:0:0:0:
424,67,91676,6,0,B|382:32|382:32|309:16|281:109,1,190,6|0,3:2|0:0,0:0:0:0:
280,257,92152,1,8,0:0:0:0:
145,231,92311,1,4,0:3:0:0:
308,344,92470,1,8,0:3:0:0:
385,209,92629,1,8,0:3:0:0:
137,325,92787,1,8,0:0:0:0:
213,352,92946,6,0,P|246:283|207:219,1,142.5,6|0,3:2|0:0,0:0:0:0:
162,176,93263,1,4,0:3:0:0:
49,288,93422,1,8,0:0:0:0:
112,72,93581,2,0,P|179:49|266:137,1,190,6|0,3:2|3:0,0:0:0:0:
61,193,94057,1,8,0:0:0:0:
244,302,94216,6,0,B|278:271|292:216|292:216|339:308|406:345|406:345|539:262|446:114,1,532,6|8,3:2|0:0,0:0:0:0:
452,123,95644,5,12,0:0:0:0:
287,61,95803,1,8,0:3:0:0:
164,185,95962,1,8,0:0:0:0:
67,138,96121,6,0,B|135:90|135:90|235:173|148:277,1,285,6|0,0:0|0:0,0:0:0:0:
