osu file format v14

[General]
AudioFilename: audio.mp3
AudioLeadIn: 0
PreviewTime: 60505
Countdown: 1
SampleSet: Soft
StackLeniency: 0.7
Mode: 0
LetterboxInBreaks: 0
WidescreenStoryboard: 0

[Editor]
Bookmarks: 100203,143947
DistanceSpacing: 1.8
BeatDivisor: 4
GridSize: 32
TimelineZoom: 2.5

[Metadata]
Title:Aoiro Step
TitleUnicode:Aoiro Step
Artist:i.o
ArtistUnicode:i.o
Creator:fstapled
Version:owo
Source:AORIO
Tags:
BeatmapID:2066178
BeatmapSetID:987688

[Difficulty]
HPDrainRate:5
CircleSize:4.2
OverallDifficulty:9
ApproachRate:9.8
SliderMultiplier:1.9
SliderTickRate:1

[Events]
//Background and Video events
0,0,"wao.png",0,0
//Break Periods
//Storyboard Layer 0 (Background)
//Storyboard Layer 1 (Fail)
//Storyboard Layer 2 (Pass)
//Storyboard Layer 3 (Foreground)
//Storyboard Sound Samples

[TimingPoints]
1064,279.06976744186,4,2,1,70,1,0
1064,-125,4,2,1,70,0,0
2180,-142.857142857143,4,2,1,70,0,0
3296,-200,4,2,1,70,0,0
5529,-142.857142857143,4,2,1,70,0,0
9994,-90.9090909090909,4,2,1,70,0,0
11040,-90.9090909090909,4,2,1,5,0,0
11110,-90.9090909090909,4,2,1,70,0,0
12157,-90.9090909090909,4,2,1,5,0,0
12226,-90.9090909090909,4,2,1,70,0,0
13273,-90.9090909090909,4,2,1,5,0,0
13343,-90.9090909090909,4,2,1,70,0,0
15505,-90.9090909090909,4,2,1,5,0,0
15575,-90.9090909090909,4,2,1,70,0,0
16622,-90.9090909090909,4,2,1,5,0,0
16691,-90.9090909090909,4,2,1,70,0,0
20250,-90.9090909090909,4,2,1,5,0,0
20319,-90.9090909090909,4,2,1,70,0,0
21366,-90.9090909090909,4,2,1,5,0,0
21436,-90.9090909090909,4,2,1,70,0,0
21924,-90.9090909090909,4,2,1,5,0,0
21994,-90.9090909090909,4,2,1,70,0,0
22761,-90.9090909090909,4,2,1,5,0,0
22831,-90.9090909090909,4,2,1,70,0,0
23389,-100,4,2,1,70,0,0
23598,-100,4,2,1,5,0,0
23668,-100,4,2,1,70,0,0
24436,-100,4,2,1,5,0,0
24505,-100,4,2,1,70,0,0
24715,-100,4,2,1,5,0,0
24784,-100,4,2,1,70,0,0
25552,-100,4,2,1,5,0,0
25622,-100,4,2,1,70,0,0
27784,-100,4,2,1,5,0,0
27854,-100,4,2,1,70,0,0
28901,-100,4,2,1,5,0,0
28970,-100,4,2,1,70,0,0
30017,-100,4,2,1,5,0,0
30087,-100,4,2,1,70,0,0
31133,-100,4,2,1,5,0,0
31203,-83.3333333333333,4,2,1,70,0,0
31412,-83.3333333333333,4,2,1,5,0,0
31482,-83.3333333333333,4,2,1,70,0,0
32319,-90.9090909090909,4,2,1,70,0,0
32529,-90.9090909090909,4,2,1,5,0,0
32598,-90.9090909090909,4,2,1,70,0,0
33645,-90.9090909090909,4,2,1,5,0,0
33715,-90.9090909090909,4,2,1,70,0,0
34761,-90.9090909090909,4,2,1,5,0,0
34831,-90.9090909090909,4,2,1,70,0,0
35877,-90.9090909090909,4,2,1,5,0,0
35947,-90.9090909090909,4,2,1,70,0,0
36994,-90.9090909090909,4,2,1,5,0,0
37063,-90.9090909090909,4,2,1,70,0,0
38110,-90.9090909090909,4,2,1,5,0,0
38180,-90.9090909090909,4,2,1,70,0,0
39017,-76.9230769230769,4,2,1,70,0,0
40203,-76.9230769230769,4,2,1,5,0,0
40273,-76.9230769230769,4,2,1,70,0,0
41250,-125,4,2,1,70,0,0
41459,-125,4,2,1,5,0,0
41529,-125,4,2,1,70,0,0
49063,-100,4,2,1,70,0,0
49273,-100,4,2,1,5,0,0
49343,-100,4,2,1,70,0,0
49552,-100,4,2,1,5,0,0
49622,-100,4,2,1,70,0,0
50180,-90.9090909090909,4,2,1,70,0,0
50389,-90.9090909090909,4,2,1,5,0,0
50459,-90.9090909090909,4,2,1,70,0,0
52412,-76.9230769230769,4,2,1,70,0,0
52622,-76.9230769230769,4,2,1,5,0,0
52691,-76.9230769230769,4,2,1,70,0,0
54645,-83.3333333333333,4,2,1,70,0,0
54854,-83.3333333333333,4,2,1,5,0,0
54924,-83.3333333333333,4,2,1,70,0,0
55691,-83.3333333333333,4,2,1,5,0,0
55761,-83.3333333333333,4,2,1,70,0,0
55970,-83.3333333333333,4,2,1,5,0,0
56040,-83.3333333333333,4,2,1,70,0,0
56808,-83.3333333333333,4,2,1,5,0,0
56877,-83.3333333333333,4,2,1,70,0,0
57087,-83.3333333333333,4,2,1,5,0,0
57157,-83.3333333333333,4,2,1,70,0,0
59040,-83.3333333333333,4,2,1,5,0,0
59110,-83.3333333333333,4,2,1,70,0,0
59319,-83.3333333333333,4,2,1,5,0,0
59389,-83.3333333333333,4,2,1,70,0,0
60366,-83.3333333333333,4,2,1,5,0,0
60505,-83.3333333333333,4,2,1,70,0,0
61343,-76.9230769230769,4,2,1,70,0,1
61552,-76.9230769230769,4,2,1,5,0,1
61622,-76.9230769230769,4,2,1,70,0,1
63784,-76.9230769230769,4,2,1,5,0,1
63854,-76.9230769230769,4,2,1,70,0,1
64622,-76.9230769230769,4,2,1,5,0,1
64691,-76.9230769230769,4,2,1,70,0,1
65738,-76.9230769230769,4,2,1,5,0,1
65808,-76.9230769230769,4,2,1,70,0,1
66017,-76.9230769230769,4,2,1,5,0,1
66087,-76.9230769230769,4,2,1,70,0,1
67133,-76.9230769230769,4,2,1,5,0,1
67203,-76.9230769230769,4,2,1,70,0,1
68250,-76.9230769230769,4,2,1,5,0,1
68319,-76.9230769230769,4,2,1,70,0,1
69087,-76.9230769230769,4,2,1,5,0,1
69157,-76.9230769230769,4,2,1,70,0,1
70482,-76.9230769230769,4,2,1,5,0,1
70552,-76.9230769230769,4,2,1,70,0,1
71598,-76.9230769230769,4,2,1,5,0,1
71668,-76.9230769230769,4,2,1,70,0,1
72715,-76.9230769230769,4,2,1,5,0,1
72784,-76.9230769230769,4,2,1,70,0,1
74668,-76.9230769230769,4,2,1,5,0,1
74738,-76.9230769230769,4,2,1,70,0,1
78087,-90.9090909090909,4,2,1,70,0,0
80250,-90.9090909090909,4,2,1,5,0,0
80319,-90.9090909090909,4,2,1,70,0,0
82482,-90.9090909090909,4,2,1,5,0,0
82552,-90.9090909090909,4,2,1,70,0,0
85831,-90.9090909090909,4,2,1,5,0,0
85901,-90.9090909090909,4,2,1,70,0,0
89459,-90.9090909090909,4,2,1,5,0,0
89529,-90.9090909090909,4,2,1,70,0,0
90575,-90.9090909090909,4,2,1,5,0,0
90645,-90.9090909090909,4,2,1,70,0,0
91133,-90.9090909090909,4,2,1,5,0,0
91203,-90.9090909090909,4,2,1,70,0,0
91970,-90.9090909090909,4,2,1,5,0,0
92040,-90.9090909090909,4,2,1,70,0,0
93924,-90.9090909090909,4,2,1,5,0,0
93994,-90.9090909090909,4,2,1,70,0,0
95040,-90.9090909090909,4,2,1,5,0,0
95110,-90.9090909090909,4,2,1,70,0,0
96157,-90.9090909090909,4,2,1,5,0,0
96226,-90.9090909090909,4,2,1,70,0,0
97273,-90.9090909090909,4,2,1,5,0,0
97343,-90.9090909090909,4,2,1,70,0,0
98389,-90.9090909090909,4,2,1,5,0,0
98459,-90.9090909090909,4,2,1,70,0,0
99505,-90.9090909090909,4,2,1,5,0,0
99575,-90.9090909090909,4,2,1,70,0,0
100622,-90.9090909090909,4,2,1,5,0,0
100691,-90.9090909090909,4,2,1,70,0,0
101738,-90.9090909090909,4,2,1,5,0,0
101808,-90.9090909090909,4,2,1,70,0,0
102854,-90.9090909090909,4,2,1,5,0,0
102924,-90.9090909090909,4,2,1,70,0,0
103970,-90.9090909090909,4,2,1,5,0,0
104040,-90.9090909090909,4,2,1,70,0,0
105087,-90.9090909090909,4,2,1,5,0,0
105157,-90.9090909090909,4,2,1,70,0,0
106203,-90.9090909090909,4,2,1,5,0,0
106273,-90.9090909090909,4,2,1,70,0,0
107319,-90.9090909090909,4,2,1,5,0,0
107389,-90.9090909090909,4,2,1,70,0,0
108226,-76.9230769230769,4,2,1,70,0,0
110459,-111.111111111111,4,2,1,70,0,0
110668,-111.111111111111,4,2,1,5,0,0
110738,-111.111111111111,4,2,1,70,0,0
118552,-90.9090909090908,4,2,1,70,0,0
119598,-90.9090909090908,4,2,1,5,0,0
119668,-90.9090909090908,4,2,1,70,0,0
121622,-76.9230769230769,4,2,1,70,0,0
121831,-76.9230769230769,4,2,1,5,0,0
121901,-76.9230769230769,4,2,1,70,0,0
122459,-90.9090909090909,4,2,1,70,0,0
124063,-90.9090909090909,4,2,1,5,0,0
124133,-90.9090909090909,4,2,1,70,0,0
124901,-90.9090909090909,4,2,1,5,0,0
124970,-90.9090909090909,4,2,1,70,0,0
125180,-90.9090909090909,4,2,1,5,0,0
125250,-90.9090909090909,4,2,1,70,0,0
126017,-90.9090909090909,4,2,1,5,0,0
126087,-90.9090909090909,4,2,1,70,0,0
126296,-90.9090909090909,4,2,1,5,0,0
126366,-90.9090909090909,4,2,1,70,0,0
128250,-90.9090909090909,4,2,1,5,0,0
128319,-90.9090909090909,4,2,1,70,0,0
128529,-90.9090909090909,4,2,1,5,0,0
128598,-90.9090909090909,4,2,1,70,0,0
129366,-90.9090909090909,4,2,1,5,0,0
129436,-90.9090909090909,4,2,1,70,0,0
129575,-90.9090909090909,4,2,1,5,0,0
129715,-90.9090909090909,4,2,1,70,0,0
130552,-76.9230769230769,4,2,1,70,0,1
130761,-76.9230769230769,4,2,1,5,0,1
130831,-76.9230769230769,4,2,1,70,0,1
131598,-76.9230769230769,4,2,1,5,0,1
131668,-76.9230769230769,4,2,1,70,0,1
131877,-76.9230769230769,4,2,1,5,0,1
131947,-76.9230769230769,4,2,1,70,0,1
132715,-76.9230769230769,4,2,1,5,0,1
132784,-76.9230769230769,4,2,1,70,0,1
132994,-76.9230769230769,4,2,1,5,0,1
133063,-76.9230769230769,4,2,1,70,0,1
133831,-76.9230769230769,4,2,1,5,0,1
133901,-76.9230769230769,4,2,1,70,0,1
134947,-76.9230769230769,4,2,1,5,0,1
135017,-76.9230769230769,4,2,1,70,0,1
135226,-76.9230769230769,4,2,1,5,0,1
135296,-76.9230769230769,4,2,1,70,0,1
136343,-76.9230769230769,4,2,1,5,0,1
136343,-76.9230769230769,4,2,1,70,0,1
136412,-76.9230769230769,4,2,1,70,0,1
137459,-76.9230769230769,4,2,1,5,0,1
137529,-76.9230769230769,4,2,1,70,0,1
138296,-76.9230769230769,4,2,1,5,0,1
138366,-76.9230769230769,4,2,1,70,0,1
139691,-76.9230769230769,4,2,1,5,0,1
139761,-76.9230769230769,4,2,1,70,0,1
140529,-76.9230769230769,4,2,1,5,0,1
140598,-76.9230769230769,4,2,1,70,0,1
140808,-76.9230769230769,4,2,1,5,0,1
140877,-76.9230769230769,4,2,1,70,0,1
141924,-76.9230769230769,4,2,1,5,0,1
141994,-76.9230769230769,4,2,1,70,0,1
142761,-76.9230769230769,4,2,1,5,0,1
142831,-76.9230769230769,4,2,1,70,0,1
143877,-76.9230769230769,4,2,1,5,0,1
143947,-76.9230769230769,4,2,1,70,0,1
144157,-76.9230769230769,4,2,1,5,0,1
144226,-76.9230769230769,4,2,1,70,0,1
147296,-100,4,2,1,70,0,0
151761,-76.9230769230769,4,2,1,70,0,0
152877,-76.9230769230769,4,2,1,70,0,1
154412,-71.4285714285714,4,2,1,70,0,1
155110,-76.9230769230769,4,2,1,70,0,1
157273,-76.9230769230769,4,2,1,5,0,1
157343,-76.9230769230769,4,2,1,70,0,1
158389,-76.9230769230769,4,2,1,5,0,1
158459,-76.9230769230769,4,2,1,70,0,1
160203,-76.9230769230769,4,2,1,5,0,1
160273,-76.9230769230769,4,2,1,70,0,1
161319,-76.9230769230769,4,2,1,5,0,1
161389,-76.9230769230769,4,2,1,70,0,1
161738,-76.9230769230769,4,2,1,5,0,1
161808,-76.9230769230769,4,2,1,70,0,1
164040,-250,4,2,1,70,0,0
164250,-250,4,2,1,5,0,0
164319,-100,4,2,1,70,0,1
164459,-111.111111111111,4,2,1,70,0,0
168087,-76.9230769230769,4,2,1,70,0,0
168505,-76.9230769230769,4,2,1,70,0,1
168715,-76.9230769230769,4,2,1,5,0,1
168784,-76.9230769230769,4,2,1,70,0,1
169831,-76.9230769230769,4,2,1,5,0,1
169901,-76.9230769230769,4,2,1,70,0,1
171784,-76.9230769230769,4,2,1,5,0,1
171854,-76.9230769230769,4,2,1,70,0,1
172901,-76.9230769230769,4,2,1,5,0,1
172970,-76.9230769230769,4,2,1,70,0,1
175412,-76.9230769230769,4,2,1,5,0,1
175482,-76.9230769230769,4,2,1,70,0,1
176250,-76.9230769230769,4,2,1,5,0,1
176319,-76.9230769230769,4,2,1,70,0,1
177366,-76.9230769230769,4,2,1,5,0,1
177436,-76.9230769230769,4,2,1,70,0,1
177645,-76.9230769230769,4,2,1,5,0,1
177715,-76.9230769230769,4,2,1,70,0,1
180784,-100,4,2,1,70,0,0
181901,-90.9090909090909,4,2,1,70,0,0
182947,-90.9090909090909,4,2,1,5,0,0
183017,-90.9090909090909,4,2,1,70,0,0
184063,-90.9090909090909,4,2,1,5,0,0
184133,-90.9090909090909,4,2,1,70,0,0
185180,-90.9090909090909,4,2,1,5,0,0
185250,-90.9090909090909,4,2,1,70,0,0
187412,-90.9090909090909,4,2,1,5,0,0
187482,-90.9090909090909,4,2,1,70,0,0
188808,-90.9090909090909,4,2,1,5,0,0
188877,-90.9090909090909,4,2,1,70,0,0
189645,-90.9090909090909,4,2,1,5,0,0
189715,-90.9090909090909,4,2,1,70,0,0
193273,-90.9090909090909,4,2,1,5,0,0
193343,-90.9090909090909,4,2,1,70,0,0
193831,-90.9090909090909,4,2,1,5,0,0
193901,-90.9090909090909,4,2,1,70,0,0
194668,-90.9090909090909,4,2,1,5,0,0
194738,-90.9090909090909,4,2,1,70,0,0
195296,-142.857142857143,4,2,1,70,0,0
196831,-142.857142857143,4,2,1,5,0,0
196970,-71.4285714285715,4,2,1,70,0,0
197668,-71.4285714285715,4,2,1,5,0,0

[HitObjects]
27,235,1064,6,0,B|28:382|238:393|262:201|161:158|161:158|186:138|195:109|195:109|172:84|178:33,1,532,6|0,0:0|0:0,0:0:0:0:
122,240,2180,2,0,B|166:219|225:227|255:268|255:268|281:241|339:224|375:241|375:241|434:289|498:284,1,398.999987823487,6|0,0:0|0:0,0:0:0:0:
221,157,3296,2,0,B|170:140|95:151|49:199|49:199|86:155|88:107|56:67|56:67|75:40|71:5,1,380,6|0,0:0|0:0,0:0:0:0:
23,269,4552,1,0,0:0:0:0:
23,269,4622,1,0,0:0:0:0:
23,269,4691,1,8,0:0:0:0:
142,154,4831,1,0,0:0:0:0:
271,336,4970,5,2,0:0:0:0:
271,336,5110,1,0,0:0:0:0:
161,312,5250,1,8,0:0:0:0:
161,312,5390,1,0,0:0:0:0:
339,384,5529,6,0,B|374:337|362:283|314:261|314:261|247:231|237:188|253:144|294:117|339:126|367:161|379:209|326:259,1,465.499985794068,6|0,0:0|0:0,0:0:0:0:
236,85,6645,2,0,P|273:67|312:66,1,66.4999979705811,6|0,0:0|0:0,0:0:0:0:
375,90,6854,1,0,0:0:0:0:
375,90,6924,1,8,0:0:0:0:
185,142,7110,2,0,P|161:96|178:36,1,110.833329950969,2|0,0:0|0:0,0:0:0:0:
443,54,7482,2,0,P|452:85|446:117,1,66.4999979705811,8|0,0:0|0:0,0:0:0:0:
103,215,7761,5,6,0:0:0:0:
425,320,8180,5,6,0:0:0:0:
61,351,8598,5,6,0:0:0:0:
413,137,9017,5,6,0:0:0:0:
63,72,9436,5,2,0:0:0:0:
183,129,9575,1,8,0:0:0:0:
201,160,9645,1,8,0:0:0:0:
208,195,9715,1,8,0:0:0:0:
199,230,9784,1,8,0:0:0:0:
176,258,9854,1,8,0:0:0:0:
164,292,9924,1,8,0:0:0:0:
164,328,9994,6,0,B|309:343|309:343|373:306,1,209.000006378174,6|8,0:0|0:0,0:0:0:0:
102,140,10412,1,0,0:0:0:0:
102,140,10552,2,0,P|43:127|-9:149,1,104.500003189087,2|0,0:0|0:0,0:0:0:0:
253,110,10831,2,0,P|328:131|399:96,1,156.750004783631,8|0,0:0|0:0,0:0:0:0:
204,45,11110,6,0,B|161:78|163:143|207:178|207:178|185:207|137:201,1,209.000006378174,2|8,0:0|0:0,0:0:0:0:
42,193,11529,1,0,0:0:0:0:
296,238,11668,1,2,0:0:0:0:
145,327,11808,1,0,0:0:0:0:
318,226,11947,2,0,B|359:211|397:235|397:235|433:256|470:246,1,156.750004783631,8|0,0:0|0:0,0:0:0:0:
360,132,12226,6,0,P|265:150|215:251,1,209.000006378174,2|8,0:0|0:0,0:0:0:0:
156,308,12645,1,0,0:0:0:0:
156,308,12784,2,0,P|132:257|134:209,1,104.500003189087,2|0,0:0|0:0,0:0:0:0:
197,38,13063,2,0,B|268:43|268:43|299:59|299:59|361:64,1,156.750004783631,8|0,0:0|0:0,0:0:0:0:
247,121,13343,6,0,B|118:113|118:113|84:97|84:97|41:111,1,209.000006378174,2|8,0:0|0:0,0:0:0:0:
313,189,13761,1,0,0:0:0:0:
97,268,13901,1,2,0:0:0:0:
262,342,14040,1,0,0:0:0:0:
55,358,14180,2,0,P|38:300|55:254,1,104.500003189087,8|0,0:0|0:0,0:0:0:0:
229,24,14459,6,0,B|266:52|268:121|223:153|223:153|212:189|230:218,1,209.000006378174,6|8,0:0|0:0,0:0:0:0:
329,261,14877,1,2,0:0:0:0:
325,357,15017,2,0,P|344:309|328:260,1,104.500003189087,0|0,0:0|0:0,0:0:0:0:
344,100,15296,2,0,B|458:115|458:115|426:78,1,156.750004783631,8|0,0:0|0:0,0:0:0:0:
303,26,15575,6,0,B|249:63|259:139|299:168|299:168|277:195|248:184,1,209.000006378174,2|8,0:0|0:0,0:0:0:0:
139,206,15994,1,0,0:0:0:0:
356,245,16133,1,2,0:0:0:0:
118,191,16273,1,0,0:0:0:0:
292,333,16412,2,0,B|402:319|402:319|446:275,1,156.750004783631,8|0,0:0|0:0,0:0:0:0:
217,363,16691,6,0,B|205:309|232:280|232:280|215:245|230:222|230:222|248:191|235:149,1,209.000006378174,2|8,0:0|0:0,0:0:0:0:
151,90,17110,1,0,0:0:0:0:
328,96,17250,2,0,P|346:140|339:203,1,104.500003189087,2|0,0:0|0:0,0:0:0:0:
251,70,17529,2,0,P|317:18|406:88,1,209.000006378174,8|2,0:0|0:0,0:0:0:0:
204,237,17947,2,0,B|232:182|193:130|193:130|154:83|183:26,1,209.000006378174,0|0,0:0|0:0,0:0:0:0:
283,292,18366,5,2,0:0:0:0:
125,190,18505,1,0,0:0:0:0:
360,123,18645,2,0,P|373:169|361:236,1,104.500003189087,8|0,0:0|0:3,0:0:0:0:
279,68,18854,1,0,0:3:0:0:
279,68,18924,5,6,0:0:0:0:
456,244,19063,1,0,0:0:0:0:
512,102,19203,1,8,0:0:0:0:
274,182,19343,1,0,0:0:0:0:
474,326,19482,5,2,0:0:0:0:
410,105,19622,1,0,0:0:0:0:
294,290,19761,1,8,0:0:0:0:
195,106,19901,1,0,0:0:0:0:
97,311,20040,6,0,B|88:251|88:251|65:218|65:218|57:151,1,156.750004783631,6|0,0:0|0:0,0:0:0:0:
57,146,20319,1,8,0:0:0:0:
206,337,20459,1,0,0:0:0:0:
275,142,20598,1,2,0:0:0:0:
21,281,20738,1,0,0:0:0:0:
273,384,20877,2,0,P|285:329|261:280,1,104.500003189087,8|0,0:0|0:0,0:0:0:0:
160,97,21157,6,0,B|269:127|269:127|330:113,1,156.750004783631,6|0,0:0|0:0,0:0:0:0:
332,111,21436,1,8,0:0:0:0:
94,222,21575,1,0,0:0:0:0:
377,256,21715,2,0,B|268:286|268:286|207:272,1,156.750004783631,2|0,0:0|0:0,0:0:0:0:
206,266,21994,1,8,0:0:0:0:
428,347,22133,1,0,0:0:0:0:
148,319,22273,6,0,P|127:255|151:208,1,104.500003189087,6|0,0:0|0:0,0:0:0:0:
255,119,22552,2,0,L|411:129,1,156.750004783631,8|0,0:0|0:0,0:0:0:0:
478,77,22831,1,2,0:0:0:0:
496,122,22901,1,2,0:0:0:0:
488,167,22970,1,2,0:0:0:0:
457,202,23040,1,8,0:0:0:0:
411,208,23110,1,8,0:0:0:0:
366,213,23180,1,8,0:0:0:0:
335,248,23250,1,8,0:0:0:0:
327,294,23319,1,8,0:0:0:0:
344,338,23389,6,0,B|303:321|272:335|272:335|241:350|201:333,1,142.5,6|0,0:0|0:0,0:0:0:0:
148,280,23668,2,0,P|193:258|245:270,1,95,8|0,0:0|0:0,0:0:0:0:
99,365,23947,1,2,0:0:0:0:
99,365,24087,1,0,0:0:0:0:
179,176,24226,2,0,B|143:198|108:183|108:183|78:170|37:192,1,142.5,8|0,0:0|0:0,0:0:0:0:
140,104,24505,6,0,B|192:82|236:122|236:122|256:130|278:122,1,142.5,10|0,0:0|0:0,0:0:0:0:
343,81,24784,1,8,0:0:0:0:
425,205,24924,2,0,P|437:159|422:115,1,95,0|2,0:0|0:0,0:0:0:0:
340,236,25203,1,0,0:0:0:0:
512,288,25343,2,0,L|359:306,1,142.5,8|0,0:0|0:0,0:0:0:0:
311,365,25622,5,10,0:0:0:0:
250,279,25761,1,0,0:0:0:0:
168,332,25901,1,8,0:0:0:0:
126,225,26040,1,0,0:0:0:0:
61,300,26180,1,2,0:0:0:0:
61,300,26319,1,0,0:0:0:0:
206,181,26459,2,0,P|253:183|304:222,1,95,8|0,0:0|0:0,0:0:0:0:
120,126,26738,6,0,B|106:77|106:77|121:33,1,95,10|0,0:0|0:0,0:0:0:0:
37,190,27017,1,8,0:0:0:0:
198,105,27157,1,0,0:0:0:0:
237,270,27296,1,2,0:0:0:0:
237,270,27436,1,0,0:0:0:0:
268,136,27575,2,0,B|281:99|260:65|260:65|239:36|250:-5,1,142.5,8|0,0:0|0:0,0:0:0:0:
326,21,27854,5,14,0:0:0:0:
316,200,27994,2,0,P|238:209|193:108,1,190,0|0,0:0|0:0,0:0:0:0:
381,89,28412,1,2,0:0:0:0:
381,89,28552,1,0,0:0:0:0:
413,207,28691,2,0,B|432:305|432:305|418:356,1,142.5,8|0,0:0|0:0,0:0:0:0:
312,384,28970,6,0,L|203:375,1,95,10|0,0:0|0:0,0:0:0:0:
157,273,29250,1,12,0:0:0:0:
0,322,29389,2,0,L|191:294,1,190,0|0,0:0|0:0,0:0:0:0:
270,202,29808,2,0,B|288:151|288:151|263:61,1,142.5,10|0,0:0|0:0,0:0:0:0:
213,13,30087,6,0,P|261:64|374:32,1,190,10|12,0:0|0:0,0:0:0:0:
166,98,30505,1,0,0:0:0:0:
425,122,30645,2,0,P|382:158|326:170,1,95,2|0,0:0|0:0,0:0:0:0:
150,254,30924,2,0,B|209:293|209:293|301:295,1,142.5,8|0,0:0|0:0,0:0:0:0:
82,206,31203,6,0,B|55:245|78:291|78:291|57:331|74:376,1,170.999994781494,6|0,0:0|0:0,0:0:0:0:
146,338,31482,1,8,0:0:0:0:
131,109,31622,1,0,0:0:0:0:
349,267,31761,1,2,0:0:0:0:
375,236,31831,1,2,0:0:0:0:
375,195,31901,1,2,0:0:0:0:
365,156,31970,1,2,0:0:0:0:
329,137,32040,5,8,0:0:0:0:
327,171,32110,1,8,0:0:0:0:
325,205,32180,1,8,0:0:0:0:
324,239,32250,1,8,0:0:0:0:
323,269,32319,6,0,B|435:292|435:292|407:245,1,156.750004783631,6|0,0:0|0:0,0:0:0:0:
408,242,32598,1,8,0:0:0:0:
224,333,32738,1,0,0:0:0:0:
200,131,32877,1,2,0:0:0:0:
211,358,33017,1,0,0:0:0:0:
222,58,33157,2,0,P|160:62|127:99,1,104.500003189087,8|0,0:0|0:0,0:0:0:0:
279,218,33436,6,0,P|341:240|417:184,1,156.750004783631,10|0,0:0|0:0,0:0:0:0:
418,176,33715,1,8,0:0:0:0:
208,284,33854,1,0,0:0:0:0:
459,342,33994,1,2,0:0:0:0:
194,278,34133,1,0,0:0:0:0:
494,225,34273,2,0,P|506:163|481:121,1,104.500003189087,8|0,0:0|0:0,0:0:0:0:
261,0,34552,6,0,P|222:71|254:141,1,156.750004783631,10|0,0:0|0:0,0:0:0:0:
265,150,34831,1,8,0:0:0:0:
64,102,34970,1,0,0:0:0:0:
317,72,35110,1,2,0:0:0:0:
45,102,35250,1,0,0:0:0:0:
217,242,35389,2,0,L|330:231,1,104.500003189087,10|0,0:0|0:0,0:0:0:0:
264,330,35668,6,0,B|181:339|181:339|147:324|147:324|111:350,1,156.750004783631,10|0,0:0|0:0,0:0:0:0:
104,360,35947,1,8,0:0:0:0:
205,143,36087,1,0,0:0:0:0:
347,306,36226,1,2,0:0:0:0:
200,159,36366,1,0,0:0:0:0:
410,142,36505,2,0,P|426:190|408:239,1,104.500003189087,8|0,0:0|0:0,0:0:0:0:
310,57,36784,6,0,B|424:41|424:41|475:63,1,156.750004783631,14|0,0:0|0:0,0:0:0:0:
476,67,37063,1,8,0:0:0:0:
225,173,37203,1,0,0:0:0:0:
455,269,37343,1,2,0:0:0:0:
249,337,37482,1,0,0:0:0:0:
459,119,37622,2,0,L|356:137,1,104.500003189087,8|0,0:0|0:0,0:0:0:0:
121,79,37901,6,0,B|174:67|174:67|208:36|208:36|267:25,1,156.750004783631,2|0,0:0|0:0,0:0:0:0:
286,25,38180,1,8,0:0:0:0:
141,195,38319,1,0,0:0:0:0:
50,40,38459,1,2,0:0:0:0:
249,110,38598,1,0,0:0:0:0:
40,251,38738,2,0,P|24:308|47:352,1,104.500003189087,8|0,0:0|0:0,0:0:0:0:
151,93,39017,5,14,0:0:0:0:
300,279,39157,2,0,B|369:270|369:270|398:254|398:254|434:264,1,123.499994346619,0|14,0:0|0:0,0:0:0:0:
126,204,39436,2,0,B|116:284|116:284|133:328,1,123.499994346619,0|0,0:0|0:0,0:0:0:0:
427,70,39715,2,0,B|362:21|362:21|316:14,1,123.499994346619,0|14,0:0|0:0,0:0:0:0:
244,348,39994,2,0,B|300:362|300:362|434:331,1,185.249991519928,8|0,0:0|0:0,0:0:0:0:
442,325,40273,1,0,0:0:0:0:
126,204,40412,5,8,0:0:0:0:
437,114,40691,1,12,0:0:0:0:
77,82,40970,1,8,0:0:0:0:
85,118,41110,1,0,0:0:0:0:
158,258,41250,6,0,B|177:217|177:217|160:131,1,114,2|0,0:0|0:0,0:0:0:0:
223,57,41529,2,0,L|237:141,1,76,8|0,0:0|0:0,0:0:0:0:
332,251,41808,2,0,L|319:176,1,76,10|0,0:0|0:0,0:0:0:0:
394,44,42087,2,0,L|406:118,1,76,8|0,0:0|0:0,0:0:0:0:
384,315,42366,6,0,P|327:331|256:279,1,152,6|8,0:0|0:0,0:0:0:0:
114,235,42784,1,0,0:0:0:0:
114,235,42924,2,0,P|155:235|184:207,1,76,8|0,0:0|0:0,0:0:0:0:
49,55,43203,2,0,P|4:115|29:182,1,152,8|6,0:0|0:0,0:0:0:0:
301,301,43761,6,0,P|311:255|294:225,1,76,8|0,0:0|0:0,0:0:0:0:
104,311,44040,2,0,P|127:339|164:347,1,76,2|0,0:0|0:0,0:0:0:0:
226,141,44319,2,0,P|191:127|155:139,1,76,8|0,0:0|0:0,0:0:0:0:
301,301,44598,2,0,P|373:328|447:304,1,152,6|8,0:0|0:0,0:0:0:0:
512,229,45017,1,0,0:0:0:0:
512,229,45157,2,0,L|509:142,1,76,0|0,0:0|0:0,0:0:0:0:
431,54,45436,2,0,P|357:46|314:111,1,152,8|6,0:0|0:0,0:0:0:0:
312,198,45994,6,0,L|321:284,1,76,8|0,0:0|0:0,0:0:0:0:
241,342,46273,2,0,L|233:266,1,76,2|0,0:0|0:0,0:0:0:0:
149,203,46552,2,0,L|156:278,1,76,8|0,0:0|0:0,0:0:0:0:
161,365,46831,2,0,P|94:334|74:263,1,152,2|8,0:0|0:0,0:0:0:0:
107,127,47250,1,0,0:0:0:0:
107,127,47389,2,0,L|195:131,1,76,2|0,0:0|0:0,0:0:0:0:
329,208,47668,2,0,L|253:204,1,76,0|0,0:0|0:0,0:0:0:0:
398,97,47947,6,0,B|380:138|397:173|397:173|415:207|397:248,1,152,6|8,0:0|0:0,0:0:0:0:
180,318,48366,1,0,0:0:0:0:
180,318,48505,2,0,B|198:277|180:242|180:242|163:208|178:170,1,152,2|8,0:0|0:0,0:0:0:0:
384,134,49063,6,0,B|288:150|288:150|235:127,1,142.5,6|0,0:0|0:0,0:0:0:0:
335,63,49343,2,0,B|396:53|396:53|429:68|429:68|474:62,1,142.5,6|0,0:0|0:0,0:0:0:0:
484,60,49622,1,8,0:0:0:0:
460,88,49691,1,8,0:0:0:0:
451,125,49761,1,8,0:0:0:0:
454,162,49831,1,8,0:0:0:0:
471,195,49901,1,8,0:0:0:0:
479,231,49970,1,8,0:0:0:0:
472,268,50040,1,8,0:0:0:0:
446,296,50110,1,8,0:0:0:0:
409,308,50180,6,0,B|293:301|293:301|332:270,1,156.750004783631,14|0,0:0|0:0,0:0:0:0:
253,126,50459,2,0,P|235:174|253:222,1,104.500003189087,8|0,0:0|0:0,0:0:0:0:
438,102,50738,2,0,P|405:62|354:54,1,104.500003189087,2|0,0:0|0:0,0:0:0:0:
409,308,51017,2,0,B|463:298|463:298|497:256,1,104.500003189087,8|0,0:0|0:0,0:0:0:0:
144,207,51296,6,0,B|148:313|148:313|178:358,1,156.750004783631,10|0,0:0|0:0,0:0:0:0:
192,369,51575,1,8,0:0:0:0:
219,86,51715,1,8,0:0:0:0:
300,264,51854,1,10,0:0:0:0:
214,60,51994,1,8,0:0:0:0:
69,286,52133,1,8,0:0:0:0:
69,286,52273,1,8,0:0:0:0:
301,107,52412,6,0,B|377:117|377:117|403:108|403:108|494:120,1,185.249991519928,14|0,0:0|0:0,0:0:0:0:
508,126,52691,1,8,0:0:0:0:
242,190,52831,2,0,B|134:209|134:209|88:195|88:195|-11:211,1,246.999988693238,14|0,0:0|0:0,0:0:0:0:
326,326,53250,2,0,B|373:352|413:343|413:343|462:366|462:366|466:310|409:263,1,246.999988693238,12|2,0:0|0:0,0:0:0:0:
237,346,53668,1,0,0:0:0:0:
237,346,53738,1,0,0:0:0:0:
237,346,53808,5,8,0:0:0:0:
329,147,53947,1,0,0:0:0:0:
114,87,54087,1,2,0:0:0:0:
114,87,54226,1,0,0:0:0:0:
401,69,54366,1,8,0:0:0:0:
405,118,54436,1,8,0:0:0:0:
410,166,54505,1,8,0:0:0:0:
415,215,54575,1,8,0:0:0:0:
420,264,54645,6,0,B|375:277|335:253|335:253|293:228|249:246,1,170.999994781494,6|0,0:0|0:0,0:0:0:0:
264,349,54924,2,0,P|277:295|247:236,1,113.999996520996,8|0,0:0|0:0,0:0:0:0:
132,186,55203,1,0,0:0:0:0:
132,186,55343,1,0,0:0:0:0:
314,19,55482,2,0,P|273:73|319:155,1,170.999994781494,8|0,0:0|0:0,0:0:0:0:
511,83,55761,6,0,B|461:61|425:82|425:82|385:106|340:81,1,170.999994781494,6|0,0:0|0:0,0:0:0:0:
317,154,56040,1,8,0:0:0:0:
230,302,56180,2,0,P|174:270|271:234,1,227.999993041992,0|0,0:0|0:0,0:0:0:0:
289,363,56598,2,0,P|215:377|127:335,1,170.999994781494,8|0,0:0|0:0,0:0:0:0:
81,243,56877,6,0,B|88:129|88:129|119:187,1,170.999994781494,6|0,0:0|0:0,0:0:0:0:
127,191,57157,1,8,0:0:0:0:
285,38,57296,1,0,0:0:0:0:
25,98,57436,1,10,0:0:0:0:
312,224,57575,1,0,0:0:0:0:
194,28,57715,1,8,0:0:0:0:
145,296,57854,1,0,0:0:0:0:
361,116,57994,5,10,0:0:0:0:
50,193,58133,1,0,0:0:0:0:
350,298,58273,1,8,0:0:0:0:
287,43,58412,1,0,0:0:0:0:
247,288,58552,1,10,0:0:0:0:
465,138,58691,1,0,0:0:0:0:
179,146,58831,2,0,B|170:194|195:227|195:227|159:260|171:321,1,170.999994781494,10|0,0:0|0:0,0:0:0:0:
257,175,59110,6,0,B|246:139|279:95|279:95|307:142|294:176,1,170.999994781494,14|0,0:0|0:0,0:0:0:0:
345,243,59389,2,0,P|372:192|370:132,1,113.999996520996,0|0,0:0|0:0,0:0:0:0:
187,55,59668,1,0,0:0:0:0:
371,136,59808,1,0,0:0:0:0:
191,229,59947,2,0,L|77:214,1,113.999996520996,0|0,0:0|0:0,0:0:0:0:
277,75,60226,6,0,B|355:64|355:64|395:81,1,113.999996520996,0|0,0:0|0:0,0:0:0:0:
165,26,60505,1,8,0:0:0:0:
148,59,60575,1,8,0:0:0:0:
148,97,60645,1,8,0:0:0:0:
159,133,60715,1,8,0:0:0:0:
185,159,60784,5,8,0:0:0:0:
216,192,60854,1,8,0:0:0:0:
230,235,60924,1,8,0:0:0:0:
229,280,60994,1,8,0:0:0:0:
208,320,61064,5,8,0:0:0:0:
166,355,61133,1,8,0:0:0:0:
111,365,61203,1,8,0:0:0:0:
58,351,61273,1,8,0:0:0:0:
26,305,61343,6,0,B|115:283|115:283|214:304,1,185.249991519928,6|0,0:0|0:0,0:0:0:0:
298,331,61622,1,8,0:0:0:0:
135,178,61761,1,0,0:0:0:0:
305,95,61901,1,2,0:0:0:0:
305,95,62040,1,0,0:0:0:0:
95,60,62180,1,8,0:0:0:0:
203,278,62319,1,0,0:0:0:0:
364,144,62459,6,0,P|382:80|352:32,1,123.499994346619,6|0,0:0|0:0,0:0:0:0:
143,228,62738,2,0,P|125:292|155:340,1,123.499994346619,8|0,0:0|0:0,0:0:0:0:
351,364,63017,1,2,0:0:0:0:
351,364,63157,1,0,0:0:0:0:
262,73,63296,1,8,0:0:0:0:
203,278,63436,1,0,0:0:0:0:
354,63,63575,6,0,B|222:49|222:49|164:75,1,185.249991519928,6|0,0:0|0:0,0:0:0:0:
110,170,63854,2,0,L|127:298,1,123.499994346619,8|0,0:0|0:0,0:0:0:0:
367,359,64133,2,0,L|350:236,1,123.499994346619,0|0,0:0|0:0,0:0:0:0:
151,102,64412,2,0,P|76:98|32:189,1,185.249991519928,12|0,0:0|0:0,0:0:0:0:
201,164,64691,6,0,P|228:91|211:47,1,123.499994346619,2|0,0:0|0:0,0:0:0:0:
350,236,64970,2,0,P|335:294|362:349,1,123.499994346619,12|0,0:0|0:0,0:0:0:0:
419,113,65250,1,2,0:0:0:0:
419,113,65389,1,0,0:0:0:0:
234,281,65529,2,0,L|35:269,1,185.249991519928,8|0,0:0|0:0,0:0:0:0:
187,203,65808,6,0,B|260:208|260:208|300:232|300:232|372:237,1,185.249991519928,6|0,0:0|0:0,0:0:0:0:
388,238,66087,1,8,0:0:0:0:
169,353,66226,1,0,0:0:0:0:
274,95,66366,1,2,0:0:0:0:
274,95,66505,1,0,0:0:0:0:
332,308,66645,1,8,0:0:0:0:
425,110,66784,1,0,0:0:0:0:
208,251,66924,6,0,B|168:238|165:170|209:142|209:142|188:116|198:81,1,185.249991519928,2|0,0:0|0:0,0:0:0:0:
200,68,67203,1,8,0:0:0:0:
303,201,67343,1,0,0:0:0:0:
92,251,67482,1,0,0:0:0:0:
92,251,67622,1,0,0:0:0:0:
328,313,67761,1,8,0:0:0:0:
278,96,67901,1,0,0:0:0:0:
281,370,68040,6,0,P|363:376|394:286,1,185.249991519928,2|0,0:0|0:0,0:0:0:0:
389,269,68319,1,8,0:0:0:0:
203,173,68459,1,0,0:0:0:0:
447,112,68598,1,0,0:0:0:0:
447,112,68738,1,0,0:0:0:0:
322,31,68877,2,0,B|269:15|229:40|229:40|190:63|141:46,1,185.249991519928,12|0,0:0|0:0,0:0:0:0:
71,115,69157,6,0,P|51:171|79:225,1,123.499994346619,2|0,0:0|0:0,0:0:0:0:
273,334,69436,2,0,P|300:280|281:223,1,123.499994346619,12|0,0:0|0:0,0:0:0:0:
21,277,69715,2,0,P|74:304|131:285,1,123.499994346619,2|0,0:0|0:0,0:0:0:0:
334,169,69994,2,0,P|280:141|223:160,1,123.499994346619,8|0,0:0|0:0,0:0:0:0:
433,320,70273,6,0,B|428:241|428:241|444:195|444:195|437:126,1,185.249991519928,6|0,0:0|0:0,0:0:0:0:
436,121,70552,1,8,0:0:0:0:
282,281,70691,1,0,0:0:0:0:
243,39,70831,1,2,0:0:0:0:
243,39,70970,1,0,0:0:0:0:
372,187,71110,1,8,0:0:0:0:
160,272,71250,1,0,0:0:0:0:
446,222,71389,6,0,B|459:167|427:128|427:128|475:134|493:173,1,185.249991519928,2|0,0:0|0:0,0:0:0:0:
486,297,71668,1,8,0:0:0:0:
334,102,71808,1,0,0:0:0:0:
219,195,71947,1,0,0:0:0:0:
219,195,72087,1,0,0:0:0:0:
444,126,72226,1,8,0:0:0:0:
272,34,72366,1,0,0:0:0:0:
148,292,72505,6,0,B|132:269|138:234|138:234|117:207|128:180|128:180|141:146|124:108,1,185.249991519928,2|0,0:0|0:0,0:0:0:0:
111,27,72784,1,8,0:0:0:0:
71,316,72924,2,0,P|117:368|217:258,1,246.999988693238,0|0,0:0|0:0,0:0:0:0:
126,140,73343,2,0,P|61:130|14:173,1,123.499994346619,12|0,0:0|0:0,0:0:0:0:
227,298,73622,6,0,P|281:326|341:307,1,123.499994346619,2|0,0:0|0:0,0:0:0:0:
191,49,73901,2,0,P|139:81|126:143,1,123.499994346619,12|0,0:0|0:0,0:0:0:0:
408,225,74180,2,0,P|435:171|419:113,1,123.499994346619,2|0,0:0|0:0,0:0:0:0:
205,126,74459,2,0,B|232:179|309:186|340:146|340:146|356:151|366:177,1,185.249991519928,8|0,2:0|2:0,0:0:0:0:
494,291,74738,6,0,B|452:283|424:301|424:301|391:305|362:289|362:289|338:306|316:301,1,185.249991519928,6|0,0:0|0:0,0:0:0:0:
301,302,75017,1,10,0:0:0:0:
392,60,75157,1,0,0:0:0:0:
484,311,75296,1,10,0:0:0:0:
219,132,75436,1,0,0:0:0:0:
504,155,75575,1,10,0:0:0:0:
213,274,75715,1,0,0:0:0:0:
299,42,75854,5,10,0:0:0:0:
440,224,75994,1,0,0:0:0:0:
150,191,76133,1,10,0:0:0:0:
420,80,76273,1,0,0:0:0:0:
308,293,76412,1,10,0:0:0:0:
174,57,76552,1,0,0:0:0:0:
317,278,76691,1,10,0:0:0:0:
339,39,76831,1,0,0:0:0:0:
179,282,76970,5,10,0:0:0:0:
434,222,77110,1,0,0:0:0:0:
157,269,77250,1,10,0:0:0:0:
451,235,77389,1,0,0:0:0:0:
105,347,77529,5,8,0:0:0:0:
77,299,77598,1,8,0:0:0:0:
80,243,77668,1,8,0:0:0:0:
118,202,77738,1,8,0:0:0:0:
172,188,77808,1,8,0:0:0:0:
220,162,77877,1,8,0:0:0:0:
239,109,77947,1,8,0:0:0:0:
236,53,78017,1,8,0:0:0:0:
194,15,78087,5,12,0:0:0:0:
398,128,79203,6,0,B|348:98|309:114|309:114|287:90|258:85|258:85|229:94|196:77,1,209.000006378174,6|8,0:0|0:0,0:0:0:0:
444,195,79622,1,0,0:0:0:0:
444,195,79761,2,0,P|474:145|465:88,1,104.500003189087,0|0,0:0|0:0,0:0:0:0:
248,168,80040,2,0,P|238:226|292:309,1,156.750004783631,8|0,0:0|0:0,0:0:0:0:
357,360,80319,6,0,B|423:373|467:319|467:319|450:273|393:268,1,209.000006378174,6|8,0:0|0:0,0:0:0:0:
242,371,80738,1,0,0:0:0:0:
425,235,80877,1,2,0:0:0:0:
205,156,81017,1,0,0:0:0:0:
428,118,81157,2,0,P|455:163|437:232,1,104.500003189087,8|0,0:0|0:0,0:0:0:0:
228,49,81436,6,0,B|317:35|317:35|364:48|364:48|436:36,1,209.000006378174,6|8,0:0|0:0,0:0:0:0:
308,137,81854,1,0,0:0:0:0:
308,137,81994,2,0,L|204:157,1,104.500003189087,0|0,0:0|0:0,0:0:0:0:
60,225,82273,2,0,B|32:239|32:239|155:262,1,156.750004783631,8|0,0:0|0:0,0:0:0:0:
228,290,82552,6,0,P|253:361|234:397,1,104.500003189087,2|0,0:0|0:0,0:0:0:0:
166,353,82831,1,8,0:0:0:0:
166,353,82970,1,8,0:0:0:0:
305,189,83110,1,2,0:0:0:0:
148,84,83250,1,0,0:0:0:0:
291,17,83389,2,0,L|396:29,1,104.500003189087,8|0,0:0|0:0,0:0:0:0:
148,84,83668,6,0,B|146:128|119:151|119:151|106:192|137:246|137:246|113:251|95:240,1,209.000006378174,6|8,0:0|0:0,0:0:0:0:
68,84,84087,1,0,0:0:0:0:
68,84,84226,2,0,P|85:31|139:5,1,104.500003189087,0|0,0:0|0:0,0:0:0:0:
302,191,84505,2,0,P|244:213|201:198,1,104.500003189087,8|0,0:0|0:0,0:0:0:0:
285,32,84784,6,0,P|357:16|381:126,1,209.000006378174,6|8,0:0|0:0,0:0:0:0:
232,103,85203,1,0,0:0:0:0:
432,198,85343,1,2,0:0:0:0:
270,305,85482,1,0,0:0:0:0:
487,348,85622,2,0,B|429:355|429:355|390:342|390:342|324:351,1,156.750004783631,8|0,0:0|0:0,0:0:0:0:
245,377,85901,6,0,P|200:342|263:227,1,209.000006378174,6|8,0:0|0:0,0:0:0:0:
374,143,86319,1,0,0:0:0:0:
374,143,86459,2,0,P|330:104|285:97,1,104.500003189087,0|0,0:0|0:0,0:0:0:0:
70,256,86738,2,0,P|135:270|202:156,1,209.000006378174,6|10,0:0|0:0,0:0:0:0:
3,217,87157,1,0,0:0:0:0:
3,217,87296,2,0,P|-9:275|26:322,1,104.500003189087,0|8,0:0|0:0,0:0:0:0:
291,374,87575,2,0,L|311:263,1,104.500003189087,6|0,0:0|0:0,0:0:0:0:
124,96,87854,2,0,L|142:198,1,104.500003189087,8|0,0:0|0:0,0:0:0:0:
207,74,88063,1,0,0:0:0:0:
207,74,88133,5,6,0:0:0:0:
278,210,88273,1,0,0:0:0:0:
340,48,88412,1,8,0:0:0:0:
337,280,88552,1,0,0:0:0:0:
215,134,88691,1,2,0:0:0:0:
395,337,88831,1,0,0:0:0:0:
428,100,88970,1,8,0:0:0:0:
278,210,89110,1,0,0:0:0:0:
487,259,89250,6,0,B|378:291|378:291|329:278,1,156.750004783631,6|0,0:0|0:0,0:0:0:0:
319,275,89529,1,8,0:0:0:0:
230,82,89668,1,0,0:0:0:0:
210,307,89808,1,2,0:0:0:0:
371,110,89947,1,0,0:0:0:0:
134,194,90087,1,8,0:0:0:0:
370,347,90226,1,0,0:0:0:0:
371,110,90366,6,0,B|312:124|312:124|266:117|266:117|207:131,1,156.750004783631,6|0,0:0|0:0,0:0:0:0:
199,134,90645,1,8,0:0:0:0:
397,26,90784,1,0,0:0:0:0:
334,254,90924,6,0,B|393:268|393:268|439:261|439:261|498:275,1,156.750004783631,6|0,0:0|0:0,0:0:0:0:
503,278,91203,1,8,0:0:0:0:
254,344,91343,1,0,0:0:0:0:
403,183,91482,5,6,0:0:0:0:
403,183,91622,1,0,0:0:0:0:
261,71,91761,2,0,P|225:129|270:210,1,156.750004783631,8|0,0:0|0:0,0:0:0:0:
319,253,92040,5,2,0:0:0:0:
282,282,92110,1,2,0:0:0:0:
234,284,92180,1,2,0:0:0:0:
192,261,92250,1,2,0:0:0:0:
173,217,92319,1,10,0:0:0:0:
154,174,92389,1,10,0:0:0:0:
111,151,92459,1,10,0:0:0:0:
64,153,92529,1,10,0:0:0:0:
27,182,92598,6,0,B|13:252|13:252|25:287,1,104.500003189087,6|0,0:0|0:0,0:0:0:0:
106,350,92877,1,8,0:0:0:0:
235,176,93017,1,0,0:0:0:0:
305,366,93157,1,2,0:0:0:0:
237,146,93296,1,0,0:0:0:0:
106,350,93436,2,0,L|215:329,1,104.500003189087,8|0,0:0|0:0,0:0:0:0:
468,203,93715,2,0,B|349:178|349:178|304:196,1,156.750004783631,2|0,0:0|0:0,0:0:0:0:
232,226,93994,5,8,0:0:0:0:
470,286,94133,1,0,0:0:0:0:
310,91,94273,1,2,0:0:0:0:
463,303,94412,1,0,0:0:0:0:
157,290,94552,2,0,B|139:233|139:233|152:183,1,104.500003189087,8|0,0:0|0:0,0:0:0:0:
365,189,94831,6,0,B|389:266|389:266|364:348,1,156.750004783631,2|0,0:0|0:0,0:0:0:0:
358,354,95110,1,8,0:0:0:0:
270,137,95250,1,0,0:0:0:0:
338,364,95389,1,2,0:0:0:0:
354,64,95529,1,0,0:0:0:0:
150,192,95668,2,0,L|32:183,1,104.500003189087,8|0,0:0|0:0,0:0:0:0:
201,57,95947,6,0,B|289:62|289:62|321:74|321:74|359:62,1,156.750004783631,6|0,0:0|0:0,0:0:0:0:
432,13,96226,1,8,0:0:0:0:
375,207,96366,1,0,0:0:0:0:
450,33,96505,1,2,0:0:0:0:
491,258,96645,1,0,0:0:0:0:
262,134,96784,2,0,B|191:134|191:134|162:156,1,104.500003189087,8|0,0:0|0:0,0:0:0:0:
363,357,97063,6,0,B|391:255|391:255|371:198,1,156.750004783631,2|0,0:0|0:0,0:0:0:0:
345,135,97343,1,8,0:0:0:0:
474,306,97482,1,0,0:0:0:0:
240,266,97622,1,2,0:0:0:0:
354,112,97761,1,0,0:0:0:0:
474,306,97901,2,0,B|463:376|463:376|441:333,1,104.500003189087,8|0,0:0|0:0,0:0:0:0:
409,178,98180,6,0,B|435:66|435:66|454:119,1,156.750004783631,6|0,0:0|0:0,0:0:0:0:
455,121,98459,1,8,0:0:0:0:
255,160,98598,1,0,0:0:0:0:
450,282,98738,1,2,0:0:0:0:
477,131,98877,1,0,0:0:0:0:
290,247,99017,2,0,B|222:239|222:239|203:228|203:228|177:232,1,104.500003189087,8|0,0:0|0:0,0:0:0:0:
226,78,99296,6,0,B|286:86|286:86|319:106|319:106|392:116,1,156.750004783631,2|0,0:0|0:0,0:0:0:0:
398,120,99575,1,8,0:0:0:0:
153,164,99715,1,0,0:0:0:0:
345,32,99854,1,2,0:0:0:0:
143,155,99994,1,0,0:0:0:0:
460,164,100133,2,0,P|475:115|447:60,1,104.500003189087,8|0,0:0|0:0,0:0:0:0:
270,179,100412,2,0,P|235:230|268:314,1,156.750004783631,6|0,0:0|0:0,0:0:0:0:
288,327,100691,5,8,0:0:0:0:
349,146,100831,1,0,0:0:0:0:
137,262,100970,1,2,0:0:0:0:
114,232,101040,1,0,0:0:0:0:
109,195,101110,1,0,0:0:0:0:
119,159,101180,1,0,0:0:0:0:
147,135,101250,5,8,0:0:0:0:
121,128,101319,1,8,0:0:0:0:
95,122,101389,1,8,0:0:0:0:
69,115,101459,1,8,0:0:0:0:
43,109,101529,6,0,B|116:97|116:97|157:103|157:103|202:98,1,156.750004783631,6|0,0:0|0:0,0:0:0:0:
222,94,101808,1,8,0:0:0:0:
51,217,101947,1,0,0:0:0:0:
300,292,102087,1,2,0:0:0:0:
35,216,102226,1,0,0:0:0:0:
367,240,102366,2,0,B|379:296|379:296|364:347,1,104.500003189087,8|0,0:0|0:0,0:0:0:0:
325,0,102645,6,0,B|312:58|312:58|336:163,1,156.750004783631,2|0,0:0|0:0,0:0:0:0:
412,173,102924,1,8,0:0:0:0:
212,115,103063,1,0,0:0:0:0:
437,40,103203,1,2,0:0:0:0:
200,124,103343,1,0,0:0:0:0:
380,260,103482,2,0,B|454:245|454:245|474:224,1,104.500003189087,8|0,0:0|0:0,0:0:0:0:
321,158,103761,6,0,B|263:168|263:168|231:196|231:196|176:208,1,156.750004783631,2|0,0:0|0:0,0:0:0:0:
156,214,104040,1,8,0:0:0:0:
228,43,104180,1,0,0:0:0:0:
299,281,104319,1,2,0:0:0:0:
233,25,104459,1,0,0:0:0:0:
89,305,104598,2,0,B|138:296|138:296|148:297|148:297|195:289,1,104.500003189087,8|0,0:0|0:0,0:0:0:0:
383,141,104877,6,0,B|411:173|411:173|298:157,1,156.750004783631,2|0,0:0|0:0,0:0:0:0:
272,153,105157,1,8,0:0:0:0:
331,348,105296,1,0,0:0:0:0:
482,216,105436,1,2,0:0:0:0:
234,232,105575,1,0,0:0:0:0:
453,345,105715,2,0,B|508:338|508:338|456:307,1,104.500003189087,8|0,0:0|0:0,0:0:0:0:
188,165,105994,6,0,B|74:180|74:180|37:208,1,156.750004783631,6|0,0:0|0:0,0:0:0:0:
26,218,106273,1,8,0:0:0:0:
239,302,106412,1,0,0:0:0:0:
159,80,106552,1,2,0:0:0:0:
68,289,106691,1,0,0:0:0:0:
301,183,106831,2,0,L|280:71,1,104.500003189087,8|0,0:0|0:0,0:0:0:0:
226,293,107110,6,0,B|302:291|302:291|339:276|339:276|376:291,1,156.750004783631,2|0,0:0|0:0,0:0:0:0:
392,300,107389,1,8,0:0:0:0:
139,344,107529,1,0,0:0:0:0:
445,367,107668,1,2,0:0:0:0:
123,335,107808,1,0,0:0:0:0:
473,284,107947,2,0,B|477:222|477:222|465:169,1,104.500003189087,8|0,0:0|0:0,0:0:0:0:
263,117,108226,5,6,0:0:0:0:
46,229,108366,2,0,B|52:314|52:314|75:360,1,123.499994346619,0|12,0:0|0:0,0:0:0:0:
347,68,108645,2,0,B|294:35|294:35|219:33,1,123.499994346619,0|0,0:0|0:0,0:0:0:0:
360,369,108924,2,0,B|422:371|422:371|476:341,1,123.499994346619,0|12,0:0|0:0,0:0:0:0:
136,90,109203,2,0,B|118:164|118:164|131:218|131:218|120:282,1,185.249991519928,0|0,0:0|0:0,0:0:0:0:
115,289,109482,5,8,0:0:0:0:
77,14,109622,1,12,0:0:0:0:
339,292,109901,5,8,0:0:0:0:
165,358,110180,1,8,0:0:0:0:
201,351,110319,1,0,0:0:0:0:
262,262,110459,6,0,L|131:286,1,128.249996086121,6|0,0:0|0:0,0:0:0:0:
72,337,110738,2,0,P|53:293|63:251,1,85.4999973907472,8|0,0:0|0:0,0:0:0:0:
249,182,111017,2,0,P|268:226|258:268,1,85.4999973907472,10|0,0:0|0:0,0:0:0:0:
20,169,111296,2,0,P|37:130|73:108,1,85.4999973907472,8|0,0:0|0:0,0:0:0:0:
234,60,111575,6,0,P|184:20|79:21,1,170.999994781494,6|8,0:0|0:0,0:0:0:0:
193,130,111994,1,0,0:0:0:0:
192,129,112133,2,0,P|232:141|273:130,1,85.4999973907472,2|0,0:0|0:0,0:0:0:0:
352,79,112412,2,0,B|374:128|359:164|359:164|343:207|365:249,1,170.999994781494,8|2,0:0|0:0,0:0:0:0:
442,167,112970,6,0,P|444:117|428:70,1,85.4999973907472,8|0,0:0|0:0,0:0:0:0:
283,159,113250,2,0,P|272:200|275:242,1,85.4999973907472,2|0,0:0|0:0,0:0:0:0:
449,338,113529,2,0,P|483:300|494:260,1,85.4999973907472,8|0,0:0|0:0,0:0:0:0:
301,139,113808,6,0,B|252:120|216:149|216:149|186:175|131:159,1,170.999994781494,6|8,0:0|0:0,0:0:0:0:
70,123,114226,1,0,0:0:0:0:
93,214,114366,2,0,P|100:163|83:125,1,85.4999973907472,0|0,0:0|0:0,0:0:0:0:
264,207,114645,2,0,B|282:260|268:292|268:292|257:337|275:377,1,170.999994781494,8|2,0:0|0:0,0:0:0:0:
436,247,115203,6,0,P|396:270|346:268,1,85.4999973907472,8|0,0:0|0:0,0:0:0:0:
426,86,115482,2,0,P|465:109|489:153,1,85.4999973907472,10|0,0:0|0:0,0:0:0:0:
254,192,115761,2,0,P|256:149|278:113,1,85.4999973907472,8|0,0:0|0:0,0:0:0:0:
349,24,116040,2,0,P|301:72|199:58,1,170.999994781494,2|8,0:0|0:0,0:0:0:0:
137,135,116459,1,0,0:0:0:0:
137,135,116598,6,0,P|160:180|156:234,1,85.4999973907472,2|0,0:0|0:0,0:0:0:0:
69,319,116877,2,0,P|48:282|44:239,1,85.4999973907472,0|0,0:0|0:0,0:0:0:0:
225,136,117157,2,0,B|275:162|319:137|319:137|301:183|249:200,1,170.999994781494,2|8,0:0|0:0,0:0:0:0:
474,76,117575,1,0,0:0:0:0:
474,76,117715,2,0,B|425:101|381:76|381:76|399:122|428:129,1,170.999994781494,2|8,0:0|0:0,0:0:0:0:
300,273,118273,5,6,0:0:0:0:
267,104,118412,1,0,0:0:0:0:
344,340,118552,2,0,B|299:362|265:338|265:338|226:311|184:334,1,156.750004783631,8|0,0:0|0:0,0:0:0:0:
175,346,118831,1,8,0:0:0:0:
195,309,118901,1,8,0:0:0:0:
200,268,118970,1,8,0:0:0:0:
195,226,119040,1,8,0:0:0:0:
170,191,119110,5,8,0:0:0:0:
150,154,119180,1,8,0:0:0:0:
145,113,119249,1,8,0:0:0:0:
150,71,119319,1,8,0:0:0:0:
175,36,119389,6,0,B|234:41|234:41|259:31|259:31|283:47|283:47|332:53,1,156.750004783631,6|0,0:0|0:0,0:0:0:0:
350,58,119668,1,8,0:0:0:0:
132,124,119808,1,0,0:0:0:0:
405,145,119947,1,2,0:0:0:0:
237,243,120087,1,0,0:0:0:0:
471,209,120226,2,0,B|487:165|487:165|481:103,1,104.500003189087,8|0,0:0|0:0,0:0:0:0:
384,363,120505,6,0,B|381:289|381:289|370:248|370:248|384:203,1,156.750004783631,2|0,0:0|0:0,0:0:0:0:
391,193,120784,1,8,0:0:0:0:
241,357,120924,1,0,0:0:0:0:
230,102,121063,1,2,0:0:0:0:
232,338,121203,1,0,0:0:0:0:
337,107,121343,1,8,0:0:0:0:
326,83,121482,1,0,0:0:0:0:
134,158,121622,6,0,B|126:205|156:226|155:253|155:253|169:232|215:239|227:197,1,185.249991519928,6|0,0:0|0:0,0:0:0:0:
231,185,121901,1,8,0:0:0:0:
434,54,122040,2,0,B|399:61|369:41|369:41|331:26|291:55|291:55|257:18|200:31,1,246.999988693238,6|0,0:0|0:0,0:0:0:0:
95,309,122459,2,0,B|150:350|201:310|201:310|227:314|239:327|239:327|274:342|308:327,1,209.000006378174,12|2,0:0|0:0,0:0:0:0:
372,305,122877,1,0,0:0:0:0:
372,305,122947,1,0,0:0:0:0:
372,305,123017,5,8,0:0:0:0:
150,256,123157,1,0,0:0:0:0:
429,171,123296,1,2,0:0:0:0:
429,171,123436,1,0,0:0:0:0:
131,94,123575,5,8,0:0:0:0:
132,130,123645,1,8,0:0:0:0:
134,166,123715,1,8,0:0:0:0:
135,202,123784,1,8,0:0:0:0:
139,238,123854,2,0,B|175:268|225:255|243:224|243:224|265:242|266:270,1,156.750004783631,2|0,0:0|0:0,0:0:0:0:
77,288,124133,6,0,P|59:237|78:185,1,104.500003189087,8|0,0:0|0:0,0:0:0:0:
242,116,124412,1,2,0:0:0:0:
242,116,124552,1,0,0:0:0:0:
24,62,124691,2,0,P|108:72|180:35,1,156.750004783631,8|0,0:0|0:0,0:0:0:0:
303,55,124970,6,0,B|320:118|320:118|295:230,1,156.750004783631,2|0,0:0|0:0,0:0:0:0:
277,283,125250,1,8,0:0:0:0:
175,170,125389,2,0,B|33:196|33:196|105:227,1,209.000006378174,0|0,0:0|0:0,0:0:0:0:
322,352,125808,2,0,P|354:295|303:207,1,156.750004783631,8|0,0:0|0:0,0:0:0:0:
241,122,126087,6,0,B|355:141|355:141|409:120,1,156.750004783631,6|0,0:0|0:0,0:0:0:0:
466,94,126366,1,8,0:0:0:0:
194,201,126505,1,0,0:0:0:0:
486,234,126645,1,10,0:0:0:0:
155,133,126784,1,0,0:0:0:0:
489,80,126924,1,8,0:0:0:0:
113,203,127063,1,0,0:0:0:0:
399,289,127203,5,10,0:0:0:0:
306,42,127343,1,0,0:0:0:0:
211,294,127482,1,8,0:0:0:0:
383,86,127622,1,0,0:0:0:0:
317,324,127761,1,10,0:0:0:0:
272,129,127901,1,0,0:0:0:0:
463,319,128040,2,0,B|414:286|372:318|372:318|349:337|310:321,1,156.750004783631,8|0,0:0|0:0,0:0:0:0:
210,279,128319,6,0,B|221:172|221:172|255:129,1,156.750004783631,14|0,0:0|0:0,0:0:0:0:
342,79,128598,2,0,P|284:116|248:108,1,104.500003189087,0|0,0:0|0:0,0:0:0:0:
186,39,128877,1,0,0:0:0:0:
186,39,129017,1,0,0:0:0:0:
377,6,129157,2,0,P|418:64|385:148,1,156.750004783631,0|0,0:0|0:0,0:0:0:0:
273,215,129436,6,0,B|338:206|338:206|374:220,1,104.500003189087,0|0,0:0|0:0,0:0:0:0:
189,384,129715,1,8,0:0:0:0:
169,353,129784,1,8,0:0:0:0:
164,316,129854,1,8,0:0:0:0:
172,280,129924,1,8,0:0:0:0:
196,252,129994,5,8,0:0:0:0:
226,217,130063,1,8,0:0:0:0:
229,169,130133,1,8,0:0:0:0:
208,126,130203,1,8,0:0:0:0:
163,111,130273,5,8,0:0:0:0:
110,135,130343,1,8,0:0:0:0:
53,128,130412,1,8,0:0:0:0:
20,80,130482,1,8,0:0:0:0:
32,23,130552,6,0,B|70:166|70:166|54:204,1,185.249991519928,6|0,0:0|0:0,0:0:0:0:
45,220,130831,1,8,0:0:0:0:
215,52,130970,1,0,0:0:0:0:
205,289,131110,1,2,0:0:0:0:
205,289,131250,1,0,0:0:0:0:
347,142,131389,2,0,B|327:215|381:249|381:249|356:285|365:339,1,185.249991519928,8|0,0:0|0:0,0:0:0:0:
418,177,131668,6,0,B|418:137|434:106|434:106|432:72|408:47|408:47|417:24|414:-13,1,185.249991519928,2|0,0:0|0:0,0:0:0:0:
489,32,131947,1,8,0:0:0:0:
309,208,132087,1,0,0:0:0:0:
256,0,132226,1,2,0:0:0:0:
256,0,132366,1,0,0:0:0:0:
314,226,132505,2,0,P|257:266|180:185,1,185.249991519928,8|0,0:0|0:0,0:0:0:0:
230,124,132784,6,0,B|277:126|299:148|299:148|332:141|359:157|359:157|375:179|399:188,1,185.249991519928,2|0,0:0|0:0,0:0:0:0:
427,117,133063,1,8,0:0:0:0:
334,297,133203,1,0,0:0:0:0:
356,48,133343,1,0,0:0:0:0:
356,48,133482,1,0,0:0:0:0:
466,355,133622,2,0,B|489:306|475:273|475:273|458:237|470:205|470:205|457:228|439:237,1,185.249991519928,12|0,0:0|0:0,0:0:0:0:
402,304,133901,6,0,P|342:345|288:326,1,123.499994346619,2|0,0:0|0:0,0:0:0:0:
409,92,134180,2,0,P|474:123|485:179,1,123.499994346619,12|0,0:0|0:0,0:0:0:0:
195,252,134459,2,0,P|185:192|224:146,1,123.499994346619,2|0,0:0|0:0,0:0:0:0:
434,202,134738,2,0,B|383:171|338:168|301:193|301:193|285:211|263:216,1,185.249991519928,8|0,0:0|0:0,0:0:0:0:
115,183,135017,6,0,B|95:241|117:289|143:318|143:318|130:328|105:320,1,185.249991519928,6|0,0:0|0:0,0:0:0:0:
30,269,135296,1,8,0:0:0:0:
182,130,135436,1,0,0:0:0:0:
32,38,135575,1,2,0:0:0:0:
32,38,135715,1,0,0:0:0:0:
115,183,135854,1,8,0:0:0:0:
243,21,135994,1,0,0:0:0:0:
289,238,136133,6,0,B|315:249|352:237|352:237|388:244|411:272|411:272|444:280|477:266,1,185.249991519928,2|0,0:0|0:0,0:0:0:0:
481,263,136412,1,8,0:0:0:0:
226,304,136552,1,0,0:0:0:0:
386,104,136691,1,2,0:0:0:0:
386,104,136831,1,0,0:0:0:0:
367,343,136970,1,8,0:0:0:0:
226,108,137110,1,0,0:0:0:0:
207,297,137250,6,0,B|139:291|139:291|95:303|95:303|20:295,1,185.249991519928,6|0,0:0|0:0,0:0:0:0:
85,223,137529,1,8,0:0:0:0:
286,358,137668,1,0,0:0:0:0:
329,110,137808,1,2,0:0:0:0:
329,110,137947,1,0,0:0:0:0:
38,152,138087,2,0,B|90:134|128:158|128:158|178:135|232:165,1,185.249991519928,12|0,0:0|0:0,0:0:0:0:
272,237,138366,6,0,P|327:269|381:252,1,123.499994346619,2|0,0:0|0:0,0:0:0:0:
387,63,138645,2,0,P|332:31|278:48,1,123.499994346619,12|0,0:0|0:0,0:0:0:0:
429,314,138924,2,0,P|461:259|444:205,1,123.499994346619,2|0,0:0|0:0,0:0:0:0:
217,173,139203,2,0,P|185:228|202:282,1,123.499994346619,8|0,0:0|0:0,0:0:0:0:
279,124,139482,6,0,B|252:92|192:80|156:121|156:121|155:88|175:67,1,185.249991519928,6|0,0:0|0:0,0:0:0:0:
235,19,139761,1,8,0:0:0:0:
129,208,139901,1,0,0:0:0:0:
384,91,140040,1,2,0:0:0:0:
384,91,140180,1,0,0:0:0:0:
355,282,140319,2,0,B|303:299|262:274|262:274|223:246|170:268,1,185.249991519928,8|0,0:0|0:0,0:0:0:0:
418,329,140598,6,0,B|437:293|431:265|431:265|417:244|420:226|420:226|445:196|441:147,1,185.249991519928,6|0,0:0|0:0,0:0:0:0:
453,52,140877,1,8,0:0:0:0:
337,269,141017,1,0,0:0:0:0:
276,77,141157,1,2,0:0:0:0:
276,77,141296,1,0,0:0:0:0:
148,266,141436,1,8,0:0:0:0:
363,159,141575,1,0,0:0:0:0:
172,48,141715,6,0,P|84:64|104:144,1,185.249991519928,6|0,0:0|0:0,0:0:0:0:
192,135,141994,1,8,0:0:0:0:
48,300,142133,1,0,0:0:0:0:
260,288,142273,1,2,0:0:0:0:
260,288,142412,1,0,0:0:0:0:
125,347,142552,2,0,B|260:367|260:367|323:345,1,185.249991519928,12|0,0:0|0:0,0:0:0:0:
388,260,142831,6,0,P|407:182|376:148,1,123.499994346619,12|0,0:0|0:0,0:0:0:0:
181,46,143110,2,0,P|125:104|135:148,1,123.499994346619,12|0,0:0|0:0,0:0:0:0:
365,332,143389,2,0,P|424:330|459:282,1,123.499994346619,12|0,0:0|0:0,0:0:0:0:
53,116,143668,2,0,P|62:175|175:208,1,185.249991519928,8|0,0:0|0:0,0:0:0:0:
241,142,143947,6,0,P|298:106|269:180,1,185.249991519928,6|0,0:0|0:0,0:0:0:0:
241,239,144226,1,8,0:0:0:0:
361,44,144366,1,0,0:0:0:0:
388,284,144505,1,10,0:0:0:0:
235,67,144645,1,0,0:0:0:0:
447,176,144784,1,8,0:0:0:0:
264,319,144924,1,0,0:0:0:0:
223,79,145063,5,10,0:0:0:0:
470,251,145203,1,0,0:0:0:0:
181,335,145343,1,12,0:0:0:0:
388,111,145482,1,0,0:0:0:0:
374,342,145622,1,10,0:0:0:0:
131,140,145761,1,0,0:0:0:0:
369,225,145901,2,0,L|493:208,1,123.499994346619,8|0,0:0|0:0,0:0:0:0:
206,77,146180,5,14,0:0:0:0:
298,290,146319,1,0,0:0:0:0:
326,31,146459,1,2,0:0:0:0:
199,237,146598,1,0,0:0:0:0:
411,75,146738,5,8,0:0:0:0:
374,108,146808,1,8,0:0:0:0:
327,121,146877,1,8,0:0:0:0:
277,116,146947,1,8,0:0:0:0:
240,82,147017,1,8,0:0:0:0:
203,48,147087,1,8,0:0:0:0:
153,43,147157,1,8,0:0:0:0:
106,56,147226,1,8,0:0:0:0:
82,91,147296,5,12,0:0:0:0:
285,314,148412,6,0,B|396:364|469:278|469:278|425:303|387:286,1,285,0|0,0:0|0:0,0:0:0:0:
307,188,148970,1,0,0:0:0:0:
205,242,149110,1,0,0:0:0:0:
203,336,149250,1,0,0:0:0:0:
235,164,149389,2,0,B|188:137|126:151|126:151|151:115|199:100,1,190,0|0,0:0|0:0,0:0:0:0:
362,63,149808,6,0,B|382:97|381:124|381:124|357:161,1,95,0|0,0:0|0:0,0:0:0:0:
232,250,150087,2,0,B|215:224|215:224|214:197|234:163,1,95,0|0,0:0|0:0,0:0:0:0:
387,240,150366,1,0,0:0:0:0:
363,351,150505,1,0,0:0:0:0:
144,253,150645,6,0,B|128:203|154:158|154:158|131:123|146:69,1,190,0|0,0:0|0:0,0:0:0:0:
213,107,151063,1,0,0:0:0:0:
65,159,151203,1,0,0:0:0:0:
128,337,151343,1,0,0:0:0:0:
294,273,151482,1,0,0:0:0:0:
54,262,151622,1,0,0:0:0:0:
361,352,151761,5,8,0:0:0:0:
385,309,151831,1,8,0:0:0:0:
390,260,151901,1,8,0:0:0:0:
373,214,151970,1,8,0:0:0:0:
330,188,152040,5,8,0:0:0:0:
284,168,152110,1,8,0:0:0:0:
252,129,152180,1,8,0:0:0:0:
245,79,152250,1,8,0:0:0:0:
262,33,152319,1,8,0:0:0:0:
306,11,152389,1,8,0:0:0:0:
355,15,152459,1,8,0:0:0:0:
392,47,152529,1,8,0:0:0:0:
403,94,152598,5,8,0:0:0:0:
384,91,152668,1,8,0:0:0:0:
365,89,152738,1,8,0:0:0:0:
346,87,152808,1,8,0:0:0:0:
326,82,152877,6,0,B|372:126|375:180|355:220|355:220|341:196|314:186,1,185.249991519928,6|0,0:0|0:0,0:0:0:0:
231,243,153157,1,8,0:0:0:0:
379,338,153296,2,0,B|418:349|418:349|503:321,1,123.499994346619,0|2,0:0|0:0,0:0:0:0:
233,221,153575,1,0,0:0:0:0:
133,338,153715,2,0,B|93:349|93:349|9:321,1,123.499994346619,8|0,0:0|0:0,0:0:0:0:
238,197,153994,5,6,0:0:0:0:
370,220,154133,2,0,B|393:285|393:285|378:339,1,123.499994346619,0|8,0:0|0:0,0:0:0:0:
145,213,154412,2,0,B|72:179|73:88|155:55|155:55|126:30|90:42,1,265.999991882324,0|8,0:0|0:0,0:0:0:0:
173,137,154831,2,0,B|211:122|211:122|302:136,1,132.999995941162,8|0,0:0|0:0,0:0:0:0:
198,293,155110,5,6,0:0:0:0:
161,45,155250,1,0,0:0:0:0:
340,229,155389,1,8,0:0:0:0:
79,271,155529,1,0,0:0:0:0:
313,108,155668,1,2,0:0:0:0:
313,108,155808,2,0,B|330:158|330:158|328:193|328:193|342:240,1,123.499994346619,0|8,0:0|0:0,0:0:0:0:
470,368,156087,1,0,0:0:0:0:
470,368,156227,2,0,B|453:318|453:318|455:283|455:283|441:236,1,123.499994346619,6|0,0:0|0:0,0:0:0:0:
442,53,156505,5,8,0:0:0:0:
512,232,156645,2,0,B|505:158|394:155|375:228|375:228|349:209|310:212,1,246.999988693238,0|0,0:0|0:0,0:0:0:0:
153,382,157063,2,0,B|183:369|192:330|192:330|152:279|192:212,1,185.249991519928,8|0,0:0|0:0,0:0:0:0:
261,152,157343,5,6,0:0:0:0:
68,299,157482,1,0,0:0:0:0:
359,347,157622,1,8,0:0:0:0:
58,317,157761,1,0,0:0:0:0:
372,224,157901,5,2,0:0:0:0:
196,91,158040,1,0,0:0:0:0:
214,298,158180,2,0,B|263:320|306:290|306:290|347:264|398:280,1,185.249991519928,8|0,0:0|0:0,0:0:0:0:
455,320,158459,1,2,0:0:0:0:
175,357,158598,1,0,0:0:0:0:
470,301,158738,1,8,0:0:0:0:
163,228,158877,6,0,B|148:185|170:149|170:149|197:106|181:44|181:44|218:63|221:107,1,246.999988693238,0|0,0:0|0:0,0:0:0:0:
230,264,159296,2,0,P|178:307|124:299,1,123.499994346619,8|0,0:0|0:0,0:0:0:0:
75,218,159505,1,0,0:0:0:0:
75,218,159575,1,6,0:0:0:0:
237,371,159715,1,0,0:0:0:0:
208,134,159854,1,8,0:0:0:0:
40,317,159994,1,0,0:0:0:0:
319,283,160133,6,0,P|328:256|318:226,1,61.7499971733095,2|0,0:0|0:0,0:0:0:0:
131,120,160273,2,0,B|145:44|248:32|281:103|281:103|302:87|292:55,1,246.999988693238,0|0,0:0|0:0,0:0:0:0:
56,64,160691,1,2,0:0:0:0:
345,150,160831,1,0,0:0:0:0:
79,231,160970,1,8,0:0:0:0:
406,282,161110,2,0,B|404:216|404:216|417:182|417:182|415:97,1,185.249991519928,0|0,0:0|0:0,0:0:0:0:
343,54,161389,1,0,0:0:0:0:
324,242,161529,2,0,B|328:380|328:380|367:331,1,185.249991519928,0|0,0:0|0:0,0:0:0:0:
371,327,161808,5,2,0:0:0:0:
172,342,161947,1,2,0:0:0:0:
386,303,162087,1,2,0:0:0:0:
115,273,162226,1,2,0:0:0:0:
428,196,162366,1,2,0:0:0:0:
84,155,162505,1,2,0:0:0:0:
466,114,162645,1,2,0:0:0:0:
43,86,162784,1,2,0:0:0:0:
388,43,162924,5,2,0:0:0:0:
393,85,162994,1,2,0:0:0:0:
398,127,163063,1,2,0:0:0:0:
403,169,163133,1,2,0:0:0:0:
409,211,163203,5,8,0:0:0:0:
365,176,163273,1,8,0:0:0:0:
309,169,163343,1,8,0:0:0:0:
258,191,163412,1,8,0:0:0:0:
234,241,163482,5,8,0:0:0:0:
193,295,163552,1,8,0:0:0:0:
125,303,163622,1,8,0:0:0:0:
66,269,163691,1,8,0:0:0:0:
46,203,163761,5,8,0:0:0:0:
67,138,163831,1,8,0:0:0:0:
127,105,163901,1,8,0:0:0:0:
193,115,163970,1,8,0:0:0:0:
238,165,164040,6,0,P|239:197|232:228,1,57,12|0,0:0|0:0,0:0:0:0:
220,302,164319,2,0,B|217:325|219:341|228:361|240:377|259:389|289:401|321:399|347:381|366:343|370:318|360:297|350:270|332:257|311:246|311:246|364:278|397:252|397:252|406:229|442:209|464:220,1,475,6|0,0:0|0:0,0:0:0:0:
220,302,165157,2,0,B|268:253|264:170|204:122|204:122|221:157|221:190|207:222|187:240|149:260|88:271|54:233|34:193|34:147|44:103|103:80,1,598.49998173523,6|0,0:0|0:0,0:0:0:0:
174,46,166273,1,6,0:0:0:0:
332,129,166412,1,0,0:0:0:0:
332,129,166482,1,0,0:0:0:0:
332,129,166552,5,8,0:0:0:0:
130,159,166691,1,0,0:0:0:0:
348,267,166831,1,0,0:0:0:0:
255,297,166970,1,0,0:0:0:0:
158,252,167110,1,10,0:0:0:0:
400,337,167250,1,0,0:0:0:0:
55,367,167389,5,14,0:0:0:0:
441,137,167668,5,12,0:0:0:0:
114,89,167947,5,8,0:0:0:0:
273,342,168087,1,0,0:0:0:0:
281,293,168157,1,0,0:0:0:0:
288,245,168226,1,0,0:0:0:0:
295,196,168296,1,0,0:0:0:0:
302,147,168366,1,0,0:0:0:0:
309,98,168436,1,0,0:0:0:0:
316,50,168505,6,0,B|244:62|244:62|201:87|201:87|134:96,1,185.249991519928,6|0,0:0|0:0,0:0:0:0:
63,114,168784,1,8,0:0:0:0:
295,196,168924,1,0,0:0:0:0:
101,300,169063,1,2,0:0:0:0:
101,300,169203,1,0,0:0:0:0:
309,329,169343,1,8,0:0:0:0:
185,141,169482,1,0,0:0:0:0:
27,368,169622,6,0,B|99:385|99:385|218:353,1,185.249991519928,2|0,0:0|0:0,0:0:0:0:
288,321,169901,1,8,0:0:0:0:
93,182,170040,1,0,0:0:0:0:
341,78,170180,1,2,0:0:0:0:
341,78,170319,1,0,0:0:0:0:
183,258,170459,1,8,0:0:0:0:
181,38,170598,1,0,0:0:0:0:
436,162,170738,6,0,B|475:234|419:299|419:299|422:275|412:255,1,185.249991519928,6|0,0:0|0:0,0:0:0:0:
339,211,171017,1,8,0:0:0:0:
206,346,171157,1,0,0:0:0:0:
459,370,171296,1,2,0:0:0:0:
459,370,171436,1,0,0:0:0:0:
226,226,171575,2,0,B|195:274|205:329|240:360|240:360|211:356|191:331,1,185.249991519928,12|0,0:0|0:0,0:0:0:0:
104,288,171854,6,0,P|105:216|147:166,1,123.499994346619,2|0,0:0|0:0,0:0:0:0:
421,353,172133,2,0,P|358:388|293:376,1,123.499994346619,12|0,0:0|0:0,0:0:0:0:
463,124,172412,2,0,P|495:175|492:236,1,123.499994346619,2|0,0:0|0:0,0:0:0:0:
323,55,172691,2,0,B|361:75|399:68|399:68|444:29|501:51,1,185.249991519928,8|0,0:0|0:0,0:0:0:0:
383,168,172970,6,0,B|306:159|306:159|254:171|254:171|199:167,1,185.249991519928,6|0,0:0|0:0,0:0:0:0:
177,166,173250,1,8,0:0:0:0:
267,297,173389,1,0,0:0:0:0:
245,42,173529,1,2,0:0:0:0:
245,42,173668,1,0,0:0:0:0:
338,234,173808,1,8,0:0:0:0:
103,216,173947,1,0,0:0:0:0:
386,172,174087,6,0,P|412:250|345:314,1,185.249991519928,2|0,0:0|0:0,0:0:0:0:
266,289,174366,1,8,0:0:0:0:
466,329,174505,1,0,0:0:0:0:
315,122,174645,1,2,0:0:0:0:
315,122,174784,1,0,0:0:0:0:
205,346,174924,1,8,0:0:0:0:
239,62,175063,1,0,0:0:0:0:
143,218,175203,6,0,B|123:351|123:351|85:278,1,185.249991519928,2|0,0:0|0:0,0:0:0:0:
72,162,175482,1,8,0:0:0:0:
274,286,175622,1,0,0:0:0:0:
320,75,175761,1,2,0:0:0:0:
320,75,175901,1,0,0:0:0:0:
476,289,176040,2,0,B|426:254|381:277|381:277|341:296|292:265,1,185.249991519928,12|0,0:0|0:0,0:0:0:0:
235,184,176319,6,0,P|312:179|351:220,1,123.499994346619,12|0,0:0|0:0,0:0:0:0:
190,347,176598,2,0,P|113:352|74:311,1,123.499994346619,12|0,0:0|0:0,0:0:0:0:
167,146,176877,2,0,P|208:107|273:98,1,123.499994346619,12|0,0:0|0:0,0:0:0:0:
101,190,177157,2,0,B|78:155|93:113|93:113|87:94|72:80|72:80|90:47|69:1,1,185.249991519928,12|0,0:0|0:0,0:0:0:0:
223,88,177436,2,0,B|252:131|239:179|239:179|266:213|255:270,1,185.249991519928,6|0,0:0|0:0,0:0:0:0:
201,323,177715,5,12,0:0:0:0:
392,213,177854,1,0,0:0:0:0:
85,189,177994,1,14,0:0:0:0:
406,227,178133,1,0,0:0:0:0:
58,317,178273,1,12,0:0:0:0:
466,278,178412,1,0,0:0:0:0:
68,189,178552,1,14,0:0:0:0:
392,310,178691,1,0,0:0:0:0:
264,61,178831,5,14,0:0:0:0:
169,307,178970,1,0,0:0:0:0:
259,81,179110,1,14,0:0:0:0:
308,326,179250,1,0,0:0:0:0:
147,92,179389,1,8,0:0:0:0:
46,347,179529,1,0,0:0:0:0:
335,171,179668,5,14,0:0:0:0:
26,163,179808,1,0,0:0:0:0:
355,157,179947,1,12,0:0:0:0:
37,175,180087,1,0,0:0:0:0:
442,104,180226,5,8,0:0:0:0:
401,75,180296,1,8,0:0:0:0:
352,67,180366,1,8,0:0:0:0:
302,75,180436,1,8,0:0:0:0:
267,110,180505,1,8,0:0:0:0:
226,139,180575,1,8,0:0:0:0:
177,147,180645,1,8,0:0:0:0:
127,139,180715,1,8,0:0:0:0:
92,104,180784,5,12,0:0:0:0:
332,259,181901,6,0,B|354:193|354:193|326:51,1,209.000006378174,6|8,0:0|0:0,0:0:0:0:
259,296,182319,1,0,0:0:0:0:
259,296,182459,2,0,P|309:338|363:331,1,104.500003189087,0|0,0:0|0:0,0:0:0:0:
137,153,182738,2,0,B|24:160|24:160|59:126,1,156.750004783631,8|0,0:0|0:0,0:0:0:0:
80,234,183017,6,0,B|207:224|207:224|244:207|244:207|293:222,1,209.000006378174,2|8,0:0|0:0,0:0:0:0:
145,309,183436,1,0,0:0:0:0:
359,271,183575,1,2,0:0:0:0:
212,136,183715,1,0,0:0:0:0:
314,338,183854,2,0,P|375:349|436:275,1,156.750004783631,8|0,0:0|0:0,0:0:0:0:
435,170,184133,6,0,B|438:137|473:107|473:107|542:158|489:244,1,209.000006378174,6|8,0:0|0:0,0:0:0:0:
414,59,184552,1,0,0:0:0:0:
414,59,184691,2,0,P|451:36|519:43,1,104.500003189087,0|0,0:0|0:0,0:0:0:0:
348,133,184970,2,0,P|267:141|247:78,1,156.750004783631,8|0,0:0|0:0,0:0:0:0:
316,13,185250,6,0,B|235:7|235:7|179:29|179:29|105:26,1,209.000006378174,2|8,0:0|0:0,0:0:0:0:
23,104,185668,1,0,0:0:0:0:
220,157,185808,1,2,0:0:0:0:
39,233,185947,1,0,0:0:0:0:
278,208,186087,2,0,P|298:153|281:110,1,104.500003189087,8|0,0:0|0:0,0:0:0:0:
140,297,186366,6,0,B|295:318|295:318|342:287,1,209.000006378174,6|8,0:0|0:0,0:0:0:0:
439,187,186784,1,0,0:0:0:0:
417,359,186924,1,0,0:0:0:0:
278,208,187063,1,0,0:0:0:0:
499,296,187203,2,0,B|523:192|523:192|510:141,1,156.750004783631,8|0,0:0|0:0,0:0:0:0:
466,69,187482,6,0,B|299:76|299:76|356:108,1,209.000006378174,2|8,0:0|0:0,0:0:0:0:
421,146,187901,1,0,0:0:0:0:
200,180,188040,1,2,0:0:0:0:
407,323,188180,1,0,0:0:0:0:
128,352,188319,2,0,P|110:289|128:254,1,104.500003189087,8|0,0:0|0:0,0:0:0:0:
279,130,188598,6,0,B|241:104|241:104|130:91,1,156.750004783631,6|0,0:0|0:0,0:0:0:0:
53,84,188877,1,8,0:0:0:0:
281,231,189017,2,0,L|395:224,1,104.500003189087,0|0,0:0|0:0,0:0:0:0:
468,166,189296,1,0,0:0:0:0:
213,290,189436,2,0,B|251:316|251:316|361:328,1,156.750004783631,8|0,0:0|0:0,0:0:0:0:
445,339,189715,5,2,0:0:0:0:
194,206,189854,2,0,L|84:218,1,104.500003189087,0|8,0:0|0:0,0:0:0:0:
43,289,190133,1,0,0:0:0:0:
286,162,190273,2,0,P|305:102|279:64,1,104.500003189087,2|0,0:0|0:0,0:0:0:0:
90,124,190552,2,0,P|69:170|89:216,1,104.500003189087,8|0,0:0|0:0,0:0:0:0:
281,253,190761,1,8,0:0:0:0:
281,253,190831,5,14,0:0:0:0:
108,328,190970,1,0,0:0:0:0:
368,329,191110,1,8,0:0:0:0:
89,344,191250,1,0,0:0:0:0:
374,251,191389,1,2,0:0:0:0:
133,171,191529,1,0,0:0:0:0:
237,340,191668,1,8,0:0:0:0:
291,107,191808,1,0,0:0:0:0:
72,253,191947,5,6,0:0:0:0:
57,57,192087,1,0,0:0:0:0:
232,222,192226,1,8,0:0:0:0:
258,31,192366,1,0,0:0:0:0:
39,153,192505,1,2,0:0:0:0:
359,174,192645,1,0,0:0:0:0:
8,272,192784,2,0,P|-3:202|20:171,1,104.500003189087,8|0,0:0|0:0,0:0:0:0:
262,323,193063,6,0,B|154:351|154:351|108:336,1,156.750004783631,6|0,0:0|0:0,0:0:0:0:
85,320,193343,1,8,0:0:0:0:
372,343,193482,1,0,0:0:0:0:
233,197,193622,2,0,B|341:225|341:225|387:210,1,156.750004783631,2|0,0:0|0:0,0:0:0:0:
398,196,193901,1,8,0:0:0:0:
128,141,194040,1,0,0:0:0:0:
425,82,194180,5,6,0:0:0:0:
425,82,194319,1,0,0:0:0:0:
67,209,194459,2,0,B|48:144|48:144|84:43,1,156.750004783631,8|0,0:0|0:0,0:0:0:0:
159,24,194738,5,8,0:0:0:0:
221,22,194808,1,8,0:0:0:0:
274,52,194877,1,8,0:0:0:0:
286,113,194947,1,8,0:0:0:0:
256,168,195017,1,8,0:0:0:0:
215,216,195087,1,8,0:0:0:0:
206,278,195157,2,0,P|207:312|225:346,1,52.2500015945435,8|8,0:0|0:0,0:0:0:0:
189,108,195296,6,0,B|204:65|158:19|158:19|84:90|133:166|133:166|111:188|80:195|80:195|144:209|175:256|170:321|170:321|82:283|39:346|39:346|59:392|122:375,1,731.499977676392,12|0,0:0|0:0,0:0:0:0:
424,212,196970,6,0,B|381:221|340:193|340:193|315:187|290:199|290:199|251:172|204:184|204:184|228:199|232:219,1,265.999991882324,14|0,0:0|0:0,0:0:0:0:
454,377,197389,2,0,B|489:305|420:209|420:209|452:250|438:305,1,265.999991882324,12|0,0:0|0:0,0:0:0:0:
