osu file format v14

[General]
AudioFilename: audio.mp3
AudioLeadIn: 0
PreviewTime: 60749
Countdown: 0
SampleSet: Soft
StackLeniency: 0.7
Mode: 0
LetterboxInBreaks: 0
WidescreenStoryboard: 1

[Editor]
Bookmarks: 1029,61308,101494,130517,164284,181866
DistanceSpacing: 1.2
BeatDivisor: 4
GridSize: 8
TimelineZoom: 1.9

[Metadata]
Title:Aoiro Step
TitleUnicode:アオイロステップ
Artist:i.o
ArtistUnicode:i.o
Creator:dkblaze
Version:Collab Hard
Source:アオリオ
Tags:-karUpA- karUpA Yuuma Ogura Yui muya- gazimal Shikibe Mayu Kazato Asa Shizuku- Kumocha shirokumocha アドリブ ad:lib eroge visual novel AORIO Japanese Video game i.o.sound opening theme pop rock
BeatmapID:3582312
BeatmapSetID:1733209

[Difficulty]
HPDrainRate:4
CircleSize:3
OverallDifficulty:6
ApproachRate:8
SliderMultiplier:1.4
SliderTickRate:1

[Events]
//Background and Video events
0,0,"4BG.jpg",0,0
//Break Periods
2,81401,91813
//Storyboard Layer 0 (Background)
//Storyboard Layer 1 (Fail)
//Storyboard Layer 2 (Pass)
//Storyboard Layer 3 (Foreground)
//Storyboard Layer 4 (Overlay)
//Storyboard Sound Samples

[TimingPoints]
1029,279.06976744186,4,2,2,70,1,0
1029,-125,4,2,2,70,0,0
9959,-100,4,2,2,80,0,0
23354,-125,4,2,2,65,0,0
32284,-111.111111111111,4,2,2,70,0,0
38982,-111.111111111111,4,2,2,80,0,0
41215,-125,4,2,2,70,0,0
50145,-111.111111111111,4,2,2,70,0,0
52377,-83.3333333333333,4,2,1,70,0,0
53215,-111.111111111111,4,2,1,70,0,0
53633,-111.111111111111,4,2,2,70,0,0
61308,-100,4,2,1,85,0,1
78052,-100,4,2,2,80,0,1
79168,-100,4,2,2,80,0,0
92563,-125,4,2,2,70,0,0
101494,-111.111111111111,4,2,2,70,0,0
108191,-111.111111111111,4,2,2,80,0,0
110424,-125,4,2,2,70,0,0
119354,-111.111111111111,4,2,2,70,0,0
121587,-83.3333333333333,4,2,1,70,0,0
122424,-111.111111111111,4,2,1,70,0,0
122842,-111.111111111111,4,2,2,70,0,0
130517,-100,4,2,1,85,0,1
147261,-100,4,2,2,80,0,1
148377,-125,4,2,2,80,0,0
151726,-100,4,2,2,80,0,0
154377,-100,4,2,1,80,0,0
154447,-100,4,2,2,80,0,0
155075,-100,4,2,1,80,0,0
155145,-100,4,2,2,80,0,0
158424,-100,4,2,1,80,0,0
158494,-100,4,2,2,80,0,0
158842,-100,4,2,1,80,0,0
158912,-100,4,2,2,80,0,0
160238,-100,4,2,1,80,0,0
160308,-100,4,2,2,80,0,0
164005,-100,4,2,2,70,0,0
164284,-125,4,2,2,70,0,0
165122,-142.857142857143,4,2,2,70,0,0
167354,-100,4,2,2,70,0,0
168470,-100,4,2,1,85,0,1
181866,-100,4,2,2,80,0,0
195261,-142.857142857143,4,2,2,80,0,0
196935,-83.3333333333333,4,2,2,80,0,0
197354,-166.666666666667,4,2,2,80,0,0
197912,-166.666666666667,4,2,2,5,0,0

[Colours]
Combo1 : 255,255,115
Combo2 : 128,255,255
Combo3 : 255,142,199
Combo4 : 255,156,108

[HitObjects]
39,173,1029,6,0,B|121:154|121:154|184:175|184:175|280:152,1,224,6|0,3:2|0:0,0:0:0:0:
465,83,2145,2,0,P|429:155|413:308,2,224,6|0|6,3:2|0:0|3:2,0:0:0:0:
465,83,4377,6,0,L|401:67,1,56,0|2,0:0|0:0,0:0:0:0:
374,84,4587,1,2,0:0:0:0:
374,84,4656,2,0,L|316:71,1,56,2|2,0:0|0:0,0:0:0:0:
237,36,4935,1,8,0:3:0:0:
206,119,5075,1,8,0:3:0:0:
265,187,5215,1,4,0:3:0:0:
226,269,5354,1,4,0:3:0:0:
270,347,5494,6,0,B|330:250|458:262|359:326|461:327,1,224,6|2,3:2|0:0,0:0:0:0:
451,326,6610,1,6,3:2:0:0:
464,236,6749,2,0,L|468:200,2,28,2|2|2,0:0|0:0|0:0,0:0:0:0:
377,273,7028,2,0,L|364:155,1,112,8|4,0:3|0:3,0:0:0:0:
377,81,7447,2,0,P|331:86|320:92,1,56,8|4,0:3|0:3,0:0:0:0:
234,137,7726,5,10,3:2:0:0:
23,110,8145,1,2,3:2:0:0:
0,324,8563,1,10,3:2:0:0:
211,351,8982,1,2,3:2:0:0:
234,137,9401,2,0,L|169:128,1,56,10|8,3:2|0:0,0:0:0:0:
136,146,9610,1,8,0:0:0:0:
136,146,9680,2,0,L|87:138,3,28,8|8|8|8,0:0|0:0|0:0|0:0,0:0:0:0:
63,121,9959,6,0,P|58:58|127:34,1,140,6|8,3:2|0:0,0:0:0:0:
218,0,10377,2,0,L|235:154,1,140,2|0,0:0|3:0,0:0:0:0:
300,235,10796,2,0,L|292:313,1,70,10|0,0:0|0:0,0:0:0:0:
193,356,11075,6,0,B|145:343|145:343|107:362|107:362|43:347,2,140,2|10|0,3:2|0:1|3:0,0:0:0:0:
292,304,11773,1,0,3:0:0:0:
201,241,11912,2,0,L|132:224,1,70,10|0,0:1|0:0,0:0:0:0:
233,139,12191,6,0,P|287:182|372:168,1,140,2|8,3:2|0:0,0:0:0:0:
457,222,12610,2,0,P|467:153|412:87,1,140,2|0,0:0|3:0,0:0:0:0:
353,13,13028,2,0,P|332:29|325:86,1,70,10|0,0:0|0:0,0:0:0:0:
354,177,13308,6,0,L|502:146,1,140,2|10,3:2|0:1,0:0:0:0:
496,254,13726,1,0,3:0:0:0:
443,338,13866,2,0,P|395:323|381:306,1,70,2|0,0:1|3:0,0:0:0:0:
282,344,14145,2,0,P|278:299|295:264,1,70,8|2,0:0|0:1,0:0:0:0:
187,227,14424,6,0,P|223:173|299:162,1,140,6|8,3:2|0:0,0:0:0:0:
346,61,14842,2,0,L|206:40,1,140,2|0,0:0|3:0,0:0:0:0:
92,19,15261,2,0,L|104:115,1,70,10|0,0:0|0:0,0:0:0:0:
187,178,15540,6,0,L|209:29,2,140,2|10|0,3:2|0:1|3:0,0:0:0:0:
88,221,16238,1,0,3:0:0:0:
122,318,16377,2,0,P|175:306|212:302,1,70,10|0,0:1|0:0,0:0:0:0:
300,347,16656,6,0,P|364:344|403:264,1,140,2|8,3:2|0:0,0:0:0:0:
499,233,17075,2,0,P|464:179|375:185,1,140,2|0,0:0|3:0,0:0:0:0:
301,118,17494,2,0,P|271:174|321:248,1,140,10|0,0:0|3:0,0:0:0:0:
403,285,17912,6,0,B|432:237|432:237|417:135,1,140,2|0,0:0|3:0,0:0:0:0:
301,118,18331,2,0,L|290:206,1,70,2|0,0:0|3:0,0:0:0:0:
189,233,18610,2,0,L|180:163,1,70,10|8,0:1|0:0,0:0:0:0:
156,140,18819,1,8,0:0:0:0:
156,140,18889,6,0,P|117:116|21:142,2,140,6|8|0,3:2|0:0|3:0,0:0:0:0:
189,233,19587,1,0,3:0:0:0:
119,307,19726,1,8,0:0:0:0:
20,288,19866,1,0,0:0:0:0:
90,211,20005,6,0,L|78:62,2,140,6|8|0,3:2|0:0|3:0,0:0:0:0:
119,307,20703,1,0,3:0:0:0:
189,233,20842,1,8,0:0:0:0:
237,326,20982,1,0,0:0:0:0:
307,251,21122,6,0,P|340:219|439:232,1,140,6|8,3:2|0:0,0:0:0:0:
381,321,21540,1,0,0:0:0:0:
307,251,21680,2,0,L|315:170,1,70,4|0,3:2|3:0,0:0:0:0:
391,110,21959,2,0,L|383:29,1,70,8|0,0:0|0:0,0:0:0:0:
276,13,22238,6,0,B|224:17|224:17|196:39|196:39|129:46,1,140,6|8,3:2|0:0,0:0:0:0:
194,152,22656,1,0,3:0:0:0:
145,253,22796,2,0,L|109:245,3,35,8|8|8|8,0:0|0:0|0:0|0:0,0:0:0:0:
78,238,23075,2,0,L|69:194,3,35,8|8|8|8,0:0|0:0|0:0|0:0,0:0:0:0:
35,160,23354,6,0,P|28:113|97:69,1,112,4|10,3:2|0:0,0:0:0:0:
206,50,23912,2,0,P|254:65|283:64,1,56,0|0,3:0|3:0,0:0:0:0:
345,43,24191,2,0,P|381:30|412:33,1,56,10|0,0:0|0:0,0:0:0:0:
473,91,24470,6,0,P|459:142|451:215,1,112,0|10,3:0|0:0,0:0:0:0:
375,263,24889,1,0,0:0:0:0:
375,263,25028,2,0,P|384:308|387:336,1,56,0|0,3:0|3:0,0:0:0:0:
467,370,25308,1,10,0:0:0:0:
289,307,25587,6,0,L|231:294,1,56,0|0,3:0|0:0,0:0:0:0:
149,336,25866,1,10,0:0:0:0:
149,336,26005,1,0,0:0:0:0:
92,260,26145,2,0,L|85:202,1,56,0|0,3:0|3:0,0:0:0:0:
155,138,26424,1,10,0:0:0:0:
155,138,26563,1,0,0:0:0:0:
245,187,26703,6,0,P|300:213|360:194,1,112,0|10,3:0|0:0,0:0:0:0:
408,121,27122,2,0,P|367:106|340:112,2,56,0|0|0,0:0|3:0|3:0,0:0:0:0:
482,193,27540,1,10,0:0:0:0:
409,15,27819,5,4,3:2:0:0:
409,15,27959,2,0,L|341:24,1,56,0|10,0:0|0:0,0:0:0:0:
275,76,28238,1,0,0:0:0:0:
184,55,28377,2,0,L|193:-3,1,56,0|0,3:0|3:0,0:0:0:0:
275,76,28656,2,0,L|283:131,1,56,10|0,0:0|0:0,0:0:0:0:
303,239,28935,6,0,P|252:207|188:215,1,112,0|10,3:0|0:0,0:0:0:0:
120,253,29354,2,0,P|79:270|57:269,2,56,0|0|0,0:0|3:0|3:0,0:0:0:0:
201,209,29773,2,0,L|192:153,1,56,10|0,0:0|0:0,0:0:0:0:
147,69,30052,6,0,P|104:106|106:171,1,112,0|10,3:0|0:0,0:0:0:0:
120,253,30470,1,0,0:0:0:0:
202,305,30610,2,0,P|231:294|262:291,1,56,0|0,3:0|3:0,0:0:0:0:
336,328,30889,2,0,P|365:339|396:342,1,56,10|0,0:0|0:0,0:0:0:0:
481,299,31168,5,4,3:2:0:0:
354,171,31447,1,10,0:0:0:0:
504,68,31726,2,0,L|493:165,1,84,6|0,3:2|0:0,0:0:0:0:
484,187,32005,2,0,L|447:181,3,28,8|8|8|8,0:0|0:0|0:0|0:0,0:0:0:0:
412,143,32284,6,0,L|286:120,1,125.999996154785,6|10,3:2|0:0,0:0:0:0:
171,92,32703,1,2,0:0:0:0:
101,209,32842,2,0,L|227:186,1,125.999996154785,2|10,3:2|0:0,0:0:0:0:
293,260,33261,1,0,0:0:0:0:
354,171,33401,6,0,P|387:117|361:50,1,125.999996154785,2|8,3:2|0:0,0:0:0:0:
285,0,33819,2,0,P|252:54|278:121,1,125.999996154785,2|2,0:0|3:2,0:0:0:0:
354,171,34238,2,0,L|421:158,1,62.9999980773926,10|0,0:0|0:0,0:0:0:0:
467,261,34517,5,0,3:0:0:0:
467,261,34656,2,0,P|456:298|452:331,1,62.9999980773926,2|8,0:0|0:0,0:0:0:0:
364,367,34935,1,2,0:0:0:0:
282,311,35075,1,0,3:0:0:0:
282,311,35215,2,0,P|277:279|267:249,2,62.9999980773926,2|8|2,3:2|0:0|0:0,0:0:0:0:
189,361,35633,6,0,P|129:356|91:296,1,125.999996154785,2|8,3:2|0:0,0:0:0:0:
4,255,36052,2,0,P|38:205|109:202,1,125.999996154785,2|2,0:0|3:2,0:0:0:0:
203,177,36470,2,0,L|189:263,1,62.9999980773926,10|0,0:0|0:0,0:0:0:0:
277,304,36749,5,2,3:2:0:0:
277,304,36889,2,0,L|358:273,1,62.9999980773926,2|8,0:0|0:0,0:0:0:0:
434,240,37168,1,2,0:0:0:0:
351,176,37308,1,0,3:0:0:0:
351,176,37447,2,0,L|283:120,1,62.9999980773926,2|8,3:2|0:0,0:0:0:0:
203,177,37726,1,2,0:0:0:0:
203,177,37866,6,0,L|178:328,1,125.999996154785,2|8,3:2|0:0,0:0:0:0:
97,237,38284,2,0,L|117:112,1,125.999996154785,2|2,0:0|3:2,0:0:0:0:
136,17,38703,1,10,0:0:0:0:
363,77,38982,5,2,3:2:0:0:
363,77,39122,2,0,P|394:78|432:63,1,62.9999980773926,2|8,3:2|0:0,0:0:0:0:
492,146,39401,2,0,P|475:172|469:212,1,62.9999980773926,2|0,3:2|0:0,0:0:0:0:
367,223,39680,2,0,P|352:195|320:170,1,62.9999980773926,2|8,3:2|0:0,0:0:0:0:
268,266,39959,6,0,P|203:306|134:288,1,125.999996154785,6|10,3:2|3:2,0:0:0:0:
56,246,40377,1,10,3:2:0:0:
161,81,40656,1,10,3:2:0:0:
328,174,40935,2,0,L|399:152,1,62.9999980773926,8|4,0:3|0:3,0:0:0:0:
473,128,41215,6,0,P|456:57|316:81,1,224,4|10,3:2|0:0,0:0:0:0:
188,204,42052,1,0,3:0:0:0:
332,300,42331,2,0,B|372:322|372:322|410:243|410:243|386:148,1,224,2|10,3:2|0:0,0:0:0:0:
217,74,43168,2,0,L|138:66,1,56,0|0,3:0|0:0,0:0:0:0:
70,50,43447,6,0,B|38:107|81:153|81:153|93:205|70:231|70:231|56:215|33:218,1,224,2|10,3:2|0:0,0:0:0:0:
155,359,44284,1,0,3:0:0:0:
263,223,44563,2,0,P|227:176|161:178,1,112,2|0,3:2|0:0,0:0:0:0:
290,310,45122,2,0,P|326:357|392:355,1,112,10|0,0:0|3:0,0:0:0:0:
494,266,45680,6,0,B|515:138|435:201|467:38,1,224,2|10,3:2|0:0,0:0:0:0:
464,50,46517,1,2,3:2:0:0:
327,130,46796,2,0,P|245:73|113:74,1,224,2|10,3:2|0:0,0:0:0:0:
124,70,47633,1,0,3:0:0:0:
45,239,47912,6,0,B|15:298|15:298|171:270,1,224,2|10,3:2|0:0,0:0:0:0:
330,242,48749,1,2,3:2:0:0:
234,133,49028,2,0,L|223:210,1,56,10|0,0:0|3:0,0:0:0:0:
335,61,49308,2,0,L|345:123,1,56,8|0,0:0|3:0,0:0:0:0:
241,10,49587,2,0,L|208:4,3,28,8|8|8|8,0:0|0:0|0:0|0:0,0:0:0:0:
185,46,49866,2,0,L|152:40,3,28,8|8|8|8,0:0|0:0|0:0|0:0,0:0:0:0:
131,19,50145,6,0,B|93:14|93:14|58:33|58:33|-9:25,1,125.999996154785,6|10,3:2|0:0,0:0:0:0:
0,133,50563,1,0,0:0:0:0:
48,229,50703,2,0,L|114:211,1,62.9999980773926,2|0,3:2|3:0,0:0:0:0:
193,155,50982,2,0,P|211:202|210:228,1,62.9999980773926,10|0,0:0|0:0,0:0:0:0:
181,314,51261,6,0,P|219:349|298:344,1,125.999996154785,2|8,3:2|0:0,0:0:0:0:
387,366,51680,2,0,P|397:323|386:285,1,62.9999980773926,2|8,3:2|0:0,0:0:0:0:
451,221,51959,1,6,0:3:0:0:
451,221,52098,2,0,P|428:200|387:196,1,62.9999980773926,4|6,0:3|0:3,0:0:0:0:
394,304,52377,6,0,B|340:292|340:292|294:302|294:302|212:284,1,167.999994873047,6|8,0:0|0:0,0:0:0:0:
137,243,52796,2,0,B|90:201|121:120|121:120|150:163,1,167.999994873047,6|0,3:2|3:0,0:0:0:0:
230,188,53215,2,0,P|272:142|239:20,1,188.999994232178,14|8,0:0|0:3,0:0:0:0:
223,24,53703,1,8,0:3:0:0:
223,24,53773,2,0,L|144:19,1,62.9999980773926,8|8,0:3|0:3,0:0:0:0:
58,117,54052,2,0,L|144:125,1,62.9999980773926,6|0,3:2|3:0,0:0:0:0:
198,186,54331,2,0,L|234:188,3,31.4999990386963,8|8|8|8,0:0|0:0|0:0|0:0,0:0:0:0:
245,215,54610,6,0,P|294:247|380:233,1,125.999996154785,6|8,3:2|0:0,0:0:0:0:
451,296,55028,2,0,B|473:254|473:254|458:156,1,125.999996154785,2|0,0:0|3:0,0:0:0:0:
440,78,55447,1,10,0:0:0:0:
440,78,55726,2,0,P|393:64|371:56,1,62.9999980773926,2|0,3:2|0:0,0:0:0:0:
310,134,56005,2,0,P|253:147|230:156,1,62.9999980773926,8|0,0:0|3:0,0:0:0:0:
181,67,56284,1,0,0:0:0:0:
181,67,56424,1,0,3:0:0:0:
96,134,56563,2,0,P|57:120|34:108,1,62.9999980773926,10|0,0:0|0:0,0:0:0:0:
55,247,56842,6,0,P|125:223|204:214,1,125.999996154785,6|8,3:2|0:0,0:0:0:0:
254,288,57261,2,0,L|234:359,1,62.9999980773926,2|8,0:0|0:0,0:0:0:0:
346,236,57540,1,0,3:0:0:0:
346,236,57680,2,0,L|333:163,1,62.9999980773926,10|0,0:0|3:0,0:0:0:0:
438,274,57959,6,0,P|470:295|500:296,1,62.9999980773926,10|0,0:0|0:0,0:0:0:0:
505,186,58238,2,0,P|473:165|443:164,1,62.9999980773926,10|0,0:0|3:0,0:0:0:0:
334,173,58517,2,0,P|302:194|272:195,1,62.9999980773926,10|0,0:0|3:0,0:0:0:0:
220,109,58796,2,0,P|252:88|282:87,1,62.9999980773926,10|0,0:0|0:0,0:0:0:0:
372,35,59075,6,0,L|354:186,1,125.999996154785,6|8,3:2|0:0,0:0:0:0:
343,265,59494,1,0,0:0:0:0:
278,343,59633,2,0,L|209:330,1,62.9999980773926,0|0,3:0|3:0,0:0:0:0:
174,240,59912,2,0,L|107:227,1,62.9999980773926,8|0,0:0|0:0,0:0:0:0:
23,291,60191,6,0,P|2:258|5:231,1,62.9999980773926,6|0,3:2|3:0,0:0:0:0:
49,151,60469,1,8,0:0:0:0:
112,227,60610,1,8,0:0:0:0:
201,179,60749,2,0,L|237:195,3,31.4999990386963,10|8|8|8,0:0|0:0|0:0|0:0,0:0:0:0:
246,226,61027,2,0,L|282:216,3,31.4999990386963,10|8|10|8,0:0|0:0|0:0|0:0,0:0:0:0:
310,245,61308,6,0,P|340:177|321:93,1,140,4|10,3:2|0:1,0:0:0:0:
441,85,61726,2,0,P|465:158|533:204,1,140,0|0,0:0|3:0,0:0:0:0:
476,306,62145,1,10,0:1:0:0:
476,306,62284,1,0,0:0:0:0:
379,371,62424,6,0,P|314:346|228:334,1,140,0|8,3:0|0:0,0:0:0:0:
230,217,62842,2,0,P|161:232|95:271,1,140,2|0,0:1|3:0,0:0:0:0:
20,174,63261,2,0,P|60:152|81:129,1,70,10|0,0:1|0:0,0:0:0:0:
177,76,63540,6,0,L|161:235,1,140,0|10,3:0|0:0,0:0:0:0:
271,243,63959,2,0,L|285:103,1,140,0|0,0:0|3:0,0:0:0:0:
368,47,64377,1,10,0:0:0:0:
368,47,64656,6,0,P|392:80|400:123,1,70,0|0,3:0|0:0,0:0:0:0:
482,154,64935,2,0,P|475:194|450:230,1,70,10|0,0:0|3:0,0:0:0:0:
488,330,65215,2,0,P|455:354|412:362,1,70,2|0,0:0|3:0,0:0:0:0:
302,342,65494,2,0,P|278:309|270:266,1,70,10|0,0:0|0:0,0:0:0:0:
310,149,65773,6,0,P|341:81|315:-5,1,140,4|10,3:2|0:1,0:0:0:0:
210,4,66191,2,0,P|179:72|205:158,1,140,0|0,0:0|3:0,0:0:0:0:
237,243,66610,1,10,0:1:0:0:
237,243,66749,1,0,0:0:0:0:
350,277,66889,6,0,L|500:242,1,140,0|10,3:0|0:1,0:0:0:0:
501,120,67308,2,0,L|364:151,1,140,2|0,0:1|3:0,0:0:0:0:
256,148,67726,2,0,L|265:67,1,70,10|0,0:1|0:0,0:0:0:0:
171,4,68005,6,0,P|118:54|30:46,1,140,0|10,3:0|0:0,0:0:0:0:
29,167,68424,2,0,P|79:220|71:308,1,140,0|0,0:0|3:0,0:0:0:0:
2,371,68842,1,10,0:0:0:0:
2,371,69122,6,0,L|87:354,1,70,0|0,3:0|0:0,0:0:0:0:
135,288,69401,2,0,L|220:271,1,70,10|0,0:0|3:0,0:0:0:0:
299,343,69680,2,0,L|384:326,1,70,2|0,0:0|3:0,0:0:0:0:
433,215,69959,2,0,L|518:198,1,70,10|0,0:0|0:0,0:0:0:0:
448,86,70238,6,0,B|397:70|397:70|357:81|357:81|291:66,1,140,4|10,3:2|0:1,0:0:0:0:
216,117,70656,2,0,B|165:101|165:101|125:112|125:112|59:97,1,140,0|0,0:0|3:0,0:0:0:0:
14,193,71075,1,10,0:1:0:0:
14,193,71215,1,0,0:0:0:0:
72,280,71354,6,0,P|120:323|194:313,1,140,0|10,3:0|0:1,0:0:0:0:
276,244,71773,2,0,P|324:201|398:211,1,140,2|0,0:1|3:0,0:0:0:0:
486,275,72191,2,0,L|464:355,1,70,10|0,0:1|0:0,0:0:0:0:
355,293,72470,6,0,B|333:247|333:247|362:149,1,140,0|10,3:0|0:0,0:0:0:0:
468,177,72889,2,0,B|490:131|490:131|461:33,1,140,0|0,0:0|3:0,0:0:0:0:
355,0,73308,2,0,L|336:77,1,70,10|0,0:0|0:0,0:0:0:0:
236,118,73587,5,0,3:0:0:0:
79,39,73866,1,10,0:0:0:0:
0,196,74145,1,2,0:0:0:0:
157,275,74424,1,10,0:0:0:0:
236,118,74703,6,0,P|249:81|246:39,1,70,4|0,3:2|0:0,0:0:0:0:
146,52,74982,2,0,P|102:39|60:42,1,70,8|0,0:0|0:0,0:0:0:0:
80,142,75261,2,0,P|67:186|70:228,1,70,8|0,0:0|3:0,0:0:0:0:
170,208,75540,2,0,P|214:221|256:218,1,70,8|0,0:0|0:0,0:0:0:0:
328,132,75819,6,0,P|372:119|414:122,1,70,8|0,0:0|0:0,0:0:0:0:
468,196,76098,2,0,P|481:240|478:282,1,70,8|0,0:0|3:0,0:0:0:0:
404,336,76377,2,0,P|360:349|318:346,1,70,8|0,0:0|3:0,0:0:0:0:
264,272,76656,2,0,P|251:228|254:186,1,70,8|0,0:0|0:0,0:0:0:0:
328,132,76935,6,0,P|346:190|353:282,1,140,12|8,0:0|0:0,0:0:0:0:
323,376,77354,1,0,3:0:0:0:
216,355,77494,1,8,0:0:0:0:
216,355,77563,1,8,0:0:0:0:
216,355,77633,2,0,P|192:363|158:372,1,35,8|8,0:0|0:0,0:0:0:0:
152,322,77773,2,0,L|111:306,3,35,8|8|8|8,0:0|0:0|0:0|0:0,0:0:0:0:
67,338,78052,5,0,3:0:0:0:
256,192,79168,5,6,3:2:0:0:
256,192,79238,12,0,80842,3:0:0:0:
45,190,92563,6,0,L|106:178,1,56,6|0,3:2|0:0,0:0:0:0:
185,238,92842,1,10,0:0:0:0:
185,238,92982,1,2,0:0:0:0:
271,191,93122,2,0,L|258:124,1,56,2|0,3:2|3:0,0:0:0:0:
179,80,93401,1,10,0:0:0:0:
179,80,93540,1,0,0:0:0:0:
257,13,93680,6,0,P|310:13|369:68,1,112,2|8,3:2|0:0,0:0:0:0:
411,132,94098,2,0,P|432:174|416:246,1,112,2|2,0:0|3:2,0:0:0:0:
370,320,94517,1,10,0:0:0:0:
271,191,94796,6,0,L|202:176,1,56,2|2,3:2|0:0,0:0:0:0:
130,220,95075,2,0,L|61:205,1,56,8|2,0:0|0:0,0:0:0:0:
52,121,95354,1,0,3:0:0:0:
52,121,95494,1,2,3:2:0:0:
135,65,95633,1,8,0:0:0:0:
135,65,95773,1,2,0:0:0:0:
234,90,95912,6,0,L|358:59,1,112,2|8,3:2|0:0,0:0:0:0:
442,25,96331,2,0,P|452:73|409:142,1,112,2|2,0:0|3:2,0:0:0:0:
366,196,96749,2,0,P|355:223|362:270,1,56,10|0,0:0|0:0,0:0:0:0:
406,345,97028,5,2,3:2:0:0:
406,345,97168,1,2,0:0:0:0:
302,364,97308,1,8,0:0:0:0:
302,364,97447,1,2,0:0:0:0:
200,347,97587,2,0,L|197:277,1,56,2|0,3:2|3:0,0:0:0:0:
258,208,97866,2,0,L|261:138,1,56,10|0,0:0|0:0,0:0:0:0:
199,69,98145,6,0,P|157:32|88:44,1,112,2|8,3:2|0:0,0:0:0:0:
29,96,98563,2,0,L|58:223,1,112,2|2,0:0|3:2,0:0:0:0:
80,302,98982,1,10,0:0:0:0:
258,208,99261,6,0,P|329:197|396:196,1,112,2|8,3:2|0:0,0:0:0:0:
453,257,99680,1,2,0:0:0:0:
381,331,99819,2,0,P|328:320|302:320,1,56,2|0,3:2|3:0,0:0:0:0:
227,345,100098,2,0,P|176:352|155:350,1,56,8|0,0:0|0:0,0:0:0:0:
80,302,100377,5,0,3:0:0:0:
258,208,100656,1,12,0:0:0:0:
83,95,100935,2,0,L|67:172,1,56,6|0,3:2|3:0,0:0:0:0:
143,208,101215,2,0,L|183:201,3,28,8|8|8|8,0:0|0:0|0:0|0:0,0:0:0:0:
199,224,101494,6,0,P|245:217|262:202,1,62.9999980773926,6|0,3:2|0:0,0:0:0:0:
318,129,101773,1,10,0:0:0:0:
318,129,101912,1,2,0:0:0:0:
410,84,102052,2,0,P|423:132|419:157,1,62.9999980773926,0|2,3:0|3:2,0:0:0:0:
391,241,102331,1,8,0:0:0:0:
391,241,102470,1,2,0:0:0:0:
476,319,102610,6,0,P|422:283|357:290,1,125.999996154785,2|8,3:2|0:0,0:0:0:0:
272,331,103028,2,0,P|221:366|159:362,1,125.999996154785,2|2,0:0|3:2,0:0:0:0:
69,324,103447,2,0,L|60:250,1,62.9999980773926,10|0,0:0|0:0,0:0:0:0:
112,166,103726,5,2,3:2:0:0:
112,166,103866,2,0,L|196:152,1,62.9999980773926,2|8,0:0|0:0,0:0:0:0:
280,192,104145,1,2,0:0:0:0:
337,103,104284,1,0,3:0:0:0:
337,103,104424,2,0,L|402:112,2,62.9999980773926,2|8|2,3:2|0:0|0:0,0:0:0:0:
239,37,104842,6,0,P|213:89|231:162,1,125.999996154785,2|8,3:2|0:0,0:0:0:0:
312,214,105261,2,0,P|338:266|320:339,1,125.999996154785,2|2,0:0|3:2,0:0:0:0:
232,370,105680,2,0,L|163:353,1,62.9999980773926,10|0,0:0|0:0,0:0:0:0:
71,310,105959,5,2,3:2:0:0:
71,310,106098,2,0,L|120:258,1,62.9999980773926,2|8,0:0|0:0,0:0:0:0:
103,161,106377,1,2,0:0:0:0:
203,200,106517,1,0,3:0:0:0:
203,200,106656,2,0,L|222:268,1,62.9999980773926,2|8,3:2|0:0,0:0:0:0:
316,310,106935,1,2,0:0:0:0:
232,370,107075,6,0,L|107:338,1,125.999996154785,2|10,3:2|0:0,0:0:0:0:
21,290,107494,2,0,P|6:234|55:162,1,125.999996154785,2|2,0:0|3:2,0:0:0:0:
131,91,107912,1,10,0:0:0:0:
316,181,108191,5,2,3:2:0:0:
316,181,108331,2,0,P|347:182|385:167,1,62.9999980773926,2|8,3:2|0:0,0:0:0:0:
473,136,108610,2,0,P|458:108|426:83,1,62.9999980773926,2|0,3:2|0:0,0:0:0:0:
356,23,108889,2,0,P|339:49|333:89,1,62.9999980773926,2|8,3:2|0:0,0:0:0:0:
377,171,109168,6,0,P|397:217|373:303,1,125.999996154785,6|10,3:2|3:2,0:0:0:0:
333,375,109587,1,10,3:2:0:0:
167,258,109866,1,10,3:2:0:0:
230,44,110145,2,0,L|239:130,1,62.9999980773926,8|4,0:3|0:3,0:0:0:0:
249,205,110424,6,0,B|188:186|188:186|151:200|151:200|33:169,1,224,4|10,3:2|0:0,0:0:0:0:
129,348,111261,1,0,3:0:0:0:
313,316,111540,2,0,B|382:292|411:217|411:217|448:267|491:269,1,224,2|10,3:2|0:0,0:0:0:0:
276,182,112377,2,0,P|249:169|217:168,1,56,0|0,3:0|0:0,0:0:0:0:
132,194,112656,6,0,B|75:124|121:34|121:34|157:87,1,224,2|10,3:2|0:0,0:0:0:0:
220,270,113494,1,0,3:0:0:0:
348,346,113773,2,0,P|370:312|363:233,1,112,2|0,3:2|0:0,0:0:0:0:
288,123,114331,2,0,P|266:89|273:10,1,112,10|0,0:0|3:0,0:0:0:0:
422,74,114889,6,0,P|453:129|357:243,1,224,2|10,3:2|0:0,0:0:0:0:
367,242,115726,1,2,3:2:0:0:
233,97,116005,2,0,B|106:9|146:135|24:47,1,224,2|10,3:2|0:0,0:0:0:0:
27,49,116842,1,0,3:0:0:0:
27,247,117122,6,0,B|62:273|62:273|135:239|135:239|238:269,1,224,2|10,3:2|0:0,0:0:0:0:
336,361,117959,1,2,3:2:0:0:
434,279,118238,2,0,P|393:267|368:255,1,56,10|0,0:0|3:0,0:0:0:0:
290,191,118517,2,0,P|296:169|300:131,1,56,8|0,0:0|3:0,0:0:0:0:
354,35,118796,2,0,L|387:27,3,28,8|8|8|8,0:0|0:0|0:0|0:0,0:0:0:0:
416,58,119075,2,0,L|449:66,3,28,8|8|8|8,0:0|0:0|0:0|0:0,0:0:0:0:
482,59,119354,6,0,P|487:120|446:166,1,125.999996154785,6|10,3:2|0:0,0:0:0:0:
368,240,119773,1,0,0:0:0:0:
292,165,119912,2,0,P|262:149|231:148,1,62.9999980773926,2|0,3:2|3:0,0:0:0:0:
129,186,120191,2,0,L|146:259,1,62.9999980773926,10|0,0:0|0:0,0:0:0:0:
239,308,120470,6,0,L|261:178,1,125.999996154785,2|8,3:2|0:0,0:0:0:0:
330,99,120889,2,0,L|314:29,1,62.9999980773926,2|8,3:2|0:0,0:0:0:0:
214,7,121168,2,0,L|143:24,2,62.9999980773926,6|4|6,0:3|0:3|0:3,0:0:0:0:
173,125,121587,6,0,P|133:177|15:166,1,167.999994873047,6|8,0:0|0:0,0:0:0:0:
71,67,122005,2,0,L|110:255,1,167.999994873047,6|0,3:2|3:0,0:0:0:0:
135,343,122424,6,0,B|227:365|206:257|312:276,1,188.999994232178,14|8,0:0|0:3,0:0:0:0:
326,286,122912,1,8,0:3:0:0:
326,286,122982,2,0,L|388:274,1,62.9999980773926,8|8,0:3|0:3,0:0:0:0:
467,183,123261,2,0,L|404:171,1,62.9999980773926,6|0,3:2|3:0,0:0:0:0:
337,97,123540,2,0,L|302:105,3,31.4999990386963,8|8|8|8,0:0|0:0|0:0|0:0,0:0:0:0:
285,133,123819,6,0,P|241:169|161:162,1,125.999996154785,6|8,3:2|0:0,0:0:0:0:
73,105,124238,2,0,B|54:91|54:91|70:208,1,125.999996154785,2|0,0:0|3:0,0:0:0:0:
86,299,124656,1,10,0:0:0:0:
86,299,124935,6,0,P|125:286|157:281,1,62.9999980773926,2|0,3:2|0:0,0:0:0:0:
217,199,125215,2,0,P|272:214|298:215,1,62.9999980773926,8|0,0:0|3:0,0:0:0:0:
349,303,125494,1,0,0:0:0:0:
349,303,125633,1,0,3:0:0:0:
416,214,125773,2,0,P|450:203|487:197,1,62.9999980773926,10|0,0:0|0:0,0:0:0:0:
424,99,126052,6,0,P|344:127|295:136,1,125.999996154785,6|8,3:2|0:0,0:0:0:0:
208,88,126470,2,0,L|226:4,1,62.9999980773926,2|8,0:0|0:0,0:0:0:0:
94,81,126749,1,0,3:0:0:0:
94,81,126889,2,0,L|106:144,1,62.9999980773926,10|0,0:0|3:0,0:0:0:0:
122,266,127168,6,0,P|91:261|68:240,1,62.9999980773926,10|0,0:0|0:0,0:0:0:0:
187,195,127447,2,0,P|217:199|240:220,1,62.9999980773926,10|0,0:0|3:0,0:0:0:0:
291,316,127726,2,0,P|321:346|355:349,1,62.9999980773926,10|0,0:0|3:0,0:0:0:0:
453,311,128005,2,0,P|423:281|389:278,1,62.9999980773926,10|0,0:0|0:0,0:0:0:0:
291,316,128284,6,0,L|309:165,1,125.999996154785,6|8,3:2|0:0,0:0:0:0:
256,100,128703,1,0,0:0:0:0:
256,100,128842,2,0,L|325:87,1,62.9999980773926,0|0,3:0|3:0,0:0:0:0:
394,148,129122,2,0,L|461:135,1,62.9999980773926,8|0,0:0|0:0,0:0:0:0:
512,236,129401,6,0,P|501:283|496:306,1,62.9999980773926,6|0,3:2|3:0,0:0:0:0:
420,375,129680,1,8,0:0:0:0:
335,299,129819,1,8,0:0:0:0:
241,352,129959,2,0,L|190:335,3,31.4999990386963,10|8|8|8,0:0|0:0|0:0|0:0,0:0:0:0:
183,325,130238,2,0,L|151:335,3,31.4999990386963,10|8|10|8,0:0|0:0|0:0|0:0,0:0:0:0:
98,356,130517,6,0,P|68:288|87:204,1,140,4|10,3:2|0:1,0:0:0:0:
126,114,130935,2,0,P|179:150|202:243,1,140,0|0,0:0|3:0,0:0:0:0:
187,332,131354,1,10,0:1:0:0:
187,332,131494,1,0,0:0:0:0:
290,280,131633,6,0,P|355:255|441:243,1,140,0|8,3:0|0:0,0:0:0:0:
506,165,132052,2,0,P|445:130|377:115,1,140,2|0,0:1|3:0,0:0:0:0:
291,54,132470,2,0,P|273:96|268:143,1,70,10|0,0:1|0:0,0:0:0:0:
170,162,132749,6,0,P|163:80|147:24,1,140,0|10,3:0|0:0,0:0:0:0:
38,49,133168,2,0,P|45:130|61:187,1,140,0|0,0:0|3:0,0:0:0:0:
132,267,133587,1,10,0:0:0:0:
132,267,133866,6,0,L|212:247,1,70,0|0,3:0|0:0,0:0:0:0:
275,345,134145,2,0,L|296:275,1,70,10|0,0:0|3:0,0:0:0:0:
430,272,134424,2,0,L|388:204,1,70,2|0,0:0|3:0,0:0:0:0:
474,118,134703,2,0,L|380:84,1,70,10|0,0:0|0:0,0:0:0:0:
328,15,134982,6,0,P|238:40|171:54,1,140,4|10,3:2|0:1,0:0:0:0:
87,8,135401,2,0,B|37:49|37:49|60:92|76:136,1,140,0|0,0:0|3:0,0:0:0:0:
138,211,135819,1,10,0:1:0:0:
138,211,135958,1,0,0:0:0:0:
229,145,136098,6,0,P|252:236|265:294,1,140,0|10,3:0|0:1,0:0:0:0:
184,361,136517,2,0,P|139:326|36:336,1,140,2|0,0:1|3:0,0:0:0:0:
7,225,136935,2,0,L|21:146,1,70,10|0,0:1|0:0,0:0:0:0:
94,71,137215,6,0,B|146:61|146:61|182:80|182:80|243:67,1,140,0|10,3:0|0:0,0:0:0:0:
315,12,137633,2,0,P|358:59|334:145,1,140,0|0,0:0|3:0,0:0:0:0:
257,195,138051,1,10,0:0:0:0:
257,195,138331,6,0,P|215:186|189:180,1,70,0|0,3:0|0:0,0:0:0:0:
109,259,138610,2,0,P|124:311|132:340,1,70,10|0,0:0|3:0,0:0:0:0:
228,376,138889,2,0,P|263:364|311:353,1,70,2|0,0:0|3:0,0:0:0:0:
345,255,139168,2,0,P|374:287|400:320,1,70,10|0,0:0|0:0,0:0:0:0:
476,380,139447,6,0,P|486:327|505:225,1,140,4|10,3:2|0:1,0:0:0:0:
479,133,139865,2,0,B|428:117|428:117|388:128|388:128|322:113,1,140,0|0,0:0|3:0,0:0:0:0:
274,37,140284,1,10,0:1:0:0:
274,37,140424,1,0,0:0:0:0:
186,106,140563,6,0,P|203:195|213:250,1,140,0|10,3:0|0:1,0:0:0:0:
166,346,140982,2,0,P|214:303|288:313,1,140,2|0,0:1|3:0,0:0:0:0:
375,375,141400,2,0,P|385:350|400:309,1,70,10|0,0:1|0:0,0:0:0:0:
341,212,141680,6,0,P|288:194|197:157,1,140,0|10,3:0|0:0,0:0:0:0:
107,207,142098,2,0,B|64:176|64:176|81:126|96:71,1,140,0|0,0:0|3:0,0:0:0:0:
172,17,142517,2,0,P|206:28|253:39,1,70,10|0,0:0|0:0,0:0:0:0:
348,62,142796,5,0,3:0:0:0:
413,230,143075,1,10,0:0:0:0:
245,295,143354,1,2,0:0:0:0:
180,127,143633,1,10,0:0:0:0:
348,62,143912,6,0,P|378:72|424:87,1,70,4|0,3:2|0:0,0:0:0:0:
501,155,144191,2,0,P|499:202|477:237,1,70,8|0,0:0|0:0,0:0:0:0:
406,298,144470,2,0,P|396:267|376:220,1,70,8|0,0:0|3:0,0:0:0:0:
292,164,144749,2,0,P|283:198|276:232,1,70,8|0,0:0|0:0,0:0:0:0:
208,321,145028,6,0,P|178:313|136:302,1,70,8|0,0:0|0:0,0:0:0:0:
36,347,145308,2,0,P|23:329|28:275,1,70,8|0,0:0|3:0,0:0:0:0:
110,212,145586,2,0,P|116:177|122:143,1,70,8|0,0:0|3:0,0:0:0:0:
29,78,145866,2,0,P|53:61|85:34,1,70,8|0,0:0|0:0,0:0:0:0:
190,71,146145,6,0,P|249:32|320:51,1,140,12|8,0:0|0:0,0:0:0:0:
372,140,146563,1,0,3:0:0:0:
463,204,146703,1,8,0:0:0:0:
463,204,146773,1,8,0:0:0:0:
463,204,146842,2,0,L|452:254,1,35,8|8,0:0|0:0,0:0:0:0:
409,257,146982,2,0,P|413:273|417:291,3,35,8|8|8|8,0:0|0:0|0:0|0:0,0:0:0:0:
443,340,147261,1,0,3:0:0:0:
256,192,148377,6,0,B|302:180|302:180|346:189|346:189|443:161,1,168,4|0,3:2|0:0,0:0:0:0:
439,73,148935,2,0,P|469:84|492:107,2,56,10|2|2,0:0|0:0|0:0,0:0:0:0:
348,29,149354,2,0,P|292:66|236:59,1,112,2|0,3:2|0:0,0:0:0:0:
148,27,149773,1,2,3:2:0:0:
25,147,150052,1,10,0:0:0:0:
119,293,150331,1,2,3:2:0:0:
274,217,150610,6,0,P|328:190|438:190,1,168,4|2,3:2|0:0,0:0:0:0:
470,282,151168,2,0,L|456:361,2,56,10|0|0,0:0|0:0|3:0,0:0:0:0:
498,88,151726,6,0,L|452:79,3,35,8|8|8|8,3:2|0:0|0:0|0:0,0:0:0:0:
420,105,152005,2,0,L|374:96,3,35,8|8|8|8,3:2|0:0|0:0|0:0,0:0:0:0:
340,110,152284,2,0,P|331:72|339:41,1,70,8|8,3:2|0:0,0:0:0:0:
232,6,152563,2,0,P|202:54|198:120,1,105,4|4,3:3|0:3,0:0:0:0:
219,139,152842,6,0,P|241:207|204:281,1,140,6|10,3:2|0:0,0:0:0:0:
127,327,153261,1,0,0:0:0:0:
228,375,153401,2,0,P|260:364|301:354,1,70,2|0,3:2|3:0,0:0:0:0:
404,380,153680,2,0,P|408:347|418:288,1,70,10|2,0:0|0:0,0:0:0:0:
511,254,153959,6,0,P|451:269|375:204,1,140,2|10,3:2|0:1,0:0:0:0:
275,232,154377,2,0,B|265:187|265:187|278:144|278:144|265:89,1,140,2|2,0:0|3:1,0:0:0:0:
341,13,154796,1,10,0:1:0:0:
341,13,154935,1,0,0:0:0:0:
439,67,155075,6,0,P|470:57|527:41,2,70,2|2|8,3:2|0:0|0:0,0:0:0:0:
387,167,155494,1,2,0:0:0:0:
280,133,155633,2,0,P|206:147|119:160,1,140,2|8,3:2|0:0,0:0:0:0:
100,261,156052,2,0,P|122:296|137:328,1,70,2|0,0:0|3:0,0:0:0:0:
232,377,156331,2,0,P|250:348|255:298,1,70,2|8,0:1|0:0,0:0:0:0:
339,237,156610,2,0,P|329:184|313:94,1,140,2|0,3:1|3:0,0:0:0:0:
243,12,157028,1,10,0:1:0:0:
115,214,157308,5,4,3:2:0:0:
115,214,157377,1,2,0:0:0:0:
115,214,157447,1,2,0:0:0:0:
23,130,157587,2,0,P|34:99|47:43,1,70,10|0,0:0|0:0,0:0:0:0:
132,16,157866,2,0,P|164:8|209:-3,1,70,2|0,3:2|3:0,0:0:0:0:
282,75,158145,2,0,P|286:115|267:147,1,70,8|0,0:0|0:0,0:0:0:0:
304,248,158424,6,0,P|247:232|157:213,1,140,2|10,3:2|0:1,0:0:0:0:
64,174,158842,2,0,B|18:218|18:218|45:262|57:289,1,140,2|0,0:0|3:0,0:0:0:0:
119,376,159261,2,0,P|160:366|200:357,1,70,10|8,0:1|0:0,0:0:0:0:
214,343,159470,1,8,0:0:0:0:
214,343,159540,6,0,P|253:352|291:359,1,70,4|2,3:2|0:0,0:0:0:0:
392,381,159819,2,0,P|398:353|384:312,1,70,8|2,0:0|0:0,0:0:0:0:
359,205,160098,1,2,3:2:0:0:
251,236,160238,2,0,B|208:204|208:204|213:182|231:111,1,140,2|0,3:2|0:0,0:0:0:0:
222,8,160656,6,0,B|305:-8|285:36|366:28,1,140,2|10,3:2|0:1,0:0:0:0:
466,0,161075,2,0,P|476:54|484:84,1,70,0|0,3:0|0:0,0:0:0:0:
476,180,161354,2,0,P|454:163|413:138,1,70,2|10,3:2|0:1,0:0:0:0:
314,184,161633,1,0,0:0:0:0:
386,269,161773,6,0,P|377:320|373:350,1,70,4|2,3:2|0:0,0:0:0:0:
262,377,162052,2,0,P|267:342|273:307,1,70,8|2,0:0|0:0,0:0:0:0:
186,236,162331,2,0,P|164:244|148:248,3,35,2|2|2|2,3:2|0:0|3:2|0:0,0:0:0:0:
122,275,162610,2,0,P|105:270|88:264,3,35,10|2|2|2,0:0|0:0|0:0|0:0,0:0:0:0:
48,267,162889,6,0,P|44:251|36:220,3,35,2|2|2|2,3:2|0:0|3:2|0:0,0:0:0:0:
9,200,163168,2,0,P|18:184|27:158,3,35,10|8|8|8,0:0|0:0|0:0|0:0,0:0:0:0:
25,122,163447,6,0,P|43:115|69:103,8,35,8|8|8|8|8|8|8|8|0,0:0|0:0|0:0|0:0|0:0|0:0|0:0|0:0|0:0,0:0:0:0:
292,71,164284,6,0,B|356:47|308:-64|153:24|252:158,1,280,6|0,3:2|0:0,0:0:0:0:
342,190,165122,5,6,3:2:0:0:
156,290,166238,5,6,3:2:0:0:
232,361,166377,2,0,P|229:372|226:384,2,24.4999992523194,2|2|2,0:0|0:0|0:0,0:0:0:0:
331,336,166656,2,0,P|317:296|294:232,1,97.9999970092774,2|8,0:0|0:3,0:0:0:0:
349,163,167075,2,0,P|318:151|294:141,1,48.9999985046387,4|4,0:3|0:3,0:0:0:0:
242,71,167354,5,10,3:2:0:0:
22,147,167633,1,10,3:2:0:0:
98,367,167912,1,10,3:2:0:0:
193,308,168052,1,8,0:0:0:0:
193,308,168122,1,8,0:0:0:0:
193,308,168191,2,0,P|209:315|228:320,3,35,8|8|8|8,0:0|0:0|0:0|0:0,0:0:0:0:
272,351,168470,6,0,P|285:310|322:199,1,140,4|10,3:2|0:1,0:0:0:0:
419,174,168889,2,0,P|368:178|294:120,1,140,0|0,0:0|3:0,0:0:0:0:
250,33,169307,1,10,0:1:0:0:
250,33,169446,1,0,0:0:0:0:
152,89,169586,6,0,P|175:180|188:238,1,140,0|10,3:0|0:1,0:0:0:0:
116,313,170005,2,0,P|170:280|265:295,1,140,2|0,0:1|3:0,0:0:0:0:
306,377,170423,2,0,P|327:369|384:354,1,70,10|0,0:1|0:0,0:0:0:0:
484,373,170703,6,0,B|467:322|467:322|482:284|482:284|461:225,1,140,0|10,3:0|0:0,0:0:0:0:
502,135,171121,2,0,B|417:114|452:176|350:171,1,140,0|0,0:0|3:0,0:0:0:0:
271,125,171539,1,10,0:0:0:0:
271,125,171819,6,0,P|263:90|255:45,1,70,0|0,3:0|0:0,0:0:0:0:
152,15,172098,2,0,P|167:67|170:94,1,70,10|0,0:0|3:0,0:0:0:0:
62,117,172377,2,0,P|55:152|48:190,1,70,2|0,0:0|3:0,0:0:0:0:
116,275,172656,2,0,P|155:264|197:250,1,70,10|0,0:0|0:0,0:0:0:0:
271,185,172935,6,0,P|329:209|343:283,1,140,4|10,3:2|0:1,0:0:0:0:
296,379,173353,2,0,B|244:365|244:365|206:379|206:379|138:361,1,140,0|0,0:0|3:0,0:0:0:0:
53,380,173772,1,10,0:1:0:0:
53,380,173912,1,0,0:0:0:0:
4,279,174051,6,0,P|21:190|31:135,1,140,0|10,3:0|0:1,0:0:0:0:
4,53,174470,2,0,B|61:12|61:12|134:35,1,140,2|0,0:1|3:0,0:0:0:0:
192,123,174888,2,0,P|202:98|217:57,1,70,10|0,0:1|0:0,0:0:0:0:
316,4,175168,6,0,P|342:91|363:145,1,140,0|10,3:0|0:0,0:0:0:0:
450,178,175587,2,0,P|394:178|342:241,1,140,0|0,0:0|3:0,0:0:0:0:
351,349,176005,2,0,P|315:334|279:320,1,70,10|0,0:0|0:0,0:0:0:0:
174,333,176284,5,0,3:0:0:0:
73,184,176563,1,10,0:0:0:0:
222,83,176842,1,2,0:0:0:0:
323,232,177121,1,10,0:0:0:0:
174,333,177400,6,0,P|149:315|104:284,1,70,4|0,3:2|0:0,0:0:0:0:
1,345,177679,2,0,P|8:310|14:276,1,70,12|0,0:0|0:0,0:0:0:0:
0,149,177959,6,0,P|34:147|85:137,1,70,12|0,0:0|3:0,0:0:0:0:
112,22,178238,2,0,P|146:51|176:72,1,70,12|0,0:0|0:0,0:0:0:0:
230,174,178517,6,0,P|258:163|309:145,1,70,12|0,0:0|0:0,0:0:0:0:
320,25,178796,2,0,P|359:51|393:71,1,70,12|0,0:0|3:0,0:0:0:0:
502,86,179075,6,0,P|482:138|474:168,1,70,12|0,0:0|3:0,0:0:0:0:
496,276,179354,2,0,P|471:265|424:249,1,70,12|0,0:0|0:0,0:0:0:0:
331,172,179633,6,0,P|312:265|302:327,1,140,12|8,0:0|0:0,0:0:0:0:
219,381,180051,1,0,3:0:0:0:
152,297,180191,2,0,P|134:287|117:274,3,35,8|8|8|8,0:0|0:0|0:0|0:0,0:0:0:0:
88,307,180470,2,0,P|75:316|58:327,3,35,8|8|8|8,0:0|0:0|0:0|0:0,0:0:0:0:
10,299,180749,1,0,3:0:0:0:
45,142,181866,6,0,P|107:125|188:102,1,140,6|8,3:2|0:0,0:0:0:0:
268,41,182284,2,0,P|316:111|289:169,1,140,2|0,0:0|3:0,0:0:0:0:
211,235,182703,2,0,L|219:313,1,70,10|0,0:0|0:0,0:0:0:0:
318,356,182982,6,0,B|366:343|366:343|404:362|404:362|468:347,2,140,2|10|0,3:2|0:1|3:0,0:0:0:0:
219,304,183680,1,0,3:0:0:0:
310,241,183819,2,0,L|379:224,1,70,10|0,0:1|0:0,0:0:0:0:
278,139,184098,6,0,P|224:182|139:168,1,140,2|8,3:2|0:0,0:0:0:0:
54,222,184517,2,0,P|44:153|99:87,1,140,2|0,0:0|3:0,0:0:0:0:
158,13,184935,2,0,P|179:29|186:86,1,70,10|0,0:0|0:0,0:0:0:0:
157,177,185215,6,0,L|9:146,1,140,2|10,3:2|0:1,0:0:0:0:
15,254,185633,1,0,3:0:0:0:
68,338,185773,2,0,P|116:323|130:306,1,70,2|0,0:1|3:0,0:0:0:0:
229,344,186052,2,0,P|233:299|216:264,1,70,8|2,0:0|0:1,0:0:0:0:
324,227,186331,6,0,P|288:173|212:162,1,140,6|8,3:2|0:0,0:0:0:0:
165,61,186749,2,0,L|305:40,1,140,2|0,0:0|3:0,0:0:0:0:
419,19,187168,2,0,L|407:115,1,70,10|0,0:0|0:0,0:0:0:0:
324,178,187447,6,0,L|302:29,2,140,2|10|0,3:2|0:1|3:0,0:0:0:0:
423,221,188145,1,0,3:0:0:0:
389,318,188284,2,0,P|336:306|299:302,1,70,10|0,0:1|0:0,0:0:0:0:
211,347,188563,6,0,P|147:344|108:264,1,140,2|8,3:2|0:0,0:0:0:0:
12,233,188982,2,0,P|47:179|136:185,1,140,2|0,0:0|3:0,0:0:0:0:
210,118,189401,2,0,P|240:174|190:248,1,140,10|0,0:0|3:0,0:0:0:0:
108,285,189819,6,0,B|79:237|79:237|94:135,1,140,2|0,0:0|3:0,0:0:0:0:
210,118,190238,2,0,L|221:206,1,70,2|0,0:0|3:0,0:0:0:0:
322,233,190517,2,0,L|331:163,1,70,10|8,0:0|0:0,0:0:0:0:
355,140,190726,1,8,0:0:0:0:
355,140,190796,6,0,P|394:116|490:142,2,140,6|8|0,3:2|0:0|3:0,0:0:0:0:
322,233,191494,1,0,3:0:0:0:
392,307,191633,1,8,0:0:0:0:
491,288,191773,1,0,0:0:0:0:
421,211,191912,6,0,L|433:62,2,140,6|8|0,3:2|0:0|3:0,0:0:0:0:
392,307,192610,1,0,3:0:0:0:
322,233,192749,1,8,0:0:0:0:
274,326,192889,1,0,0:0:0:0:
204,251,193028,6,0,P|171:219|72:232,1,140,6|8,3:2|0:0,0:0:0:0:
130,321,193447,1,0,0:0:0:0:
204,251,193587,2,0,L|196:170,1,70,4|0,3:2|3:0,0:0:0:0:
120,110,193866,2,0,L|128:29,1,70,8|0,0:0|0:0,0:0:0:0:
235,13,194145,6,0,B|287:17|287:17|315:39|315:39|382:46,1,140,6|8,3:2|0:0,0:0:0:0:
317,152,194563,1,0,3:0:0:0:
366,253,194703,2,0,L|402:245,3,35,8|8|8|8,0:0|0:0|0:0|0:0,0:0:0:0:
433,238,194982,2,0,L|442:194,3,35,8|8|8|8,0:0|0:0|0:0|0:0,0:0:0:0:
486,150,195261,6,0,L|436:158,1,48.9999985046387,4|0,3:2|0:0,0:0:0:0:
352,110,195540,2,0,L|302:118,1,48.9999985046387
205,123,195819,2,0,L|202:150,3,24.4999992523194,2|2|2|2,0:0|0:0|0:0|0:0,0:0:0:0:
172,172,196098,2,0,L|175:199,3,24.4999992523194,2|2|2|2,0:0|0:0|0:0|0:0,0:0:0:0:
191,237,196377,2,0,L|188:264,6,24.4999992523194,2|2|2|2|2|2|2,0:0|0:0|0:0|0:0|0:0|0:0|0:0,0:0:0:0:
294,175,196935,6,0,P|373:219|353:309,1,167.999994873047,2|8,3:2|0:0,0:0:0:0:
302,377,197354,2,0,B|246:306|148:326,1,167.999994873047,6|0,3:2|0:0,0:0:0:0:
