osu file format v14

[General]
AudioFilename: audio.mp3
AudioLeadIn: 0
PreviewTime: 60240
Countdown: 0
SampleSet: Normal
StackLeniency: 0.7
Mode: 1
LetterboxInBreaks: 0
WidescreenStoryboard: 1

[Editor]
DistanceSpacing: 0.8
BeatDivisor: 4
GridSize: 16
TimelineZoom: 2.799999

[Metadata]
Title:Aoiro Step (Short Ver.)
TitleUnicode:Aoiro Step (Short Ver.)
Artist:i.o
ArtistUnicode:i.o
Creator:Player-
Version:Muzukashii
Source:AORIO
Tags:
BeatmapID:1984829
BeatmapSetID:950392

[Difficulty]
HPDrainRate:6
CircleSize:5
OverallDifficulty:5
ApproachRate:10
SliderMultiplier:1.4
SliderTickRate:1

[Events]
//Background and Video events
0,0,"image.jpg",0,0
//Break Periods
//Storyboard Layer 0 (Background)
//Storyboard Layer 1 (Fail)
//Storyboard Layer 2 (Pass)
//Storyboard Layer 3 (Foreground)
//Storyboard Sound Samples

[TimingPoints]
310,279.06976744186,4,1,0,80,1,0
9240,-93.4579439252336,4,1,0,80,0,0
22635,-95.2380952380952,4,1,0,80,0,0
40496,-100,4,1,0,80,0,0
48868,-95.2380952380952,4,1,0,80,0,0
60589,-93.4579439252336,4,1,0,80,0,1
77333,-93.4579439252336,4,1,0,80,0,0

[HitObjects]
212,164,310,5,4,0:0:0:0:
356,197,868,1,0,0:0:0:0:
350,197,1426,1,12,0:0:0:0:
236,192,1844,1,0,0:0:0:0:
165,190,2263,1,8,0:0:0:0:
312,195,2542,1,4,0:0:0:0:
346,120,3100,1,8,0:0:0:0:
476,264,3379,1,8,0:0:0:0:
243,139,3658,1,8,0:0:0:0:
243,139,3798,1,0,0:0:0:0:
220,156,3868,1,0,0:0:0:0:
215,161,3937,1,0,0:0:0:0:
198,176,4077,1,0,0:0:0:0:
86,145,4216,1,8,0:0:0:0:
249,106,4496,1,8,0:0:0:0:
296,204,4775,1,4,0:0:0:0:
228,214,5333,1,0,0:0:0:0:
172,210,5891,1,12,0:0:0:0:
227,219,6309,1,0,0:0:0:0:
208,143,6728,1,0,0:0:0:0:
349,92,7007,1,8,0:0:0:0:
352,196,7426,1,0,0:0:0:0:
343,195,7844,1,8,0:0:0:0:
352,196,8263,1,0,0:0:0:0:
326,200,8682,1,8,0:0:0:0:
225,188,8821,1,0,0:0:0:0:
199,210,8961,1,8,0:0:0:0:
225,188,9240,1,8,0:0:0:0:
334,163,9519,1,8,0:0:0:0:
266,209,9658,1,8,0:0:0:0:
266,214,9798,1,0,0:0:0:0:
145,185,10077,1,8,0:0:0:0:
288,243,10356,1,0,0:0:0:0:
306,145,10635,1,8,0:0:0:0:
261,172,10775,1,8,0:0:0:0:
205,215,10914,1,0,0:0:0:0:
332,234,11054,1,0,0:0:0:0:
328,223,11193,1,8,0:0:0:0:
280,240,11472,1,0,0:0:0:0:
204,152,11751,1,8,0:0:0:0:
250,198,11891,1,8,0:0:0:0:
259,178,12030,1,0,0:0:0:0:
259,182,12100,1,0,0:0:0:0:
204,183,12170,1,0,0:0:0:0:
119,148,12309,1,8,0:0:0:0:
248,196,12589,1,0,0:0:0:0:
286,208,12868,1,8,0:0:0:0:
173,215,13147,1,0,0:0:0:0:
216,253,13286,1,0,0:0:0:0:
231,273,13426,1,8,0:0:0:0:
255,206,13705,1,12,0:0:0:0:
220,205,13984,1,8,0:0:0:0:
191,229,14123,1,0,0:0:0:0:
216,155,14403,1,0,0:0:0:0:
94,188,14542,1,8,0:0:0:0:
261,119,14821,1,0,0:0:0:0:
91,118,15100,1,8,0:0:0:0:
195,103,15240,1,8,0:0:0:0:
235,148,15379,1,0,0:0:0:0:
394,243,15519,1,0,0:0:0:0:
328,235,15658,1,8,0:0:0:0:
311,223,15937,1,0,0:0:0:0:
197,192,16216,1,8,0:0:0:0:
182,190,16356,1,0,0:0:0:0:
179,189,16426,1,0,0:0:0:0:
168,197,16496,1,0,0:0:0:0:
255,176,16635,1,0,0:0:0:0:
234,161,16775,1,8,0:0:0:0:
338,283,17054,1,8,0:0:0:0:
214,319,17333,1,8,0:0:0:0:
261,235,17612,1,8,0:0:0:0:
323,214,17751,1,0,0:0:0:0:
198,211,17891,1,8,0:0:0:0:
167,184,18170,1,4,0:0:0:0:
257,164,18449,1,0,0:0:0:0:
233,147,18589,1,8,0:0:0:0:
180,149,18728,1,0,0:0:0:0:
208,164,19007,1,8,0:0:0:0:
308,137,19286,1,12,0:0:0:0:
295,123,19565,1,8,0:0:0:0:
238,108,19705,1,8,0:0:0:0:
238,108,19844,1,0,0:0:0:0:
190,124,19914,1,0,0:0:0:0:
169,153,19984,1,0,0:0:0:0:
146,175,20123,1,8,0:0:0:0:
244,219,20403,1,12,0:0:0:0:
180,144,20682,1,0,0:0:0:0:
183,96,20961,1,4,0:0:0:0:
230,116,21240,1,8,0:0:0:0:
210,224,21519,1,12,0:0:0:0:
227,188,21798,1,8,0:0:0:0:
227,188,21937,1,0,0:0:0:0:
168,172,22077,1,0,0:0:0:0:
116,147,22147,1,0,0:0:0:0:
116,147,22216,1,0,0:0:0:0:
225,105,22356,1,8,0:0:0:0:
230,109,22496,1,8,0:0:0:0:
182,145,22635,1,4,0:0:0:0:
284,85,22914,1,8,0:0:0:0:
292,203,23193,1,0,0:0:0:0:
292,156,23472,1,8,0:0:0:0:
200,77,23612,1,0,0:0:0:0:
137,96,23751,1,8,0:0:0:0:
270,199,24030,1,8,0:0:0:0:
170,235,24170,1,0,0:0:0:0:
170,235,24449,1,0,0:0:0:0:
284,255,24589,1,8,0:0:0:0:
257,136,24868,1,8,0:0:0:0:
234,136,25007,1,0,0:0:0:0:
207,146,25147,1,8,0:0:0:0:
193,146,25286,1,8,0:0:0:0:
153,148,25426,1,0,0:0:0:0:
129,97,25705,1,8,0:0:0:0:
165,97,25844,1,0,0:0:0:0:
191,65,25984,1,8,0:0:0:0:
209,132,26263,1,0,0:0:0:0:
330,179,26403,1,0,0:0:0:0:
267,179,26472,1,0,0:0:0:0:
211,197,26542,1,0,0:0:0:0:
142,204,26682,1,0,0:0:0:0:
154,136,26821,1,8,0:0:0:0:
235,120,27100,1,4,0:0:0:0:
53,130,27379,1,0,0:0:0:0:
97,191,27519,1,8,0:0:0:0:
280,231,27658,1,0,0:0:0:0:
185,183,27937,1,8,0:0:0:0:
198,110,28077,1,0,0:0:0:0:
128,138,28216,1,8,0:0:0:0:
266,154,28496,1,8,0:0:0:0:
243,159,28635,1,0,0:0:0:0:
183,139,28914,1,0,0:0:0:0:
97,177,29054,1,8,0:0:0:0:
184,147,29333,1,0,0:0:0:0:
268,117,29612,1,8,0:0:0:0:
197,91,29751,1,0,0:0:0:0:
154,83,29891,1,8,0:0:0:0:
299,98,29961,1,8,0:0:0:0:
154,83,30030,1,8,0:0:0:0:
296,195,30170,1,0,0:0:0:0:
146,157,30449,1,12,0:0:0:0:
281,188,30728,1,0,0:0:0:0:
324,223,31007,1,8,0:0:0:0:
285,202,31147,1,0,0:0:0:0:
93,126,31286,1,0,0:0:0:0:
120,135,31356,1,0,0:0:0:0:
191,136,31426,1,0,0:0:0:0:
316,146,31565,1,8,0:0:0:0:
294,202,31844,1,0,0:0:0:0:
249,204,31984,1,8,0:0:0:0:
218,204,32123,1,0,0:0:0:0:
166,122,32403,1,8,0:0:0:0:
216,107,32542,1,0,0:0:0:0:
230,116,32682,1,8,0:0:0:0:
164,165,32961,1,8,0:0:0:0:
195,198,33100,1,0,0:0:0:0:
280,205,33170,1,0,0:0:0:0:
280,205,33240,1,0,0:0:0:0:
195,198,33379,1,0,0:0:0:0:
275,207,33519,1,8,0:0:0:0:
288,129,33798,1,8,0:0:0:0:
288,129,33937,1,0,0:0:0:0:
157,148,34216,1,8,0:0:0:0:
109,205,34356,1,0,0:0:0:0:
99,150,34496,1,8,0:0:0:0:
190,161,34775,1,8,0:0:0:0:
233,175,34914,1,0,0:0:0:0:
299,166,35193,1,0,0:0:0:0:
201,224,35333,1,0,0:0:0:0:
201,224,35403,1,0,0:0:0:0:
174,233,35472,1,0,0:0:0:0:
351,196,35612,1,0,0:0:0:0:
278,224,35751,1,8,0:0:0:0:
178,145,36030,1,12,0:0:0:0:
213,159,36309,1,0,0:0:0:0:
124,110,36449,1,8,0:0:0:0:
314,96,36589,1,0,0:0:0:0:
165,143,36868,1,0,0:0:0:0:
243,162,37007,1,8,0:0:0:0:
221,177,37147,1,8,0:0:0:0:
103,125,37216,1,8,0:0:0:0:
111,197,37286,1,8,0:0:0:0:
157,106,37426,1,8,0:0:0:0:
181,113,37565,1,0,0:0:0:0:
218,128,37844,1,0,0:0:0:0:
200,146,37984,1,8,0:0:0:0:
164,159,38263,1,12,0:0:0:0:
215,217,38682,1,12,0:0:0:0:
223,221,38961,1,0,0:0:0:0:
179,223,39240,1,12,0:0:0:0:
183,146,39658,1,0,0:0:0:0:
254,178,39937,1,0,0:0:0:0:
159,224,40216,1,8,0:0:0:0:
196,150,40496,1,4,0:0:0:0:
214,122,41054,1,0,0:0:0:0:
206,199,41612,1,0,0:0:0:0:
63,230,41891,1,8,0:0:0:0:
209,179,42170,1,8,0:0:0:0:
241,190,42728,1,0,0:0:0:0:
290,245,43286,1,8,0:0:0:0:
202,203,43565,1,0,0:0:0:0:
219,91,43844,1,0,0:0:0:0:
284,75,44123,1,8,0:0:0:0:
225,147,44263,1,0,0:0:0:0:
210,169,44403,1,8,0:0:0:0:
193,169,44682,1,0,0:0:0:0:
341,176,44961,1,8,0:0:0:0:
240,121,45519,1,8,0:0:0:0:
93,195,45798,1,0,0:0:0:0:
113,195,46077,1,0,0:0:0:0:
174,174,46356,1,8,0:0:0:0:
162,162,46496,1,0,0:0:0:0:
319,96,46775,1,8,0:0:0:0:
162,121,47054,1,0,0:0:0:0:
245,96,47193,1,8,0:0:0:0:
200,131,47472,1,8,0:0:0:0:
131,93,47612,1,0,0:0:0:0:
157,176,47751,1,8,0:0:0:0:
272,296,48030,1,8,0:0:0:0:
190,276,48309,1,0,0:0:0:0:
247,156,48589,1,8,0:0:0:0:
140,195,48868,1,0,0:0:0:0:
281,228,49007,1,0,0:0:0:0:
280,227,49147,1,0,0:0:0:0:
280,227,49286,1,0,0:0:0:0:
280,227,49426,1,8,0:0:0:0:
139,204,49705,1,8,0:0:0:0:
188,91,49844,1,0,0:0:0:0:
251,188,49984,1,0,0:0:0:0:
209,149,50054,1,0,0:0:0:0:
265,83,50123,1,0,0:0:0:0:
353,52,50263,1,8,0:0:0:0:
355,174,50542,1,0,0:0:0:0:
199,172,50821,1,8,0:0:0:0:
262,119,50961,1,0,0:0:0:0:
130,92,51100,1,8,0:0:0:0:
71,148,51379,1,8,0:0:0:0:
168,150,51658,1,4,0:0:0:0:
128,124,52077,1,12,0:0:0:0:
332,119,52496,1,12,0:0:0:0:
273,135,52914,1,0,0:0:0:0:
163,185,53054,1,8,0:0:0:0:
151,113,53333,1,12,0:0:0:0:
173,98,53612,1,8,0:0:0:0:
204,83,53751,1,8,0:0:0:0:
248,175,53891,1,0,0:0:0:0:
201,233,54170,1,8,0:0:0:0:
119,216,54309,1,0,0:0:0:0:
224,195,54589,1,0,0:0:0:0:
183,165,54728,1,8,0:0:0:0:
172,164,55007,1,0,0:0:0:0:
263,145,55286,1,8,0:0:0:0:
239,134,55426,1,0,0:0:0:0:
335,152,55565,1,8,0:0:0:0:
144,130,55844,1,0,0:0:0:0:
189,180,56123,1,12,0:0:0:0:
266,161,56403,1,8,0:0:0:0:
266,161,56542,1,0,0:0:0:0:
129,147,56821,1,0,0:0:0:0:
184,184,56961,1,8,0:0:0:0:
238,131,57240,1,8,0:0:0:0:
292,100,57379,1,0,0:0:0:0:
234,104,57519,1,8,0:0:0:0:
127,137,57658,1,0,0:0:0:0:
155,147,57798,1,0,0:0:0:0:
135,131,58077,1,8,0:0:0:0:
204,52,58356,1,4,0:0:0:0:
204,52,58635,1,8,0:0:0:0:
174,86,58775,1,0,0:0:0:0:
220,152,58914,1,8,0:0:0:0:
142,152,59193,1,0,0:0:0:0:
146,121,59472,1,12,0:0:0:0:
239,183,59751,1,8,0:0:0:0:
152,199,59891,1,0,0:0:0:0:
237,125,60030,1,0,0:0:0:0:
46,101,60309,1,8,0:0:0:0:
95,118,60449,1,8,0:0:0:0:
191,152,60589,1,4,0:0:0:0:
391,251,60868,1,8,0:0:0:0:
281,217,61007,1,0,0:0:0:0:
154,191,61286,1,0,0:0:0:0:
128,132,61426,1,8,0:0:0:0:
179,113,61705,1,8,0:0:0:0:
153,98,61844,1,0,0:0:0:0:
344,112,61984,1,8,0:0:0:0:
313,115,62123,1,8,0:0:0:0:
307,118,62263,1,0,0:0:0:0:
190,156,62542,1,8,0:0:0:0:
121,132,62682,1,0,0:0:0:0:
179,136,62821,1,8,0:0:0:0:
234,58,62891,1,8,0:0:0:0:
219,143,62961,1,8,0:0:0:0:
260,100,63100,1,0,0:0:0:0:
170,92,63240,1,8,0:0:0:0:
205,188,63658,1,8,0:0:0:0:
200,193,63937,1,0,0:0:0:0:
348,256,64077,1,0,0:0:0:0:
305,258,64216,1,8,0:0:0:0:
221,116,64496,1,8,0:0:0:0:
265,128,64635,1,0,0:0:0:0:
184,160,64775,1,8,0:0:0:0:
148,232,65054,1,12,0:0:0:0:
228,185,65333,1,8,0:0:0:0:
225,72,65472,1,0,0:0:0:0:
171,189,65751,1,0,0:0:0:0:
374,169,65891,1,8,0:0:0:0:
253,59,66170,1,8,0:0:0:0:
314,137,66309,1,8,0:0:0:0:
167,218,66449,1,0,0:0:0:0:
148,182,66589,1,8,0:0:0:0:
112,161,66728,1,0,0:0:0:0:
194,132,67007,1,8,0:0:0:0:
258,178,67147,1,0,0:0:0:0:
223,203,67286,1,0,0:0:0:0:
159,207,67356,1,0,0:0:0:0:
158,210,67426,1,0,0:0:0:0:
128,220,67565,1,0,0:0:0:0:
265,133,67705,1,8,0:0:0:0:
169,135,68123,1,8,0:0:0:0:
220,183,68403,1,8,0:0:0:0:
169,149,68682,1,0,0:0:0:0:
344,155,68961,1,8,0:0:0:0:
143,124,69100,1,0,0:0:0:0:
102,145,69240,1,8,0:0:0:0:
389,300,69519,1,4,0:0:0:0:
208,180,69798,1,8,0:0:0:0:
197,184,69937,1,0,0:0:0:0:
168,193,70216,1,0,0:0:0:0:
215,131,70356,1,8,0:0:0:0:
174,93,70635,1,0,0:0:0:0:
285,115,70775,1,0,0:0:0:0:
197,165,70914,1,8,0:0:0:0:
173,172,71054,1,0,0:0:0:0:
125,172,71193,1,8,0:0:0:0:
61,148,71472,1,8,0:0:0:0:
321,71,71612,1,0,0:0:0:0:
266,91,71751,1,8,0:0:0:0:
177,127,71821,1,8,0:0:0:0:
193,137,71891,1,8,0:0:0:0:
386,159,72030,1,8,0:0:0:0:
259,167,72170,1,0,0:0:0:0:
217,180,72589,1,8,0:0:0:0:
325,279,72868,1,0,0:0:0:0:
359,157,73147,1,8,0:0:0:0:
178,235,73426,1,8,0:0:0:0:
254,153,73565,1,0,0:0:0:0:
192,163,73705,1,8,0:0:0:0:
129,125,73984,1,4,0:0:0:0:
112,201,74263,1,8,0:0:0:0:
129,182,74542,1,8,0:0:0:0:
267,165,74821,1,8,0:0:0:0:
183,143,75100,1,8,0:0:0:0:
213,132,75240,1,0,0:0:0:0:
267,135,75379,1,8,0:0:0:0:
214,179,75519,1,0,0:0:0:0:
148,216,75658,1,0,0:0:0:0:
166,288,75937,1,0,0:0:0:0:
303,98,76216,1,12,0:0:0:0:
230,133,76496,1,8,0:0:0:0:
191,144,76635,1,0,0:0:0:0:
121,212,76914,1,0,0:0:0:0:
33,191,77054,1,8,0:0:0:0:
235,117,77333,1,12,0:0:0:0:
197,157,77612,1,8,0:0:0:0:
278,152,77891,1,8,0:0:0:0:
257,160,78030,1,0,0:0:0:0:
227,162,78449,1,12,0:0:0:0:
197,171,80123,1,12,0:0:0:0:
275,192,80542,1,4,0:0:0:0:
