osu file format v14

[General]
AudioFilename: audio.mp3
AudioLeadIn: 0
PreviewTime: 61005
Countdown: 0
SampleSet: Soft
StackLeniency: 1
Mode: 0
LetterboxInBreaks: 0
WidescreenStoryboard: 1

[Editor]
Bookmarks: 23470,32400
DistanceSpacing: 1.4
BeatDivisor: 8
GridSize: 32
TimelineZoom: 1.8

[Metadata]
Title:Aoiro Step (Cut Ver.)
TitleUnicode:アオイロステップ (Cut Ver.)
Artist:i.o
ArtistUnicode:i.o
Creator:Bazz B
Version:Ultimate
Source:アオリオ
Tags:アドリブ ad:lib aorio x Scenario -Mikan Mikan Akitoshi -Laura- Corinn Kalibe Left island Rizia Kawaiwkyik Karia lolia kxlman Dailycare Morinaga Kibbleru Reillia [C u r i] [C_u_r_i] Curi iljaaz keqing piroshki Sotarks Djulus -MikanMyMommy MikanMyMommy Irohas MugiwaraSekai Shizuku- Kazato Asa Shikibe Mayu Elcheer Hikan Riana Amamya PaRaDogi coco cococolaco AIR schoolboy Komore keeVY tomadoi Shiinoha Kotone tricolor Syph Okoratu Okorin Karen Suiyu Kagamine Ren Japanese Anime Eroge Visual Novel VN Video Game pop jpop j-pop opening op theme i.o.sound
BeatmapID:2184545
BeatmapSetID:1044953

[Difficulty]
HPDrainRate:6
CircleSize:4
OverallDifficulty:9.5
ApproachRate:9.9
SliderMultiplier:1.9
SliderTickRate:1

[Events]
//Background and Video events
0,0,"Matsuzawa.Yuka.full.1191374.jpg",0,0
//Break Periods
//Storyboard Layer 0 (Background)
//Storyboard Layer 1 (Fail)
//Storyboard Layer 2 (Pass)
//Storyboard Layer 3 (Foreground)
//Storyboard Layer 4 (Overlay)
//Storyboard Sound Samples

[TimingPoints]
1145,279.06976744186,4,2,22,60,1,0
7842,-76.9230769230769,4,2,22,60,0,0
10075,-83.3333333333333,4,2,22,70,0,1
19005,-83.3333333333333,4,2,22,70,0,1
20121,-83.3333333333333,4,2,22,70,0,1
21238,-83.3333333333333,4,2,22,70,0,1
22354,-83.3333333333333,4,2,22,70,0,1
23470,-133.333333333333,4,2,22,60,0,0
24307,-285.714285714284,4,2,22,60,0,0
24586,-133.333333333333,4,2,22,60,0,0
25424,-285.714285714284,4,2,22,60,0,0
25703,-133.333333333333,4,2,22,60,0,0
27656,-285.714285714284,4,2,22,60,0,0
28075,-133.333333333333,4,2,22,60,0,0
29889,-285.714285714284,4,2,22,60,0,0
30168,-133.333333333333,4,2,22,60,0,0
31284,-100,4,2,22,60,0,0
32400,-100,4,2,22,60,0,0
40075,-80,4,2,22,60,0,0
41331,-133.333333333333,4,2,22,55,0,0
50261,-100,4,2,22,60,0,0
52493,-83.3333333333333,4,2,22,60,0,0
54726,-100,4,2,22,60,0,0
56958,-100,4,2,22,70,0,0
59191,-80,4,2,22,70,0,0
61424,-80,4,2,22,80,0,1
74540,-133.333333333333,4,2,22,80,0,1
75098,-133.333333333333,4,2,22,80,0,1
76772,-100,4,2,22,80,0,1
78168,-166.666666666667,4,2,22,50,0,0
79214,-166.666666666667,4,2,22,5,0,0
79284,-83.3333333333333,4,2,22,70,0,1
88214,-83.3333333333333,4,2,22,70,0,1
89331,-83.3333333333333,4,2,22,70,0,1
90447,-83.3333333333333,4,2,22,70,0,1
91005,-83.3333333333333,4,2,22,70,0,1
91563,-83.3333333333333,4,2,22,70,0,1
92679,-50,4,2,22,70,0,0
92749,-50,4,2,22,40,0,0
94354,-83.3333333333333,4,2,22,70,0,0
94633,-133.333333333333,4,2,22,70,0,0
94772,-83.3333333333333,4,2,22,70,0,0
95191,-83.3333333333333,4,2,22,5,0,0

[Colours]
Combo1 : 255,255,138
Combo2 : 255,180,104
Combo3 : 255,121,121
Combo4 : 159,243,253

[HitObjects]
39,70,1145,6,0,B|166:46|114:132|239:110|239:110|271:88|267:39|217:30|217:30|220:62|197:86,1,380,4|2,1:2|0:0,0:0:0:0:
80,149,1982,1,0,0:0:0:0:
419,220,2261,6,0,B|447:32|447:32|483:45|485:95|429:122,2,285,6|2|2,1:2|0:0|0:0,0:0:0:0:
240,321,3377,6,0,B|143:341|154:251|33:258|33:258|21:292|3:316|3:316|33:330|59:353|59:353|135:333|126:213|245:220,1,570,6|0,1:2|0:0,0:0:0:0:
450,108,4493,5,0,0:0:0:0:
347,44,4633,1,8,0:3:0:0:
348,62,4703,1,8,0:3:0:0:
349,80,4772,1,8,0:3:0:0:
217,220,4912,5,4,0:3:0:0:
242,82,5051,1,4,0:3:0:0:
217,238,5191,1,4,0:3:0:0:
244,66,5330,1,4,0:3:0:0:
139,136,5470,1,4,0:3:0:0:
319,166,5610,6,0,B|427:148|395:231|507:217,1,190,4|0,1:2|0:0,0:0:0:0:
139,136,6168,2,0,B|115:67|168:21|168:21|237:35|239:113|239:113|210:125|190:146,1,285,2|0,0:0|0:0,0:0:0:0:
92,331,6726,5,6,1:2:0:0:
19,231,6865,1,8,0:3:0:0:
21,250,6935,1,8,0:3:0:0:
23,269,7005,1,8,0:3:0:0:
485,169,7179,5,8,0:3:0:0:
485,169,7424,5,4,0:3:0:0:
381,52,7563,2,0,P|390:131|393:176,1,95,4|0,0:3|0:0,0:0:0:0:
336,346,7842,6,0,B|228:330|244:180|350:195|376:226|376:226|346:258|339:303,1,308.749985866547,8|0,0:0|0:0,0:0:0:0:
197,338,8261,6,0,B|89:359|123:294|31:278|1:316|1:316|21:333|32:355|32:355|42:328|74:310,1,308.749985866547,8|0,0:0|0:0,0:0:0:0:
169,256,8679,6,0,B|179:194|209:113|209:113|96:126|96:126|99:165|136:196,1,308.749985866547,8|0,0:0|0:0,0:0:0:0:
277,238,9098,6,0,B|321:242|353:228|353:228|373:267|373:267|381:274|381:274|402:313|402:313|442:301|492:307,1,246.999988693238,8|0,0:0|0:0,0:0:0:0:
397,75,9517,5,8,0:0:0:0:
381,52,9586,1,8,0:0:0:0:
400,27,9656,1,8,0:0:0:0:
432,36,9726,1,8,0:0:0:0:
431,73,9796,5,8,0:0:0:0:
366,118,9865,1,8,0:0:0:0:
288,102,9935,1,8,0:0:0:0:
249,36,10005,1,8,0:0:0:0:
249,36,10075,6,0,B|172:32|172:32|123:82|123:82|21:76,1,227.999993041992,6|8,1:2|0:2,0:2:0:0:
277,238,10493,1,2,0:2:0:0:
60,318,10633,2,0,P|49:252|38:193,1,113.999996520996,0|0,1:2|1:2,0:0:0:0:
249,36,10912,2,0,P|260:102|271:161,1,113.999996520996,10|0,0:2|0:2,0:2:0:0:
511,366,11191,6,0,B|415:374|456:299|321:319,1,170.999994781494,2|0,1:2|0:0,0:2:0:0:
334,340,11470,2,0,P|347:275|356:215,1,113.999996520996,8|0,0:2|0:0,0:0:0:0:
432,36,11749,1,0,1:2:0:0:
491,211,11889,1,0,1:2:0:0:
101,30,12028,6,0,P|31:54|60:149,1,170.999994781494,10|0,0:2|0:0,0:2:0:0:
32,163,12307,2,0,B|162:128|126:232|259:208,1,227.999993041992,2|8,1:2|0:2,0:2:0:0:
436,29,12726,1,2,0:2:0:0:
354,227,12865,1,2,1:2:0:0:
249,36,13005,1,0,1:2:0:0:
440,221,13144,2,0,P|439:255|383:312,1,113.999996520996,10|0,0:2|0:2,0:2:0:0:
249,381,13424,6,0,P|247:292|244:194,1,170.999994781494,2|0,1:2|0:0,0:2:0:0:
250,189,13703,1,8,0:2:0:0:
409,132,13842,1,0,0:2:0:0:
211,285,13982,1,0,1:2:0:0:
50,236,14121,5,0,1:2:0:0:
332,384,14261,1,8,0:2:0:0:
338,65,14400,1,0,0:2:0:0:
121,345,14540,6,0,P|133:201|139:105,1,227.999993041992,6|8,1:2|0:2,0:2:0:0:
338,65,14958,1,2,0:2:0:0:
347,223,15098,2,0,B|286:226|286:226|236:175,1,113.999996520996,0|0,1:2|1:2,0:0:0:0:
480,20,15377,2,0,P|486:82|493:152,1,113.999996520996,10|0,0:2|0:2,0:2:0:0:
403,367,15656,6,0,P|413:301|520:304,1,170.999994781494,2|0,1:2|0:0,0:2:0:0:
505,306,15935,2,0,P|437:304|380:305,1,113.999996520996,8|0,0:2|0:0,0:0:0:0:
249,188,16214,1,0,1:2:0:0:
304,384,16354,1,0,1:2:0:0:
4,284,16493,6,0,P|82:278|195:266,1,170.999994781494,10|0,0:2|0:0,0:2:0:0:
192,284,16772,2,0,B|169:309|160:329|160:329|97:318|51:254|84:196|116:174,1,227.999993041992,2|8,1:2|0:2,0:2:0:0:
338,65,17191,1,2,0:2:0:0:
141,17,17331,1,0,1:2:0:0:
292,234,17470,1,0,1:2:0:0:
512,57,17610,6,0,B|451:59|451:59|427:89|427:89|342:92,1,170.999994781494,10|0,0:2|0:0,0:2:0:0:
338,65,17889,1,0,1:2:0:0:
192,284,18028,1,2,0:0:0:0:
95,99,18168,1,8,0:2:0:0:
292,234,18307,6,0,P|389:241|436:246,1,113.999996520996,0|2,0:2|1:2,0:0:0:0:
95,352,18586,1,0,1:2:0:0:
214,100,18726,2,0,B|242:152|242:152|209:207,1,113.999996520996,10|8,0:2|0:2,0:0:0:0:
142,234,18935,1,8,0:0:0:0:
124,221,19005,5,6,1:2:0:0:
95,99,19144,1,0,1:0:0:0:
40,173,19284,1,8,0:0:0:0:
214,100,19424,1,0,1:0:0:0:
122,18,19563,5,0,1:0:0:0:
213,199,19703,1,0,1:0:0:0:
306,79,19842,1,8,0:0:0:0:
214,100,19982,1,0,1:0:0:0:
405,242,20121,5,6,1:2:0:0:
509,209,20261,1,0,1:0:0:0:
310,199,20400,1,8,0:0:0:0:
396,360,20540,1,0,1:0:0:0:
441,154,20679,5,0,1:0:0:0:
317,0,20819,1,0,1:0:0:0:
212,161,20958,1,8,0:0:0:0:
306,79,21098,1,0,1:0:0:0:
47,30,21238,5,6,1:2:0:0:
310,199,21377,1,0,1:0:0:0:
198,24,21517,1,8,0:0:0:0:
74,272,21656,1,0,1:0:0:0:
322,365,21796,5,4,1:2:0:0:
432,136,21935,1,0,1:0:0:0:
165,136,22075,1,8,0:0:0:0:
405,242,22214,1,0,1:0:0:0:
304,54,22354,5,6,1:2:0:0:
322,365,22493,1,0,1:2:0:0:
303,35,22633,1,12,0:0:0:0:
324,384,22772,1,0,1:2:0:0:
401,82,22912,5,12,0:0:0:0:
378,128,22982,1,8,0:0:0:0:
334,152,23051,1,8,0:0:0:0:
278,149,23121,1,8,0:0:0:0:
230,114,23191,1,8,0:0:0:0:
205,61,23261,1,8,0:0:0:0:
165,14,23331,1,8,0:0:0:0:
96,3,23400,1,8,0:0:0:0:
30,36,23470,5,6,1:2:0:0:
304,54,23610,1,0,0:2:0:0:
165,208,23749,2,0,L|157:138,1,71.2500027179719,10|0,0:2|0:0,0:2:0:0:
293,367,24028,5,0,1:2:0:0:
302,270,24168,1,0,1:2:0:0:
309,176,24307,2,0,L|313:126,1,49.8749984779358,10|0,0:2|0:0,0:2:0:0:
330,107,24586,6,0,P|377:149|462:109,1,142.500005435944,2|8,1:2|0:2,0:2:0:0:
460,9,25005,2,0,B|424:27|424:27|420:82,1,71.2500027179719,2|0,0:2|1:2,0:2:0:0:
512,179,25284,1,0,1:2:0:0:
455,232,25424,2,0,L|461:293,1,49.8749984779358,10|0,0:2|0:0,0:0:0:0:
445,304,25703,6,0,P|371:296|344:294,1,71.2500027179719,2|0,1:2|0:2,0:0:0:0:
127,262,25982,2,0,P|162:265|198:270,1,71.2500027179719,10|0,0:2|0:2,0:0:0:0:
300,198,26261,1,2,1:2:0:0:
300,198,26400,1,0,1:2:0:0:
274,366,26540,2,0,L|287:276,1,71.2500027179719,10|0,0:2|0:2,0:0:0:0:
144,113,26819,6,0,P|81:128|70:200,1,142.500005435944,2|8,1:2|0:2,0:2:0:0:
127,262,27238,2,0,P|161:258|197:254,1,71.2500027179719,2|0,0:2|1:2,0:2:0:0:
300,198,27517,1,0,1:2:0:0:
423,302,27656,2,0,L|360:296,1,49.8749984779358,10|0,0:2|0:0,0:0:0:0:
353,316,27935,5,6,1:2:0:0:
338,99,28075,2,0,L|331:1,1,71.2500027179719,0|8,0:2|0:2,0:2:0:0:
438,151,28354,1,0,0:2:0:0:
300,198,28493,5,2,1:2:0:0:
214,182,28633,1,0,1:2:0:0:
130,160,28772,2,0,L|47:143,1,71.2500027179719,8|0,0:2|0:2,0:0:0:0:
15,336,29051,2,0,B|98:342|70:287|165:297,1,142.500005435944,2|10,1:2|0:2,0:2:0:0:
338,329,29470,6,0,P|257:334|243:336,1,71.2500027179719,2|0,0:2|1:2,0:2:0:0:
408,239,29749,1,2,1:2:0:0:
360,164,29889,2,0,P|331:158|298:151,1,49.8749984779358,10|0,0:2|0:0,0:0:0:0:
291,124,30168,6,0,P|240:153|260:235,1,142.500005435944,2|8,1:2|0:2,0:2:0:0:
402,95,30586,1,0,0:2:0:0:
311,36,30726,2,0,P|232:28|212:27,1,71.2500027179719,2|0,1:2|1:2,0:0:0:0:
442,171,31005,2,0,P|521:163|541:162,1,71.2500027179719,8|0,0:2|0:0,0:0:0:0:
266,332,31284,6,0,B|239:308|195:309|195:309|169:355|120:355,1,142.5,6|0,1:2|0:0,0:2:0:0:
117,338,31563,1,8,0:2:0:0:
58,145,31703,1,0,1:2:0:0:
253,203,31842,6,0,L|250:227,6,23.75,2|2|2|2|2|2|2,1:2|0:0|0:0|0:0|1:2|0:0|0:0,0:0:0:0:
309,149,32121,1,8,0:2:0:0:
344,116,32191,1,8,0:2:0:0:
344,68,32261,1,8,0:2:0:0:
313,31,32331,1,8,0:2:0:0:
298,27,32400,6,0,L|186:36,1,95,6|0,1:2|0:2,0:2:0:0:
58,145,32679,1,8,0:2:0:0:
203,34,32819,1,0,0:2:0:0:
153,153,32958,2,0,L|41:144,1,95,2|0,1:2|1:2,0:2:0:0:
232,262,33238,1,8,0:2:0:0:
153,153,33377,1,0,0:2:0:0:
187,356,33517,6,0,P|233:304|327:325,1,142.5,2|0,1:2|0:0,0:2:0:0:
314,325,33796,1,8,0:2:0:0:
425,172,33935,2,0,P|416:228|409:284,1,95,2|0,0:2|1:2,0:2:0:0:
309,149,34214,1,0,1:2:0:0:
295,55,34354,2,0,P|304:111|311:167,1,95,10|0,0:2|0:0,0:0:0:0:
512,63,34633,6,0,B|473:32|473:32|405:49,1,95,2|0,1:2|0:2,0:0:0:0:
210,8,34912,1,8,0:2:0:0:
308,148,35051,1,0,0:2:0:0:
199,211,35191,2,0,P|211:116|213:92,1,95,2|0,1:2|1:2,0:0:0:0:
411,265,35470,2,0,P|399:170|397:146,1,95,8|0,0:2|0:2,0:0:0:0:
222,343,35749,6,0,B|191:297|136:309|136:309|106:368|37:356,1,190,2|8,1:2|0:2,0:2:0:0:
32,186,36168,2,0,B|61:208|61:208|48:302,1,95,2|0,0:2|1:2,0:2:0:0:
292,96,36447,1,0,1:2:0:0:
231,36,36586,2,0,B|202:58|202:58|215:152,1,95,10|0,0:2|0:0,0:0:0:0:
468,313,36865,5,6,1:2:0:0:
319,384,37005,2,0,P|327:302|330:265,1,95,2|8,0:2|0:2,0:0:0:0:
186,216,37284,1,0,0:2:0:0:
361,154,37424,1,2,1:2:0:0:
169,221,37563,1,2,1:2:0:0:
377,143,37703,2,0,P|449:149|496:153,1,95,8|0,0:2|0:2,0:0:0:0:
228,0,37982,6,0,P|157:24|160:108,1,142.5,2|0,1:2|0:0,0:2:0:0:
170,103,38261,1,8,0:2:0:0:
34,251,38400,2,0,P|44:180|48:131,1,95,2|0,0:2|1:2,0:2:0:0:
181,262,38679,1,2,1:2:0:0:
193,356,38819,2,0,P|183:285|179:236,1,95,10|0,0:2|0:2,0:2:0:0:
51,372,39098,5,6,1:2:0:0:
418,256,39238,1,0,1:2:0:0:
338,217,39377,1,8,0:2:0:0:
407,374,39517,1,6,1:2:0:0:
401,383,39796,5,0,1:2:0:0:
472,108,39935,1,8,0:2:0:0:
338,217,40075,2,0,B|234:213|280:143|155:155,1,178.125,6|0,1:2|0:0,0:0:0:0:
154,173,40354,6,0,B|151:208|151:208|167:228,1,59.375,10|0,0:2|0:0,0:0:0:0:
332,131,40493,2,0,B|338:100|338:100|318:75,1,59.375,10|0,0:2|0:0,0:0:0:0:
11,339,40772,6,0,B|41:299|92:308|92:308|109:362|172:372,1,178.125,10|0,0:2|0:0,0:0:0:0:
176,360,41051,1,4,0:3:0:0:
166,226,41191,1,4,0:3:0:0:
155,91,41331,6,0,P|119:75|57:157,1,142.500005435944,6|0,1:2|0:2,0:2:0:0:
250,0,41889,2,0,P|246:64|243:169,1,142.500005435944,8|0,0:2|1:2,0:2:0:0:
483,326,42447,6,0,B|430:319|430:319|390:272|325:294,1,142.500005435944,0|0,1:2|0:2,0:2:0:0:
361,369,42865,1,0,0:2:0:0:
337,209,43005,2,0,P|277:249|287:336,1,142.500005435944,8|0,0:0|1:2,0:0:0:0:
54,139,43563,6,0,B|89:107|130:109|130:109|163:145|203:144,1,142.500005435944,2|0,1:2|0:2,0:2:0:0:
345,8,44121,2,0,B|267:2|293:66|196:57,1,142.500005435944,8|0,0:2|1:2,0:2:0:0:
214,48,44679,6,0,P|289:57|304:60,1,71.2500027179719,0|0,1:2|0:0,0:2:0:0:
379,77,44958,2,0,P|454:86|469:89,1,71.2500027179719,0|0,1:2|0:2,0:0:0:0:
469,96,45238,1,8,0:0:0:0:
469,96,45517,5,0,1:2:0:0:
344,7,45656,1,0,1:0:0:0:
315,157,45796,2,0,P|324:242|329:303,1,142.500005435944,2|0,1:2|0:2,0:2:0:0:
102,333,46354,2,0,B|125:305|171:306|171:306|193:342|252:350,1,142.500005435944,8|0,0:2|1:2,0:2:0:0:
422,105,46912,6,0,P|355:100|315:172,1,142.500005435944,0|0,1:2|0:2,0:2:0:0:
501,268,47331,1,0,1:2:0:0:
453,332,47470,2,0,P|463:248|474:183,1,142.500005435944,8|0,0:0|1:2,0:0:0:0:
141,0,48028,6,0,P|152:70|160:141,1,142.500005435944,2|0,1:2|0:0,0:0:0:0:
32,233,48586,2,0,B|105:229|97:281|174:286,1,142.500005435944,8|0,0:0|1:0,0:0:0:0:
368,78,49144,6,0,P|321:82|289:93,1,71.2500027179719,4|0,1:2|1:2,0:0:0:0:
235,203,49424,1,8,0:2:0:0:
139,1,49563,1,0,1:2:0:0:
29,94,49703,5,8,0:0:0:0:
71,77,49772,1,8,0:0:0:0:
117,83,49842,1,8,0:0:0:0:
152,112,49912,1,8,0:0:0:0:
166,156,49982,1,8,0:0:0:0:
159,201,50051,1,8,0:0:0:0:
123,231,50121,1,8,0:0:0:0:
78,245,50191,1,8,0:0:0:0:
32,233,50261,6,0,B|138:206|112:303|206:289,1,190,6|8,1:2|0:2,0:2:0:0:
491,147,50679,1,0,0:2:0:0:
368,78,50819,1,0,1:2:0:0:
368,214,50958,1,0,1:2:0:0:
409,142,51098,6,0,P|414:68|421:-7,1,142.5,8|0,0:2|0:0,0:2:0:0:
497,254,51377,2,0,P|404:247|284:244,1,190,2|8,1:2|0:2,0:2:0:0:
131,92,51796,1,0,1:2:0:0:
409,142,51935,1,8,0:2:0:0:
209,325,52075,5,8,0:3:0:0:
181,200,52214,1,8,0:3:0:0:
150,71,52354,1,8,0:3:0:0:
473,303,52493,6,0,B|443:273|388:280|388:280|364:333|305:341,1,170.999994781494,6|0,1:2|0:0,0:0:0:0:
292,209,52772,2,0,P|308:250|297:281,1,56.9999982604981,8|0,0:0|0:0,0:0:0:0:
53,218,52912,6,0,B|88:179|146:185|169:209|169:209|144:235|142:270,1,170.999994781494,6|0,1:2|0:0,0:0:0:0:
226,326,53191,2,0,P|217:285|241:241,1,56.9999982604981,0|0,1:2|0:0,0:0:0:0:
470,56,53331,6,0,B|430:6|342:2|274:77|300:143|331:174|331:174|336:131|393:87,1,341.999989562989,14|8,0:0|0:0,0:0:0:0:
430,133,53819,1,8,0:0:0:0:
430,133,53889,1,8,0:0:0:0:
257,12,54028,1,8,0:0:0:0:
147,245,54168,5,8,0:0:0:0:
259,115,54307,1,8,0:3:0:0:
147,245,54447,1,8,0:0:0:0:
191,235,54517,1,8,0:0:0:0:
233,251,54586,1,8,0:0:0:0:
256,290,54656,1,8,0:0:0:0:
255,318,54726,6,0,P|319:309|359:302,1,95,4|0,1:2|0:2,0:2:0:0:
470,56,55005,2,0,P|462:142|454:229,1,142.5,8|0,0:2|0:0,0:0:0:0:
455,215,55284,1,0,1:2:0:0:
258,115,55424,1,0,1:2:0:0:
348,303,55563,2,0,P|340:250|331:197,1,95,8|0,0:2|0:2,0:2:0:0:
48,68,55842,6,0,P|76:152|165:155,1,190,0|8,1:2|0:2,0:2:0:0:
320,34,56261,2,0,P|256:33|214:32,1,95,0|0,1:2|0:0,0:2:0:0:
333,209,56540,1,0,1:2:0:0:
255,318,56679,2,0,P|225:279|230:220,1,95,8|0,0:2|0:2,0:2:0:0:
397,104,56958,6,0,P|446:137|448:239,1,142.5,4|0,1:2|0:0,0:0:0:0:
439,234,57238,1,8,0:2:0:0:
462,18,57377,1,0,1:2:0:0:
330,295,57517,5,8,0:2:0:0:
277,44,57656,1,0,1:2:0:0:
144,298,57796,5,8,0:2:0:0:
154,85,57935,1,0,1:2:0:0:
0,189,58075,6,0,B|57:185|57:185|84:203|84:203|152:196,1,142.5,8|0,0:2|0:0,0:0:0:0:
147,175,58354,1,8,0:2:0:0:
202,382,58493,1,0,1:2:0:0:
293,125,58633,5,8,0:2:0:0:
302,345,58772,1,0,1:2:0:0:
490,208,58912,2,0,B|409:188|433:248|323:224,1,142.5,8|0,0:2|0:0,0:0:0:0:
330,243,59191,6,0,B|355:260|370:286|370:286|474:255|434:140|362:141,1,237.5,4|8,1:2|0:2,0:2:0:0:
131,79,59610,1,0,0:2:0:0:
285,25,59749,1,0,1:2:0:0:
257,189,59889,1,0,1:2:0:0:
226,100,60028,5,8,0:2:0:0:
473,319,60307,6,0,B|365:301|416:373|282:350,1,178.125,4|0,1:2|0:0,0:0:0:0:
235,306,60586,1,8,1:2:0:0:
200,273,60656,1,8,0:2:0:0:
155,290,60726,1,8,0:2:0:0:
157,337,60796,1,8,0:2:0:0:
203,352,60865,5,8,1:2:0:0:
255,295,60935,1,8,0:2:0:0:
252,217,61005,1,8,0:2:0:0:
196,162,61075,1,8,0:2:0:0:
119,161,61144,6,0,P|64:175|45:177,1,59.375,8|8,1:2|0:2,0:0:0:0:
426,233,61284,2,0,P|396:240|368:248,1,59.375,8|8,0:2|0:2,0:0:0:0:
7,347,61424,6,0,B|30:302|89:300|89:300|127:345|199:337,1,178.125,4|0,1:2|0:0,0:2:0:0:
185,323,61703,1,10,0:2:0:0:
352,60,61842,2,0,B|315:94|315:94|351:203,1,118.75,0|2,0:2|1:2,0:0:0:0:
368,249,62121,1,0,1:2:0:0:
131,79,62261,1,8,0:2:0:0:
131,79,62400,1,0,0:2:0:0:
512,12,62540,6,0,P|443:7|373:-3,1,118.75,0|0,1:2|0:2,0:2:0:0:
61,175,62819,2,0,P|127:177|198:189,1,118.75,10|0,0:2|0:2,0:0:0:0:
131,79,63098,1,2,1:2:0:0:
131,79,63238,1,0,1:2:0:0:
368,249,63377,1,8,0:2:0:0:
95,375,63517,1,0,0:2:0:0:
226,100,63656,6,0,B|273:88|273:88|334:134|326:186|272:232,1,178.125,0|0,1:2|0:0,0:2:0:0:
278,210,63935,1,10,0:2:0:0:
512,26,64075,2,0,P|453:20|395:13,1,118.75,0|2,0:2|1:2,0:0:0:0:
300,0,64354,1,0,1:2:0:0:
400,350,64493,6,0,B|399:285|422:214|422:214|442:212|460:183,1,178.125,8|0,0:2|0:0,0:0:0:0:
368,249,64772,2,0,B|330:215|279:242|279:242|248:293|183:289,1,178.125,0|0,1:2|0:0,0:0:0:0:
84,187,65051,5,10,0:2:0:0:
142,343,65191,1,0,0:2:0:0:
75,165,65331,1,2,1:2:0:0:
149,363,65470,1,0,1:2:0:0:
308,34,65610,2,0,P|364:41|380:155,1,178.125,10|0,0:2|0:0,0:0:0:0:
288,149,65889,6,0,B|390:123|364:208|468:189,1,178.125,4|0,1:2|0:0,0:2:0:0:
473,173,66168,1,10,0:2:0:0:
149,363,66307,2,0,P|142:272|138:226,1,118.75,0|2,0:2|1:2,0:0:0:0:
45,68,66586,1,0,1:2:0:0:
331,279,66726,1,8,0:2:0:0:
331,279,66865,1,0,0:2:0:0:
420,49,67005,6,0,P|359:57|278:63,1,118.75,0|0,1:2|0:2,0:2:0:0:
139,244,67284,1,10,0:2:0:0:
21,178,67424,2,0,P|90:167|151:163,1,118.75,0|2,0:2|1:2,0:0:0:0:
498,384,67703,5,0,1:2:0:0:
512,198,67842,1,8,0:2:0:0:
331,278,67982,1,0,0:2:0:0:
443,295,68121,6,0,B|412:268|361:285|361:285|333:337|269:338,1,178.125,0|0,1:2|0:0,0:2:0:0:
268,323,68400,1,10,0:2:0:0:
139,54,68540,2,0,B|173:88|173:88|158:171,1,118.75,0|2,0:2|1:2,0:0:0:0:
139,244,68819,1,0,1:2:0:0:
375,0,68958,6,0,P|386:108|397:227,1,178.125,8|0,0:2|0:0,0:0:0:0:
341,384,69238,2,0,P|363:300|473:328,1,178.125,0|0,1:2|0:0,0:0:0:0:
492,356,69517,5,10,0:2:0:0:
268,323,69656,1,0,0:2:0:0:
511,358,69796,1,2,1:2:0:0:
246,320,69935,1,0,1:2:0:0:
512,163,70075,2,0,B|425:143|437:223|323:194,1,178.125,10|0,0:2|0:0,0:0:0:0:
247,168,70354,6,0,B|310:158|310:158|330:286,1,178.125,4|0,1:2|0:0,0:2:0:0:
322,300,70633,1,10,0:2:0:0:
463,58,70772,2,0,P|404:50|335:41,1,118.75,0|2,0:2|1:2,0:0:0:0:
211,22,71051,1,0,1:2:0:0:
442,294,71191,1,8,0:2:0:0:
442,294,71331,1,0,0:2:0:0:
265,351,71470,6,0,B|297:315|349:324|349:324|372:380|453:384,1,178.125,0|0,1:2|0:0,0:2:0:0:
435,372,71749,1,10,0:2:0:0:
182,254,71889,2,0,P|122:245|77:293,1,118.75,0|2,0:2|1:2,0:0:0:0:
247,168,72168,1,0,1:2:0:0:
7,54,72307,1,8,0:2:0:0:
7,54,72447,1,0,0:2:0:0:
101,0,72586,6,0,P|94:92|86:201,1,178.125,0|0,1:2|0:0,0:2:0:0:
71,185,72865,1,10,0:2:0:0:
345,42,73005,2,0,P|251:37|206:34,1,118.75,0|2,0:2|1:2,0:0:0:0:
424,138,73284,1,0,1:2:0:0:
231,283,73424,6,0,B|288:265|350:254|350:254|304:293|333:325,1,178.125,8|0,0:2|0:0,0:0:0:0:
265,351,73703,2,0,B|234:311|181:314|181:314|150:367|85:365,1,178.125,0|0,1:2|0:0,0:0:0:0:
51,313,73982,5,10,0:2:0:0:
90,109,74121,1,0,0:2:0:0:
46,336,74261,1,2,1:2:0:0:
95,86,74400,1,0,1:2:0:0:
265,351,74540,6,0,L|256:220,1,106.875004076958,10|0,0:2|0:0,0:0:0:0:
251,168,74819,1,12,0:0:0:0:
251,168,75098,5,8,0:0:0:0:
502,52,75238,1,0,0:0:0:0:
249,148,75377,5,8,0:0:0:0:
4,49,75517,1,0,1:0:0:0:
88,319,75656,5,8,0:0:0:0:
202,48,75796,1,0,1:0:0:0:
432,317,75935,5,12,0:0:0:0:
307,47,76075,1,0,0:0:0:0:
201,285,76214,5,8,0:0:0:0:
501,172,76354,1,0,1:0:0:0:
31,173,76493,5,8,0:0:0:0:
326,277,76633,1,0,1:0:0:0:
254,133,76772,6,0,B|170:137|195:196|95:190,1,142.5,8|0,0:0|0:0,0:0:0:0:
77,23,77051,5,12,0:0:0:0:
142,333,77191,1,0,1:0:0:0:
250,0,77331,5,12,0:0:0:0:
247,356,77470,1,0,1:0:0:0:
512,135,77610,5,12,0:0:0:0:
455,156,77679,1,8,0:0:0:0:
401,125,77749,1,8,0:0:0:0:
381,69,77819,1,8,0:0:0:0:
419,20,77889,5,8,0:0:0:0:
402,97,77958,5,8,0:0:0:0:
385,175,78028,5,8,0:0:0:0:
368,253,78098,5,8,0:0:0:0:
352,331,78168,5,6,1:2:0:0:
247,356,78447,5,2,0:0:0:0:
142,333,78726,5,2,0:0:0:0:
142,333,78865,2,0,P|136:250|130:185,1,142.499995651245,2|0,0:0|0:0,0:0:0:0:
38,43,79284,6,0,P|92:135|220:94,1,227.999993041992,6|8,1:2|0:2,0:2:0:0:
481,265,79703,2,0,P|392:254|344:252,1,113.999996520996,2|0,0:2|1:2,0:2:0:0:
256,320,79982,1,0,1:2:0:0:
142,333,80121,2,0,P|198:324|255:320,1,113.999996520996,10|0,0:2|0:2,0:2:0:0:
419,20,80400,6,0,B|360:31|360:31|379:163,1,170.999994781494,2|0,1:2|0:0,0:2:0:0:
389,163,80679,2,0,P|333:127|280:145,1,113.999996520996,8|0,0:2|0:0,0:0:0:0:
256,320,80958,1,0,1:2:0:0:
293,123,81098,1,0,1:2:0:0:
0,332,81238,6,0,B|96:303|69:379|171:364,1,170.999994781494,10|0,0:2|0:0,0:2:0:0:
180,382,81517,2,0,P|168:292|148:120,1,227.999993041992,2|8,1:2|0:2,0:2:0:0:
419,20,81935,1,2,0:2:0:0:
293,123,82075,1,2,1:2:0:0:
305,1,82214,1,0,1:2:0:0:
410,135,82354,2,0,P|400:202|394:266,1,113.999996520996,10|0,0:2|0:2,0:2:0:0:
180,382,82633,6,0,P|218:318|313:344,1,170.999994781494,2|0,1:2|0:0,0:2:0:0:
306,360,82912,1,8,0:2:0:0:
265,206,83051,1,0,0:2:0:0:
436,94,83191,1,0,1:2:0:0:
395,248,83330,5,0,1:2:0:0:
236,32,83470,1,8,0:2:0:0:
512,0,83610,1,0,0:2:0:0:
265,206,83749,6,0,B|229:153|160:167|160:167|123:233|43:228,1,227.999993041992,6|8,1:2|0:2,0:2:0:0:
310,105,84168,1,2,0:2:0:0:
52,24,84307,2,0,P|67:110|74:157,1,113.999996520996,0|0,1:2|1:2,0:0:0:0:
176,373,84586,2,0,P|184:316|195:260,1,113.999996520996,10|0,0:2|0:2,0:2:0:0:
432,174,84865,6,0,P|363:181|310:93,1,170.999994781494,2|0,1:2|0:0,0:2:0:0:
322,90,85144,2,0,P|333:163|338:221,1,113.999996520996,8|0,0:2|0:0,0:0:0:0:
440,57,85424,1,0,1:2:0:0:
221,17,85563,1,0,1:2:0:0:
446,344,85703,6,0,P|432:189|430:144,1,170.999994781494,10|0,0:2|0:0,0:2:0:0:
455,148,85982,2,0,B|467:179|482:196|482:196|445:248|368:263|329:208|323:170,1,227.999993041992,2|8,1:2|0:2,0:2:0:0:
165,332,86400,1,2,0:2:0:0:
177,218,86540,2,0,P|171:279|163:339,1,113.999996520996,0|0,1:2|1:2,0:0:0:0:
16,71,86819,6,0,B|117:53|72:135|206:113,1,170.999994781494,10|0,0:2|0:0,0:2:0:0:
192,96,87098,1,0,1:2:0:0:
335,201,87238,1,2,0:0:0:0:
192,96,87377,1,8,0:2:0:0:
335,201,87517,2,0,P|411:185|458:178,1,113.999996520996,0|2,1:2|1:2,0:0:0:0:
164,331,87796,1,0,1:2:0:0:
277,341,87935,2,0,P|209:332|153:330,1,113.999996520996,10|8,0:2|0:2,0:0:0:0:
93,363,88144,1,8,0:0:0:0:
103,384,88214,5,6,1:2:0:0:
129,244,88354,1,0,1:0:0:0:
48,292,88493,1,8,0:0:0:0:
217,257,88633,1,0,1:0:0:0:
102,136,88772,5,0,1:0:0:0:
129,244,88912,1,0,1:0:0:0:
224,63,89051,1,8,0:0:0:0:
210,172,89191,1,0,1:0:0:0:
318,29,89331,5,6,1:2:0:0:
146,7,89470,1,0,1:0:0:0:
124,177,89610,1,8,0:0:0:0:
296,199,89749,1,0,1:0:0:0:
224,63,89889,5,0,1:0:0:0:
242,280,90028,1,0,1:0:0:0:
420,158,90168,1,8,0:0:0:0:
210,172,90307,1,0,1:0:0:0:
423,319,90447,5,6,1:2:0:0:
474,74,90586,1,0,1:0:0:0:
242,280,90726,1,8,0:0:0:0:
420,158,90865,1,0,1:0:0:0:
224,63,91005,5,4,1:2:0:0:
343,276,91144,1,0,1:0:0:0:
126,384,91284,1,8,0:0:0:0:
10,168,91424,1,0,1:0:0:0:
431,240,91563,5,6,1:2:0:0:
9,305,91703,1,0,1:2:0:0:
318,29,91842,1,12,0:0:0:0:
246,366,91982,1,0,1:2:0:0:
10,168,92121,5,12,0:0:0:0:
37,118,92190,1,8,0:0:0:0:
92,102,92260,1,8,0:0:0:0:
147,114,92330,1,8,0:0:0:0:
185,156,92400,5,8,0:0:0:0:
240,204,92469,5,8,0:0:0:0:
314,213,92539,5,8,0:0:0:0:
384,174,92609,5,8,0:0:0:0:
403,96,92679,6,2,B|426:86|420:54|420:54|403:82|393:62|390:91|405:97,23,95,6|2|2|2|2|2|2|2|2|2|2|2|2|2|2|2|2|2|2|2|2|2|2|2,1:2|0:0|0:0|0:0|0:0|0:0|0:0|0:0|0:0|0:0|0:0|0:0|0:0|0:0|0:0|0:0|0:0|0:0|0:0|0:0|0:0|0:0|0:0|0:0,0:0:0:0:
384,174,94354,6,0,P|355:174|328:180,1,56.9999982604981,6|0,1:2|0:0,0:0:0:0:
220,77,94493,1,0,1:0:0:0:
224,63,94563,1,0,1:0:0:0:
260,37,94633,6,0,L|249:-9,1,35.625001358986,8|0,0:0|0:0,0:0:0:0:
77,186,94772,2,0,B|47:181|25:207|25:207|-14:185|-30:93|36:35|134:52|147:116,1,341.999989562989,6|0,1:2|0:0,0:0:0:0:
