osu file format v14

[General]
AudioFilename: audio.mp3
AudioLeadIn: 0
PreviewTime: 61005
Countdown: 0
SampleSet: Soft
StackLeniency: 0.5
Mode: 0
LetterboxInBreaks: 0
WidescreenStoryboard: 1

[Editor]
Bookmarks: 23470,32400
DistanceSpacing: 1.4
BeatDivisor: 4
GridSize: 32
TimelineZoom: 1.8

[Metadata]
Title:Aoiro Step (Cut Ver.)
TitleUnicode:アオイロステップ (Cut Ver.)
Artist:i.o
ArtistUnicode:i.o
Creator:Bazz B
Version:Beginner
Source:アオリオ
Tags:アドリブ ad:lib aorio x Scenario -Mikan Mikan Akitoshi -Laura- Corinn Kalibe Left island Rizia Kawaiwkyik Karia lolia kxlman Dailycare Morinaga Kibbleru Reillia [C u r i] [C_u_r_i] Curi iljaaz keqing piroshki Sotarks Djulus -MikanMyMommy MikanMyMommy Irohas MugiwaraSekai Shizuku- Kazato Asa Shikibe Mayu Elcheer Hikan Riana Amamya PaRaDogi coco cococolaco AIR schoolboy Komore keeVY tomadoi Shiinoha Kotone tricolor Syph Okoratu Okorin Karen Suiyu Kagamine Ren Japanese Anime Eroge Visual Novel VN Video Game pop jpop j-pop opening op theme i.o.sound
BeatmapID:2276466
BeatmapSetID:1044953

[Difficulty]
HPDrainRate:2
CircleSize:2
OverallDifficulty:1
ApproachRate:3
SliderMultiplier:0.599999999999999
SliderTickRate:1

[Events]
//Background and Video events
0,0,"Matsuzawa.Yuka.full.1191374.jpg",0,0
//Break Periods
//Storyboard Layer 0 (Background)
//Storyboard Layer 1 (Fail)
//Storyboard Layer 2 (Pass)
//Storyboard Layer 3 (Foreground)
//Storyboard Layer 4 (Overlay)
//Storyboard Sound Samples

[TimingPoints]
1145,279.06976744186,4,2,22,60,1,0
7842,-100,4,2,22,60,0,0
10075,-100,4,2,22,70,0,1
19005,-100,4,2,22,70,0,1
20121,-100,4,2,22,70,0,1
21238,-100,4,2,22,70,0,1
22354,-100,4,2,22,70,0,1
23470,-100,4,2,22,60,0,0
24307,-100,4,2,22,60,0,0
24586,-100,4,2,22,60,0,0
25424,-100,4,2,22,60,0,0
25703,-100,4,2,22,60,0,0
27656,-100,4,2,22,60,0,0
28075,-100,4,2,22,60,0,0
29889,-100,4,2,22,60,0,0
30168,-100,4,2,22,60,0,0
31284,-100,4,2,22,60,0,0
32400,-100,4,2,22,60,0,0
40075,-100,4,2,22,60,0,0
41331,-100,4,2,22,55,0,0
50261,-100,4,2,22,60,0,0
52493,-100,4,2,22,60,0,0
54726,-100,4,2,22,60,0,0
56958,-100,4,2,22,70,0,0
59191,-100,4,2,22,70,0,0
61424,-100,4,2,22,80,0,1
74540,-100,4,2,22,80,0,1
75098,-100,4,2,22,80,0,1
76772,-100,4,2,22,80,0,1
78168,-100,4,2,22,50,0,0
79214,-100,4,2,22,50,0,0
79284,-100,4,2,22,70,0,1
88214,-100,4,2,22,70,0,1
89331,-100,4,2,22,70,0,1
90447,-100,4,2,22,70,0,1
91005,-100,4,2,22,70,0,1
91563,-100,4,2,22,70,0,1
92679,-100,4,2,22,70,0,0
92958,-100,4,2,22,40,0,0
94772,-100,4,2,22,70,0,0
95330,-100,4,2,22,20,0,0

[Colours]
Combo1 : 255,255,138
Combo2 : 255,180,104
Combo3 : 255,121,121
Combo4 : 159,243,253

[HitObjects]
40,167,1145,6,0,P|47:77|129:144,1,240,4|6,1:2|1:2,0:0:0:0:
130,140,3377,2,0,B|155:386,2,240,6|0|4,1:2|0:0|1:2,0:0:0:0:
481,57,6726,6,0,B|385:34|405:111|307:86,1,180,6|4,1:2|0:3,0:0:0:0:
245,24,7842,1,8,0:0:0:0:
114,57,8261,1,8,0:0:0:0:
46,173,8679,1,8,0:0:0:0:
63,306,9098,1,8,0:0:0:0:
184,365,9517,2,0,P|225:351|247:347,1,59.9999999999999,8|8,0:0|0:0,0:0:0:0:
311,291,10075,6,0,P|382:322|427:327,1,120,6|0,1:2|1:2,0:2:0:0:
502,283,10912,1,10,0:2:0:0:
468,199,11191,2,0,L|479:17,1,180,2|10,1:2|0:2,0:2:0:0:
389,12,12307,6,0,L|383:139,1,120,2|2,1:2|1:2,0:2:0:0:
307,180,13144,1,10,0:2:0:0:
236,123,13424,2,0,P|208:92|74:72,1,180,2|8,1:2|0:2,0:2:0:0:
91,159,14540,6,0,P|149:159|175:217,1,120,6|0,1:2|1:2,0:2:0:0:
107,266,15377,1,10,0:2:0:0:
165,334,15656,2,0,L|347:316,1,180,2|10,1:2|0:2,0:2:0:0:
419,267,16772,6,0,B|439:225|439:225|425:180,1,89.9999999999999,2|2,1:2|0:2,0:2:0:0:
300,133,17610,2,0,B|280:91|280:91|292:49,1,89.9999999999999,10|2,0:2|0:0,0:2:0:0:
424,18,18447,2,0,L|484:27,1,59.9999999999999,2|10,1:2|0:2,0:0:0:0:
507,113,19005,5,6,1:2:0:0:
228,341,20121,1,6,1:2:0:0:
40,33,21238,1,6,1:2:0:0:
219,33,21796,1,4,1:2:0:0:
127,187,22354,2,0,P|114:270|112:307,2,120,6|12|6,1:2|0:0|1:2,0:0:0:0:
194,127,23749,5,10,0:2:0:0:
194,127,24307,1,10,0:2:0:0:
268,77,24586,2,0,P|310:97|333:104,1,59.9999999999999,2|8,1:2|0:2,0:2:0:0:
480,14,25424,1,10,0:2:0:0:
507,99,25703,2,0,P|496:162|495:166,1,59.9999999999999,2|10,1:2|0:2,0:0:0:0:
476,336,26540,5,10,0:2:0:0:
388,356,26819,2,0,P|357:347|322:344,1,59.9999999999999,2|8,1:2|0:2,0:2:0:0:
150,366,27656,1,10,0:2:0:0:
69,325,27935,2,0,P|56:280|54:257,1,59.9999999999999,6|8,1:2|0:2,0:0:0:0:
91,90,28772,5,8,0:2:0:0:
167,40,29051,2,0,L|228:49,1,59.9999999999999,2|10,1:2|0:2,0:2:0:0:
367,160,29889,1,10,0:2:0:0:
443,211,30168,2,0,L|504:202,1,59.9999999999999,2|8,1:2|0:2,0:2:0:0:
433,368,31005,5,8,0:2:0:0:
343,367,31284,2,0,P|304:356|277:352,1,59.9999999999999,6|8,1:2|0:2,0:2:0:0:
220,289,31842,2,0,P|185:299|152:312,1,59.9999999999999,2|8,1:2|0:2,0:0:0:0:
89,359,32400,6,0,P|57:319|55:249,1,120,6|2,1:2|1:2,0:2:0:0:
114,185,33238,1,8,0:2:0:0:
85,99,33517,2,0,P|158:85|214:78,1,120,2|0,1:2|1:2,0:2:0:0:
273,22,34354,1,10,0:2:0:0:
354,59,34633,6,0,P|423:71|456:114,1,120,2|2,1:2|1:2,0:0:0:0:
422,191,35470,1,8,0:2:0:0:
337,220,35749,2,0,P|296:210|266:207,1,59.9999999999999,2|8,1:2|0:2,0:2:0:0:
194,239,36307,2,0,P|153:229|123:226,1,59.9999999999999,0|10,1:2|0:2,0:0:0:0:
59,274,36865,6,0,P|60:317|130:362,1,120,6|2,1:2|1:2,0:0:0:0:
205,342,37703,1,8,0:2:0:0:
291,366,37982,2,0,P|395:352|417:351,1,120,2|0,1:2|1:2,0:2:0:0:
489,309,38819,1,10,0:2:0:0:
430,240,39098,6,0,P|428:184|432:143,1,89.9999999999999,6|6,1:2|1:2,0:0:0:0:
476,72,39796,1,0,1:2:0:0:
400,22,40075,2,0,B|294:27|327:104|211:95,1,210,6|4,1:2|0:3,0:0:0:0:
125,66,41331,1,6,1:2:0:0:
11,207,41889,6,0,P|67:220|82:226,1,59.9999999999999,8|0,0:2|1:2,0:2:0:0:
110,300,42447,2,0,B|153:292|153:292|184:306|184:306|229:294,1,120,0|8,1:2|0:0,0:2:0:0:
302,341,43284,1,0,1:2:0:0:
389,320,43563,1,2,1:2:0:0:
492,173,44121,6,0,P|485:126|483:102,1,59.9999999999999,8|0,0:2|1:2,0:2:0:0:
441,34,44679,2,0,P|399:39|353:105,1,120,0|8,1:2|0:0,0:2:0:0:
280,150,45517,1,0,1:2:0:0:
206,98,45796,1,2,1:2:0:0:
60,203,46354,6,0,L|67:271,1,59.9999999999999,8|0,0:2|1:2,0:2:0:0:
113,339,46912,2,0,P|196:324|238:322,1,120,0|8,1:2|0:0,0:2:0:0:
298,262,47749,1,0,1:2:0:0:
229,203,48028,6,0,P|202:174|189:143,1,59.9999999999999,2|0,1:2|0:0,0:0:0:0:
120,103,48586,2,0,P|123:58|133:33,1,59.9999999999999,8|0,0:0|1:0,0:0:0:0:
211,10,49144,1,4,1:2:0:0:
288,56,49424,1,8,0:2:0:0:
370,20,49703,2,0,P|424:25|451:87,1,120,8|6,0:0|1:2,0:0:0:0:
486,255,50819,6,0,P|472:293|463:321,1,59.9999999999999,0|8,1:2|0:2,0:0:0:0:
388,357,51377,2,0,P|360:347|321:345,1,59.9999999999999,2|8,1:2|0:2,0:2:0:0:
256,292,51935,2,0,P|211:313|195:313,1,59.9999999999999,8|8,0:2|0:3,0:0:0:0:
113,294,52493,1,6,1:2:0:0:
25,190,52912,1,6,1:2:0:0:
79,66,53331,6,0,B|179:59|147:135|252:128,1,180,14|8,0:0|0:0,0:0:0:0:
314,76,54447,1,8,0:0:0:0:
367,148,54726,2,0,P|393:123|401:60,2,89.9999999999999,4|0|8,1:2|0:2|0:2,0:2:0:0:
396,233,55842,6,0,P|389:285|386:365,1,120,0|0,1:2|0:0,0:2:0:0:
297,335,56679,1,8,0:2:0:0:
214,371,56958,2,0,P|162:361|72:358,2,120,4|8|8,1:2|0:2|0:2,0:0:0:0:
289,320,58354,1,8,0:2:0:0:
235,247,58633,2,0,L|242:175,1,59.9999999999999,8|8,0:2|0:2,0:0:0:0:
304,124,59191,6,0,P|339:54|438:45,1,180,4|8,1:2|0:2,0:2:0:0:
401,127,60307,1,4,1:2:0:0:
45,62,61424,6,0,P|104:53|160:90,1,120,4|2,1:2|1:2,0:2:0:0:
191,164,62261,1,8,0:2:0:0:
276,191,62540,2,0,L|268:265,2,59.9999999999999,0|10|2,1:2|0:2|1:2,0:2:0:0:
342,130,63377,1,8,0:2:0:0:
428,156,63656,6,0,P|427:94|381:48,1,120,0|2,1:2|1:2,0:2:0:0:
305,22,64493,2,0,P|245:30|237:30,1,59.9999999999999,8|0,0:2|1:2,0:0:0:0:
167,73,65051,2,0,P|130:65|97:61,1,59.9999999999999,10|2,0:2|1:2,0:0:0:0:
29,106,65610,1,10,0:2:0:0:
70,185,65889,6,0,P|64:230|46:327,1,120,4|2,1:2|1:2,0:2:0:0:
114,366,66726,1,8,0:2:0:0:
194,325,67005,2,0,P|193:276|189:249,2,59.9999999999999,0|10|2,1:2|0:2|1:2,0:2:0:0:
274,366,67842,1,8,0:2:0:0:
334,299,68121,6,0,B|408:296|383:352|469:343,1,120,0|2,1:2|1:2,0:2:0:0:
510,285,68958,1,8,0:2:0:0:
463,207,69238,2,0,L|473:139,1,59.9999999999999,0|10,1:2|0:2,0:0:0:0:
398,95,69796,2,0,L|408:27,1,59.9999999999999,2|10,1:2|0:2,0:0:0:0:
320,11,70354,6,0,B|261:16|268:57|193:66,1,120,4|2,1:2|1:2,0:2:0:0:
126,38,71191,1,8,0:2:0:0:
59,98,71470,2,0,P|64:159|124:194,1,120,0|2,1:2|1:2,0:2:0:0:
179,247,72307,1,8,0:2:0:0:
257,203,72586,6,0,P|316:199|376:194,1,120,0|2,1:2|1:2,0:2:0:0:
439,259,73424,1,8,0:2:0:0:
374,322,73703,2,0,P|322:317|288:313,1,59.9999999999999,0|10,1:2|0:2,0:0:0:0:
229,345,74261,2,0,P|177:340|143:336,1,59.9999999999999,2|10,1:2|0:2,0:0:0:0:
82,364,74819,5,12,0:0:0:0:
15,303,75098,2,0,L|31:224,1,59.9999999999999,8|8,0:0|0:0,0:0:0:0:
105,201,75656,2,0,L|121:122,1,59.9999999999999,8|12,0:0|0:0,0:0:0:0:
50,81,76214,2,0,L|66:2,1,59.9999999999999,8|8,0:0|0:0,0:0:0:0:
150,6,76772,5,8,0:0:0:0:
220,61,77051,2,0,L|294:53,1,59.9999999999999,12|12,0:0|0:0,0:0:0:0:
355,103,77610,2,0,L|485:87,1,120,12|6,0:0|1:2,0:0:0:0:
192,313,79284,6,0,P|121:344|76:349,1,120,6|0,1:2|1:2,0:2:0:0:
1,305,80121,1,10,0:2:0:0:
35,221,80400,2,0,L|24:39,1,180,2|10,1:2|0:2,0:2:0:0:
114,34,81516,6,0,L|120:161,1,120,2|2,1:2|1:2,0:2:0:0:
196,202,82353,1,10,0:2:0:0:
267,145,82633,2,0,P|295:114|429:94,1,180,2|8,1:2|0:2,0:2:0:0:
412,181,83749,6,0,P|354:181|328:239,1,120,6|0,1:2|1:2,0:2:0:0:
396,288,84586,1,10,0:2:0:0:
338,356,84865,2,0,L|156:338,1,180,2|10,1:2|0:2,0:2:0:0:
84,289,85981,6,0,B|64:247|64:247|78:202,1,89.9999999999999,2|2,1:2|0:2,0:2:0:0:
203,155,86819,2,0,B|223:113|223:113|211:71,1,89.9999999999999,10|2,0:2|0:0,0:2:0:0:
79,40,87656,2,0,L|19:49,1,59.9999999999999,2|10,1:2|0:2,0:0:0:0:
0,135,88214,5,6,1:2:0:0:
275,363,89330,1,6,1:2:0:0:
463,55,90447,1,6,1:2:0:0:
284,55,91005,1,4,1:2:0:0:
376,209,91563,2,0,P|389:292|391:329,2,120,6|12|6,1:2|0:0|1:2,0:0:0:0:
256,192,92958,12,6,94772,1:2:0:0:
