osu file format v14

[General]
AudioFilename: audio.mp3
AudioLeadIn: 0
PreviewTime: 43962
Countdown: 0
SampleSet: Soft
StackLeniency: 0.7
Mode: 3
LetterboxInBreaks: 0
SpecialStyle: 0
WidescreenStoryboard: 1

[Editor]
DistanceSpacing: 0.4
BeatDivisor: 2
GridSize: 32
TimelineZoom: 2

[Metadata]
Title:my mother wants me dead (Sped Up Ver.)
TitleUnicode:my mother wants me dead (Sped Up Ver.)
Artist:i love you
ArtistUnicode:i love you
Creator:MocaLoca
Version:easy
Source:
Tags:ily please put me in a medically induced coma electronic english carolesdaughter frenchcore hardcore remix _Deafen Epic Man 2
BeatmapID:4125734
BeatmapSetID:1985592

[Difficulty]
HPDrainRate:6.5
CircleSize:4
OverallDifficulty:6.5
ApproachRate:5
SliderMultiplier:1.4
SliderTickRate:1

[Events]
//Background and Video events
0,0,"bg.jpg",0,0
//Break Periods
//Storyboard Layer 0 (Background)
//Storyboard Layer 1 (Fail)
//Storyboard Layer 2 (Pass)
//Storyboard Layer 3 (Foreground)
//Storyboard Layer 4 (Overlay)
//Storyboard Sound Samples

[TimingPoints]
77,228.571428571429,4,2,1,40,1,0

[HitObjects]
320,192,7391,5,0,0:0:0:0:
192,192,7619,1,0,0:0:0:0:
448,192,7848,128,0,8077:0:0:0:0:
64,192,8077,1,0,0:0:0:0:
192,192,8305,128,0,8534:0:0:0:0:
448,192,8534,1,0,0:0:0:0:
320,192,8762,128,0,8991:0:0:0:0:
192,192,8991,1,0,0:0:0:0:
64,192,9219,1,0,0:0:0:0:
448,192,9448,1,0,0:0:0:0:
192,192,9677,128,0,9905:0:0:0:0:
320,192,9905,1,0,0:0:0:0:
448,192,10134,128,0,10362:0:0:0:0:
64,192,10362,1,0,0:0:0:0:
320,192,10591,128,0,10819:0:0:0:0:
192,192,10819,1,0,0:0:0:0:
448,192,11048,1,0,0:0:0:0:
64,192,11277,1,0,0:0:0:0:
192,192,11505,128,0,11734:0:0:0:0:
320,192,11734,1,0,0:0:0:0:
448,192,11962,128,0,12191:0:0:0:0:
64,192,12191,1,0,0:0:0:0:
192,192,12419,128,0,12648:0:0:0:0:
448,192,12648,1,0,0:0:0:0:
320,192,12877,1,0,0:0:0:0:
192,192,13105,1,0,0:0:0:0:
64,192,13334,128,0,13562:0:0:0:0:
448,192,13562,1,0,0:0:0:0:
192,192,13791,1,0,0:0:0:0:
192,192,14019,1,0,0:0:0:0:
192,192,14248,128,0,14477:0:0:0:0:
448,192,14477,128,0,14705:0:0:0:0:
320,192,14705,1,0,0:0:0:0:
64,192,14705,1,0,0:0:0:0:
192,192,14934,1,0,0:0:0:0:
64,192,15162,1,0,0:0:0:0:
320,192,15391,1,0,0:0:0:0:
192,192,15619,1,0,0:0:0:0:
320,192,15848,1,0,0:0:0:0:
448,192,16077,1,0,0:0:0:0:
192,192,16305,1,0,0:0:0:0:
448,192,16534,1,0,0:0:0:0:
64,192,16762,1,0,0:0:0:0:
320,192,16991,1,0,0:0:0:0:
64,192,17219,1,0,0:0:0:0:
192,192,17448,1,0,0:0:0:0:
320,192,17677,1,0,0:0:0:0:
192,192,17905,1,0,0:0:0:0:
448,192,18134,1,0,0:0:0:0:
320,192,18362,1,0,0:0:0:0:
448,192,18591,1,0,0:0:0:0:
192,192,18819,1,0,0:0:0:0:
320,192,19048,1,0,0:0:0:0:
192,192,19277,1,0,0:0:0:0:
448,192,19505,1,0,0:0:0:0:
64,192,19734,1,0,0:0:0:0:
448,192,19962,1,0,0:0:0:0:
192,192,20191,1,0,0:0:0:0:
64,192,20419,1,0,0:0:0:0:
192,192,20648,1,0,0:0:0:0:
320,192,20877,1,0,0:0:0:0:
448,192,21105,1,0,0:0:0:0:
64,192,21334,1,0,0:0:0:0:
192,192,21562,1,0,0:0:0:0:
448,192,21791,128,0,22019:0:0:0:0:
192,192,22019,1,0,0:0:0:0:
64,192,22019,1,0,0:0:0:0:
320,192,22248,1,0,0:0:0:0:
192,192,22477,1,0,0:0:0:0:
448,192,22705,1,0,0:0:0:0:
64,192,22934,1,0,0:0:0:0:
448,192,23162,1,0,0:0:0:0:
64,192,23391,1,0,0:0:0:0:
320,192,23619,1,0,0:0:0:0:
64,192,23848,1,0,0:0:0:0:
448,192,24077,1,0,0:0:0:0:
192,192,24305,1,0,0:0:0:0:
448,192,24534,1,0,0:0:0:0:
320,192,24762,1,0,0:0:0:0:
192,192,24991,1,0,0:0:0:0:
320,192,25219,1,0,0:0:0:0:
64,192,25448,1,0,0:0:0:0:
192,192,25677,1,0,0:0:0:0:
64,192,25905,1,0,0:0:0:0:
448,192,26134,1,0,0:0:0:0:
320,192,26362,1,0,0:0:0:0:
448,192,26591,1,0,0:0:0:0:
192,192,26819,1,0,0:0:0:0:
320,192,27048,1,0,0:0:0:0:
192,192,27277,1,0,0:0:0:0:
64,192,27505,1,0,0:0:0:0:
448,192,27734,1,0,0:0:0:0:
64,192,27962,1,0,0:0:0:0:
320,192,28191,1,0,0:0:0:0:
448,192,28419,1,0,0:0:0:0:
320,192,28648,1,0,0:0:0:0:
192,192,28877,1,0,0:0:0:0:
64,192,29105,128,0,29334:0:0:0:0:
448,192,29334,1,0,0:0:0:0:
320,192,29791,128,0,30019:0:0:0:0:
64,192,30019,1,0,0:0:0:0:
448,192,30248,128,0,30477:0:0:0:0:
320,192,30477,1,0,0:0:0:0:
192,192,30705,128,0,30934:0:0:0:0:
448,192,30934,1,0,0:0:0:0:
64,192,31162,1,0,0:0:0:0:
448,192,31391,1,0,0:0:0:0:
192,192,31619,128,0,31848:0:0:0:0:
64,192,31848,1,0,0:0:0:0:
320,192,32077,128,0,32305:0:0:0:0:
192,192,32305,1,0,0:0:0:0:
448,192,32534,128,0,32762:0:0:0:0:
320,192,32762,1,0,0:0:0:0:
192,192,32991,1,0,0:0:0:0:
64,192,33219,1,0,0:0:0:0:
448,192,33448,128,0,33677:0:0:0:0:
64,192,33677,1,0,0:0:0:0:
320,192,33905,128,0,34134:0:0:0:0:
192,192,34134,1,0,0:0:0:0:
64,192,34362,128,0,34591:0:0:0:0:
448,192,34591,1,0,0:0:0:0:
192,192,34819,1,0,0:0:0:0:
320,192,34819,1,0,0:0:0:0:
320,192,36191,1,0,0:0:0:0:
192,192,36191,1,0,0:0:0:0:
64,192,36419,128,0,36648:0:0:0:0:
448,192,36648,1,0,0:0:0:0:
320,192,36648,1,0,0:0:0:0:
192,192,36877,1,0,0:0:0:0:
320,192,37105,128,0,37334:0:0:0:0:
64,192,37334,1,0,0:0:0:0:
448,192,37562,128,0,37791:0:0:0:0:
320,192,37791,1,0,0:0:0:0:
192,192,38019,128,0,38248:0:0:0:0:
64,192,38248,1,0,0:0:0:0:
320,192,38477,1,0,0:0:0:0:
64,192,38705,1,0,0:0:0:0:
448,192,38934,128,0,39162:0:0:0:0:
320,192,39162,1,0,0:0:0:0:
192,192,39391,128,0,39619:0:0:0:0:
64,192,39619,1,0,0:0:0:0:
320,192,39848,128,0,40077:0:0:0:0:
192,192,40077,1,0,0:0:0:0:
448,192,40305,1,0,0:0:0:0:
192,192,40534,1,0,0:0:0:0:
64,192,40762,128,0,40991:0:0:0:0:
320,192,40991,1,0,0:0:0:0:
192,192,41219,128,0,41448:0:0:0:0:
448,192,41448,1,0,0:0:0:0:
320,192,41677,128,0,41905:0:0:0:0:
192,192,41905,1,0,0:0:0:0:
64,192,42134,1,0,0:0:0:0:
448,192,42362,1,0,0:0:0:0:
192,192,42591,128,0,42819:0:0:0:0:
320,192,42819,1,0,0:0:0:0:
448,192,43048,1,0,0:0:0:0:
448,192,43277,1,0,0:0:0:0:
448,192,43505,128,0,43734:0:0:0:0:
192,192,43734,128,0,43962:0:0:0:0:
320,192,43962,1,0,0:0:0:0:
64,192,43962,1,0,0:0:0:0:
448,192,44191,1,0,0:0:0:0:
64,192,44419,1,0,0:0:0:0:
320,192,44648,1,0,0:0:0:0:
192,192,44877,1,0,0:0:0:0:
320,192,45105,1,0,0:0:0:0:
64,192,45334,1,0,0:0:0:0:
192,192,45562,1,0,0:0:0:0:
64,192,45791,1,0,0:0:0:0:
448,192,46019,1,0,0:0:0:0:
320,192,46248,1,0,0:0:0:0:
448,192,46477,1,0,0:0:0:0:
192,192,46705,1,0,0:0:0:0:
320,192,46934,1,0,0:0:0:0:
192,192,47162,1,0,0:0:0:0:
64,192,47391,1,0,0:0:0:0:
448,192,47619,1,0,0:0:0:0:
64,192,47848,1,0,0:0:0:0:
320,192,48077,1,0,0:0:0:0:
192,192,48305,1,0,0:0:0:0:
320,192,48534,1,0,0:0:0:0:
64,192,48762,1,0,0:0:0:0:
192,192,48991,1,0,0:0:0:0:
64,192,49219,1,0,0:0:0:0:
448,192,49448,1,0,0:0:0:0:
320,192,49677,1,0,0:0:0:0:
448,192,49905,1,0,0:0:0:0:
192,192,50134,1,0,0:0:0:0:
320,192,50362,1,0,0:0:0:0:
192,192,50591,1,0,0:0:0:0:
64,192,50819,1,0,0:0:0:0:
448,192,51048,128,0,51277:0:0:0:0:
64,192,51277,1,0,0:0:0:0:
192,192,51277,1,0,0:0:0:0:
320,192,51505,1,0,0:0:0:0:
192,192,51734,1,0,0:0:0:0:
448,192,51962,1,0,0:0:0:0:
320,192,52191,1,0,0:0:0:0:
448,192,52419,1,0,0:0:0:0:
64,192,52648,1,0,0:0:0:0:
192,192,52877,1,0,0:0:0:0:
64,192,53105,1,0,0:0:0:0:
320,192,53334,1,0,0:0:0:0:
448,192,53562,1,0,0:0:0:0:
320,192,53791,1,0,0:0:0:0:
64,192,54019,1,0,0:0:0:0:
448,192,54248,1,0,0:0:0:0:
64,192,54477,1,0,0:0:0:0:
320,192,54705,1,0,0:0:0:0:
192,192,54934,1,0,0:0:0:0:
320,192,55162,1,0,0:0:0:0:
64,192,55391,1,0,0:0:0:0:
448,192,55619,1,0,0:0:0:0:
64,192,55848,1,0,0:0:0:0:
320,192,56077,1,0,0:0:0:0:
192,192,56305,1,0,0:0:0:0:
320,192,56534,1,0,0:0:0:0:
64,192,56762,1,0,0:0:0:0:
192,192,56991,1,0,0:0:0:0:
64,192,57219,1,0,0:0:0:0:
448,192,57448,1,0,0:0:0:0:
320,192,57677,1,0,0:0:0:0:
448,192,57905,1,0,0:0:0:0:
192,192,58134,1,0,0:0:0:0:
320,192,58362,128,0,58591:0:0:0:0:
192,192,58591,1,0,0:0:0:0:
64,192,58591,1,0,0:0:0:0:
448,192,58819,1,0,0:0:0:0:
64,192,59048,1,0,0:0:0:0:
320,192,59277,1,0,0:0:0:0:
192,192,59505,1,0,0:0:0:0:
320,192,59734,1,0,0:0:0:0:
64,192,59962,1,0,0:0:0:0:
192,192,60191,1,0,0:0:0:0:
64,192,60419,1,0,0:0:0:0:
448,192,60648,1,0,0:0:0:0:
320,192,60877,1,0,0:0:0:0:
448,192,61105,1,0,0:0:0:0:
192,192,61334,1,0,0:0:0:0:
320,192,61562,1,0,0:0:0:0:
192,192,61791,1,0,0:0:0:0:
64,192,62019,1,0,0:0:0:0:
448,192,62248,1,0,0:0:0:0:
64,192,62477,1,0,0:0:0:0:
320,192,62705,1,0,0:0:0:0:
192,192,62934,1,0,0:0:0:0:
320,192,63162,1,0,0:0:0:0:
64,192,63391,1,0,0:0:0:0:
192,192,63619,1,0,0:0:0:0:
64,192,63848,1,0,0:0:0:0:
448,192,64077,1,0,0:0:0:0:
320,192,64305,1,0,0:0:0:0:
448,192,64534,1,0,0:0:0:0:
192,192,64762,1,0,0:0:0:0:
320,192,64991,1,0,0:0:0:0:
192,192,65219,1,0,0:0:0:0:
64,192,65448,1,0,0:0:0:0:
448,192,65677,128,0,65905:0:0:0:0:
64,192,65905,1,0,0:0:0:0:
192,192,65905,1,0,0:0:0:0:
320,192,66134,1,0,0:0:0:0:
192,192,66362,1,0,0:0:0:0:
448,192,66591,1,0,0:0:0:0:
64,192,66819,1,0,0:0:0:0:
448,192,67048,1,0,0:0:0:0:
192,192,67277,1,0,0:0:0:0:
320,192,67505,1,0,0:0:0:0:
192,192,67734,1,0,0:0:0:0:
448,192,67962,1,0,0:0:0:0:
320,192,68191,1,0,0:0:0:0:
448,192,68419,1,0,0:0:0:0:
64,192,68648,1,0,0:0:0:0:
192,192,68877,1,0,0:0:0:0:
64,192,69105,1,0,0:0:0:0:
320,192,69334,1,0,0:0:0:0:
192,192,69562,1,0,0:0:0:0:
320,192,69791,1,0,0:0:0:0:
448,192,70019,1,0,0:0:0:0:
64,192,70248,1,0,0:0:0:0:
448,192,70477,1,0,0:0:0:0:
192,192,70705,1,0,0:0:0:0:
320,192,70934,1,0,0:0:0:0:
192,192,71162,1,0,0:0:0:0:
448,192,71391,1,0,0:0:0:0:
320,192,71619,1,0,0:0:0:0:
448,192,71848,1,0,0:0:0:0:
64,192,72077,1,0,0:0:0:0:
192,192,72305,1,0,0:0:0:0:
64,192,72534,1,0,0:0:0:0:
320,192,72762,1,0,0:0:0:0:
192,192,72991,128,0,73219:0:0:0:0:
320,192,73219,1,0,0:0:0:0:
448,192,73219,1,0,0:0:0:0:
