osu file format v14

[General]
AudioFilename: audio.mp3
AudioLeadIn: 0
PreviewTime:54820
Countdown: 0
SampleSet: None
StackLeniency: 0.7
Mode: 1
LetterboxInBreaks: 0
WidescreenStoryboard: 1

[Editor]
DistanceSpacing: 0.4
BeatDivisor: 4
GridSize: 32
TimelineZoom: 1.799999

[Metadata]
Title:my mother wants me dead
TitleUnicode:my mother wants me dead
Artist:i love you
ArtistUnicode:i love you
Creator:Hivie
Version:kantan
Source:
Tags:liku please put me in a medically induced coma electronic english carolesdaughter frenchcore hardcore remix phob
BeatmapID:4030010
BeatmapSetID:1946328

[Difficulty]
HPDrainRate:8
CircleSize:2
OverallDifficulty:3
ApproachRate:10
SliderMultiplier:1.4
SliderTickRate:1

[Events]
//Background and Video events
0,0,"bg.jpg",0,75
//Break Periods
//Storyboard Layer 0 (Background)
//Storyboard Layer 1 (Fail)
//Storyboard Layer 2 (Pass)
//Storyboard Layer 3 (Foreground)
//Storyboard Layer 4 (Overlay)
//Storyboard Sound Samples

[TimingPoints]
-18,285.714285714286,4,1,0,10,1,0
2264,-100,4,1,0,20,0,0
3407,-100,4,1,0,30,0,0
4550,-100,4,1,0,40,0,0
5693,-100,4,1,0,50,0,0
6836,-100,4,1,0,60,0,0
7979,-100,4,1,0,70,0,0
9121,-100,4,1,0,80,0,0
18267,-100,4,1,0,100,0,1
36553,-100,4,1,0,100,0,0
36696,-100,4,1,0,80,0,0
53979,-100,4,1,0,100,0,0
54839,-100,4,1,0,100,0,1
91410,-100,4,1,0,100,0,0
91693,-100,4,1,0,98,0,0
91836,-100,4,1,0,97,0,0
91907,-100,4,1,0,95,0,0
91979,-100,4,1,0,94,0,0
92121,-100,4,1,0,92,0,0
92264,-100,4,1,0,91,0,0
92336,-100,4,1,0,89,0,0
92407,-100,4,1,0,88,0,0
92550,-100,4,1,0,86,0,0
92693,-100,4,1,0,85,0,0
92836,-100,4,1,0,82,0,0
92979,-100,4,1,0,80,0,0
93121,-100,4,1,0,78,0,0
93193,-100,4,1,0,77,0,0
93264,-100,4,1,0,75,0,0
93336,-100,4,1,0,74,0,0
93407,-100,4,1,0,72,0,0
93550,-100,4,1,0,71,0,0
93693,-100,4,1,0,69,0,0
93979,-100,4,1,0,68,0,0
94121,-100,4,1,0,66,0,0
94264,-100,4,1,0,65,0,0
94407,-100,4,1,0,63,0,0
94550,-100,4,1,0,62,0,0
94621,-100,4,1,0,60,0,0
94693,-100,4,1,0,58,0,0
94979,-100,4,1,0,55,0,0
95121,-100,4,1,0,54,0,0
95264,-100,4,1,0,52,0,0
95407,-100,4,1,0,51,0,0
95479,-100,4,1,0,49,0,0
95550,-100,4,1,0,48,0,0
95693,-100,4,1,0,46,0,0
95836,-100,4,1,0,45,0,0
95979,-100,4,1,0,43,0,0
96264,-100,4,1,0,42,0,0
96407,-100,4,1,0,40,0,0
96550,-100,4,1,0,38,0,0
96693,-100,4,1,0,37,0,0
96836,-100,4,1,0,35,0,0
96979,-100,4,1,0,34,0,0
97264,-100,4,1,0,31,0,0
97407,-100,4,1,0,29,0,0
97550,-100,4,1,0,28,0,0
97693,-100,4,1,0,26,0,0
97979,-100,4,1,0,23,0,0
98121,-100,4,1,0,22,0,0
98264,-100,4,1,0,20,0,0

[HitObjects]
256,192,9124,5,0,0:0:0:0:
256,192,9696,1,8,0:0:0:0:
256,192,9982,1,0,0:0:0:0:
256,192,10267,1,8,0:0:0:0:
256,192,10839,1,0,0:0:0:0:
256,192,11982,1,8,0:0:0:0:
256,192,12267,1,8,0:0:0:0:
256,192,12553,1,0,0:0:0:0:
256,192,13124,1,8,0:0:0:0:
256,192,13982,1,0,0:0:0:0:
256,192,14267,1,0,0:0:0:0:
256,192,14839,1,8,0:0:0:0:
256,192,15410,1,0,0:0:0:0:
256,192,16267,1,0,0:0:0:0:
256,192,16553,1,8,0:0:0:0:
256,192,17124,1,0,0:0:0:0:
256,96,18267,1,12,0:0:0:0:
256,192,18839,1,0,0:0:0:0:
256,192,19410,1,8,0:0:0:0:
256,192,19839,1,0,0:0:0:0:
256,192,20124,1,8,0:0:0:0:
256,192,20553,1,0,0:0:0:0:
256,192,21124,1,8,0:0:0:0:
256,192,21696,1,0,0:0:0:0:
256,192,22268,1,8,0:0:0:0:
256,192,22553,1,0,0:0:0:0:
256,192,22839,1,8,0:0:0:0:
256,192,23410,1,0,0:0:0:0:
256,192,23696,1,0,0:0:0:0:
256,192,23982,1,8,0:0:0:0:
256,192,24839,1,8,0:0:0:0:
256,192,25124,1,0,0:0:0:0:
256,192,25696,1,8,0:0:0:0:
256,192,26124,1,0,0:0:0:0:
256,192,26410,1,0,0:0:0:0:
256,192,26839,1,8,0:0:0:0:
256,96,27410,1,12,0:0:0:0:
256,192,28553,1,8,0:0:0:0:
256,192,28982,1,0,0:0:0:0:
256,192,29267,1,8,0:0:0:0:
256,192,29696,1,0,0:0:0:0:
256,192,30267,1,8,0:0:0:0:
256,192,30839,1,0,0:0:0:0:
256,192,31411,1,8,0:0:0:0:
256,192,31696,1,0,0:0:0:0:
256,192,31982,1,8,0:0:0:0:
256,192,32553,1,0,0:0:0:0:
256,192,32839,1,0,0:0:0:0:
256,192,33125,1,8,0:0:0:0:
256,192,33982,1,8,0:0:0:0:
256,192,34267,1,0,0:0:0:0:
256,192,34839,1,8,0:0:0:0:
256,192,35267,1,0,0:0:0:0:
256,192,35553,1,0,0:0:0:0:
256,192,35982,1,8,0:0:0:0:
256,96,36553,1,12,0:0:0:0:
256,192,37695,1,8,0:0:0:0:
256,192,38267,1,0,0:0:0:0:
256,192,39124,1,8,0:0:0:0:
256,192,39410,1,0,0:0:0:0:
256,192,39696,1,0,0:0:0:0:
256,192,39981,1,8,0:0:0:0:
256,192,40552,1,0,0:0:0:0:
256,192,41410,1,0,0:0:0:0:
256,192,41696,1,8,0:0:0:0:
256,192,41982,1,0,0:0:0:0:
256,192,42267,1,8,0:0:0:0:
256,192,42838,1,0,0:0:0:0:
256,192,43410,1,8,0:0:0:0:
256,192,45124,1,8,0:0:0:0:
256,96,45696,1,4,0:0:0:0:
256,192,46268,1,8,0:0:0:0:
256,192,46554,1,0,0:0:0:0:
256,192,46839,1,8,0:0:0:0:
256,192,47411,1,0,0:0:0:0:
256,192,48554,1,8,0:0:0:0:
256,192,48839,1,8,0:0:0:0:
256,192,49125,1,0,0:0:0:0:
256,192,49696,1,8,0:0:0:0:
256,192,50553,1,0,0:0:0:0:
256,192,50839,1,0,0:0:0:0:
256,192,51411,1,8,0:0:0:0:
256,192,51982,1,0,0:0:0:0:
256,192,52839,1,0,0:0:0:0:
256,192,53125,1,8,0:0:0:0:
256,192,53696,1,0,0:0:0:0:
256,96,54839,1,12,0:0:0:0:
256,192,55411,1,0,0:0:0:0:
256,192,55982,1,8,0:0:0:0:
256,192,56411,1,0,0:0:0:0:
256,192,56696,1,8,0:0:0:0:
256,192,57125,1,0,0:0:0:0:
256,192,57696,1,8,0:0:0:0:
256,192,58268,1,0,0:0:0:0:
256,192,58840,1,8,0:0:0:0:
256,192,59125,1,8,0:0:0:0:
256,192,59411,1,0,0:0:0:0:
256,192,59982,1,0,0:0:0:0:
256,192,60268,1,0,0:0:0:0:
256,192,60554,1,8,0:0:0:0:
256,192,61411,1,8,0:0:0:0:
256,192,61696,1,0,0:0:0:0:
256,192,62268,1,8,0:0:0:0:
256,192,62696,1,0,0:0:0:0:
256,192,62982,1,0,0:0:0:0:
256,192,63411,1,8,0:0:0:0:
256,96,63982,1,12,0:0:0:0:
256,192,65125,1,8,0:0:0:0:
256,192,65554,1,0,0:0:0:0:
256,192,65839,1,8,0:0:0:0:
256,192,66268,1,0,0:0:0:0:
256,192,66839,1,8,0:0:0:0:
256,192,67411,1,0,0:0:0:0:
256,192,67983,1,8,0:0:0:0:
256,192,68268,1,0,0:0:0:0:
256,192,68554,1,8,0:0:0:0:
256,192,69125,1,0,0:0:0:0:
256,192,69411,1,0,0:0:0:0:
256,192,69697,1,8,0:0:0:0:
256,192,70554,1,8,0:0:0:0:
256,192,70839,1,0,0:0:0:0:
256,192,71411,1,8,0:0:0:0:
256,192,71839,1,0,0:0:0:0:
256,192,72125,1,0,0:0:0:0:
256,192,72554,1,8,0:0:0:0:
256,96,73124,1,4,0:0:0:0:
256,192,74267,1,8,0:0:0:0:
256,192,74696,1,0,0:0:0:0:
256,192,74981,1,8,0:0:0:0:
256,192,75410,1,0,0:0:0:0:
256,192,75981,1,8,0:0:0:0:
256,192,76267,1,8,0:0:0:0:
256,192,76553,1,0,0:0:0:0:
256,192,76839,1,0,0:0:0:0:
256,192,77125,1,8,0:0:0:0:
256,192,77696,1,0,0:0:0:0:
256,192,78267,1,0,0:0:0:0:
256,192,78553,1,0,0:0:0:0:
256,192,78839,1,8,0:0:0:0:
256,192,79696,1,8,0:0:0:0:
256,192,79981,1,0,0:0:0:0:
256,192,80553,1,8,0:0:0:0:
256,192,80981,1,0,0:0:0:0:
256,192,81267,1,0,0:0:0:0:
256,192,81696,1,8,0:0:0:0:
256,96,82267,1,4,0:0:0:0:
256,192,83124,1,8,0:0:0:0:
256,192,83410,1,0,0:0:0:0:
256,192,83982,1,8,0:0:0:0:
256,192,84553,1,0,0:0:0:0:
256,192,84839,1,8,0:0:0:0:
256,192,85124,1,0,0:0:0:0:
256,192,85553,1,8,0:0:0:0:
256,192,85839,1,8,0:0:0:0:
256,192,86267,1,0,0:0:0:0:
256,192,86553,1,0,0:0:0:0:
256,192,86839,1,8,0:0:0:0:
256,192,87696,1,8,0:0:0:0:
256,192,87982,1,0,0:0:0:0:
256,192,88554,1,8,0:0:0:0:
256,192,89124,1,0,0:0:0:0:
256,192,89411,1,8,0:0:0:0:
256,192,89696,1,0,0:0:0:0:
256,192,90124,1,8,0:0:0:0:
256,192,90553,1,0,0:0:0:0:
256,192,90839,1,8,0:0:0:0:
256,192,91125,1,0,0:0:0:0:
256,192,91410,1,8,0:0:0:0:
256,192,91696,8,0,98267,0:0:0:0:
