osu file format v14

[General]
AudioFilename: audio.mp3
AudioLeadIn: 0
PreviewTime: 45000
Countdown: 0
SampleSet: Soft
StackLeniency: 0.4
Mode: 0
LetterboxInBreaks: 0
WidescreenStoryboard: 0

[Editor]
Bookmarks: 15000,30000,45000,60000,75000,90000,105000,120000,142500,172500,187500,192304,203598,214892,237480,260068,300678
DistanceSpacing: 1.5
BeatDivisor: 4
GridSize: 8
TimelineZoom: 2.4

[Metadata]
Title:Galaxy Cutter
TitleUnicode:Galaxy Cutter
Artist:hyleo x sakuraburst
ArtistUnicode:hyleo x sakuraburst
Creator:InfinityGhost
Version:Heavens
Source:
Tags:InfinityGhost Mentai collab electro drumstep bass edm electronic gurren lagann
BeatmapID:1448674
BeatmapSetID:684530

[Difficulty]
HPDrainRate:6
CircleSize:4
OverallDifficulty:8.5
ApproachRate:9.2
SliderMultiplier:2.4
SliderTickRate:1

[Events]
//Background and Video events
0,0,"it_s_written_in_the_stars_by_nanomortis-d8whi71.png",0,0
//Break Periods
2,260268,266469
//Storyboard Layer 0 (Background)
//Storyboard Layer 1 (Fail)
//Storyboard Layer 2 (Pass)
//Storyboard Layer 3 (Foreground)
//Storyboard Sound Samples

[TimingPoints]
0,468.75,4,2,0,5,1,0
0,-166.666666666667,4,2,0,5,0,0
14531,-250,4,2,0,5,0,0
15000,-133.333333333333,4,2,0,5,0,0
30000,-117.647058823529,4,2,0,25,0,0
41953,-105.263157894737,4,2,0,25,0,0
42421,-95.2380952380951,4,2,0,25,0,0
42656,-86.9565217391303,4,2,0,25,0,0
43125,-133.333333333333,4,2,0,25,0,0
43359,-133.333333333333,4,2,0,20,0,0
43593,-133.333333333333,4,2,0,15,0,0
43828,-133.333333333333,4,2,0,10,0,0
44062,-133.333333333333,4,2,0,5,0,0
44296,-133.333333333333,4,2,0,5,0,0
44531,-133.333333333333,4,2,0,35,0,0
45000,-71.4285714285714,4,1,0,45,0,1
45585,-71.4285714285714,4,1,0,5,0,1
45703,-71.4285714285714,4,1,0,45,0,1
45878,-71.4285714285714,4,1,0,5,0,1
45937,-71.4285714285714,4,1,0,45,0,1
46347,-71.4285714285714,4,1,0,5,0,1
46406,-71.4285714285714,4,1,0,45,0,1
48046,-62.5,4,1,0,45,0,1
48222,-71.4285714285714,4,1,0,5,0,1
48281,-71.4285714285714,4,1,0,45,0,1
51621,-71.4285714285714,4,1,0,5,0,1
51680,-71.4285714285714,4,1,0,45,0,1
51738,-71.4285714285714,4,1,0,5,0,1
51797,-71.4285714285714,4,1,0,45,0,1
51855,-71.4285714285714,4,1,0,5,0,1
51914,-71.4285714285714,4,1,0,45,0,1
52207,-71.4285714285714,4,1,0,5,0,1
52266,-71.4285714285714,4,1,0,45,0,1
53378,-71.4285714285714,4,1,0,5,0,1
53437,-71.4285714285714,4,1,0,45,0,1
53847,-71.4285714285714,4,1,0,5,0,1
53906,-71.4285714285714,4,1,0,45,0,1
55546,-62.5,4,1,0,45,0,1
55722,-71.4285714285714,4,1,0,5,0,1
55781,-71.4285714285714,4,1,0,45,0,1
59121,-71.4285714285714,4,1,0,5,0,1
59180,-71.4285714285714,4,1,0,45,0,1
59238,-71.4285714285714,4,1,0,5,0,1
59297,-71.4285714285714,4,1,0,45,0,1
59355,-71.4285714285714,4,1,0,5,0,1
59414,-71.4285714285714,4,1,0,45,0,1
59707,-71.4285714285714,4,1,0,5,0,1
59766,-71.4285714285714,4,1,0,45,0,1
60351,-71.4285714285714,4,1,0,5,0,1
60469,-71.4285714285714,4,1,0,45,0,1
60585,-71.4285714285714,4,1,0,5,0,1
60703,-71.4285714285714,4,1,0,45,0,1
60878,-71.4285714285714,4,1,0,5,0,1
60937,-71.4285714285714,4,1,0,45,0,1
61054,-71.4285714285714,4,1,0,5,0,1
61171,-62.5,4,1,0,45,0,1
61347,-62.5,4,1,0,5,0,1
61406,-125,4,1,0,45,0,1
61992,-71.4285714285714,4,1,0,45,0,1
63281,-62.5,4,1,0,45,0,1
63457,-62.5,4,1,0,5,0,1
63515,-55.5555555555556,4,1,0,45,0,1
63691,-71.4285714285714,4,1,0,5,0,1
63750,-71.4285714285714,4,1,0,45,0,1
64101,-71.4285714285714,4,1,0,5,0,1
64219,-71.4285714285714,4,1,0,45,0,1
64335,-71.4285714285714,4,1,0,5,0,1
64453,-71.4285714285714,4,1,0,45,0,1
65156,-62.5,4,1,0,45,0,1
65625,-71.4285714285714,4,1,0,45,0,1
66210,-100,4,1,0,45,0,1
66562,-71.4285714285714,4,1,0,45,0,1
66621,-71.4285714285714,4,1,0,5,0,1
66679,-71.4285714285714,4,1,0,45,0,1
66738,-71.4285714285714,4,1,0,5,0,1
66796,-71.4285714285714,4,1,0,45,0,1
66855,-71.4285714285714,4,1,0,5,0,1
67031,-71.4285714285714,4,1,0,45,0,1
67207,-71.4285714285714,4,1,0,5,0,1
67266,-71.4285714285714,4,1,0,45,0,1
67851,-71.4285714285714,4,1,0,5,0,1
67969,-71.4285714285714,4,1,0,45,0,1
68085,-71.4285714285714,4,1,0,5,0,1
68203,-71.4285714285714,4,1,0,45,0,1
68378,-71.4285714285714,4,1,0,5,0,1
68437,-71.4285714285714,4,1,0,45,0,1
68554,-71.4285714285714,4,1,0,5,0,1
68671,-62.5,4,1,0,45,0,1
68847,-62.5,4,1,0,5,0,1
68906,-125,4,1,0,45,0,1
69492,-71.4285714285714,4,1,0,45,0,1
70781,-62.5,4,1,0,45,0,1
70957,-71.4285714285714,4,1,0,5,0,1
71015,-55.5555555555556,4,1,0,45,0,1
71250,-71.4285714285714,4,1,0,45,0,1
71601,-71.4285714285714,4,1,0,5,0,1
71719,-71.4285714285714,4,1,0,45,0,1
71835,-71.4285714285714,4,1,0,5,0,1
71953,-71.4285714285714,4,1,0,45,0,1
72656,-62.5,4,1,0,45,0,1
74062,-62.5,4,1,0,45,0,1
74121,-62.5,4,1,0,5,0,1
74179,-62.5,4,1,0,45,0,1
74238,-62.5,4,1,0,5,0,1
74296,-62.5,4,1,0,45,0,1
74355,-62.5,4,1,0,5,0,1
74531,-62.5,4,1,0,45,0,1
75000,-100,4,2,0,45,0,0
76875,-142.857142857143,4,2,0,45,0,0
78750,-100,4,2,0,45,0,0
80625,-142.857142857143,4,2,0,45,0,0
82500,-100,4,2,0,45,0,0
84375,-142.857142857143,4,2,0,45,0,0
86250,-100,4,2,0,45,0,0
88125,-142.857142857143,4,2,0,45,0,0
89531,-250.000000000001,4,2,0,45,0,0
90000,-250.000000000001,4,2,0,25,0,0
91640,-250.000000000001,4,2,0,5,0,0
91874,-250.000000000001,4,2,0,25,0,0
92109,-250.000000000001,4,2,0,5,0,0
92343,-250.000000000001,4,2,0,25,0,0
92578,-250.000000000001,4,2,0,5,0,0
92812,-250.000000000001,4,2,0,25,0,0
93984,-250.000000000001,4,2,0,5,0,0
94218,-250.000000000001,4,2,0,25,0,0
94687,-250.000000000001,4,2,0,5,0,0
94921,-250.000000000001,4,2,0,25,0,0
95390,-250.000000000001,4,2,0,5,0,0
95624,-250.000000000001,4,2,0,25,0,0
101484,-250.000000000001,4,2,0,5,0,0
101718,-250.000000000001,4,2,0,25,0,0
102187,-250.000000000001,4,2,0,5,0,0
102421,-250.000000000001,4,2,0,25,0,0
102890,-250.000000000001,4,2,0,5,0,0
103124,-250.000000000001,4,2,0,25,0,0
104296,-142.857142857143,4,2,0,25,0,0
104531,-83.3333333333333,4,1,0,25,0,0
104707,-83.3333333333333,4,2,0,5,0,0
104765,-83.3333333333333,4,1,0,25,0,0
105000,-83.3333333333333,4,1,0,45,0,0
105351,-83.3333333333333,4,1,0,5,0,0
105468,-83.3333333333333,4,1,0,45,0,0
105878,-83.3333333333333,4,1,0,5,0,0
105937,-83.3333333333333,4,1,0,45,0,0
106230,-83.3333333333333,4,1,0,5,0,0
106406,-83.3333333333333,4,1,0,45,0,0
106582,-83.3333333333333,4,1,0,5,0,0
106640,-83.3333333333333,4,1,0,45,0,0
106699,-83.3333333333333,4,1,0,5,0,0
106875,-83.3333333333333,4,1,0,45,0,0
107050,-83.3333333333333,4,1,0,5,0,0
107109,-83.3333333333333,4,1,0,45,0,0
107285,-83.3333333333333,4,1,0,5,0,0
107343,-83.3333333333333,4,1,0,45,0,0
107871,-83.3333333333333,4,1,0,5,0,0
107929,-83.3333333333333,4,1,0,45,0,0
107988,-83.3333333333333,4,1,0,5,0,0
108046,-83.3333333333333,4,1,0,45,0,0
108105,-83.3333333333333,4,1,0,5,0,0
108281,-83.3333333333333,4,1,0,45,0,0
108398,-83.3333333333333,4,1,0,5,0,0
108515,-83.3333333333333,4,1,0,45,0,0
108632,-83.3333333333333,4,1,0,5,0,0
108750,-83.3333333333333,4,1,0,45,0,0
109101,-83.3333333333333,4,1,0,5,0,0
109218,-83.3333333333333,4,1,0,45,0,0
109628,-83.3333333333333,4,1,0,5,0,0
109687,-83.3333333333333,4,1,0,45,0,0
110097,-83.3333333333333,4,1,0,5,0,0
110156,-83.3333333333333,4,1,0,45,0,0
111679,-83.3333333333333,4,1,0,5,0,0
111796,-83.3333333333333,4,1,0,45,0,0
111914,-83.3333333333333,4,1,0,5,0,0
112031,-83.3333333333333,4,1,0,45,0,0
112148,-83.3333333333333,4,1,0,5,0,0
112265,-83.3333333333333,4,1,0,45,0,0
112382,-83.3333333333333,4,1,0,5,0,0
112499,-83.3333333333333,4,1,0,45,0,0
112851,-83.3333333333333,4,1,0,5,0,0
112968,-83.3333333333333,4,1,0,45,0,0
113378,-83.3333333333333,4,1,0,5,0,0
113436,-83.3333333333333,4,1,0,45,0,0
113554,-83.3333333333333,4,1,0,5,0,0
113671,-83.3333333333333,4,1,0,45,0,0
113789,-83.3333333333333,4,1,0,5,0,0
113906,-83.3333333333333,4,1,0,45,0,0
114082,-83.3333333333333,4,1,0,5,0,0
114140,-83.3333333333333,4,1,0,45,0,0
114492,-83.3333333333333,4,1,0,5,0,0
114609,-83.3333333333333,4,1,0,45,0,0
115253,-83.3333333333333,4,1,0,5,0,0
115311,-83.3333333333333,4,1,0,45,0,0
115546,-76.9230769230769,4,1,0,45,0,0
115722,-76.9230769230769,4,1,0,5,0,0
115781,-71.4285714285714,4,1,0,45,0,0
115898,-71.4285714285714,4,1,0,5,0,0
116015,-71.4285714285714,4,1,0,45,0,0
116132,-71.4285714285714,4,1,0,5,0,0
116250,-83.3333333333333,4,1,0,45,0,0
116601,-83.3333333333333,4,1,0,45,0,0
116718,-83.3333333333333,4,1,0,45,0,0
117187,-83.3333333333333,4,1,0,45,0,0
117304,-83.3333333333333,4,1,0,45,0,0
117421,-83.3333333333333,4,1,0,45,0,0
117656,-83.3333333333333,4,1,0,45,0,0
118945,-83.3333333333333,4,1,0,45,0,0
119062,-83.3333333333333,4,1,0,45,0,0
119179,-83.3333333333333,4,1,0,45,0,0
119296,-83.3333333333333,4,1,0,45,0,0
119414,-83.3333333333333,4,1,0,45,0,0
119531,-83.3333333333333,4,1,0,45,0,0
119648,-83.3333333333333,4,1,0,45,0,0
119765,-83.3333333333333,4,1,0,45,0,0
119882,-83.3333333333333,4,1,0,45,0,0
120000,-71.4285714285714,4,1,0,45,0,1
120351,-71.4285714285714,4,1,0,5,0,1
120468,-71.4285714285714,4,1,0,45,0,1
120585,-71.4285714285714,4,1,0,5,0,1
120703,-71.4285714285714,4,1,0,45,0,1
120878,-71.4285714285714,4,1,0,5,0,1
120937,-71.4285714285714,4,1,0,45,0,1
121054,-71.4285714285714,4,1,0,5,0,1
121171,-62.5,4,1,0,45,0,1
121347,-62.5,4,1,0,5,0,1
121406,-125,4,1,0,45,0,1
121992,-71.4285714285714,4,1,0,45,0,1
123281,-62.5,4,1,0,45,0,1
123457,-62.5,4,1,0,5,0,1
123515,-55.5555555555556,4,1,0,45,0,1
123691,-55.5555555555556,4,1,0,5,0,1
123750,-71.4285714285714,4,1,0,45,0,1
124101,-71.4285714285714,4,1,0,5,0,1
124218,-71.4285714285714,4,1,0,45,0,1
124335,-71.4285714285714,4,1,0,5,0,1
124453,-71.4285714285714,4,1,0,45,0,1
125156,-62.5,4,1,0,45,0,1
125625,-62.5,4,1,0,45,0,1
126328,-55.5555555555556,4,1,0,45,0,1
126503,-55.5555555555556,4,1,0,5,0,1
126562,-71.4285714285714,4,1,0,45,0,1
127031,-62.5,4,1,0,45,0,1
127500,-71.4285714285714,4,1,0,45,0,1
127851,-71.4285714285714,4,1,0,5,0,1
127968,-71.4285714285714,4,1,0,45,0,1
128085,-71.4285714285714,4,1,0,5,0,1
128203,-71.4285714285714,4,1,0,45,0,1
128378,-71.4285714285714,4,1,0,5,0,1
128437,-71.4285714285714,4,1,0,45,0,1
128554,-71.4285714285714,4,1,0,5,0,1
128671,-62.5,4,1,0,45,0,1
128847,-62.5,4,1,0,5,0,1
128906,-125,4,1,0,45,0,1
129492,-71.4285714285714,4,1,0,45,0,1
130781,-62.5,4,1,0,45,0,1
130957,-62.5,4,1,0,5,0,1
131015,-55.5555555555556,4,1,0,45,0,1
131191,-55.5555555555556,4,1,0,5,0,1
131250,-71.4285714285714,4,1,0,45,0,1
131601,-71.4285714285714,4,1,0,5,0,1
131718,-71.4285714285714,4,1,0,45,0,1
131835,-71.4285714285714,4,1,0,5,0,1
131953,-71.4285714285714,4,1,0,45,0,1
132656,-250,4,1,0,45,0,1
133125,-71.4285714285714,4,1,0,45,0,1
133593,-62.5,4,1,0,45,0,1
133828,-62.5,4,1,0,5,0,1
134059,-62.5,4,1,0,45,0,1
134121,-62.5,4,1,0,5,0,1
134179,-62.5,4,1,0,45,0,1
134238,-62.5,4,1,0,5,0,1
134296,-62.5,4,1,0,45,0,1
134355,-62.5,4,1,0,5,0,1
134531,-62.5,4,1,0,45,0,1
135000,-62.5,4,1,0,25,0,0
142500,-250.000000000001,4,2,0,15,0,0
157500,-100,4,2,0,15,0,0
157558,-250.000000000001,4,2,0,5,0,0
157968,-250.000000000001,4,2,0,15,0,0
172500,-250.000000000001,4,2,0,45,0,0
186562,-83.3333333333335,4,2,0,35,0,0
187031,-71.4285714285714,4,2,0,35,0,0
187265,-62.5,4,2,0,35,0,0
192304,352.941176470588,4,2,0,100,1,0
192304,-86.9565217391304,4,2,0,100,0,0
192480,-86.9565217391304,4,2,0,5,0,0
194951,-86.9565217391304,4,2,0,75,0,0
196362,-86.9565217391304,4,2,0,5,0,0
197774,-86.9565217391304,4,2,0,75,0,0
199186,-86.9565217391304,4,2,0,5,0,0
200774,-86.9565217391304,4,2,0,75,0,0
202009,-86.9565217391304,4,2,0,5,0,0
202186,-86.9565217391304,4,2,0,45,0,0
202539,-86.9565217391304,4,2,0,55,0,0
202892,-86.9565217391304,4,2,0,65,0,0
203245,-86.9565217391304,4,2,0,75,0,0
203598,-100,4,2,0,75,0,0
214186,-117.647058823529,4,2,0,75,0,0
214892,-100,4,2,0,100,0,1
215951,-100,4,2,0,100,0,1
216304,-133.333333333333,4,2,0,100,0,1
221598,-100,4,2,0,100,0,1
221951,-133.333333333333,4,2,0,100,0,1
224421,-100,4,2,0,100,0,1
236774,-133.333333333333,4,2,0,100,0,1
237480,-83.3333333333333,4,2,0,100,0,1
238362,-71.4285714285714,4,2,0,100,0,1
238892,-100,4,2,0,100,0,1
239245,-71.4285714285714,4,2,0,100,0,1
239598,-125,4,2,0,100,0,1
240303,-71.4285714285714,4,2,0,100,0,1
241362,-90.9090909090909,4,2,0,100,0,1
241892,-83.3333333333333,4,2,0,100,0,1
242598,-125,4,2,0,100,0,1
243127,-100,4,2,0,100,0,1
243480,-90.9090909090909,4,2,0,100,0,1
243833,-125,4,2,0,100,0,1
244539,-71.4285714285714,4,2,0,100,0,1
245245,-166.666666666667,4,2,0,100,0,1
246127,-100,4,2,0,100,0,1
246656,-71.4285714285715,4,2,0,100,0,1
247009,-100,4,2,0,100,0,1
247362,-83.3333333333333,4,2,0,100,0,1
248245,-83.3333333333333,4,2,0,100,0,1
248774,-200,4,2,0,100,0,1
249480,-125,4,2,0,100,0,1
250186,-71.4285714285714,4,2,0,100,0,1
250539,-100,4,2,0,100,0,1
250892,-125,4,2,0,100,0,1
251421,-71.4285714285714,4,2,0,100,0,1
252656,-100,4,2,0,100,0,1
253009,-83.3333333333333,4,2,0,100,0,1
253892,-125,4,2,0,100,0,1
254421,-100,4,2,0,100,0,1
255127,-125,4,2,0,100,0,1
255833,-100,4,2,0,100,0,1
256539,-166.666666666667,4,2,0,100,0,1
257245,-83.3333333333333,4,2,0,100,0,1
257598,-71.4285714285714,4,2,0,100,0,1
258303,-125,4,2,0,100,0,1
258656,-100,4,2,0,75,0,1
258701,-100,4,2,0,5,0,1
258745,-100,4,2,0,30,0,1
258833,-100,4,2,0,35,0,1
258921,-100,4,2,0,40,0,1
259009,-100,4,2,0,45,0,1
259098,-100,4,2,0,50,0,1
259186,-100,4,2,0,55,0,1
259274,-100,4,2,0,60,0,1
259362,-100,4,2,0,65,0,1
259451,-100,4,2,0,70,0,1
259539,-100,4,2,0,75,0,1
259627,-100,4,2,0,80,0,1
259715,-100,4,2,0,85,0,1
259803,-100,4,2,0,90,0,1
259892,-100,4,2,0,95,0,1
259980,-100,4,2,0,100,0,1
260068,-100,4,2,0,100,0,0
268627,-333.333333333333,4,2,0,5,0,0
268803,468.75,4,2,0,5,1,0
268803,-333.333333333333,4,2,0,5,0,0

[HitObjects]
123,89,0,5,0,0:0:0:0:
133,102,234,1,0,0:0:0:0:
144,114,468,1,0,0:0:0:0:
155,127,703,1,0,0:0:0:0:
247,157,937,5,0,0:0:0:0:
247,157,1054,1,0,0:0:0:0:
247,157,1171,2,0,L|313:153,1,35.9999989013672,2|0,0:0|0:0,0:0:0:0:
180,224,1406,5,0,0:0:0:0:
180,224,1523,1,0,0:0:0:0:
180,224,1640,2,0,L|144:226,1,35.9999989013672,2|0,0:0|0:0,0:0:0:0:
257,260,1875,5,0,0:0:0:0:
273,259,2109,1,0,0:0:0:0:
289,259,2343,1,0,0:0:0:0:
305,258,2578,1,0,0:0:0:0:
403,249,2812,5,0,0:0:0:0:
403,249,2929,1,0,0:0:0:0:
403,249,3046,2,0,L|407:315,1,35.9999989013672,2|0,0:0|0:0,0:0:0:0:
336,182,3281,5,0,0:0:0:0:
336,182,3398,1,0,0:0:0:0:
336,182,3515,2,0,L|333:146,1,35.9999989013672,2|0,0:0|0:0,0:0:0:0:
305,258,3750,5,0,0:0:0:0:
306,274,3984,1,0,0:0:0:0:
306,290,4218,1,0,0:0:0:0:
307,306,4453,1,0,0:0:0:0:
241,368,4687,5,0,0:0:0:0:
223,368,4804,1,0,0:0:0:0:
205,368,4921,2,0,L|139:369,1,35.9999989013672,2|0,0:0|0:0,0:0:0:0:
41,308,5156,5,0,0:0:0:0:
58,308,5273,1,0,0:0:0:0:
77,308,5390,2,0,L|112:308,1,35.9999989013672,2|0,0:0|0:0,0:0:0:0:
219,243,5625,5,0,0:0:0:0:
203,244,5859,1,0,0:0:0:0:
187,244,6093,1,0,0:0:0:0:
171,245,6328,1,0,0:0:0:0:
113,191,6562,5,0,0:0:0:0:
113,169,6679,1,0,0:0:0:0:
113,147,6796,2,0,L|113:111,1,35.9999989013672,2|0,0:0|0:0,0:0:0:0:
190,0,7031,5,0,0:0:0:0:
190,20,7148,1,0,0:0:0:0:
190,42,7265,2,0,L|190:83,1,35.9999989013672,2|0,0:0|0:0,0:0:0:0:
275,113,7500,5,0,0:0:0:0:
291,114,7734,1,0,0:0:0:0:
307,114,7968,1,0,0:0:0:0:
323,115,8203,1,0,0:0:0:0:
371,183,8437,5,0,0:0:0:0:
371,216,8554,1,0,0:0:0:0:
371,249,8671,2,0,L|371:303,1,35.9999989013672,2|0,0:0|0:0,0:0:0:0:
418,110,8906,5,0,0:0:0:0:
418,77,9023,1,0,0:0:0:0:
418,44,9140,2,0,L|418:-10,1,35.9999989013672,2|0,0:0|0:0,0:0:0:0:
469,182,9375,5,0,0:0:0:0:
468,198,9609,1,0,0:0:0:0:
468,214,9843,1,0,0:0:0:0:
467,230,10078,1,0,0:0:0:0:
386,274,10312,5,0,0:0:0:0:
386,307,10429,1,0,0:0:0:0:
386,340,10546,2,0,L|386:394,1,35.9999989013672,2|0,0:0|0:0,0:0:0:0:
311,222,10781,5,0,0:0:0:0:
311,189,10898,1,0,0:0:0:0:
311,156,11015,2,0,L|311:102,1,35.9999989013672,2|0,0:0|0:0,0:0:0:0:
232,272,11250,5,0,0:0:0:0:
216,271,11484,1,0,0:0:0:0:
200,271,11718,1,0,0:0:0:0:
184,270,11953,1,0,0:0:0:0:
29,251,12187,5,0,0:0:0:0:
47,251,12304,1,0,0:0:0:0:
65,251,12421,2,0,L|131:252,1,35.9999989013672,2|0,0:0|0:0,0:0:0:0:
229,191,12656,5,0,0:0:0:0:
212,191,12773,1,0,0:0:0:0:
193,191,12890,2,0,L|158:191,1,35.9999989013672,2|0,0:0|0:0,0:0:0:0:
256,192,13125,12,0,14414,0:0:0:0:
252,254,14531,6,0,P|301:237|316:204,1,72
328,154,15000,6,0,P|318:201|411:290,1,180.000006866455
448,221,15703,2,0,P|401:211|312:304,1,180.000006866455
360,365,16406,2,0,B|289:391|249:347|249:347|168:365,1,180.000006866455
107,373,17109,5,0,0:0:0:0:
107,373,17578,1,0,0:0:0:0:
144,296,17812,1,0,0:0:0:0:
144,296,17929,1,0,0:0:0:0:
144,296,18046,1,0,0:0:0:0:
190,359,18281,1,0,0:0:0:0:
57,307,18515,1,0,0:0:0:0:
223,280,18750,6,0,P|253:243|381:261,1,180.000006866455
347,339,19453,2,0,P|310:308|328:180,1,180.000006866455
405,174,20156,2,0,L|406:80,1,90.0000034332277
408,0,20625,5,0,0:0:0:0:
414,8,21093,1,0,0:0:0:0:
414,8,21210,1,0,0:0:0:0:
414,8,21328,1,0,0:0:0:0:
334,39,21562,1,0,0:0:0:0:
484,43,21796,1,0,0:0:0:0:
324,119,22031,1,0,0:0:0:0:
405,84,22265,1,0,0:0:0:0:
251,69,22500,6,0,P|241:155|307:211,1,180.000006866455
361,145,23203,2,0,P|274:135|218:201,1,180.000006866455
255,281,23906,2,0,B|211:294|211:294|161:275,1,90.0000034332277
103,220,24375,5,0,0:0:0:0:
103,220,24843,1,0,0:0:0:0:
86,194,24960,1,0,0:0:0:0:
69,169,25078,1,0,0:0:0:0:
103,220,25312,5,0,0:0:0:0:
86,246,25429,1,0,0:0:0:0:
69,271,25546,1,0,0:0:0:0:
96,348,25781,1,0,0:0:0:0:
18,336,26015,1,0,0:0:0:0:
155,284,26250,6,0,P|185:247|313:265,1,180.000006866455
253,326,26953,2,0,P|226:243|280:175,1,180.000006866455
255,98,27656,2,0,B|213:85|213:85|165:97,1,90.0000034332277
132,165,28125,5,0,0:0:0:0:
140,172,28593,1,0,0:0:0:0:
140,172,28710,1,0,0:0:0:0:
140,172,28828,1,0,0:0:0:0:
204,223,29062,1,0,0:0:0:0:
219,142,29296,1,0,0:0:0:0:
260,287,29531,1,0,0:0:0:0:
175,304,29765,1,0,0:0:0:0:
279,203,30000,6,0,P|329:193|389:216,1,102.000001945496
325,290,30468,2,0,L|322:341,1,51.0000009727478
414,300,30703,2,0,P|464:309|524:286,1,102.000001945496
460,224,31054,1,0,0:0:0:0:
460,224,31171,2,0,L|457:173,1,51.0000009727478
341,93,31406,2,0,B|289:101|289:101|238:93,1,102.000001945496
241,94,31875,5,0,0:0:0:0:
241,94,32109,1,0,0:0:0:0:
241,94,32343,6,0,P|240:138|245:155,1,51.0000009727478
353,157,32578,1,0,0:0:0:0:
353,157,32695,1,0,0:0:0:0:
353,157,32812,2,0,P|353:201|348:218,1,51.0000009727478
245,233,33046,1,0,0:0:0:0:
245,233,33164,1,0,0:0:0:0:
245,233,33281,2,0,P|244:277|249:294,1,51.0000009727478
306,369,33515,1,8,0:0:0:0:
245,283,33750,6,0,P|196:298|134:281,1,102.000001945496
193,199,34218,2,0,L|191:148,1,51.0000009727478
98,200,34453,2,0,P|49:185|-13:202,1,102.000001945496
49,288,34804,1,0,0:0:0:0:
49,288,34921,2,0,L|46:338,1,51.0000009727478
245,283,35156,2,0,B|296:274|296:274|356:285,1,102.000001945496
438,297,35625,5,0,0:0:0:0:
438,297,35742,1,0,0:0:0:0:
438,297,35859,1,0,0:0:0:0:
344,333,36093,6,0,P|343:289|348:272,1,51.0000009727478
442,224,36328,1,0,0:0:0:0:
442,224,36445,1,0,0:0:0:0:
442,224,36562,2,0,B|445:197|445:197|437:163,1,51.0000009727478
273,171,36796,1,0,0:0:0:0:
273,171,36914,1,0,0:0:0:0:
273,171,37031,2,0,P|272:127|277:110,1,51.0000009727478
328,39,37265,1,8,0:0:0:0:
273,120,37500,6,0,P|224:105|162:122,1,102.000001945496
220,191,37968,2,0,L|217:243,1,51.0000009727478
314,207,38203,2,0,P|363:222|425:205,1,102.000001945496
366,118,38554,1,0,0:0:0:0:
366,118,38671,2,0,L|369:68,1,51.0000009727478
175,114,38906,2,0,B|122:124|122:124|64:112,1,102.000001945496
9,68,39375,5,0,0:0:0:0:
9,68,39492,1,0,0:0:0:0:
9,68,39609,1,0,0:0:0:0:
74,114,39843,6,0,P|73:158|78:182,1,51.0000009727478
191,199,40078,1,0,0:0:0:0:
191,199,40195,1,0,0:0:0:0:
191,199,40312,2,0,P|191:243|183:262,1,51.0000009727478
74,255,40546,1,0,0:0:0:0:
74,255,40664,1,0,0:0:0:0:
74,255,40781,2,0,P|73:299|78:316,1,51.0000009727478
175,358,41015,1,8,0:0:0:0:
188,249,41250,6,0,P|238:239|298:262,1,102.000001945496
232,321,41718,2,0,L|230:376,1,51.0000009727478
380,327,41953,2,0,P|430:336|501:311,1,113.999996955872
431,242,42304,1,0,0:0:0:0:
431,242,42421,2,0,L|423:180,1,62.9999980773926
309,119,42656,2,0,B|243:132|243:132|173:118,1,138.000002632141
72,204,43125,5,0,0:0:0:0:
84,214,43359,1,0,0:0:0:0:
96,225,43593,1,0,0:0:0:0:
108,235,43828,1,0,0:0:0:0:
120,246,44062,1,0,0:0:0:0:
132,257,44296,1,0,0:0:0:0:
272,293,44531,5,8,0:0:0:0:
176,117,44765,1,0,0:0:0:0:
284,302,45000,6,0,B|356:302|356:302|356:302|356:302|412:302|434:185|434:185|386:201,1,251.999992309571
311,215,45468,2,0,B|280:181|280:181|286:135,1,83.9999974365235,8|0,0:0|0:0,0:0:0:0:
372,70,45703,2,0,P|330:37|249:34,1,125.999996154785
103,150,45937,2,0,B|142:120|142:120|189:116,1,83.9999974365235
311,215,46171,2,0,P|315:268|264:251,1,125.999996154785
177,118,46406,2,0,P|116:66|71:227,1,335.999989746094,8|0,0:1|0:1,0:1:0:0:
263,250,46992,6,0,B|306:256|306:256|340:279,2,83.9999974365235
71,227,47343,1,8,0:0:0:0:
129,314,47460,2,0,B|156:284|156:284|175:231,1,83.9999974365235
228,156,47695,1,0,0:0:0:0:
263,250,47812,2,0,B|304:256|304:256|347:242,1,83.9999974365235
412,140,48046,2,0,B|392:111|395:71|395:71|356:82|336:122,1,144
263,250,48281,2,0,B|222:258|222:258|179:242,1,83.9999974365235,8|0,0:0|0:0,0:0:0:0:
143,44,48515,2,0,B|183:35|183:35|227:52,1,83.9999974365235
182,243,48750,6,0,B|110:243|110:243|110:243|110:243|50:194|46:117|46:117|95:117,1,251.999992309571
177,118,49218,1,8,0:0:0:0:
177,118,49453,2,0,B|259:135|259:135|341:115,1,167.999994873047
312,244,49921,1,0,0:0:0:0:
177,118,50156,2,0,P|168:185|337:223,1,251.999992309571,8|0,0:0|0:0,0:0:0:0:
270,167,50625,5,0,0:0:0:0:
270,167,50742,2,0,P|280:100|262:66,2,83.9999974365235
111,244,51093,1,8,0:0:0:0:
111,244,51210,2,0,P|100:310|118:344,2,83.9999974365235
170,114,51562,6,0,L|150:151,1,41.9999987182618
270,167,51679,2,0,L|234:188,1,41.9999987182618
331,266,51796,2,0,L|289:266,1,41.9999987182618
289,266,52031,2,0,B|339:237|339:237|378:180,1,125.999996154785,8|0,0:0|0:0,0:0:0:0:
270,167,52265,2,0,B|240:160|240:160|205:121,1,83.9999974365235
231,33,52500,6,0,B|189:44|141:32|141:32|91:78|92:155|92:155|131:141,1,251.999992309571
204,120,52968,2,0,B|228:157|228:157|226:202,1,83.9999974365235,8|0,0:0|0:0,0:0:0:0:
143,265,53203,2,0,P|191:300|260:300,1,125.999996154785
338,217,53437,2,0,B|379:209|379:209|416:187,1,83.9999974365235
204,120,53671,2,0,P|200:67|251:84,1,125.999996154785
338,217,53906,2,0,P|399:269|444:108,1,335.999989746094,8|0,0:1|0:1,0:1:0:0:
252,85,54492,6,0,B|209:79|209:79|175:56,2,83.9999974365235
444,108,54843,1,8,0:0:0:0:
392,25,54960,2,0,B|365:55|365:55|346:108,1,83.9999974365235
291,174,55195,1,0,0:0:0:0:
252,85,55312,2,0,B|211:79|211:79|168:93,1,83.9999974365235,8|0,0:0|0:0,0:0:0:0:
103,195,55546,2,0,P|138:240|163:206,1,96
252,85,55781,2,0,B|291:100|291:100|332:91,1,83.9999974365235,8|0,0:0|0:0,0:0:0:0:
383,300,56015,2,0,B|343:291|343:291|303:307,1,83.9999974365235
332,91,56250,6,0,B|372:106|404:91|404:91|404:91|404:91|464:140|468:217|468:217|419:217,1,251.999992309571,8|0,0:0|0:0,0:0:0:0:
337,216,56718,1,8,0:0:0:0:
337,216,56953,2,0,B|255:199|255:199|173:219,1,167.999994873047
201,89,57421,1,0,0:0:0:0:
337,216,57656,2,0,P|346:149|177:111,1,251.999992309571,8|0,0:0|0:0,0:0:0:0:
250,172,58125,5,0,0:0:0:0:
250,172,58242,2,0,P|240:239|258:273,2,83.9999974365235
409,95,58593,1,8,0:0:0:0:
409,95,58710,2,0,P|420:29|402:-5,1,83.9999974365235
407,92,58945,1,0,0:0:0:0:
350,225,59062,6,0,L|370:188,1,41.9999987182618
250,172,59179,2,0,L|286:151,1,41.9999987182618
189,73,59296,2,0,L|231:73,1,41.9999987182618
231,73,59531,2,0,B|181:102|181:102|142:159,1,125.999996154785,8|0,0:0|0:0,0:0:0:0:
250,172,59765,2,0,B|280:179|280:179|315:218,1,83.9999974365235
179,335,60000,6,0,B|201:304|201:304|30:309|30:309|64:348,1,251.999992309571
261,349,60468,2,0,P|277:313|258:254,1,83.9999974365235,8|0,0:0|0:0,0:0:0:0:
75,226,60703,2,0,L|206:223,1,125.999996154785
353,268,60937,2,0,L|251:270,1,83.9999974365235
419,338,61171,6,0,P|449:266|414:197,1,144
454,182,61406,6,0,P|485:273|444:360,1,192,8|0,0:0|0:0,0:0:0:0:
353,268,61992,5,0,0:0:0:0:
312,228,62109,1,0,0:0:0:0:
271,188,62226,2,0,L|210:129,1,83.9999974365235,0|8,0:0|0:0,0:0:0:0:
263,276,62460,5,0,0:0:0:0:
312,228,62578,1,0,0:0:0:0:
361,180,62695,2,0,L|433:109,1,83.9999974365235
368,282,62929,5,0,0:0:0:0:
312,228,63046,1,0,0:0:0:0:
257,174,63164,1,0,0:0:0:0:
198,347,63281,6,0,P|165:285|186:219,1,144,8|0,0:0|0:0,0:0:0:0:
263,276,63515,6,0,B|226:291|198:270|198:270|168:282|168:282|136:259|101:279,1,161.999995056153
17,322,63750,6,0,B|2:245|2:245|67:177|67:177|47:83,1,251.999992309571
193,10,64218,2,0,L|215:107,1,83.9999974365235,8|0,0:0|0:0,0:0:0:0:
152,205,64453,2,0,B|136:141|136:141|140:113|140:113|120:23,1,167.999994873047
212,251,64921,2,0,P|156:282|127:274,1,83.9999974365235
224,177,65156,6,0,B|286:117|406:139|406:139|352:123|296:68,1,288,8|0,0:0|0:0,0:0:0:0:
479,153,65625,6,0,P|477:111|450:80,1,83.9999974365235
426,217,65859,1,0,0:0:0:0:
451,236,65976,2,0,L|456:327,1,83.9999974365235,8|0,0:0|0:0,0:0:0:0:
371,377,66210,6,0,P|319:348|380:329,1,150
451,236,66562,6,0,L|471:199,1,41.9999987182618
351,183,66679,2,0,L|387:162,1,41.9999987182618
290,84,66796,2,0,L|332:84,1,41.9999987182618
332,84,67031,6,0,L|199:84,1,125.999996154785,8|0,0:0|0:0,0:0:0:0:
90,145,67265,2,0,B|115:163|115:163|201:164,1,83.9999974365235
299,265,67500,6,0,B|276:246|276:246|89:245|89:245|145:291,1,251.999992309571
375,229,67968,2,0,L|313:171,1,83.9999974365235,8|0,0:0|0:0,0:0:0:0:
281,355,68203,2,0,L|419:355,1,125.999996154785
299,265,68437,2,0,L|207:265,1,83.9999974365235
313,171,68671,6,0,P|385:141|454:176,1,144
469,136,68906,6,0,P|378:105|291:146,1,192,8|0,0:0|0:0,0:0:0:0:
222,231,69492,5,0,0:0:0:0:
182,272,69609,1,0,0:0:0:0:
142,313,69726,2,0,L|83:374,1,83.9999974365235,0|8,0:0|0:0,0:0:0:0:
230,321,69960,5,0,0:0:0:0:
182,272,70078,1,0,0:0:0:0:
134,223,70195,2,0,L|63:151,1,83.9999974365235
236,216,70429,5,0,0:0:0:0:
182,272,70546,1,0,0:0:0:0:
128,327,70664,1,0,0:0:0:0:
293,378,70781,6,0,B|312:350|320:326|314:293|296:268|296:268|354:298,1,144,8|0,0:0|0:0,0:0:0:0:
230,321,71015,6,0,B|267:336|295:315|295:315|325:327|325:327|357:304|392:324,1,161.999995056153
462,373,71250,6,0,B|478:293|478:293|436:237|436:237|436:127,1,251.999992309571
509,24,71718,2,0,L|509:130,1,83.9999974365235,8|0,0:0|0:0,0:0:0:0:
357,166,71953,2,0,B|357:104|357:104|368:67|368:67|369:-5,1,167.999994873047
310,230,72421,2,0,P|374:244|417:221,1,83.9999974365235
277,157,72656,6,0,B|179:116|68:152|68:152|148:82,1,288,8|0,0:0|0:0,0:0:0:0:
310,230,73125,5,0,0:0:0:0:
309,265,73242,1,0,0:0:0:0:
309,301,73359,1,0,0:0:0:0:
309,337,73476,1,0,0:0:0:0:
310,230,73593,1,8,0:0:0:0:
309,235,74062,6,0,L|309:187,1,48
192,236,74179,2,0,L|217:196,1,48
90,176,74296,2,0,L|131:153,1,48
131,153,74531,6,0,L|-2:230,1,144
58,100,74765,2,0,L|146:48,1,96
225,98,75000,6,0,P|278:116|347:96,1,120
407,48,75468,1,8,0:0:0:0:
338,213,75703,2,0,P|388:188|422:125,1,120
407,48,76171,1,0,0:0:0:0:
242,225,76406,2,0,P|266:275|329:309,1,120,8|0,0:0|0:0,0:0:0:0:
429,312,76875,6,0,L|519:308,1,83.9999974365235
421,216,77343,2,0,L|331:212,1,83.9999974365235,8|0,0:0|0:0,0:0:0:0:
429,124,77812,2,0,L|519:120,1,83.9999974365235
421,28,78281,2,0,L|331:24,1,83.9999974365235,8|0,0:0|0:0,0:0:0:0:
259,83,78750,6,0,P|206:101|137:81,1,120
77,33,79218,1,8,0:0:0:0:
146,198,79453,2,0,P|95:173|61:110,1,120
77,33,79921,1,0,0:0:0:0:
241,155,80156,2,0,L|238:280,1,120,8|0,0:0|0:0,0:0:0:0:
198,344,80625,6,0,P|238:353|278:343,1,83.9999974365235
128,303,81093,2,0,P|118:343|128:383,1,83.9999974365235,8|0,0:0|0:0,0:0:0:0:
238,274,81562,1,0,0:0:0:0:
239,242,81679,1,0,0:0:0:0:
240,211,81796,1,0,0:0:0:0:
240,211,82031,1,8,0:0:0:0:
128,303,82265,1,0,0:0:0:0:
271,350,82500,6,0,P|324:332|393:352,1,120
468,375,82968,1,8,0:0:0:0:
371,208,83203,2,0,P|421:232|455:295,1,120
468,375,83671,1,0,0:0:0:0:
280,247,83906,2,0,L|276:107,1,120,8|0,0:0|0:0,0:0:0:0:
235,56,84375,6,0,P|275:46|315:56,1,83.9999974365235
165,97,84843,2,0,P|155:56|165:16,1,83.9999974365235,8|0,0:0|0:0,0:0:0:0:
205,167,85312,2,0,P|164:176|124:166,1,83.9999974365235
276,127,85781,2,0,P|285:167|275:207,1,83.9999974365235,8|0,0:0|0:0,0:0:0:0:
390,321,86250,6,0,P|371:264|386:207,1,120
440,139,86718,1,8,0:0:0:0:
275,207,86953,2,0,P|302:154|353:124,1,120
440,139,87421,1,0,0:0:0:0:
262,304,87656,2,0,P|209:276|179:225,1,120,8|0,0:0|0:0,0:0:0:0:
175,115,88125,6,0,L|179:25,1,83.9999974365235
271,123,88593,2,0,L|275:213,1,83.9999974365235,8|0,0:0|0:0,0:0:0:0:
363,115,89062,2,0,L|367:25,1,83.9999974365235
461,127,89531,6,0,P|466:172|449:214,1,72,4|0,0:0|0:0,0:0:0:0:
446,217,90000,5,0,0:0:0:0:
446,217,90468,5,0,0:0:0:0:
368,160,90703,1,0,0:0:0:0:
368,160,91171,5,0,0:0:0:0:
356,255,91406,5,0,0:0:0:0:
356,255,91640,1,0,0:0:0:0:
259,251,91875,1,0,0:0:0:0:
259,251,92109,1,0,0:0:0:0:
167,278,92343,1,0,0:0:0:0:
167,278,92578,1,0,0:0:0:0:
73,295,92812,5,0,0:0:0:0:
73,295,92929,1,0,0:0:0:0:
73,295,93046,1,0,0:0:0:0:
106,204,93281,1,0,0:0:0:0:
167,278,93515,1,0,0:0:0:0:
203,188,93750,6,0,L|221:143,1,48
222,143,94218,1,0,0:0:0:0:
317,131,94453,6,0,L|345:168,1,48
345,169,94921,1,0,0:0:0:0:
311,258,95156,6,0,L|263:262,1,48
311,258,95625,1,0,0:0:0:0:
264,263,96093,5,0,0:0:0:0:
264,263,96210,1,0,0:0:0:0:
264,263,96328,1,0,0:0:0:0:
231,354,96562,5,0,0:0:0:0:
264,263,96796,1,0,0:0:0:0:
231,354,97031,5,0,0:0:0:0:
170,280,97265,1,0,0:0:0:0:
264,263,97500,5,0,0:0:0:0:
264,263,97968,5,0,0:0:0:0:
204,188,98203,1,0,0:0:0:0:
234,226,98437,1,0,0:0:0:0:
204,188,98671,5,0,0:0:0:0:
298,171,98906,1,0,0:0:0:0:
251,180,99140,1,0,0:0:0:0:
264,263,99375,5,0,0:0:0:0:
264,263,99843,5,0,0:0:0:0:
264,263,99960,1,0,0:0:0:0:
264,263,100078,1,0,0:0:0:0:
359,245,100312,5,0,0:0:0:0:
359,245,100429,1,0,0:0:0:0:
359,245,100546,1,0,0:0:0:0:
298,171,100781,5,0,0:0:0:0:
359,245,101015,1,0,0:0:0:0:
392,154,101250,6,0,L|439:145,1,48
439,145,101718,1,0,0:0:0:0:
469,51,101953,6,0,L|438:15,1,48
438,15,102421,1,0,0:0:0:0:
343,31,102656,6,0,L|329:77,1,48
341,86,103125,5,0,0:0:0:0:
353,96,103359,1,0,0:0:0:0:
308,177,103593,5,0,0:0:0:0:
308,177,103710,1,0,0:0:0:0:
308,177,103828,1,0,0:0:0:0:
247,103,104062,1,0,0:0:0:0:
214,194,104296,6,0,L|209:208,4,10.4999996795654
275,31,104531,2,0,P|317:26|286:68,1,107.999996704102,8|0,0:0|0:0,0:0:0:0:
157,114,104765,2,0,P|120:166|118:223,1,107.999996704102
214,194,105000,6,0,B|314:226|314:226|422:194,1,215.999993408203
410,98,105468,1,8,0:0:0:0:
410,98,105703,2,0,P|435:141|414:201,1,107.999996704102
232,120,105937,1,0,0:0:0:0:
232,120,106171,2,0,B|252:124|252:124|272:120,1,35.9999989013672
157,114,106406,2,0,P|174:170|223:194,1,107.999996704102,8|0,0:0|0:0,0:0:0:0:
234,262,106640,2,0,B|214:266|214:266|194:262,1,35.9999989013672
127,41,106875,6,0,B|165:24|200:47|200:47|240:47,1,107.999996704102
321,74,107109,2,0,B|312:127|312:127|323:180,1,107.999996704102
367,241,107343,2,0,B|333:265|294:250|294:250|255:258,2,107.999996704102,8|0|0,0:0|0:0|0:0,0:0:0:0:
323,180,107812,6,0,B|306:172|306:172|288:172,1,35.9999989013672
387,125,107929,2,0,B|399:112|399:112|415:105,1,35.9999989013672
321,74,108046,2,0,B|314:56|314:56|302:44,1,35.9999989013672
321,74,108281,6,0,B|286:83|286:83|251:77,1,71.9999978027344,8|0,0:0|0:0,0:0:0:0:
193,259,108515,2,0,B|227:249|227:249|262:255,1,71.9999978027344
104,302,108750,6,0,P|106:212|218:163,1,215.999993408203
279,212,109218,1,8,0:0:0:0:
273,316,109453,2,0,P|289:265|279:212,1,107.999996704102
104,302,109687,1,0,0:0:0:0:
273,316,109921,2,0,B|329:319|329:319|380:290,1,107.999996704102
336,146,110156,2,0,P|269:125|209:161,1,143.999995605469,8|0,0:0|0:0,0:0:0:0:
373,293,110625,6,0,L|401:315,1,35.9999989013672
394,224,110742,2,0,L|429:229,1,35.9999989013672
393,146,110859,2,0,L|426:132,1,35.9999989013672
352,79,110976,2,0,L|373:51,1,35.9999989013672
285,163,111093,5,8,0:0:0:0:
240,111,111210,1,0,0:0:0:0:
241,42,111328,1,0,0:0:0:0:
241,42,111562,6,0,P|248:81|240:113,1,71.9999978027344
140,152,111796,2,0,P|133:113|141:81,1,71.9999978027344
310,111,112031,6,0,P|271:104|239:111,1,71.9999978027344,8|0,0:0|0:0,0:0:0:0:
200,212,112265,2,0,P|239:219|271:211,1,71.9999978027344
140,82,112500,6,0,B|75:37|35:82|35:82|84:132|60:192,1,215.999993408203
239,112,112968,1,8,0:0:0:0:
140,84,113203,2,0,B|179:125|240:112,1,107.999996704102
212,279,113437,6,0,B|196:246|196:246|199:211,1,71.9999978027344
325,95,113671,2,0,B|326:137|326:137|293:178,1,71.9999978027344
140,84,113906,2,0,B|126:118|141:151|141:151|73:151,1,107.999996704102,8|0,0:0|0:0,0:0:0:0:
239,112,114140,1,0,0:0:0:0:
140,151,114375,6,0,B|151:188|151:188|149:244,1,71.9999978027344
96,296,114609,2,0,P|156:313|201:298,1,107.999996704102
246,223,114843,5,8,0:0:0:0:
292,206,114960,1,0,0:0:0:0:
341,215,115078,2,0,B|368:229|380:260|380:260|430:260,1,107.999996704102
427,169,115312,5,0,0:0:0:0:
422,114,115429,1,0,0:0:0:0:
446,64,115546,2,0,B|416:79|403:113|403:113|346:113,1,116.999994644165
268,46,115781,6,0,B|268:85|268:85|239:124,1,83.9999974365235,8|0,0:0|0:0,0:0:0:0:
268,272,116015,2,0,B|268:232|268:232|296:193,1,83.9999974365235
302,353,116250,2,0,B|241:374|199:327|199:327|92:327,1,215.999993408203
361,286,116718,5,8,0:0:0:0:
361,286,116953,2,0,B|316:254|268:273|268:273|301:252|304:208,1,143.999995605469
199,327,117304,2,0,B|176:298|176:298|178:261,1,71.9999978027344
75,195,117656,5,0,0:0:0:0:
129,149,117773,1,0,0:0:0:0:
200,142,117890,1,0,0:0:0:0:
263,175,118007,1,0,0:0:0:0:
296,237,118125,2,0,B|316:282|362:286|362:286|344:212|392:164,1,215.999993408203
393,93,118593,5,0,0:0:0:0:
342,45,118710,1,0,0:0:0:0:
273,57,118828,2,0,P|263:86|299:90,1,71.9999978027344
188,175,119062,6,0,B|194:139|194:139|184:105,1,71.9999978027344
189,35,119296,2,0,B|179:69|179:69|185:110,1,71.9999978027344
277,308,119531,6,0,B|283:272|283:272|273:238,1,71.9999978027344
268,167,119765,2,0,B|263:204|263:204|273:238,1,71.9999978027344
371,357,120000,6,0,B|392:192|392:192|415:279,1,251.999992309571
355,121,120468,2,0,P|419:118|445:133,1,83.9999974365235,8|0,0:0|0:0,0:0:0:0:
277,308,120703,2,0,L|297:175,1,125.999996154785
368,38,120937,2,0,L|353:133,1,83.9999974365235
223,143,121171,6,0,P|159:113|93:136,1,144
67,107,121406,6,0,P|155:75|241:113,1,192,8|0,0:0|0:0,0:0:0:0:
295,176,121992,5,0,0:0:0:0:
288,224,122109,1,0,0:0:0:0:
280,272,122226,2,0,L|265:367,1,83.9999974365235,0|8,0:0|0:0,0:0:0:0:
307,172,122460,5,0,0:0:0:0:
288,224,122578,1,0,0:0:0:0:
269,276,122695,2,0,L|233:380,1,83.9999974365235
320,169,122929,5,0,0:0:0:0:
288,224,123046,1,0,0:0:0:0:
256,279,123164,1,0,0:0:0:0:
263,110,123281,6,0,P|329:88|388:125,1,144,8|0,0:0|0:0,0:0:0:0:
320,169,123515,6,0,B|313:103|313:103|345:52|326:3,1,161.999995056153
216,36,123750,6,0,B|129:67|129:67|94:11|94:11|-2:50,1,251.999992309571
92,231,124218,2,0,L|183:199,1,83.9999974365235,8|0,0:0|0:0,0:0:0:0:
348,57,124453,2,0,B|291:78|291:78|265:102|265:102|191:127,1,167.999994873047
421,100,124921,2,0,P|430:46|416:4,1,83.9999974365235
346,146,125156,6,0,B|285:251|355:343|355:343|322:307|255:288,1,288,8|0,0:0|0:0,0:0:0:0:
346,146,125625,6,0,L|322:199,1,48
338,116,125742,2,0,L|297:157,1,48
348,86,125859,2,0,L|295:111,1,48
358,56,125976,2,0,L|300:61,1,48
439,22,126093,5,0,0:0:0:0:
439,76,126210,1,0,0:0:0:0:
439,151,126328,6,0,B|487:87|487:87|418:-6,1,161.999995056153
357,56,126562,6,0,P|306:53|272:71,1,83.9999974365235
155,155,126796,2,0,P|206:158|240:140,1,83.9999974365235
372,48,127031,6,0,P|313:44|274:65,1,96,8|0,0:0|0:0,0:0:0:0:
139,162,127265,2,0,P|198:166|237:145,1,96
385,42,127500,6,0,B|416:20|416:20|411:191|411:191|372:157,1,251.999992309571
454,256,127968,2,0,P|410:269|364:252,1,83.9999974365235,8|0,0:0|0:0,0:0:0:0:
499,60,128203,2,0,L|494:199,1,125.999996154785
378,162,128437,2,0,L|381:70,1,83.9999974365235
374,259,128671,6,0,P|310:288|244:266,1,144
218,295,128906,6,0,P|306:326|391:289,1,192,8|0,0:0|0:0,0:0:0:0:
307,191,129492,5,0,0:0:0:0:
314,143,129609,1,0,0:0:0:0:
322,95,129726,2,0,L|337:0,1,83.9999974365235,0|8,0:0|0:0,0:0:0:0:
295,195,129960,5,0,0:0:0:0:
314,143,130078,1,0,0:0:0:0:
333,91,130195,2,0,L|369:-13,1,83.9999974365235
282,198,130429,5,0,0:0:0:0:
314,143,130546,1,0,0:0:0:0:
346,88,130664,1,0,0:0:0:0:
341,250,130781,6,0,P|266:276|211:237,1,144,8|0,0:0|0:0,0:0:0:0:
282,198,131015,6,0,B|267:235|288:263|288:263|276:293|276:293|299:325|279:360,1,161.999995056153
195,343,131250,6,0,B|19:344|19:344|112:293,1,251.999992309571
299,244,131718,2,0,L|180:243,1,83.9999974365235,8|0,0:0|0:0,0:0:0:0:
64,163,131953,2,0,B|129:164|129:164|173:152|173:152|251:152,1,167.999994873047
4,110,132421,2,0,P|-13:152|4:213,1,83.9999974365235
78,85,132656,6,0,P|92:51|89:14,1,72,8|0,0:0|0:0,0:0:0:0:
89,16,133125,6,0,L|41:16,7,41.9999987182618
156,59,133593,6,0,P|228:98|191:36,1,192
211,40,134062,6,0,L|211:87,1,48
324,35,134179,2,0,L|303:78,1,48
426,91,134296,2,0,L|386:116,1,48
389,112,134531,5,0,0:0:0:0:
420,94,134648,1,0,0:0:0:0:
451,76,134765,1,0,0:0:0:0:
483,58,134882,1,0,0:0:0:0:
512,40,135000,5,6,0:0:0:0:
473,68,136875,5,2,0:0:0:0:
444,106,138750,5,2,0:0:0:0:
427,151,140625,5,2,0:0:0:0:
256,192,140742,12,0,142500,0:0:0:0:
254,145,142968,5,2,0:0:0:0:
302,217,143203,1,2,0:0:0:0:
254,145,143437,5,2,0:0:0:0:
216,223,143671,1,2,0:0:0:0:
216,223,144375,5,0,0:0:0:0:
209,202,144492,1,0,0:0:0:0:
203,181,144609,1,0,0:0:0:0:
196,161,144726,1,0,0:0:0:0:
216,223,144843,5,0,0:0:0:0:
215,196,144960,1,0,0:0:0:0:
214,170,145078,1,0,0:0:0:0:
213,143,145195,1,0,0:0:0:0:
216,223,145312,5,0,0:0:0:0:
222,192,145429,1,0,0:0:0:0:
229,162,145546,1,0,0:0:0:0:
235,131,145664,1,0,0:0:0:0:
235,131,146250,5,6,0:0:0:0:
235,131,146718,5,2,0:0:0:0:
273,209,146953,1,2,0:0:0:0:
321,137,147187,5,2,0:0:0:0:
273,209,147421,1,2,0:0:0:0:
310,286,147656,1,2,0:0:0:0:
310,286,150468,5,2,0:0:0:0:
358,358,150703,1,2,0:0:0:0:
396,280,150937,5,2,0:0:0:0:
358,358,151171,1,2,0:0:0:0:
310,286,151406,5,2,0:0:0:0:
310,286,151875,5,0,0:0:0:0:
317,265,151992,1,0,0:0:0:0:
323,244,152109,1,0,0:0:0:0:
330,224,152226,1,0,0:0:0:0:
310,286,152343,5,0,0:0:0:0:
311,259,152460,1,0,0:0:0:0:
312,233,152578,1,0,0:0:0:0:
313,206,152695,1,0,0:0:0:0:
310,286,152812,5,0,0:0:0:0:
304,255,152929,1,0,0:0:0:0:
297,225,153046,1,0,0:0:0:0:
291,194,153164,1,0,0:0:0:0:
291,194,154218,5,2,0:0:0:0:
253,272,154453,1,2,0:0:0:0:
205,200,154687,5,2,0:0:0:0:
253,272,154921,1,2,0:0:0:0:
242,122,155156,1,6,0:0:0:0:
242,122,157500,6,8,L|223:161,1,30
242,122,157968,5,2,0:0:0:0:
290,194,158203,1,2,0:0:0:0:
242,122,158437,5,2,0:0:0:0:
204,200,158671,1,2,0:0:0:0:
204,200,159375,5,0,0:0:0:0:
197,179,159492,1,0,0:0:0:0:
191,158,159609,1,0,0:0:0:0:
184,138,159726,1,0,0:0:0:0:
204,200,159843,5,0,0:0:0:0:
203,173,159960,1,0,0:0:0:0:
202,147,160078,1,0,0:0:0:0:
201,120,160195,1,0,0:0:0:0:
204,200,160312,5,0,0:0:0:0:
210,169,160429,1,0,0:0:0:0:
217,139,160546,1,0,0:0:0:0:
223,108,160664,1,0,0:0:0:0:
223,108,161718,5,2,0:0:0:0:
261,186,161953,1,2,0:0:0:0:
309,114,162187,5,2,0:0:0:0:
261,186,162421,1,2,0:0:0:0:
298,263,162656,1,6,0:0:0:0:
298,263,165468,5,2,0:0:0:0:
250,335,165703,1,2,0:0:0:0:
212,257,165937,5,2,0:0:0:0:
250,335,166171,1,2,0:0:0:0:
298,263,166406,5,2,0:0:0:0:
298,263,166875,5,0,0:0:0:0:
305,242,166992,1,0,0:0:0:0:
311,221,167109,1,0,0:0:0:0:
318,201,167226,1,0,0:0:0:0:
298,263,167343,5,0,0:0:0:0:
299,236,167460,1,0,0:0:0:0:
300,210,167578,1,0,0:0:0:0:
301,183,167695,1,0,0:0:0:0:
298,263,167812,5,0,0:0:0:0:
292,232,167929,1,0,0:0:0:0:
285,202,168046,1,0,0:0:0:0:
279,171,168164,1,0,0:0:0:0:
279,171,169218,5,2,0:0:0:0:
241,249,169453,1,2,0:0:0:0:
193,177,169687,5,2,0:0:0:0:
241,249,169921,1,2,0:0:0:0:
230,99,170156,1,6,0:0:0:0:
230,99,171093,5,0,0:0:0:0:
230,99,171210,1,0,0:0:0:0:
230,99,171328,1,0,0:0:0:0:
268,177,171562,5,0,0:0:0:0:
354,183,171796,1,0,0:0:0:0:
316,105,172031,1,0,0:0:0:0:
360,32,172265,1,0,0:0:0:0:
401,108,172500,5,4,0:0:0:0:
427,85,172617,1,0,0:0:0:0:
446,57,172734,1,0,0:0:0:0:
401,108,172968,1,0,0:0:0:0:
401,108,173437,1,0,0:0:0:0:
401,108,173906,1,0,0:0:0:0:
230,99,174375,5,0,0:0:0:0:
194,68,174492,1,0,0:0:0:0:
169,30,174609,1,0,0:0:0:0:
230,99,174843,1,0,0:0:0:0:
230,99,175312,1,0,0:0:0:0:
230,99,175781,1,0,0:0:0:0:
316,105,176250,5,0,0:0:0:0:
352,74,176367,1,0,0:0:0:0:
377,36,176484,1,0,0:0:0:0:
316,105,176718,1,0,0:0:0:0:
316,105,177187,1,0,0:0:0:0:
316,105,177656,1,0,0:0:0:0:
268,177,178125,5,0,0:0:0:0:
242,154,178242,1,0,0:0:0:0:
223,126,178359,1,0,0:0:0:0:
268,177,178593,1,0,0:0:0:0:
268,177,179062,1,0,0:0:0:0:
268,177,179531,1,0,0:0:0:0:
354,183,180000,5,0,0:0:0:0:
362,175,180078,1,0,0:0:0:0:
369,168,180156,1,0,0:0:0:0:
375,159,180234,1,0,0:0:0:0:
381,150,180312,1,0,0:0:0:0:
385,141,180390,1,0,0:0:0:0:
389,130,180468,1,0,0:0:0:0:
389,130,180937,1,0,0:0:0:0:
389,130,181406,1,0,0:0:0:0:
227,261,181875,5,0,0:0:0:0:
215,249,181953,1,0,0:0:0:0:
204,238,182031,1,0,0:0:0:0:
195,225,182109,1,0,0:0:0:0:
186,211,182187,1,0,0:0:0:0:
180,197,182265,1,0,0:0:0:0:
174,181,182343,1,0,0:0:0:0:
174,181,182812,1,0,0:0:0:0:
174,181,183281,1,0,0:0:0:0:
392,266,183750,5,0,0:0:0:0:
410,248,183828,1,0,0:0:0:0:
426,231,183906,1,0,0:0:0:0:
440,212,183984,1,0,0:0:0:0:
453,191,184062,1,0,0:0:0:0:
462,170,184140,1,0,0:0:0:0:
471,146,184218,1,0,0:0:0:0:
471,146,184687,1,0,0:0:0:0:
471,146,185156,1,0,0:0:0:0:
184,337,185625,5,0,0:0:0:0:
157,310,185703,1,0,0:0:0:0:
133,284,185781,1,0,0:0:0:0:
112,256,185859,1,0,0:0:0:0:
92,224,185937,1,0,0:0:0:0:
78,193,186015,1,0,0:0:0:0:
66,97,186093,5,0,0:0:0:0:
107,55,186210,1,0,0:0:0:0:
165,51,186328,1,0,0:0:0:0:
212,87,186445,1,0,0:0:0:0:
243,188,186562,6,0,P|280:195|318:185,1,71.9999978027344
463,119,186796,2,0,P|426:112|388:122,1,71.9999978027344
221,194,187031,2,0,P|265:203|310:191,1,83.9999974365235
475,107,187265,6,2,B|426:98|426:98|377:110,1,96,2|0,0:0|0:0,0:0:0:0:
256,192,187500,12,0,190664,0:0:0:0:
45,100,192304,6,0,B|39:142|39:142|51:185|51:185|42:243,1,138.000002632141
420,342,194951,6,0,L|426:257,1,69.0000013160706
364,110,195127,6,0,P|355:173|379:101,1,276.000005264282
233,87,195656,2,0,P|242:24|218:96,1,276.000005264282
177,215,196186,2,0,P|105:190|49:109,1,138.000002632141
64,145,197774,5,0,0:0:0:0:
198,85,197951,6,0,B|391:64|391:64|266:135,1,276.000005264282
269,248,198480,2,0,B|76:269|76:269|201:198,1,276.000005264282
423,224,199009,2,0,B|433:320|433:320|413:284,1,138.000002632141
209,73,200774,6,0,B|119:82|28:45|28:45|111:155,1,276.000005264282
152,236,201304,2,0,B|242:227|333:264|333:264|250:154,1,276.000005264282
25,221,201833,2,0,P|23:288|63:342,1,138.000002632141
157,350,202186,5,0,0:0:0:0:
179,351,202274,1,0,0:0:0:0:
202,352,202362,1,0,0:0:0:0:
225,353,202450,1,0,0:0:0:0:
295,374,202539,5,0,0:0:0:0:
322,371,202627,1,0,0:0:0:0:
351,370,202715,1,0,0:0:0:0:
380,369,202803,1,0,0:0:0:0:
446,329,202892,5,0,0:0:0:0:
443,297,202980,1,0,0:0:0:0:
441,263,203068,1,0,0:0:0:0:
440,230,203156,1,0,0:0:0:0:
395,165,203245,5,0,0:0:0:0:
399,126,203333,1,0,0:0:0:0:
400,83,203421,1,0,0:0:0:0:
402,41,203509,1,0,0:0:0:0:
315,8,203598,6,0,L|230:13,1,60
178,94,203774,5,0,0:0:0:0:
178,94,203862,1,0,0:0:0:0:
178,94,203951,2,0,P|174:161|189:198,1,60
94,60,204127,5,0,0:0:0:0:
94,60,204215,1,0,0:0:0:0:
94,60,204304,2,0,P|98:-7|83:-44,1,60
25,119,204480,5,0,0:0:0:0:
25,119,204568,1,0,0:0:0:0:
25,119,204657,2,0,P|21:186|36:223,1,60
83,239,204833,5,0,0:0:0:0:
83,239,204921,1,0,0:0:0:0:
83,239,205009,2,0,P|150:235|187:250,1,60
257,292,205186,5,0,0:0:0:0:
257,292,205274,1,0,0:0:0:0:
257,292,205362,2,0,P|190:296|153:281,1,60
293,217,205539,5,0,0:0:0:0:
293,217,205627,1,0,0:0:0:0:
293,217,205716,2,0,P|286:187|287:157,1,60
355,289,205892,5,0,0:0:0:0:
355,289,205980,1,0,0:0:0:0:
355,289,206069,2,0,P|361:318|360:348,1,60
415,219,206245,5,0,0:0:0:0:
415,219,206333,1,0,0:0:0:0:
415,219,206421,6,0,L|422:147,1,60
366,11,206598,1,0,0:0:0:0:
366,11,206686,1,0,0:0:0:0:
366,11,206774,2,0,L|359:83,1,60
399,252,206951,6,0,L|380:181,1,60
281,73,207128,1,0,0:0:0:0:
281,73,207216,1,0,0:0:0:0:
281,73,207304,2,0,L|299:143,1,60
378,289,207480,6,0,L|337:229,1,60
205,161,207657,5,0,0:0:0:0:
205,161,207745,1,0,0:0:0:0:
205,161,207833,2,0,P|212:189|245:220,1,60
113,131,208009,5,0,0:0:0:0:
113,131,208097,1,0,0:0:0:0:
113,131,208185,2,0,P|106:103|72:71,1,60
118,225,208362,5,0,0:0:0:0:
118,225,208450,1,0,0:0:0:0:
118,225,208538,2,0,P|125:253|158:284,1,60
26,195,208715,5,0,0:0:0:0:
26,195,208804,1,0,0:0:0:0:
26,195,208892,2,0,P|19:167|-15:135,1,60
86,79,209068,5,0,0:0:0:0:
86,79,209156,1,0,0:0:0:0:
86,79,209245,6,0,L|148:77,1,60
266,21,209421,5,0,0:0:0:0:
266,21,209509,1,0,0:0:0:0:
266,21,209597,2,0,P|237:14|193:29,1,60
332,76,209774,5,0,0:0:0:0:
332,76,209862,1,0,0:0:0:0:
332,76,209950,2,0,P|360:82|404:67,1,60
508,23,210127,5,0,0:0:0:0:
508,23,210215,1,0,0:0:0:0:
508,23,210303,2,0,P|479:16|435:31,1,60
390,76,210480,5,0,0:0:0:0:
390,76,210568,1,0,0:0:0:0:
390,76,210656,2,0,P|396:104|381:148,1,60
314,238,210833,5,0,0:0:0:0:
314,238,210921,1,0,0:0:0:0:
314,238,211009,2,0,P|307:209|322:165,1,60
243,75,211186,5,0,0:0:0:0:
243,75,211274,1,0,0:0:0:0:
243,75,211362,2,0,P|249:103|234:147,1,60
167,237,211539,5,0,0:0:0:0:
167,237,211627,1,0,0:0:0:0:
167,237,211715,2,0,P|160:208|175:164,1,60
68,76,211892,5,0,0:0:0:0:
68,76,211980,1,0,0:0:0:0:
68,76,212068,6,0,L|57:172,1,60
34,314,212245,1,0,0:0:0:0:
65,333,212333,1,0,0:0:0:0:
104,340,212421,1,0,0:0:0:0:
141,335,212509,1,0,0:0:0:0:
175,320,212598,6,0,B|207:313|207:313|252:281,1,60
361,162,212774,1,0,0:0:0:0:
330,143,212862,1,0,0:0:0:0:
291,136,212950,1,0,0:0:0:0:
254,141,213038,1,0,0:0:0:0:
220,156,213127,6,0,B|188:163|188:163|143:195,1,60
24,242,213304,1,0,0:0:0:0:
21,190,213392,1,0,0:0:0:0:
19,138,213480,5,0,0:0:0:0:
19,138,214186,2,0,L|12:68,2,68.0000012969971
134,14,214539,2,0,L|127:81,2,68.0000012969971
210,258,214892,6,0,P|271:275|323:259,1,120
350,135,215245,1,0,0:0:0:0:
221,96,215421,1,0,0:0:0:0:
2,253,215598,6,0,P|59:237|116:254,1,120,8|0,0:0|0:0,0:0:0:0:
165,176,215951,6,0,P|122:100|161:17,1,180
320,104,216304,2,0,P|367:108|418:94,2,90.0000034332277
223,94,216833,1,0,0:0:0:0:
330,238,217009,2,0,B|369:259|369:259|413:259,1,90.0000034332277,8|0,0:0|0:0,0:0:0:0:
355,8,217362,1,0,0:0:0:0:
392,172,217539,1,0,0:0:0:0:
205,259,217715,6,0,P|140:268|84:232,1,135.000005149841
162,173,218068,1,0,0:0:0:0:
302,60,218245,1,0,0:0:0:0:
330,238,218421,1,8,0:0:0:0:
302,60,218598,1,0,0:0:0:0:
205,259,218774,6,0,P|284:227|331:238,1,135.000005149841
283,326,219127,1,0,0:0:0:0:
283,326,219480,1,0,0:0:0:0:
191,124,219656,1,0,0:0:0:0:
84,204,219833,6,0,L|124:222,1,45.0000017166138,8|0,0:0|0:0,0:0:0:0:
205,259,220009,2,0,L|200:214,1,45.0000017166138
191,124,220186,2,0,L|154:149,1,45.0000017166138
84,204,220362,2,0,L|124:222,1,45.0000017166138
329,237,220539,6,0,L|321:148,1,90.0000034332277
394,96,220892,1,0,0:0:0:0:
233,123,221068,1,0,0:0:0:0:
329,237,221245,6,0,L|336:325,1,90.0000034332277,8|0,0:0|0:0,0:0:0:0:
329,237,221598,6,0,P|245:204|235:119,1,180
320,147,221951,2,0,B|223:120,1,90.0000034332277
417,215,222303,5,0,0:0:0:0:
373,226,222391,1,0,0:0:0:0:
329,237,222479,1,0,0:0:0:0:
320,147,222656,5,8,0:0:0:0:
428,97,222833,1,0,0:0:0:0:
417,215,223009,1,0,0:0:0:0:
320,147,223186,1,0,0:0:0:0:
267,6,223362,6,0,P|274:71|233:122,1,135.000005149841
196,49,223715,1,0,0:0:0:0:
320,147,223892,1,0,0:0:0:0:
147,117,224068,2,0,P|115:148|105:192,1,90.0000034332277,8|0,0:0|0:0,0:0:0:0:
334,231,224421,6,0,B|289:245|254:279|254:279|254:227|212:212,1,180
320,147,224774,1,0,0:0:0:0:
211,211,224951,2,0,P|191:242|147:193,1,120
70,110,225215,2,0,P|33:109|53:46,1,120
134,26,225480,5,0,0:0:0:0:
173,127,225656,1,0,0:0:0:0:
70,110,225833,5,0,0:0:0:0:
212,212,226009,1,0,0:0:0:0:
112,239,226186,5,0,0:0:0:0:
145,288,226274,1,0,0:0:0:0:
199,310,226362,1,0,0:0:0:0:
257,299,226450,1,0,0:0:0:0:
300,258,226539,2,0,P|347:217|430:209,1,120,2|0,0:0|0:0,0:0:0:0:
249,113,226892,6,0,L|240:54,1,60
390,305,227068,2,0,L|399:364,1,60
346,76,227245,5,8,0:0:0:0:
350,134,227333,1,0,0:0:0:0:
321,185,227421,1,0,0:0:0:0:
267,210,227509,1,0,0:0:0:0:
209,194,227598,5,8,0:0:0:0:
149,190,227687,1,0,0:0:0:0:
95,215,227775,1,0,0:0:0:0:
65,266,227863,1,0,0:0:0:0:
70,325,227951,6,0,L|80:388,1,60
277,269,228127,2,0,L|267:209,1,60
166,73,228303,6,0,B|176:131|176:131|152:174|152:174|164:244,1,180,8|0,0:0|0:0,0:0:0:0:
175,304,228656,5,0,0:0:0:0:
214,347,228744,1,0,0:0:0:0:
271,364,228832,1,0,0:0:0:0:
329,349,228920,1,0,0:0:0:0:
370,307,229009,6,0,P|384:246|366:187,1,120,8|0,0:0|0:0,0:0:0:0:
311,171,229274,1,0,0:0:0:0:
256,152,229362,2,0,L|199:130,1,60
276,268,229539,2,0,L|286:328,1,60
256,152,229715,2,0,L|246:92,1,60,8|0,0:0|0:0,0:0:0:0:
56,187,229892,2,0,L|65:246,1,60
256,152,230068,6,0,L|349:76,1,120
186,208,230421,5,0,0:0:0:0:
169,151,230509,1,0,0:0:0:0:
189,96,230597,1,0,0:0:0:0:
239,64,230685,1,0,0:0:0:0:
298,68,230774,6,0,L|308:128,1,60
461,107,230951,2,0,L|451:47,1,60
372,32,231127,5,10,0:0:0:0:
381,91,231215,1,2,0:0:0:0:
391,150,231303,1,2,0:0:0:0:
400,209,231392,1,2,0:0:0:0:
409,269,231480,6,0,L|362:307,1,60
251,264,231656,2,0,L|297:225,1,60
248,360,231833,6,0,P|174:325|159:232,1,180
138,116,232186,1,0,0:0:0:0:
250,158,232362,1,0,0:0:0:0:
71,27,232539,5,8,0:0:0:0:
250,158,232715,1,0,0:0:0:0:
183,7,232892,6,0,P|245:70|249:158,1,180
71,27,233245,2,0,B|85:85|85:85|139:116,1,120
342,81,233598,5,0,0:0:0:0:
295,119,233686,1,0,0:0:0:0:
249,157,233774,1,0,0:0:0:0:
342,81,233951,5,8,0:0:0:0:
362,200,234127,1,0,0:0:0:0:
269,277,234303,1,0,0:0:0:0:
249,157,234480,1,0,0:0:0:0:
362,200,234656,6,0,P|388:283|352:364,1,180
269,277,235009,6,0,L|212:255,1,60
240,98,235186,1,0,0:0:0:0:
362,200,235362,1,8,0:0:0:0:
212,255,235539,1,0,0:0:0:0:
127,55,235715,6,0,L|240:97,1,120
184,181,236068,1,0,0:0:0:0:
296,179,236245,2,0,P|243:199|184:181,1,120
239,97,236509,2,0,P|292:77|351:95,1,120
350,94,236774,6,8,L|360:154,2,60.0000022888184
184,181,237127,6,8,L|174:120,2,60.0000022888184
47,275,237480,6,0,L|14:61,1,215.999993408203
44,0,237833,2,0,L|78:219,1,215.999993408203
155,287,238186,5,8,0:0:0:0:
184,181,238362,2,0,L|167:88,1,83.9999974365235
270,222,238539,2,0,L|285:128,1,83.9999974365235
325,306,238715,2,0,L|371:223,1,83.9999974365235
457,71,238892,6,0,P|437:134|481:247,1,180
366,232,239245,2,0,L|325:306,1,83.9999974365235
279,381,239421,1,0,0:0:0:0:
270,222,239598,2,0,L|289:192,12,24,8|0|0|0|0|0|0|0|0|0|0|0|0,0:0|0:0|0:0|0:0|0:0|0:0|0:0|0:0|0:0|0:0|0:0|0:0|0:0,0:0:0:0:
285,119,240303,6,0,P|326:131|363:177,1,83.9999974365235
147,116,240480,2,0,P|106:104|69:58,1,83.9999974365235
316,119,240656,2,0,P|357:131|394:177,1,83.9999974365235
116,115,240833,2,0,P|75:103|38:57,1,83.9999974365235
285,35,241009,6,0,L|284:145,1,83.9999974365235,8|0,0:0|0:0,0:0:0:0:
210,268,241186,2,0,L|211:158,1,83.9999974365235
115,49,241362,6,0,L|116:159,1,66.0000020141602
34,122,241539,2,0,L|57:183,1,66.0000020141602
92,259,241715,5,0,0:0:0:0:
210,184,241892,2,0,B|335:229|307:146|452:197,1,215.999993408203
370,287,242245,5,0,0:0:0:0:
326,298,242333,1,0,0:0:0:0:
282,309,242421,1,8,0:0:0:0:
460,351,242598,6,0,P|481:276|408:181,1,192
265,8,243127,6,0,B|280:71|280:71|302:104|302:104|323:179,1,180
282,309,243480,6,0,L|254:202,1,66.0000020141602
184,258,243657,2,0,L|190:193,1,66.0000020141602
205,110,243833,6,0,P|141:88|61:121,1,144,8|0,0:0|0:0,0:0:0:0:
32,183,244186,2,0,B|44:224|44:224|25:282|25:282|36:337,1,144
151,338,244539,6,0,P|239:327|261:333,1,83.9999974365235
429,334,244715,2,0,P|388:346|347:346,1,83.9999974365235
124,323,244892,2,0,P|212:312|234:318,1,83.9999974365235
306,243,245068,5,0,0:0:0:0:
317,199,245156,1,0,0:0:0:0:
328,155,245245,6,0,P|348:98|401:60,1,107.999996704102,8|0,0:0|0:0,0:0:0:0:
477,68,245598,2,0,P|460:118|421:155,1,107.999996704102
328,155,245951,5,0,0:0:0:0:
149,162,246127,2,0,B|217:162|217:162|254:153|254:153|334:155,1,180
421,155,246480,1,0,0:0:0:0:
376,5,246656,6,0,L|375:115,1,83.9999974365235,8|0,0:0|0:0,0:0:0:0:
327,238,246833,2,0,L|328:128,1,83.9999974365235
291,83,247009,6,0,B|223:83|223:83|186:74|186:74|106:76,1,180
61,155,247362,6,0,P|19:79|42:13,1,143.999995605469
161,156,247715,2,0,L|161:232,1,71.9999978027344
159,310,247892,1,0,0:0:0:0:
327,238,248068,1,8,0:0:0:0:
299,122,248245,6,0,L|299:50,1,71.9999978027344
379,140,248421,2,0,L|403:72,1,71.9999978027344
433,202,248598,2,0,L|479:146,1,71.9999978027344
327,238,248774,6,0,B|296:223|262:243|262:243|233:223|233:223|201:248|142:220,1,180
89,293,249480,2,0,L|89:317,12,24
25,222,250186,6,0,L|26:138,1,83.9999974365235
89,293,250362,2,0,L|87:376,1,83.9999974365235
161,228,250539,6,0,B|231:234|231:234|266:224|266:224|347:232,1,180
413,286,250892,2,0,L|413:310,8,24,8|0|0|0|0|0|0|0|0,0:0|0:0|0:0|0:0|0:0|0:0|0:0|0:0|0:0,0:0:0:0:
490,147,251421,6,0,L|489:231,1,83.9999974365235
384,319,251598,6,0,P|426:319|474:353,1,83.9999974365235
250,354,251775,2,0,P|207:353|159:319,1,83.9999974365235
413,310,251951,2,0,P|455:310|503:344,1,83.9999974365235
220,361,252128,2,0,P|177:360|129:326,1,83.9999974365235
413,310,252303,6,0,L|412:200,1,83.9999974365235,8|0,0:0|0:0,0:0:0:0:
309,88,252480,2,0,L|310:198,1,83.9999974365235
250,354,252656,6,0,L|251:281,1,60
169,281,252833,2,0,L|195:220,1,60
309,88,253009,6,0,B|184:133|212:50|67:101,1,215.999993408203
31,222,253362,1,0,0:0:0:0:
70,220,253450,1,0,0:0:0:0:
111,220,253538,1,0,0:0:0:0:
151,219,253626,1,0,0:0:0:0:
192,219,253714,5,8,0:0:0:0:
276,219,253892,6,0,B|194:268|194:268|94:210,1,192
342,136,254421,6,0,P|374:212|334:310,1,180
192,328,254774,2,0,L|194:246,1,60
111,255,254951,2,0,L|135:192,1,60
203,132,255127,6,0,P|147:104|60:138,1,144,8|0,0:0|0:0,0:0:0:0:
134,193,255480,2,0,L|141:39,1,144
228,0,255833,6,0,B|312:42|310:-29|445:35,1,180
347,103,256186,1,0,0:0:0:0:
349,142,256274,1,0,0:0:0:0:
349,183,256362,1,0,0:0:0:0:
350,223,256450,1,0,0:0:0:0:
350,264,256539,6,0,P|370:321|423:359,1,107.999996704102,8|0,0:0|0:0,0:0:0:0:
499,351,256892,2,0,P|482:301|443:264,1,107.999996704102
351,264,257245,6,0,B|276:264|276:264|221:255|221:255|125:256,1,215.999993408203
63,192,257598,6,0,L|55:70,1,83.9999974365235
39,292,257774,2,0,L|44:375,1,83.9999974365235
160,150,257951,1,8,0:0:0:0:
199,148,258039,1,0,0:0:0:0:
240,148,258127,1,0,0:0:0:0:
280,147,258215,1,0,0:0:0:0:
321,147,258303,6,0,P|393:136|482:157,1,144
503,232,258656,6,0,L|505:283,30,30
462,148,260068,5,4,0:0:0:0:
256,192,267039,12,0,268627,0:0:0:0:
342,101,268803,6,0,B|308:118|273:115|273:115|241:144|202:137,1,143.999995605469
207,138,270678,1,0,0:0:0:0:
164,80,271615,1,0,0:0:0:0:
136,147,272553,6,0,P|113:206|149:273,1,143.999995605469
149,273,274428,1,0,0:0:0:0:
221,275,275366,1,0,0:0:0:0:
256,339,276303,6,0,L|265:353,2,8.99999972534181
221,275,277240,1,0,0:0:0:0:
258,213,278178,2,0,L|253:205,2,8.99999972534181
258,213,280053,5,0,0:0:0:0:
330,215,281928,1,0,0:0:0:0:
367,153,282865,1,0,0:0:0:0:
200,148,283803,6,0,L|145:155,1,35.9999989013672
93,93,284271,2,0,L|128:88,1,35.9999989013672
127,214,284740,1,0,0:0:0:0:
162,276,285678,6,0,P|215:293|298:243,1,143.999995605469
290,255,287553,1,0,0:0:0:0:
327,193,288490,5,0,0:0:0:0:
291,129,289428,1,0,0:0:0:0:
219,128,290365,5,0,0:0:0:0:
182,190,291303,2,0,L|186:197,2,8.99999972534181
258,198,293178,2,0,L|254:191,2,8.99999972534181
218,128,295053,1,0,0:0:0:0:
298,127,296928,2,0,B|356:127|356:127|411:154|427:274|363:317|258:336|216:278|198:209|198:209|187:156|151:113|101:123,1,575.999982421876
111,206,301967,6,0,L|105:250,1,35.9999989013672
107,242,302435,2,0,P|113:318|291:314,1,287.999991210938
285,324,305716,5,0,0:0:0:0:
285,324,305951,1,0,0:0:0:0:
285,324,306185,2,0,P|247:198|367:145,1,287.999991210938
367,145,309466,5,0,0:0:0:0:
367,145,309701,1,0,0:0:0:0:
367,145,309935,2,0,P|269:233|170:147,1,287.999991210938
232,162,313217,5,0,0:0:0:0:
232,162,313452,1,0,0:0:0:0:
