osu file format v14

[General]
AudioFilename: audio.mp3
AudioLeadIn: 0
PreviewTime: 227942
Countdown: 1
SampleSet: Soft
StackLeniency: 0.2
Mode: 0
LetterboxInBreaks: 0
WidescreenStoryboard: 1

[Editor]
Bookmarks: 15006,30006,45006,59996,74996,89996,104996,134996,148589,157496,172496,173433,179996,192300,192417,200865,203601,207946,214859,226189,232917,237482,251601,254424,260080,268903,314114
DistanceSpacing: 0.1
BeatDivisor: 4
GridSize: 32
TimelineZoom: 8

[Metadata]
Title:Galaxy Cutter
TitleUnicode:Galaxy Cutter
Artist:hyleo & sakuraburst
ArtistUnicode:hyleo & sakuraburst
Creator:zev
Version:supernovae
Source:
Tags:
BeatmapID:1602969
BeatmapSetID:742421

[Difficulty]
HPDrainRate:5.2
CircleSize:4.2
OverallDifficulty:8.5
ApproachRate:9.7
SliderMultiplier:1.6
SliderTickRate:1

[Events]
//Background and Video events
0,0,"anime-girl-space-stars-galaxy-falling-stars-petals-anime-10347.png",0,0
//Break Periods
2,190977,191798
2,260447,268400
//Storyboard Layer 0 (Background)
//Storyboard Layer 1 (Fail)
//Storyboard Layer 2 (Pass)
//Storyboard Layer 3 (Foreground)
//Storyboard Sound Samples

[TimingPoints]
-4,468.75,4,2,2,44,1,0
1871,-153.846153846154,4,2,2,10,0,0
3042,-1000,4,2,2,10,0,0
3746,-142.857142857143,4,2,2,5,0,0
5855,-1000,4,2,2,10,0,0
6558,-166.666666666667,4,2,2,5,0,0
8667,-1000,4,2,2,10,0,0
9371,-200,4,2,2,5,0,0
11480,-1000,4,2,2,10,0,0
14996,-100,4,2,2,33,0,0
17105,-200,4,2,2,33,0,0
18746,-100,4,2,2,33,0,0
20152,-86.9565217391304,4,2,2,44,0,0
20621,-100,4,2,2,33,0,0
29996,-1000,4,2,2,33,0,0
30933,-100,4,2,2,33,0,0
33746,-1000,4,2,2,33,0,0
34683,-100,4,2,2,33,0,0
37496,-1000,4,2,2,33,0,0
38433,-100,4,2,2,33,0,0
41246,-1000,4,2,2,33,0,0
42183,-31.2500000000001,4,2,2,33,0,0
42652,-1000,4,2,2,33,0,0
44527,-40,4,2,2,77,0,0
44996,-27.7777777777778,4,2,2,77,0,0
46167,-100,4,2,2,77,0,0
46402,-15,4,2,2,77,0,0
46988,-66.6666666666667,4,2,2,100,0,0
47222,-66.6666666666667,4,2,2,77,0,0
47925,-20,4,2,2,77,0,0
48277,-37.037037037037,4,2,2,77,0,0
48746,-27.7777777777778,4,2,2,77,0,0
50738,-33.3333333333333,4,2,2,100,0,0
51089,-33.3333333333333,4,2,2,77,0,0
51206,-33.3333333333333,4,2,2,100,0,0
51675,-20,4,2,2,77,0,0
52496,-27.7777777777778,4,2,2,77,0,0
53902,-15,4,2,2,77,0,0
54488,-66.6666666666667,4,2,2,77,0,0
55425,-20,4,2,2,77,0,0
55777,-37.037037037037,4,2,2,77,0,0
56246,-27.7777777777778,4,2,2,77,0,0
59175,-20,4,2,2,77,0,0
59527,-37.037037037037,4,2,2,77,0,0
59996,-27.7777777777778,4,2,2,77,0,0
61402,-15,4,2,2,77,0,0
62222,-100,4,2,2,77,0,0
62691,-50,4,2,2,77,0,0
63160,-38.4615384615385,4,2,2,77,0,0
63511,-100,4,2,2,77,0,0
63746,-27.7777777777778,4,2,2,77,0,0
65152,-15,4,2,2,77,0,0
65738,-500,4,2,2,77,0,0
66206,-133.333333333333,4,2,2,77,0,0
66558,-20,4,2,2,77,0,0
67496,-27.7777777777778,4,2,2,77,0,0
68902,-15,4,2,2,77,0,0
69488,-100,4,2,2,77,0,0
69722,-100,4,2,2,77,0,0
70191,-50,4,2,2,77,0,0
70601,-100,4,2,2,77,0,0
70660,-38.4615384615385,4,2,2,77,0,0
71011,-100,4,2,2,77,0,0
71246,-27.7777777777778,4,2,2,77,0,0
72652,-15,4,2,2,77,0,0
73238,-500,4,2,2,77,0,0
74058,-20,4,2,2,77,0,0
74761,-15,4,2,2,77,0,0
74996,-1000,4,2,2,77,0,0
76402,-1000,4,2,2,77,0,1
76871,-20,4,2,2,77,0,1
77339,-28.5714285714286,4,2,2,77,0,1
77808,-50,4,2,2,77,0,1
78277,-100,4,2,2,77,0,1
78746,-1000,4,2,2,77,0,0
80152,-1000,4,2,2,77,0,1
80621,-20,4,2,2,77,0,1
81060,-40,4,2,2,77,0,1
82027,-50,4,2,2,77,0,1
82496,-1000,4,2,2,77,0,0
84120,-50,4,2,2,77,0,0
86246,-1000,4,2,2,77,0,0
87183,-50,4,2,2,77,0,0
87652,-133.333333333333,4,2,2,77,0,0
87886,-50,4,2,2,77,0,0
90464,-100,4,2,2,77,0,0
98199,-32.258064516129,4,2,2,77,0,0
98667,-100,4,2,2,77,0,0
98902,-55.5555555555556,4,2,2,77,0,0
101714,-100,4,2,2,77,0,0
101949,-50,4,2,2,77,0,0
102417,-100,4,2,2,77,0,0
102652,-76.9230769230769,4,2,2,77,0,0
103589,-250,4,2,2,33,0,0
104996,-32.258064516129,4,2,2,77,0,0
106167,-16.6666666666667,4,2,2,77,0,0
106402,-32.258064516129,4,2,2,77,0,0
106636,-16.6666666666667,4,2,2,77,0,0
107105,-22.2222222222222,4,2,2,77,0,0
107456,-13.3333333333333,4,2,2,77,0,0
107574,-22.2222222222222,4,2,2,77,0,0
107808,-13.3333333333333,4,2,2,77,0,0
108277,-19.2307692307692,4,2,2,77,0,0
108746,-32.258064516129,4,2,2,55,0,0
111089,-16.6666666666667,4,2,2,77,0,0
111558,-16.6666666666667,4,2,2,77,0,0
111792,-22.2222222222222,4,2,2,77,0,0
112027,-16.6666666666667,4,2,2,77,0,0
112261,-22.2222222222222,4,2,2,77,0,0
112496,-32.258064516129,4,2,2,77,0,0
113433,-13.1578947368421,4,2,45,62,0,0
113902,-32.258064516129,4,2,2,77,0,0
114136,-32.258064516129,4,2,2,100,0,0
114371,-20,4,2,2,99,0,0
114605,-32.258064516129,4,2,2,77,0,0
114839,-11.1111111111111,4,2,2,77,0,0
115308,-10,4,2,2,77,0,0
115425,-12.1951219512195,4,2,2,77,0,0
115777,-16.6666666666667,4,2,2,77,0,0
116011,-14.2857142857143,4,2,2,77,0,0
116246,-32.258064516129,4,2,2,77,0,0
118589,-15.1515151515152,4,2,2,77,0,0
118824,-10,4,2,2,77,0,0
119058,-13.3333333333333,4,2,2,77,0,0
119292,-22.2222222222222,4,2,2,77,0,0
119527,-100,4,2,2,100,0,0
119761,-25,4,2,2,77,0,0
119996,-27.7777777777778,4,2,2,77,0,0
121402,-15,4,2,2,77,0,0
121988,-15,4,2,2,90,0,0
123277,-133.333333333333,4,2,2,77,0,0
123746,-27.7777777777778,4,2,2,77,0,0
125855,-14.2857142857143,4,2,2,100,0,0
126206,-25.6410256410256,4,2,2,77,0,0
126558,-10.5263157894737,4,2,2,100,0,1
127027,-50,4,2,2,77,0,1
127496,-27.7777777777778,4,2,2,77,0,0
128902,-15,4,2,2,77,0,0
129488,-133.333333333333,4,2,2,90,0,0
130425,-133.333333333333,4,2,2,100,0,0
131246,-27.7777777777778,4,2,2,77,0,0
132652,-66.6666666666667,4,2,2,77,0,0
133121,-16.6666666666667,4,2,2,100,0,0
133179,-20,4,2,2,100,0,0
133238,-25,4,2,2,100,0,0
133296,-33.3333333333333,4,2,2,100,0,0
133355,-50,4,2,2,100,0,0
133413,-100,4,2,2,100,0,0
133472,-142.857142857143,4,2,2,100,0,0
133531,-200,4,2,2,100,0,0
133589,-333.333333333333,4,2,2,100,0,0
134058,-50,4,2,2,77,0,0
134996,-1000,4,2,2,10,0,0
142496,-16.6666666666667,4,2,2,77,0,0
142964,-133.333333333333,4,2,2,22,0,0
143902,-250,4,2,2,22,0,0
144956,-166.666666666667,4,2,2,22,0,0
145425,-125,4,2,2,22,0,0
146714,-133.333333333333,4,2,2,22,0,0
147652,-66.6666666666667,4,2,2,22,0,0
148121,-333.333333333333,4,2,2,22,0,0
150347,-133.333333333333,4,2,2,22,0,0
151988,-250,4,2,2,22,0,0
152456,-166.666666666667,4,2,2,22,0,0
152925,-125,4,2,2,22,0,0
153746,-333.333333333333,4,2,2,22,0,0
154449,-1000,4,2,2,22,0,0
155621,-153.846153846153,4,2,2,22,0,0
157496,-1000,4,2,2,22,0,0
159956,-400,4,2,2,22,0,0
160425,-181.818181818182,4,2,2,22,0,0
161246,-333.333333333333,4,2,2,22,0,0
164996,-125,4,2,2,22,0,0
166871,-111.111111111111,4,2,2,22,0,0
168746,-1000,4,2,2,22,0,0
172496,-10,4,2,2,77,0,0
172613,-20,4,2,2,77,0,0
172964,-66.6666666666667,4,2,0,44,0,0
174371,-14.2857142857143,4,2,2,55,0,0
174488,-28.5714285714286,4,2,2,55,0,0
174839,-66.6666666666667,4,2,0,44,0,0
176246,-12.5,4,2,2,66,0,0
176363,-25,4,2,2,66,0,0
176714,-66.6666666666667,4,2,0,44,0,0
178121,-12.5,4,2,2,66,0,0
178238,-25,4,2,2,66,0,0
178589,-66.6666666666667,4,2,0,44,0,0
179996,-66.6666666666667,4,2,2,44,0,0
180464,-133.333333333333,4,2,2,44,0,0
180933,-66.6666666666667,4,2,0,44,0,0
181871,-200,4,2,2,50,0,0
182808,-66.6666666666667,4,2,0,44,0,0
183746,-200,4,2,2,55,0,0
184214,-400,4,2,2,55,0,0
184683,-400,4,2,0,44,0,0
185621,-400,4,2,2,44,0,0
190777,-400,4,2,2,5,0,0
192307,352.941176470588,4,2,2,22,1,0
192307,-20.6185567010309,4,2,2,100,0,0
193718,-333.333333333333,4,2,2,10,0,0
195130,-27.7777777777778,4,2,99,100,0,0
196189,-20.6185567010309,4,2,2,100,0,0
198483,-27.7777777777778,4,2,99,100,0,0
199012,-15.625,4,2,2,100,0,0
199101,-16.6666666666667,4,2,99,100,0,0
199718,-10,4,2,99,19,0,0
200777,-27.7777777777778,4,2,99,100,0,0
201836,-20.6185567010309,4,2,2,100,0,0
203071,-66.6666666666667,4,2,2,100,0,0
203336,-66.6666666666667,4,2,2,100,0,0
203424,-25,4,2,99,100,0,0
203512,-50,4,2,99,100,0,0
203601,-20,4,2,2,100,0,0
203953,-200,4,2,99,100,0,0
204307,-153.846153846154,4,2,99,100,0,0
204659,-125,4,2,99,100,0,0
205012,-105.263157894737,4,2,99,100,0,0
205365,-90.9090909090909,4,2,99,100,0,0
205718,-80,4,2,99,100,0,0
206071,-71.4285714285714,4,2,99,100,0,0
206424,-20,4,2,2,100,0,0
206777,-64.5161290322581,4,2,99,100,0,0
206954,-20,4,2,2,100,0,0
207836,-62.5,4,2,2,100,0,0
208145,-62.5,4,2,2,5,0,0
208189,-62.5,4,2,2,100,0,0
208498,-62.5,4,2,2,5,0,0
208542,-62.5,4,2,2,100,0,0
208851,-62.5,4,2,2,5,0,0
208895,-57.1428571428571,4,2,2,100,0,0
209204,-62.5,4,2,2,5,0,0
209248,-20,4,2,2,100,0,0
209601,-52.6315789473684,4,2,2,100,0,0
209909,-50,4,2,2,5,0,0
209954,-50,4,2,2,100,0,0
210262,-43.4782608695652,4,2,55,5,0,0
210307,-43.4782608695652,4,2,55,100,0,0
210615,-43.4782608695652,4,2,55,5,0,0
210659,-38.4615384615385,4,2,55,100,0,0
210968,-43.4782608695652,4,2,55,5,0,0
211012,-34.4827586206897,4,2,55,100,0,0
211321,-43.4782608695652,4,2,55,5,0,0
211365,-31.2500000000001,4,2,55,100,0,0
211674,-43.4782608695652,4,2,55,5,0,0
211718,-28.5714285714286,4,2,2,100,0,0
212071,-12,4,2,2,100,0,1
212204,-29.4117647058824,4,2,2,5,0,1
212248,-29.4117647058824,4,2,2,100,0,1
212601,-12,4,2,2,100,0,1
212733,-29.4117647058824,4,2,2,5,0,1
212777,-29.4117647058824,4,2,2,100,0,1
213130,-10,4,2,77,100,0,1
213262,-29.4117647058824,4,2,2,5,0,1
213307,-100,4,2,2,100,0,1
213483,-66.6666666666667,4,2,2,33,0,0
214659,-100,4,2,2,66,0,0
214895,-33.3333333333333,4,2,2,82,0,0
216042,-200,4,2,2,82,0,0
216307,-66.6666666666667,4,2,2,82,0,0
216659,-33.3333333333333,4,2,2,82,0,0
217012,-30.3030303030303,4,2,2,82,0,0
217365,-27.7777777777778,4,2,2,82,0,0
217718,-27.027027027027,4,2,2,82,0,0
218777,-30.3030303030303,4,2,2,82,0,0
219483,-33.3333333333333,4,2,2,82,0,0
220542,-22.2222222222222,4,2,3,90,0,0
221601,-25,4,2,2,82,0,0
222836,-33.3333333333333,4,2,2,82,0,0
224601,-50,4,2,2,82,0,0
225483,-1000,4,2,2,82,0,0
226189,-16.6666666666667,4,2,2,82,0,1
226365,-100,4,2,2,82,0,0
226542,-18.1818181818182,4,2,2,82,0,0
226718,-100,4,2,2,82,0,0
226895,-18.1818181818182,4,2,2,82,0,0
227071,-100,4,2,2,82,0,0
227248,-33.3333333333333,4,2,2,82,0,0
227424,-100,4,2,2,82,0,0
227601,-15.1515151515152,4,2,2,82,0,0
227777,-100,4,2,2,82,0,0
227954,-18.1818181818182,4,2,2,82,0,0
228130,-100,4,2,2,82,0,0
228306,-20,4,2,2,33,0,0
229012,-25,4,2,2,82,0,0
230777,-37.037037037037,4,2,2,82,0,0
230954,-66.6666666666667,4,2,2,82,0,0
231130,-18.1818181818182,4,2,2,82,0,0
231306,-100,4,2,2,82,0,0
231483,-18.1818181818182,4,2,2,82,0,0
231659,-100,4,2,2,82,0,0
231836,-22.2222222222222,4,2,3,82,0,0
232895,-25,4,2,2,82,0,0
233248,-66.6666666666667,4,2,2,82,0,0
234130,-25,4,2,2,82,0,0
234438,-25,4,2,2,82,0,0
234659,-25,4,2,2,82,0,0
235895,-50,4,2,2,82,0,0
236248,-25,4,2,2,82,0,0
236777,-100,4,2,2,66,0,0
237128,-100,4,2,3,66,0,0
237483,-100,4,2,3,66,0,1
238365,-33.3333333333333,4,2,2,66,0,1
238895,-1000,4,2,2,66,0,1
239248,-33.3333333333333,4,2,2,66,0,1
239689,-37.037037037037,4,2,2,66,0,1
239777,-41.6666666666667,4,2,2,66,0,1
239865,-47.6190476190476,4,2,2,66,0,1
239954,-55.5555555555556,4,2,2,66,0,1
240042,-66.6666666666667,4,2,2,66,0,1
240130,-83.3333333333333,4,2,2,66,0,1
240218,-111.111111111111,4,2,2,66,0,1
240306,-25,4,2,2,82,0,1
241189,-133.333333333333,4,2,2,82,0,1
241718,-16.6666666666667,4,2,2,82,0,1
242424,-100,4,2,2,82,0,1
242601,-33.3333333333333,4,2,2,82,0,1
243130,-20,4,2,3,82,0,1
245248,-100,4,2,2,82,0,1
245601,-50,4,2,2,82,0,1
245954,-20,4,2,3,82,0,1
246306,-66.6666666666667,4,2,3,82,0,1
246836,-33.3333333333333,4,2,3,82,0,1
247012,-50,4,2,3,82,0,1
248424,-200,4,2,3,82,0,1
248601,-33.3333333333333,4,2,3,82,0,1
248777,-1000,4,2,2,82,0,1
248954,-133.333333333333,4,2,2,82,0,1
250012,-66.6666666666667,4,2,2,82,0,1
250189,-133.333333333333,4,2,2,82,0,1
250365,-66.6666666666667,4,2,2,82,0,1
251601,-25,4,2,2,82,0,1
252483,-50,4,2,2,82,0,1
253012,-1000,4,2,2,82,0,1
253718,-133.333333333333,4,2,2,82,0,1
253895,-33.3333333333333,4,2,2,82,0,1
254424,-16.6666666666667,4,2,3,82,0,1
255130,-33.3333333333333,4,2,2,82,0,1
255836,-23.2558139534884,4,2,2,82,0,1
257247,-21.2765957446809,4,2,3,82,0,1
257777,-133.333333333333,4,2,2,82,0,1
258042,-50,4,2,2,82,0,1
258306,-133.333333333333,4,2,2,82,0,1
258659,-1000,4,2,2,82,0,1
260071,-10,4,2,2,77,0,1
260248,-10,4,2,2,77,0,0
268895,-200,4,2,2,14,0,0
283806,-1000,4,2,2,14,0,0

[Colours]
Combo1 : 255,67,40
Combo2 : 221,221,221
Combo3 : 253,240,0
Combo4 : 255,155,6
Combo5 : 21,115,255
Combo6 : 0,240,186
Combo7 : 208,255,174
Combo8 : 191,4,164

[HitObjects]
424,183,1871,6,2,B|439:152|431:119|431:119|414:171|358:251,1,207.999990478516,0|0,0:0|0:0,0:0:0:0:
252,303,3042,70,2,L|250:296,2,8,0|0|0,0:0|0:0|0:0,0:0:0:0:
105,151,3746,38,2,B|160:177|208:131|253:136|253:136|240:211|95:205|58:355,1,447.999986328125,0|0,0:0|0:0,0:0:0:0:
2,197,5855,70,2,L|0:190,2,8,0|0|0,0:0|0:0|0:0,0:0:0:0:
144,43,6558,38,2,B|224:7|192:76|102:153,2,191.999994140625,0|0|0,0:0|0:0|0:0,0:0:0:0:
169,346,8667,70,2,L|167:339,2,8,0|0|0,0:0|0:0|0:0,0:0:0:0:
381,243,9371,38,2,B|356:225|327:167|327:167|389:276|341:387,1,320,0|0,0:0|0:0,0:0:0:0:
461,138,11480,70,0,L|463:131,6,8
256,192,13121,12,0,14527,0:0:0:0:
4,224,14996,102,2,P|58:205|-2:201,1,160,2|0,0:0|0:0,0:0:0:0:
140,257,15699,2,2,B|174:255|197:245|234:179|298:190,1,160,2|0,0:0|0:0,0:0:0:0:
426,183,16402,2,2,P|371:172|427:164,1,160,2|0,0:0|0:0,0:0:0:0:
426,183,17105,6,0,L|384:170,1,40,2|0,0:0|0:0,0:0:0:0:
233,208,17574,2,0,L|256:218,1,20,2|0,0:0|0:0,0:0:0:0:
323,259,17808,37,2,0:0:0:0:
334,238,17925,1,2,0:0:0:0:
336,216,18042,1,2,0:0:0:0:
271,123,18277,1,2,0:0:0:0:
162,156,18511,1,2,0:0:0:0:
159,269,18746,54,2,P|143:158|104:131,1,160,2|0,0:0|0:0,0:0:0:0:
111,7,19449,2,2,P|137:116|178:175,1,160,2|0,0:0|0:0,0:0:0:0:
87,354,20152,2,2,P|68:330|162:272,1,184.000003509522
158,268,21089,53,2,0:0:0:0:
136,259,21206,1,2,0:0:0:0:
121,243,21324,1,2,0:0:0:0:
222,179,21558,1,2,0:0:0:0:
226,298,21792,1,2,0:0:0:0:
110,243,22027,1,2,0:0:0:0:
226,168,22261,1,2,0:0:0:0:
232,304,22496,54,2,P|319:282|406:273,1,160,2|0,0:0|0:0,0:0:0:0:
219,99,23199,2,2,P|259:165|218:163,1,160,2|0,0:0|0:0,0:0:0:0:
373,266,23902,2,2,P|434:215|511:196,1,160
511,196,24839,53,2,0:0:0:0:
483,192,24956,1,2,0:0:0:0:
459,179,25074,1,2,0:0:0:0:
306,236,25308,1,2,0:0:0:0:
323,212,25425,1,2,0:0:0:0:
347,197,25542,1,2,0:0:0:0:
250,333,25777,1,2,0:0:0:0:
140,310,26011,1,2,0:0:0:0:
127,198,26246,54,2,P|146:268|114:363,1,160,2|0,0:0|0:0,0:0:0:0:
44,191,26949,2,2,P|81:124|158:120,1,160,2|0,0:0|0:0,0:0:0:0:
127,198,27652,2,2,P|100:131|120:42,1,160
116,47,28589,53,2,0:0:0:0:
163,42,28706,1,2,0:0:0:0:
207,61,28824,1,2,0:0:0:0:
258,174,29058,1,2,0:0:0:0:
166,257,29292,1,2,0:0:0:0:
258,174,29527,69,2,0:0:0:0:
58,195,29761,37,2,0:0:0:0:
284,296,29996,22,0,L|305:291,1,22,2|2,1:1|0:0,0:0:0:0:
375,330,30699,1,2,0:1:0:0:
436,232,30933,6,0,P|417:157|408:145,1,80,0|0,1:0|0:0,0:0:0:0:
0,116,31402,101,2,1:0:0:0:
0,116,31636,5,2,3:3:0:0:
67,212,31871,2,0,P|48:287|39:299,1,80,0|0,1:0|3:0,0:0:0:0:
142,383,32339,2,0,P|134:368|130:353,1,20,8|0,1:2|0:0,0:0:0:0:
198,328,32456,1,2,3:3:0:0:
212,334,32574,2,0,L|200:294,1,40,0|2,3:3|3:3,0:0:0:0:
334,308,32808,2,0,P|396:262|404:249,1,80,8|0,1:2|3:0,0:0:0:0:
439,151,33160,1,2,0:3:0:0:
452,152,33277,2,0,L|439:122,1,20,8|0,1:2|3:0,3:0:0:0:
494,76,33394,1,2,3:3:0:0:
479,69,33511,1,2,3:3:0:0:
340,56,33746,102,0,L|332:35,1,22,2|2,1:1|0:0,0:0:0:0:
259,0,34449,1,2,0:1:0:0:
263,141,34683,6,0,P|297:161|335:170,1,80,0|0,1:0|3:0,0:0:0:0:
0,352,35152,101,2,1:1:0:0:
0,352,35386,5,2,3:3:0:0:
164,384,35621,2,0,P|142:349|112:326,1,80,0|0,1:0|3:0,3:0:0:0:
142,159,36089,2,0,L|134:127,1,20,8|0,1:2|3:0,0:0:0:0:
65,124,36206,1,2,0:3:0:0:
52,122,36324,2,0,L|76:78,1,40,0|2,3:0|3:0,0:0:0:0:
258,117,36558,2,0,P|297:107|329:86,1,80,8|0,1:2|3:0,0:0:0:0:
426,134,36910,1,2,3:0:0:0:
452,163,37027,2,0,P|441:201|443:239,1,80,8|2,1:2|3:0,3:0:0:0:
315,308,37496,102,0,L|300:290,1,22,2|2,1:1|0:0,0:0:0:0:
282,384,38199,1,2,0:1:0:0:
451,383,38433,6,0,P|425:351|411:316,1,80,0|2,1:0|3:0,3:0:0:0:
512,0,38902,101,2,1:0:0:0:
512,0,39136,5,2,3:3:0:0:
411,78,39371,2,0,P|336:59|324:50,1,80,0|0,1:0|3:0,0:0:0:0:
193,161,39839,2,0,P|185:146|181:131,1,20,8|0,1:2|0:0,0:0:0:0:
249,106,39956,1,2,3:3:0:0:
263,112,40074,2,0,L|251:72,1,40,0|2,3:3|3:3,0:0:0:0:
326,203,40308,2,0,P|400:222|415:220,1,80,8|0,1:2|3:0,0:0:0:0:
512,325,40660,1,2,0:3:0:0:
500,319,40777,2,0,L|500:351,1,20,8|0,1:2|3:0,3:0:0:0:
438,377,40894,1,2,3:3:0:0:
423,370,41011,1,2,3:3:0:0:
491,159,41246,102,0,L|497:180,1,22,2|2,1:1|0:0,0:0:0:0:
425,114,41949,1,2,0:1:0:0:
379,327,42183,86,10,B|458:342|523:244|351:108|154:313,1,448,0|8,1:0|3:0,1:2:0:0:
158,311,42652,22,0,L|152:296,1,16,2|0,1:1|1:0,0:0:0:0:
233,314,44527,85,2,1:3:0:0:
190,159,44761,1,4,1:3:0:0:
0,378,44996,22,2,B|-23:362|-23:362|25:350|25:350|44:306|44:306|72:350|72:350|217:310|217:310|234:313|234:313|245:302|245:302|481:241,1,575.999982421876,4|2,1:0|0:3,1:1:0:0:
320,362,45699,102,2,B|312:313|312:313|329:191,1,143.999995605469,0|0,0:0|0:0,1:0:0:0:
458,105,45933,2,2,B|466:154|466:154|449:276,1,143.999995605469,0|0,1:0|0:0,1:0:0:0:
325,219,46167,69,2,0:0:0:0:
416,383,46402,6,6,B|534:270|534:270|399:299|399:299|356:292|356:292|322:317|322:317|152:354|152:354|-39:323|-39:323|-10:137|-10:137|-14:109|-14:109|-2:80|-2:80|98:95,1,1066.66666666667,4|0,1:0|1:2,1:0:0:0:
116,7,46988,86,0,P|145:16|165:37,1,60.0000022888184,2|0,0:0|0:0,0:0:0:0:
284,75,47222,2,0,P|284:105|270:130,1,60.0000022888184,2|0,0:0|0:3,0:0:0:0:
271,255,47456,2,0,P|242:264|214:258,1,60.0000022888184,2|0,0:0|0:3,0:0:0:0:
95,298,47691,2,0,P|77:273|73:244,1,60.0000022888184,2|0,0:0|0:3,0:3:0:0:
0,144,47925,102,0,P|42:123|87:51,1,100,2|0,0:2|0:0,3:2:0:0:
75,82,48042,2,0,P|35:102|-8:174,1,100,2|0,0:2|0:0,3:2:0:0:
95,298,48277,6,0,P|144:322|220:316,1,108.000000411987,2|0,3:2|3:0,3:0:0:0:
327,384,48511,2,0,P|380:366|414:322,1,108.000000411987,2|0,0:0|3:0,0:0:0:0:
512,196,48746,70,2,P|369:78|0:152,1,575.999982421876,4|2,1:0|1:3,1:0:0:0:
0,384,49449,102,2,P|76:326|212:259,1,215.999993408203,0|0,0:0|0:0,1:0:0:0:
247,243,49683,2,2,P|323:199|463:43,1,287.999991210938,0|0,1:0|0:0,1:0:0:0:
512,258,50152,6,2,B|435:118|298:98|298:98|293:89|293:89|287:97|287:97|130:87|29:232,1,575.999982421876,0|8,1:0|0:0,1:0:0:0:
112,351,50738,86,0,B|18:339|18:339|24:286,2,120.000004577637,2|2|2,0:0|0:0|0:0,0:0:0:0:
79,280,51089,37,8,1:2:0:0:
46,210,51206,70,0,B|140:221|140:221|133:274,2,120.000004577637,2|2|2,0:0|0:0|0:0,0:0:0:0:
281,96,51558,37,8,1:2:0:0:
281,96,51675,6,0,P|234:97|163:143,1,100,2|0,0:2|0:0,3:2:0:0:
186,120,51792,2,0,P|231:118|301:72,1,100,2|0,0:2|0:0,3:2:0:0:
424,241,52027,2,0,P|325:247|238:294,1,200,10|0,1:2|0:0,0:0:0:0:
237,295,52261,2,0,P|332:287|422:241,1,200,2|0,0:2|0:0,0:0:0:0:
512,106,52496,86,2,B|486:38|486:38|138:-22|138:-22|201:159,1,575.999982421876,4|2,1:0|0:3,1:0:0:0:
318,356,53199,102,2,B|273:380|273:380|205:386|205:386|241:345,1,143.999995605469,0|0,0:0|0:0,1:0:0:0:
167,234,53433,2,2,B|210:208|210:208|278:202|278:202|242:243,1,143.999995605469,0|0,1:0|0:0,1:0:0:0:
237,295,53667,53,2,0:0:0:0:
0,110,53902,22,2,B|124:96|124:96|154:79|154:79|189:89|189:89|514:56|514:56|374:29|374:29|411:370|411:370|446:241|446:241,1,1066.66666666667,4|0,1:0|1:0,1:0:0:0:
483,237,54488,86,0,P|466:211|441:197,1,60.0000022888184,2|0,0:0|0:0,0:0:0:0:
373,92,54722,2,0,P|344:99|323:119,1,60.0000022888184,2|0,0:0|0:3,0:0:0:0:
203,151,54956,2,0,P|201:181|214:206,1,60.0000022888184,2|0,0:0|0:3,0:0:0:0:
207,332,55191,2,0,P|235:342|264:339,1,60.0000022888184,2|0,0:0|0:3,0:3:0:0:
406,290,55425,102,0,P|383:331|388:415,1,100,2|0,0:0|0:0,0:2:0:0:
380,384,55542,2,0,P|402:342|397:258,1,100,2|0,0:0|0:0,0:2:0:0:
273,226,55777,6,0,P|213:218|149:251,1,108.000000411987,2|0,1:2|3:0,3:0:0:0:
161,349,56011,2,0,P|218:355|283:323,1,108.000000411987,2|0,1:2|3:0,3:0:0:0:
380,384,56246,70,2,B|480:200|447:-8|447:-8|470:135|554:188,1,575.999982421876,4|2,1:0|0:3,1:1:0:0:
268,190,56949,102,2,P|194:176|137:114,1,143.999995605469,0|0,0:0|0:0,1:0:0:0:
8,75,57183,2,2,B|9:44|9:44|4:38|4:38|9:31|9:31|9:-4|9:-4|128:23|146:130,1,287.999991210938,0|2,1:0|0:0,1:1:0:0:
231,269,57652,6,2,B|192:321|192:321|135:122|294:35|294:35|208:117|135:133,1,575.999982421876,2|0,1:3|1:2,1:0:0:0:
28,43,58355,54,0,P|33:10|56:38,1,71.9999978027344,2|0,3:2|0:0,3:0:0:0:
58,22,58472,2,0,P|53:55|30:27,1,71.9999978027344,2|0,3:2|0:0,3:0:0:0:
249,146,58706,70,0,B|296:161|206:192|114:105,1,143.999995605469,2|0,3:2|0:0,1:0:0:0:
18,239,58941,2,0,B|-29:224|61:193|153:280,1,143.999995605469,2|0,3:2|1:2,1:0:0:0:
305,364,59175,6,2,P|258:372|181:340,1,100,2|0,0:0|0:0,1:2:0:0:
208,359,59292,2,2,P|251:350|327:378,1,100,2|0,0:0|0:0,1:2:0:0:
448,384,59527,6,0,P|450:333|400:281,1,108.000000411987,2|0,1:3|3:0,0:0:0:0:
309,240,59761,2,0,P|255:216|211:180,1,108.000000411987,2|0,3:2|0:0,3:0:0:0:
65,115,59996,70,2,B|42:99|42:99|90:87|90:87|109:43|109:43|137:87|137:87|282:47|282:47|299:50|299:50|310:39|310:39|546:-22,1,575.999982421876,4|2,1:0|0:3,1:1:0:0:
510,208,60699,102,2,L|275:269,1,215.999993408203,0|0,0:0|0:0,1:0:0:0:
235,281,60933,2,2,B|24:335|24:335|135:348,1,287.999991210938,0|2,1:0|0:0,1:0:0:0:
443,382,61402,86,2,B|478:253|478:253|2:126|2:126|-26:206|-26:206|184:40|184:40|201:180,1,1066.66666666667,4|0,1:0|1:0,1:0:0:0:
235,281,61988,5,10,0:0:0:0:
181,336,62105,1,10,0:0:0:0:
108,362,62222,2,8,P|83:356|67:348,1,40,10|2,0:0|0:3,0:0:0:0:
70,349,62456,69,10,0:0:0:0:
158,293,62574,1,10,0:0:0:0:
263,297,62691,2,8,P|302:304|349:328,1,80,10|0,0:0|1:3,0:0:0:0:
338,320,62925,101,10,0:0:0:0:
158,293,63042,1,10,0:0:0:0:
35,204,63160,2,0,P|4:140|-1:99,1,103.999995239258,10|6,0:0|0:3,0:0:0:0:
154,142,63511,22,0,B|176:145|176:145|152:153,1,40,4|0,3:0|0:0,1:0:0:0:
13,353,63746,54,2,B|202:274|202:274|250:231|250:231|412:179|412:179|288:286,1,575.999982421876,4|2,1:0|0:3,1:0:0:0:
233,384,64449,102,2,B|145:193|145:193|123:172,1,215.999993408203,0|0,0:0|0:0,1:0:0:0:
102,135,64683,2,2,B|45:-21|45:-21|139:78,1,287.999991210938,0|0,1:0|0:0,1:0:0:0:
69,285,65152,86,2,P|61:251|65:219,14,66.6666666666667,4|0|0|0|0|0|0|0|0|0|0|0|0|0|0,1:1|0:0|0:0|0:0|0:0|0:0|0:0|0:0|0:0|0:0|0:0|0:0|0:0|0:0|0:0,1:0:0:0:
0,136,65621,53,8,1:2:0:0:
0,136,65738,70,0,L|5:131,2,8,2|2|2,0:0|0:0|0:0,0:2:0:0:
136,22,66089,37,8,1:2:0:0:
136,22,66206,70,2,L|158:98,1,60.0000022888184,0|0,0:0|0:0,1:2:0:0:
166,196,66558,37,8,1:2:0:0:
166,196,66675,6,0,P|126:172|42:172,1,100,2|0,0:0|0:0,0:2:0:0:
73,166,66792,2,0,P|112:189|196:189,1,100,2|0,0:0|0:0,0:2:0:0:
326,241,67027,2,0,P|412:193|511:185,1,200,10|0,1:2|0:0,0:0:0:0:
512,185,67261,2,0,P|426:233|327:241,1,200,0|0,0:2|0:0,0:0:0:0:
246,383,67496,86,2,B|230:354|230:354|259:132|259:132|270:117|270:117|263:98|263:98|278:-4|278:-4|157:59|157:59|231:105|231:105,1,575.999982421876,4|2,1:0|0:3,1:0:0:0:
385,235,68199,102,2,B|432:253|432:253|554:262,1,143.999995605469,0|0,0:0|0:0,1:0:0:0:
368,90,68433,2,2,B|321:72|321:72|199:63,1,143.999995605469,0|0,1:0|0:0,1:0:0:0:
227,65,68667,69,2,0:0:0:0:
149,301,68902,6,2,B|37:254|37:254|-25:314|-25:314|488:159|488:159|508:56|508:56|370:256,1,1066.66666666667,4|0,1:0|3:0,1:0:0:0:
366,384,69488,5,10,0:0:0:0:
342,310,69605,1,10,0:0:0:0:
287,255,69722,2,8,P|265:240|248:233,1,40,10|2,0:0|0:3,0:0:0:0:
252,235,69956,69,10,0:0:0:0:
363,229,70074,1,10,0:0:0:0:
459,170,70191,2,8,P|488:144|517:98,1,80,10|0,0:0|1:3,0:0:0:0:
511,110,70425,101,10,0:0:0:0:
384,18,70542,1,10,0:0:0:0:
240,63,70660,2,8,P|188:53|134:35,1,103.999995239258,10|2,0:2|0:3,3:0:0:0:
384,18,71011,22,0,B|405:22|405:22|381:30,1,40,4|0,3:0|0:0,1:0:0:0:
511,110,71246,54,2,P|316:126|-46:-28,1,575.999982421876,4|2,1:0|3:0,1:0:0:0:
106,384,71949,102,2,P|212:205|261:165,1,215.999993408203,0|0,0:0|0:0,1:0:0:0:
270,157,72183,2,2,P|395:109|576:112,1,287.999991210938,0|0,1:0|0:0,1:0:0:0:
511,384,72652,86,2,P|527:352|551:330,14,66.6666666666667,4|0|0|0|0|0|0|0|0|0|0|0|0|0|0,1:1|0:0|0:0|0:0|0:0|0:0|0:0|0:0|0:0|0:0|0:0|0:0|0:0|0:0|0:0,1:0:0:0:
497,338,73121,53,2,1:3:0:0:
350,172,73355,69,0,3:0:0:0:
414,204,73472,1,0,3:0:0:0:
355,243,73589,1,2,3:0:0:0:
192,150,74058,38,2,P|150:175|100:180,1,100,2|0,3:2|0:0,1:2:0:0:
101,182,74175,2,2,P|101:132|121:86,1,100,2|0,3:2|0:0,1:2:0:0:
120,86,74292,2,2,P|163:110|193:151,1,100,2|0,3:2|0:0,1:2:0:0:
324,260,74527,6,0,P|410:308|509:316,1,200,2|2,1:2|0:0,0:0:0:0:
509,315,74703,101,2,0:0:0:0:
510,316,74761,6,0,P|433:213|325:260,1,266.666666666667,2|2,0:2|0:0,0:0:0:0:
243,312,74996,86,0,L|233:289,2,24,2|2|2,1:0|0:1|1:1,0:0:0:0:
447,42,76636,21,2,0:0:0:0:
137,172,76871,1,0,1:0:0:0:
447,42,77105,1,2,0:0:0:0:
403,214,77339,1,2,3:0:0:0:
447,42,77574,1,2,0:0:0:0:
309,103,77808,1,0,1:0:0:0:
447,42,78042,1,2,0:0:0:0:
427,116,78277,1,2,0:3:0:0:
447,42,78511,1,2,0:0:0:0:
435,306,78746,86,0,L|445:285,2,24,2|2|2,1:0|0:1|1:1,0:0:0:0:
187,60,80386,21,2,0:0:0:0:
335,384,80621,1,0,1:0:0:0:
187,60,80855,1,2,0:0:0:0:
110,182,81089,1,2,0:3:0:0:
187,60,81324,1,2,0:0:0:0:
219,226,81558,69,10,0:0:0:0:
291,192,81675,1,10,0:0:0:0:
363,158,81792,1,10,0:0:0:0:
213,210,82027,53,10,0:0:0:0:
368,173,82261,1,10,0:0:0:0:
71,356,82496,70,0,L|61:335,2,24,2|2|2,1:0|0:1|1:1,0:0:0:0:
14,295,84136,86,2,B|-63:428|-14:419|120:409|23:132|450:38|174:345|458:235|560:150,1,720,2|0,0:0|0:0,0:0:0:0:
512,366,85308,69,0,1:0:0:0:
447,329,85542,1,2,0:0:0:0:
512,366,85777,1,0,1:0:0:0:
447,329,86011,1,2,0:0:0:0:
323,376,86246,70,0,L|311:356,1,24,2|2,1:0|0:1,0:0:0:0:
395,63,87183,86,2,B|366:27|584:-77|378:91|437:166,1,240,0|0,1:0|0:0,0:0:0:0:
278,212,87652,22,0,L|293:240,1,30.0000011444092,2|0,1:1|0:0,0:0:0:0:
1,322,87886,86,2,B|-40:301|109:112|-1:354|67:376|67:376|46:207|207:4|420:42|525:128|525:128|388:212|266:41|345:153|363:160,1,1120,0|0,0:0|0:0,0:0:0:0:
136,110,89996,53,2,0:0:0:0:
324,0,90464,86,0,L|313:60,1,40
120,149,90699,21,2,0:0:0:0:
0,71,91167,86,0,L|9:118,1,40
108,192,91402,21,2,0:0:0:0:
108,192,92105,53,2,0:0:0:0:
108,192,92574,1,2,0:0:0:0:
108,192,92808,1,2,0:0:0:0:
108,192,92925,1,2,0:0:0:0:
108,192,93042,1,2,0:0:0:0:
108,192,93277,1,2,0:0:0:0:
108,192,93511,1,2,0:0:0:0:
385,306,93746,53,2,0:0:0:0:
512,50,94214,86,0,L|501:110,1,40
369,345,94449,21,2,0:0:0:0:
279,214,94917,86,0,L|290:274,1,40
353,384,95152,21,2,0:0:0:0:
51,134,95621,5,2,0:0:0:0:
51,134,96089,37,2,0:0:0:0:
51,134,96206,1,2,0:0:0:0:
51,134,96324,1,2,0:0:0:0:
51,134,96558,1,2,0:0:0:0:
51,134,96792,1,2,0:0:0:0:
51,134,97027,1,2,0:0:0:0:
51,134,97261,1,2,0:0:0:0:
252,53,97496,53,2,0:0:0:0:
151,255,97964,86,0,L|159:294,1,40
4,146,98199,102,0,B|-39:163|-28:63|130:72|105:136|193:130,1,248.00000189209,2|2,0:0|0:0,0:0:0:0:
402,49,98667,6,0,L|409:89,1,40
369,183,98902,102,0,B|403:204|516:174,1,143.999995605469,2|2,0:0|0:0,0:0:0:0:
511,176,99371,53,2,0:0:0:0:
511,176,99839,37,2,0:0:0:0:
511,176,99956,1,2,0:0:0:0:
511,176,100074,1,2,0:0:0:0:
511,176,100308,1,2,0:0:0:0:
511,176,100425,1,2,0:0:0:0:
511,176,100542,1,2,0:0:0:0:
511,176,100777,1,2,0:0:0:0:
511,176,101011,1,2,0:0:0:0:
285,306,101246,53,2,0:0:0:0:
378,116,101714,86,0,L|385:160,1,40,2|0,0:0|0:0,0:0:0:0:
430,288,101949,102,0,B|406:329|351:334|267:299,1,160,2|2,0:0|0:0,0:0:0:0:
188,159,102417,6,0,L|199:219,1,60
205,349,102652,102,0,B|179:361|129:352|93:347,1,103.999995239258,2|2,0:0|0:0,0:0:0:0:
0,384,103589,22,0,L|3:369,2,16,2|2|2,0:0|0:0|0:0,0:0:0:0:
59,266,104058,1,2,0:0:0:0:
11,292,104292,1,2,0:0:0:0:
13,109,104527,53,2,0:3:0:0:
0,157,104761,53,2,0:0:0:0:
153,91,104996,102,0,L|436:56,1,248.00000189209,2|2,1:0|0:0,0:0:0:0:
236,40,105464,21,0,0:0:0:0:
69,347,105699,86,0,L|352:312,1,248.00000189209,2|2,1:0|0:0,0:0:0:0:
429,173,106167,54,2,B|457:207|488:106|317:-35|100:17|315:103,1,360.000013732911,2|0,3:3|3:0,1:2:0:0:
277,86,106402,54,0,L|426:66,1,124.000000946045,2|0,1:0|0:0,0:0:0:0:
237,384,106636,54,2,B|138:300|1:319|-139:329|71:377,1,360.000013732911,2|0,3:3|3:0,1:2:0:0:
39,369,106871,69,0,1:0:0:0:
176,147,107105,6,0,P|78:162|-17:138,1,180.000006866455,2|0,3:2|3:3,3:3:0:0:
91,81,107339,38,0,L|92:20,4,45.0000017166138,2|0|0|0|0,1:3|0:0|0:0|0:0|0:0,0:0:0:0:
0,145,107574,70,0,P|98:130|193:154,1,180.000006866455,2|0,3:2|3:3,3:3:0:0:
311,261,107808,2,0,B|379:305|440:299|440:299|428:291,1,150.000003576279,2|0,3:2|0:0,3:0:0:0:
465,290,107925,2,0,B|467:209|430:157|430:157|428:174,1,150.000003576279,2|0,3:2|0:0,3:0:0:0:
413,139,108042,2,8,B|339:176|313:233|313:233|328:226,1,150.000003576279,2|0,3:2|0:0,3:0:0:0:
170,360,108277,2,0,B|81:391|-17:361|-17:361|37:347,1,207.999990478516,2|0,3:2|0:0,3:0:0:0:
0,356,108511,2,0,B|89:325|187:355|187:355|132:368,1,207.999990478516,2|0,3:2|0:0,3:0:0:0:
323,371,108746,86,0,L|55:338,1,248.00000189209,2|2,1:0|0:0,0:0:0:0:
120,132,109214,21,2,1:2:0:0:
246,175,109449,86,0,L|-16:143,1,248.00000189209,2|2,1:0|0:0,0:0:0:0:
403,104,109917,21,0,0:2:0:0:
512,81,110152,86,0,L|252:48,1,248.00000189209,2|2,1:0|0:0,0:0:0:0:
498,244,110621,1,2,1:0:0:0:
411,267,110738,53,2,3:2:0:0:
317,270,110855,1,2,3:2:0:0:
231,236,110972,1,2,3:2:0:0:
178,196,111089,86,2,P|218:190|300:216,1,120.000004577637,2|0,3:2|0:0,1:2:0:0:
293,211,111206,2,2,P|278:248|214:306,1,120.000004577637,2|0,3:2|0:0,1:2:0:0:
221,303,111324,2,2,P|195:271|177:187,1,120.000004577637,2|0,3:2|0:0,1:2:0:0:
319,110,111558,2,0,P|400:35|498:121,1,240.000009155274,2|0,3:2|0:0,0:0:0:0:
493,97,111792,2,0,P|374:121|278:90,1,180.000006866455,2|0,3:2|0:0,0:0:0:0:
193,110,112027,2,0,P|112:35|14:121,1,240.000009155274,2|0,3:2|0:0,0:0:0:0:
19,97,112261,2,0,P|138:121|234:90,1,180.000006866455,2|0,3:2|0:0,0:0:0:0:
278,234,112496,86,0,L|562:253,1,248.00000189209,2|0,1:0|0:0,0:0:0:0:
354,384,112964,5,2,1:3:0:0:
0,364,113199,102,0,L|234:380,1,186.000001419067,2|0,1:1|0:0,0:0:0:0:
185,376,113433,86,2,B|155:360|155:360|239:345|239:345|201:310|201:310|262:294|262:294|270:259|270:259|309:236|309:236|301:209|301:209|328:192|328:192|352:176|352:176|355:158|355:158|389:112,1,455.999987823487,8|0,1:2|0:0,1:2:0:0:
388,99,113667,1,8,0:3:0:0:
0,74,113902,22,0,L|233:90,1,186.000001419067,2|0,1:1|0:0,0:0:0:0:
141,133,114136,85,2,3:2:0:0:
210,44,114253,1,2,3:2:0:0:
386,197,114371,102,2,B|404:198|404:198|409:189|409:189|412:199|412:199|531:207|531:207|406:234,1,200,0|0,1:2|0:0,0:1:0:0:
160,287,114605,38,0,L|393:303,1,186.000001419067,2|0,1:1|0:0,0:0:0:0:
279,384,114839,22,0,P|250:227|316:106,1,180.000006866455,2|0,3:2|0:0,3:0:0:0:
253,210,114956,2,0,P|281:366|215:487,1,180.000006866455,2|0,3:2|0:0,3:0:0:0:
279,384,115074,2,0,P|250:227|316:106,1,180.000006866455,2|0,3:2|0:0,3:0:0:0:
0,104,115308,2,0,P|79:63|160:132,1,200,2|0,3:2|0:0,0:0:0:0:
158,124,115425,2,0,P|1:106|-42:76,1,164.000002502441,2|0,3:2|0:0,0:0:0:0:
0,104,115542,2,0,P|157:122|200:152,1,164.000002502441,2|0,3:2|0:0,0:0:0:0:
382,382,115777,2,0,P|460:302|483:102,1,240.000009155274,2|0,1:2|0:0,0:0:0:0:
439,45,115953,1,2,0:0:0:0:
420,38,116011,2,0,P|341:117|327:335,1,280.000002670288,2|0,3:2|0:0,0:0:0:0:
512,384,116246,86,0,L|228:365,1,248.00000189209,2|0,1:0|0:0,0:0:0:0:
70,205,116714,21,2,1:2:0:0:
241,178,116949,86,0,L|-37:163,1,248.00000189209,2|0,1:0|0:0,0:0:0:0:
429,84,117417,21,2,0:0:0:0:
512,49,117652,85,2,1:0:0:0:
474,46,117769,1,4,0:3:0:0:
437,44,117886,1,4,0:3:0:0:
400,41,118003,1,4,0:3:0:0:
363,39,118121,53,10,1:2:0:0:
496,276,118589,86,0,P|417:245|336:261,1,132.00000125885,2|0,3:2|0:0,0:0:0:0:
371,248,118706,2,0,P|383:330|438:393,1,132.00000125885,2|0,3:2|3:0,3:0:0:0:
410,369,118824,38,0,B|392:410|483:348|483:348|544:225|472:294,1,200,2|0,3:1|0:0,0:1:0:0:
96,345,119058,22,0,B|217:290|156:82|137:297|281:323,1,300.000007152558,10|0,3:2|0:0,0:0:0:0:
269,320,119292,38,0,P|151:352|54:328,1,180.000006866455,2|0,3:2|0:0,0:0:0:0:
10,128,119527,54,2,P|32:146|61:140,1,60,2|0,3:2|0:0,1:0:0:0:
61,140,119761,54,0,P|47:77|8:128,1,160,2|0,3:2|0:0,0:0:0:0:
0,327,119996,86,2,B|-23:311|-23:311|25:299|25:299|44:255|44:255|72:299|72:299|217:259|217:259|234:262|234:262|245:251|245:251|481:190,1,575.999982421876,4|2,1:0|0:3,1:1:0:0:
322,140,120699,102,2,B|373:150|373:150|479:212,1,143.999995605469,0|0,0:3|0:3,1:3:0:0:
512,58,120933,2,2,B|461:48|461:48|355:-14,1,143.999995605469,0|0,1:3|0:3,1:3:0:0:
322,140,121167,69,2,0:0:0:0:
444,299,121402,6,2,B|447:326|490:371|490:371|303:303|303:303|290:306|290:306|282:296|282:296|123:171|-64:178|-64:178|54:382|284:273,1,1066.66666666667,4|0,1:0|1:0,1:0:0:0:
194,120,121988,5,10,0:0:0:0:
97,84,122105,1,10,0:0:0:0:
0,49,122222,1,10,0:0:0:0:
252,363,122456,69,10,0:0:0:0:
130,318,122574,1,10,0:0:0:0:
9,274,122691,1,10,0:0:0:0:
512,213,122925,101,10,0:0:0:0:
359,156,123042,1,10,0:0:0:0:
212,97,123160,1,10,0:0:0:0:
241,223,123277,22,0,B|238:252|238:252|253:227,1,60.0000022888184,8|4,1:3|0:3,0:0:0:0:
478,384,123746,54,2,B|517:322|514:220|471:161|471:161|469:149|469:149|458:144|458:144|387:52|233:42|153:119,1,575.999982421876,4|2,1:0|3:0,1:0:0:0:
0,292,124449,102,2,L|200:212,1,215.999993408203,0|0,0:0|0:0,1:0:0:0:
268,183,124683,2,2,L|558:68,1,287.999991210938,0|0,1:0|0:0,1:0:0:0:
481,300,125152,6,2,P|163:379|45:324,1,431.999986816407,2|0,0:3|0:0,1:0:0:0:
19,336,125621,86,0,B|72:274|72:274|147:312,1,143.999995605469,0|0,1:0|0:0,0:0:0:0:
81,55,125855,2,0,B|90:51|90:51|103:118|103:118|-61:152,1,140.000001335144,2|0,3:2|0:0,0:0:0:0:
43,132,125972,2,0,B|34:135|34:135|21:68|21:68|185:34,1,140.000001335144,2|0,3:2|0:0,0:0:0:0:
194,136,126089,37,2,1:3:0:0:
194,136,126206,1,2,0:0:0:0:
268,195,126324,70,0,B|263:210|263:210|184:247|184:247|150:234|150:234|158:220,1,156.000000595093,2|0,3:0|0:0,0:0:0:0:
0,311,126558,102,2,B|158:220|158:220|147:233|147:233|182:247|182:247|260:212|260:212|269:194|269:194|540:135|540:135|432:261,1,760.000007247925,6|0,1:0|0:0,1:0:0:0:
449,240,127027,70,0,P|460:187|484:159,1,80,10|0,1:3|0:0,0:0:0:0:
287,81,127261,2,0,P|263:96|282:75,1,80,6|0,1:3|0:0,0:0:0:0:
23,255,127496,86,2,B|-9:274|-9:274|11:78|216:0|216:0|140:72|140:159,1,575.999982421876,4|2,1:0|0:3,1:0:0:0:
189,273,128199,102,2,P|275:332|380:321,1,215.999993408203,0|0,0:0|0:0,1:0:0:0:
438,282,128433,2,2,P|464:146|369:45,1,287.999991210938,0|0,1:0|0:0,1:0:0:0:
3,343,128902,86,2,B|1:370|1:370|85:287|85:287|17:222|17:222|38:314|38:314|242:265|315:415|518:378|518:378|515:329|449:218|449:218|432:315|432:315,1,1066.66666666667,4|0,1:0|1:3,1:3:0:0:
278,192,129488,5,10,0:0:0:0:
380,145,129605,1,10,0:0:0:0:
487,101,129722,1,10,0:0:0:0:
63,384,129956,69,10,0:0:0:0:
196,322,130074,1,10,0:0:0:0:
334,265,130191,1,10,0:0:0:0:
0,159,130425,101,10,0:0:0:0:
177,76,130542,1,10,0:0:0:0:
361,0,130660,1,10,0:0:0:0:
311,109,130777,22,0,B|318:137|318:137|299:113,1,60.0000022888184,8|4,1:3|0:3,0:0:0:0:
74,204,131246,54,2,B|53:182|53:182|243:79|243:79|362:64|362:64|261:88|172:193,1,575.999982421876,4|2,1:0|1:3,1:0:0:0:
0,342,131949,102,2,B|-27:379|-47:417|177:363,1,215.999993408203,0|0,0:0|0:0,1:0:0:0:
187,357,132183,2,10,P|360:350|483:387,1,287.999991210938,0|0,1:0|0:0,1:0:0:0:
469,380,132652,22,2,P|491:308|499:383,1,210.000008010865,2|0,0:3|0:0,1:0:0:0:
487,346,133121,54,0,B|394:250,1,60.0000022888184,0|0,2:0|2:0,2:0:0:0:
486,346,133179,2,0,B|406:263,1,50,0|0,2:0|2:0,2:0:0:0:
487,346,133238,2,0,B|429:286,1,40,0|0,2:0|2:0,2:0:0:0:
487,346,133296,2,0,B|447:305,1,30.0000011444092,0|0,2:0|2:0,2:0:0:0:
486,345,133355,2,0,B|451:310,1,20,0|0,2:0|2:0,2:0:0:0:
486,345,133413,2,0,B|473:329,1,10,0|0,2:0|2:0,2:0:0:0:
486,346,133472,2,0,B|463:322,1,6.99999978637696,0|0,2:0|2:0,2:0:0:0:
489,349,133531,2,0,B|483:343,1,5,0|0,2:0|2:0,2:0:0:0:
483,342,133589,70,0,L|470:364,1,23.9999992675781
298,200,134175,22,0,B|320:233|320:233|336:177,2,80,2|2|4,0:0|0:0|3:0,0:0:0:0:
287,8,134527,53,2,1:3:0:0:
298,102,134644,1,4,3:0:0:0:
298,200,134761,54,0,B|320:233|320:233|331:194,1,80,2|4,0:0|0:3,0:0:0:0:
308,341,134996,22,2,L|369:328,3,64
144,55,142496,70,0,B|188:68|188:68|122:75|52:109|52:109|104:56,1,240.000009155274,10|0,0:0|0:0,0:0:0:0:
41,241,142964,86,0,P|19:249|34:234,1,60.0000022888184,8|8,0:0|0:0,0:0:0:0:
132,270,143433,2,0,P|161:270|191:264,1,60.0000022888184,8|8,0:0|0:0,0:0:0:0:
473,384,144488,70,0,L|466:369,2,16,2|2|2,0:0|0:0|0:0,0:0:0:0:
405,284,144956,70,0,L|417:263,2,23.9999992675781,2|2|2,0:0|0:0|0:0,0:0:0:0:
483,186,145425,38,0,L|470:156,2,32,2|2|2,0:0|0:0|0:0,0:0:0:0:
9,173,146714,38,0,P|-12:183|9:182,1,60.0000022888184,8|8,0:0|0:0,0:0:0:0:
50,86,147183,2,0,P|70:64|95:47,1,60.0000022888184,8|8,0:0|0:0,0:0:0:0:
186,11,147652,1,8,0:0:0:0:
186,11,148121,70,2,L|203:86,1,71.9999978027344,0|0,0:0|0:0,0:0:0:0:
319,147,149058,2,2,L|336:222,1,71.9999978027344,0|0,0:0|0:0,0:0:0:0:
260,314,149996,2,2,L|265:339,1,23.9999992675781,0|0,0:0|0:0,0:0:0:0:
427,79,150464,38,0,P|420:100|415:78,1,60.0000022888184,8|8,0:0|0:0,0:0:0:0:
456,256,150933,2,0,P|440:230|430:202,1,60.0000022888184,8|8,0:0|0:0,0:0:0:0:
512,147,151402,1,8,0:0:0:0:
214,316,151988,70,0,L|222:302,2,16,2|2|2,0:0|0:0|0:0,0:0:0:0:
125,225,152456,70,0,L|149:227,2,23.9999992675781,2|2|2,0:0|0:0|0:0,0:0:0:0:
119,86,152925,38,0,L|135:113,2,32,2|2|2,0:0|0:0|0:0,0:0:0:0:
0,350,153746,70,2,P|15:324|30:313,1,47.9999985351563,0|8,0:0|0:0,0:0:0:0:
324,384,154449,86,2,L|327:377,3,8,8|8|10|10,0:0|0:0|0:0|0:0,0:0:0:0:
428,216,155621,22,2,B|215:115|341:306|23:116|146:121,1,363.999983337403,0|0,0:0|0:0,0:0:0:0:
452,13,157496,38,2,L|432:-1,1,24,4|0,3:0|0:0,0:0:0:0:
349,278,158433,70,2,L|329:264,1,24,0|0,0:0|0:0,0:0:0:0:
127,384,159371,38,2,L|125:381,3,4,0|2|2|2,0:0|0:0|0:0|0:0,0:0:0:0:
236,204,159956,70,0,L|238:194,2,10,2|2|2,0:0|0:0|0:0,0:0:0:0:
34,19,160425,38,0,L|22:-2,2,22.0000006713867,2|2|2,0:0|0:0|0:0,0:0:0:0:
0,286,161246,70,2,B|-44:331|69:301|127:263,1,167.999994873047,0|0,0:0|0:0,0:0:0:0:
426,104,163121,2,2,P|464:84|495:79,1,71.9999978027344,0|0,0:0|0:0,0:0:0:0:
223,372,164058,2,2,P|259:382|296:385,1,71.9999978027344,0|0,0:0|0:0,0:0:0:0:
188,119,164996,102,2,B|117:255|234:168|333:139|229:23|354:42|403:127|500:26,1,448,0|0,0:0|0:0,0:0:0:0:
306,322,166871,6,2,B|389:368|251:472|173:319|124:187|478:236|170:130|181:2,1,503.999984619141,0|0,0:0|2:0,0:0:0:0:
132,183,168746,38,2,P|153:209|131:187,1,120,0|0,0:0|0:0,0:1:0:0:
66,169,172496,54,0,B|143:203|247:204|247:204|125:151,1,200,10|0,0:0|0:0,0:0:0:0:
234,199,172613,2,0,B|157:165|53:164|53:164|175:217,1,200,10|0,0:0|0:0,0:0:0:0:
442,339,172964,54,0,B|398:388|398:388|443:204,2,240.000009155274,8|0|8,0:2|3:0|0:2,0:0:0:0:
159,187,174371,54,0,B|150:199|221:220|263:140|171:55,1,140.000001335144,10|0,0:0|0:0,0:0:0:0:
209,104,174488,2,0,B|175:136|241:159|326:43|266:81,1,140.000001335144,10|10,0:0|0:0,0:0:0:0:
61,365,174839,54,0,B|13:325|13:325|185:370,2,240.000009155274,8|0|8,0:2|3:0|0:2,0:0:0:0:
444,286,176246,54,0,B|462:284|445:224|364:214|301:315,1,160,10|0,0:0|0:0,0:0:0:0:
329,280,176363,2,0,B|317:285|274:328|303:421|320:409|332:340,1,160,10|10,0:0|0:0,0:0:0:0:
213,105,176714,54,0,B|134:55|134:55|164:211,2,240.000009155274,8|0|8,0:2|3:0|0:2,0:0:0:0:
43,355,178121,54,0,B|1:410|41:243|108:191,1,160,10|0,0:0|0:0,0:0:0:0:
71,235,178238,2,0,B|100:159|64:161|40:237|-33:233,1,160,10|8,0:0|0:0,0:0:0:0:
441,308,178589,54,0,B|488:354|488:354|314:331,2,240.000009155274,8|0|8,0:2|3:0|0:2,0:0:0:0:
177,384,179996,53,8,0:0:0:0:
172,377,180074,5,8,0:0:0:0:
156,353,180152,101,8,0:0:0:0:
140,309,180230,5,8,0:0:0:0:
149,231,180308,101,8,0:0:0:0:
196,163,180386,5,8,0:0:0:0:
298,126,180464,102,0,P|313:122|346:119,1,40.000001525879,8|0,0:0|0:0,0:0:0:0:
512,0,180933,54,0,B|455:52|455:52|288:12,1,240.000009155274,0|8,3:2|0:0,0:0:0:0:
5,200,181871,53,8,0:0:0:0:
12,214,181949,5,8,0:0:0:0:
49,257,182027,101,8,0:0:0:0:
106,304,182105,5,8,0:0:0:0:
197,345,182183,101,8,0:0:0:0:
311,363,182261,5,8,0:0:0:0:
422,342,182339,102,0,P|453:335|471:336,1,40,8|0,0:0|0:0,0:0:0:0:
106,304,182808,54,0,B|136:282|136:282|202:305|202:305|333:285,1,240.000009155274,0|8,3:3|0:0,0:3:0:0:
512,384,183746,53,8,0:0:0:0:
510,364,183824,5,8,0:0:0:0:
484,308,183902,101,8,0:0:0:0:
436,240,183980,5,8,0:0:0:0:
349,170,184058,101,8,0:0:0:0:
232,117,184136,5,8,0:0:0:0:
106,109,184214,102,0,P|81:107|66:103,1,40,8|0,0:0|3:0,0:0:0:0:
348,384,185152,53,8,0:0:0:0:
0,334,185621,53,8,0:0:0:0:
0,312,185699,5,8,0:0:0:0:
19,256,185777,101,8,0:0:0:0:
62,187,185855,5,8,0:0:0:0:
142,111,185933,101,8,0:0:0:0:
253,52,186011,5,8,0:0:0:0:
376,35,186089,53,2,0:0:0:0:
473,149,186206,1,2,0:0:0:0:
327,122,186324,1,2,0:0:0:0:
467,55,186441,1,2,0:0:0:0:
383,182,186558,2,0,L|375:196,1,15,2|2,0:0|0:0,0:0:0:0:
0,0,187027,53,2,0:0:0:0:
256,192,187496,12,0,190777,0:0:0:0:
23,268,192307,22,2,B|-16:359|-16:359|143:272|143:272|151:255|151:255|481:73|481:73|336:49,1,775.999989639282,0|0,1:0|0:0,3:0:0:0:
379,244,193718,70,0,L|379:222,3,17.9999994506836,2|2|2|2,0:0|0:0|0:0|0:0,0:0:0:0:
62,384,194954,21,2,1:3:0:0:
86,316,195042,1,0,1:3:0:0:
62,384,195130,54,2,B|-7:336|-7:336|44:268|115:264|149:273|149:273|133:263|133:263|150:273|150:273|243:295|264:338|363:355|462:305,1,575.999982421876,0|0,1:2|0:0,1:2:0:0:
485,15,195659,2,2,B|527:121|527:121|486:78|435:69|435:69|434:62|434:62|253:-29|202:174|71:99,1,575.999982421876,0|0,1:2|0:0,1:2:0:0:
0,291,196189,70,2,B|74:325|74:325|190:301|190:301|179:309|179:309|191:301|191:301|545:226|545:226|302:354,1,775.999989639282,0|0,1:0|0:0,1:1:0:0:
340,84,197777,101,0,1:0:0:0:
512,293,197954,6,2,B|529:354|529:354|316:191|316:191|242:204|242:204|-10:148|-10:148|113:77|113:77,1,775.999989639282,0|0,1:0|0:0,1:0:0:0:
18,310,198483,38,2,B|-7:359|-7:359|73:418|202:316|202:316|206:319|206:319|203:315|203:315|413:175|498:218,1,575.999982421876,0|0,1:0|0:0,1:2:0:0:
488,18,199012,70,0,B|494:4|494:4|367:48,1,128,0|0,1:0|2:2,2:2:0:0:
333,14,199101,6,2,B|322:58|322:58|350:111,12,60.0000022888184,0|0|0|0|0|0|0|0|0|0|0|0|0,2:0|2:0|2:0|2:0|2:0|2:0|2:0|2:0|2:0|2:0|2:0|2:0|2:0,1:0:0:0:
429,213,199718,69,0,0:0:0:0:
429,213,199895,1,0,0:0:0:0:
429,213,200071,1,0,0:0:0:0:
429,213,200248,1,0,0:0:0:0:
429,213,200424,1,0,0:0:0:0:
429,213,200601,1,0,0:0:0:0:
10,273,200777,70,6,B|-11:357|-11:357|29:313|81:303|81:303|82:296|82:296|270:200|324:395|460:339,1,575.999982421876,0|0,1:0|0:0,1:2:0:0:
459,85,201307,2,0,P|360:42|4:319,1,575.999982421876,0|0,1:0|0:0,1:0:0:0:
13,384,201836,70,2,B|-23:385|-23:385|91:347|91:347|105:335|105:335|303:271|303:271|321:272|321:272|547:202|547:202|468:284|468:284|449:248,1,775.999989639282,0|0,1:0|0:0,1:0:0:0:
402,167,202277,53,0,0:0:0:0:
412,164,202365,1,0,0:0:0:0:
422,161,202454,1,0,0:0:0:0:
432,158,202542,1,0,0:0:0:0:
442,155,202630,1,0,0:0:0:0:
452,152,202718,1,0,0:0:0:0:
462,149,202807,1,0,0:0:0:0:
472,146,202895,1,0,0:0:0:0:
482,143,202983,1,0,0:0:0:0:
494,140,203071,38,0,L|484:196,1,30.0000011444092,0|0,3:0|0:0,0:0:0:0:
502,137,203159,2,0,L|492:193,1,30.0000011444092,0|0,3:0|0:0,0:0:0:0:
511,134,203248,69,0,0:0:0:0:
512,44,203336,38,0,L|467:53,1,30.0000011444092,0|0,3:0|0:0,0:0:0:0:
510,34,203424,2,0,L|367:65,1,80,0|0,3:0|0:0,0:0:0:0:
505,24,203512,2,0,L|442:37,1,40,0|0,3:0|0:0,0:0:0:0:
510,13,203601,86,2,B|306:42|306:42|207:12|207:12|-18:46|-18:46|51:56|51:56|68:50|68:50|157:63|157:63,1,700,4|0,1:0|0:0,1:0:0:0:
143,61,203954,54,0,B|157:58|157:58|145:85,1,40,2|0,3:2|0:0,0:0:0:0:
93,191,204218,37,0,0:0:0:0:
108,184,204307,70,0,B|90:233,1,51.999997619629,2|0,3:2|0:0,0:0:0:0:
40,344,204571,37,0,0:0:0:0:
54,336,204659,70,0,B|43:365|43:365|86:351,1,64,2|0,3:2|0:0,0:0:0:0:
192,301,204924,37,0,0:0:0:0:
183,314,205012,70,0,L|263:282,1,75.9999979705811,2|0,3:2|0:0,0:0:0:0:
372,224,205277,37,0,0:0:0:0:
364,237,205365,70,0,B|407:219|407:219|360:207,1,88.000002685547,2|0,3:2|0:0,0:0:0:0:
228,174,205630,37,0,0:0:0:0:
238,185,205718,70,0,L|126:160,1,100,2|0,3:2|0:0,0:0:0:0:
16,125,205983,37,0,0:0:0:0:
27,135,206071,70,0,B|-33:122|-33:122|19:109,1,111.999996582031,2|0,3:2|0:0,0:0:0:0:
162,73,206336,37,0,0:0:0:0:
151,83,206424,6,2,B|524:-2|524:-2|330:141|330:141,1,600,4|0,1:0|0:0,1:2:0:0:
348,127,206777,54,0,L|286:170,1,62.0000004730225,2|0,3:2|0:0,0:0:0:0:
80,322,206954,54,2,B|-19:394|-19:394|497:234|497:234|482:262|482:262|366:229,1,800,4|0,1:0|0:0,1:2:0:0:
95,143,207483,2,4,B|-37:89|-37:89|186:118|346:-15|346:-15|249:122,1,700,4|0,1:0|2:0,1:2:0:0:
259,243,207836,54,0,P|259:272|322:350,1,128,2|0,3:2|0:0,0:0:0:0:
446,354,208101,38,0,L|476:364,1,32
438,369,208189,70,8,P|462:353|499:260,1,128,2|0,3:2|0:0,0:0:0:0:
440,151,208454,38,0,L|431:108,1,32
457,150,208542,70,8,P|431:137|332:151,1,128,2|0,3:2|0:0,0:0:0:0:
259,243,208807,38,0,L|250:285,1,32
276,244,208895,70,8,P|247:257|139:242,1,140.000001335144,2|0,3:2|0:0,0:0:0:0:
92,138,209159,38,0,L|83:95,1,35.000000333786
78,136,209248,6,0,B|-2:198|-2:198|99:133|211:86|336:54|470:57|470:57|346:46,1,700,4|0,1:0|0:0,0:0:0:0:
234,23,209601,54,2,B|186:23|186:23|304:40,1,151.999995941162,2|0,1:2|0:0,0:2:0:0:
358,152,209865,54,0,L|413:167,1,37.9999989852906
511,187,209954,54,2,P|475:167|352:154,1,160,2|0,1:2|0:0,0:2:0:0:
174,234,210218,38,0,L|118:249,1,40
0,275,210307,70,2,P|41:252|186:236,1,184.000003509522,2|0,1:2|0:0,0:0:0:0:
295,334,210571,54,0,L|350:349,1,45.0000017166138
493,383,210659,54,2,P|443:356|271:338,1,207.999990478516,2|0,1:2|0:0,0:0:0:0:
161,28,210924,102,0,P|155:35|161:25,1,51.999997619629
0,213,211012,6,2,P|69:197|49:55,1,232.000007080078,2|0,1:2|0:0,0:0:0:0:
451,245,211277,86,0,P|428:242|444:258,1,58.0000017700196
493,383,211365,22,2,P|374:366|308:254,1,256,2|0,1:2|0:0,0:0:0:0:
4,134,211630,38,0,P|25:139|10:142,1,64
276,117,211718,70,2,P|412:85|543:38,1,280.000002670288,2|0,1:2|0:0,0:0:0:0:
83,377,212071,54,0,B|-16:340|-16:340|93:317|93:317|106:324|106:324|419:258,1,500,4|0,1:0|2:0,1:0:0:0:
451,245,212248,5,2,1:2:0:0:
451,240,212336,1,0,0:0:0:0:
512,87,212424,1,2,1:2:0:0:
512,92,212512,1,0,0:0:0:0:
510,178,212601,102,0,B|428:144|428:144|403:142|403:142|267:88|267:88|244:87|244:87|156:52|156:52|141:39|141:39|-2:-15|-2:-15,1,500,4|0,1:0|0:0,0:0:0:0:
24,82,212777,5,2,1:2:0:0:
24,87,212865,1,0,0:0:0:0:
23,282,212954,1,2,1:2:0:0:
23,277,213042,1,0,0:0:0:0:
0,164,213130,102,0,B|-27:170|-27:170|69:207|69:207|97:210|97:210|249:270|249:270|275:271|275:271|373:310|373:310|392:328|392:328|477:360|477:360|448:322|448:322,1,600,4|0,1:0|0:0,0:0:0:0:
512,384,213307,6,0,L|490:351,2,40,0|0|0,1:0|0:0|2:0,0:0:0:0:
512,384,214189,38,0,L|479:336,1,40.000001525879,2|0,3:0|0:0,0:0:0:0:
400,333,214307,2,0,L|367:285,1,40.000001525879,2|0,3:0|0:0,0:0:0:0:
231,384,214424,37,8,3:3:0:0:
244,240,214542,1,8,3:3:0:0:
291,317,214659,21,8,3:0:0:0:
291,317,214777,1,8,3:0:0:0:
0,380,214895,70,2,B|-3:316|30:246|30:246|34:258|34:258|160:16|308:103|409:-34,1,600.000022888184,4|0,1:0|0:0,1:0:0:0:
481,95,215424,2,2,B|363:124|345:31|241:52|241:52|248:44|248:44|132:88|31:55|-55:-9|41:5,1,540.000020599366,0|0,0:2|3:0,1:0:0:0:
61,166,215954,2,0,P|54:205|29:250,1,60.0000022888184,2|0,1:0|0:0,1:0:0:0:
3,251,216042,86,0,L|-2:263,4,10
195,384,216307,38,0,L|328:374,1,120.000004577637,0|0,1:0|0:0,0:0:0:0:
512,304,216659,70,2,B|529:329|529:329|475:321|414:293,1,120.000004577637,2|0,3:2|2:0,1:2:0:0:
312,252,216836,2,2,B|253:231|160:266,1,120.000004577637,2|0,3:2|2:0,3:2:0:0:
61,328,217012,70,2,B|32:340|32:340|-4:292|73:212,1,132.00000125885,2|0,3:2|2:0,1:2:0:0:
79,114,217189,2,2,P|107:39|74:-6,1,132.00000125885,2|0,3:2|0:0,1:2:0:0:
83,0,217365,102,2,P|116:73|172:82,1,143.999995605469,2|0,3:2|0:0,1:2:0:0:
337,126,217542,2,2,B|326:142|326:142|374:149|374:149|463:91|463:91|431:66|371:118,1,215.999993408203,2|0,3:2|0:0,1:2:0:0:
512,237,217718,86,2,P|198:212|-50:43,1,591.999997741699,4|0,1:0|2:0,1:0:0:0:
195,384,218248,102,2,B|252:377|252:377|235:371|235:371|265:376|265:376|367:365,1,147.999999435425,0|0,1:0|0:0,1:0:0:0:
423,85,218424,21,0,1:0:0:0:
311,97,218512,86,2,B|368:90|368:90|351:84|351:84|381:89|381:89|422:84,1,147.999999435425,0|0,2:0|0:0,1:0:0:0:
0,304,218689,2,2,L|92:294,1,73.9999997177124,0|0,0:0|0:0,1:0:0:0:
35,347,218777,6,2,B|151:277|281:306|281:306|266:317|266:317|408:344|528:266,1,528.0000050354,4|0,1:0|3:0,3:0:0:0:
510,276,219483,86,2,B|525:301|525:301|466:299|413:275,1,120.000004577637,2|0,3:2|2:0,1:2:0:0:
319,242,219659,2,2,B|230:230|186:173|186:173|252:188|289:169,1,240.000009155274,2|2,3:2|1:2,3:2:0:0:
229,54,219924,86,0,P|221:21|256:12,1,60.0000022888184,2|0,2:2|0:0,0:0:0:0:
242,10,220012,2,0,P|249:42|215:52,1,60.0000022888184,2|0,2:0|0:0,0:0:0:0:
433,159,220189,2,0,B|383:246|407:168|375:111,1,120.000004577637,2|0,2:0|0:0,0:0:0:0:
403,40,220365,2,0,B|452:-47|428:30|460:87,1,120.000004577637,2|0,2:0|0:0,0:0:0:0:
319,242,220542,54,2,B|225:418|76:326|-35:340|-35:340|16:303|78:282|115:290|144:268|144:268|132:281|132:281|223:264|351:289|464:386|464:386|439:271|402:259,1,1080.00004119873,4|0,1:0|0:0,1:3:0:0:
512,216,221248,5,0,1:0:0:0:
417,58,221424,101,2,0:0:0:0:
469,54,221512,1,2,0:0:0:0:
511,87,221601,2,2,B|440:120|380:128|345:127|324:143|324:143|332:133|332:133|182:145|67:74|67:74|150:135|187:190,1,640,2|0,2:2|1:0,1:0:0:0:
219,279,222306,101,2,0:0:0:0:
167,285,222395,1,2,0:0:0:0:
117,272,222483,1,2,0:0:0:0:
75,241,222571,1,2,0:0:0:0:
34,207,222659,21,0,1:0:0:0:
12,371,222836,70,2,B|-11:389|-11:389|175:363,1,120.000004577637,2|0,3:2|2:0,1:2:0:0:
196,365,223012,2,2,L|353:342,1,120.000004577637,2|0,3:2|2:0,1:2:0:0:
428,333,223189,2,2,B|477:326|477:326|435:250,1,120.000004577637,2|0,3:2|2:0,1:2:0:0:
223,172,223365,22,2,B|280:78|397:55|458:72|458:72|510:51|510:51|497:117,1,360.000013732911,0|0,1:0|2:0,1:0:0:0:
380,158,223718,86,2,L|322:52,1,120.000004577637,2|0,3:2|2:0,1:2:0:0:
503,82,223895,22,2,B|446:176|329:199|268:182|268:182|216:203|216:203|229:137,1,360.000013732911,0|0,1:0|2:0,1:0:0:0:
323,53,224248,86,2,L|381:159,1,120.000004577637,2|0,3:2|2:0,1:2:0:0:
223,172,224424,22,2,B|280:78|397:55|458:72|458:72|510:51|510:51|497:117,1,360.000013732911,0|0,1:0|2:0,1:0:0:0:
446,245,224777,54,2,P|424:274|419:259,1,80,2|0,3:2|2:0,1:2:0:0:
352,373,224954,2,2,P|374:344|379:359,1,80,2|0,3:2|2:0,1:2:0:0:
119,347,225218,2,2,P|97:376|92:361,2,80,2|0|2,3:2|2:0|2:2,1:2:0:0:
14,304,225483,70,0,L|17:297,3,8,2|2|2|2,1:2|0:0|0:0|0:0,0:0:0:0:
14,304,226189,102,0,P|183:281|404:196,1,360.000013732911,4|0,1:0|2:0,1:0:0:0:
439,249,226365,2,0,P|462:251|485:261,1,40,2|0,3:2|0:0,0:0:0:0:
229,383,226542,6,0,P|154:264|168:170,1,220.000002098084,2|0,3:2|0:0,0:0:0:0:
221,86,226718,2,0,P|215:48|207:38,1,50,2|0,3:2|0:0,0:0:0:0:
0,0,226895,6,0,P|6:154|70:237,1,220.000002098084,2|0,3:2|3:0,3:0:0:0:
52,314,227071,2,0,P|27:308|2:296,1,40,2|0,3:2|3:0,3:0:0:0:
296,248,227248,6,0,B|300:183|300:183|344:326|344:326|313:299,2,240.000009155274,2|2|0,1:2|3:2|1:2,0:0:0:0:
293,8,227777,6,0,P|317:13|342:25,1,50,2|0,3:2|3:0,3:0:0:0:
512,146,227954,6,0,P|362:153|276:201,1,220.000002098084,2|0,3:2|0:0,0:0:0:0:
136,154,228130,2,0,P|156:168|179:199,1,60,2|0,3:2|0:0,0:0:0:0:
178,290,228306,6,8,P|165:290|171:292,28,50,8|8|8|8|8|8|8|8|8|8|8|8|8|8|8|8|8|8|8|8|8|8|8|8|8|8|8|8|8,1:3|1:3|1:3|1:3|1:3|1:3|1:3|1:3|1:3|1:3|1:3|1:3|1:3|1:3|1:3|1:3|1:3|1:3|1:3|1:3|1:3|1:3|1:3|1:3|1:3|1:3|1:3|1:3|1:3,1:3:0:0:
14,331,229012,6,2,B|-13:310|-13:310|43:296|43:296|66:243|66:243|100:296|100:296|239:256|239:256|251:257|251:257|260:251|260:251|517:176|517:176,1,640,4|0,1:0|2:3,1:1:0:0:
257,146,229454,5,2,3:2:0:0:
257,146,229542,6,2,P|220:8|322:48,2,320,0|0|0,1:0|1:0|2:0,1:0:0:0:
498,321,229983,5,2,0:0:0:0:
498,321,230071,6,2,B|521:305|521:305|473:293|473:293|454:249|454:249|426:293|426:293|281:253|281:253|266:253|266:253|253:245|253:245|-52:165,1,640,4|0,1:0|1:3,1:1:0:0:
74,369,230601,22,0,B|80:376|80:376|35:388|35:388|-24:363|-24:363|19:321,1,160,2|0,3:0|0:0,0:0:0:0:
4,334,230777,2,0,B|0:328|0:328|31:320|31:320|73:338|73:338|57:353,1,108.000000411987,2|0,3:0|0:0,0:0:0:0:
74,369,230954,2,0,B|54:373|54:373|29:363|29:363|39:353,1,60.0000022888184,2|0,3:0|0:0,0:0:0:0:
162,204,231130,6,0,P|278:121|381:104,1,220.000002098084,2|0,3:2|3:0,3:0:0:0:
512,147,231306,2,0,P|492:145|473:138,1,40,2|0,3:2|2:0,3:0:0:0:
351,104,231483,6,0,P|242:92|138:125,1,220.000002098084,2|0,3:2|3:0,3:0:0:0:
16,252,231659,2,0,P|32:233|43:216,1,40,2|0,3:2|2:0,3:0:0:0:
346,252,231836,6,2,B|377:281|377:281|359:284|359:284|389:288|427:342|522:351|522:351|472:197|322:199|322:199|89:193|-7:38|-7:38|80:78|136:39|136:39|111:66|111:97,1,1080.00004119873,4|0,1:0|2:3,1:3:0:0:
211,0,232542,5,0,1:0:0:0:
271,351,232718,101,2,0:0:0:0:
314,379,232806,1,2,0:0:0:0:
366,382,232895,2,2,B|404:332|421:287|426:260|442:247|442:247|433:251|433:251|469:137|388:74|388:74|467:111|509:156,1,480,2|0,2:2|2:0,1:0:0:0:
488,136,233248,54,0,P|497:114|480:127,1,60.0000022888184,0|0,1:0|0:0,0:0:0:0:
304,189,233601,37,2,0:0:0:0:
243,183,233689,1,2,0:0:0:0:
191,158,233777,1,2,0:0:0:0:
151,115,233865,1,2,0:0:0:0:
96,88,233954,21,0,1:0:0:0:
119,336,234130,70,0,B|105:281|111:220|111:220|181:292,1,160,2|0,3:0|3:0,3:0:0:0:
141,250,234306,2,0,B|195:265|245:301|245:301|148:325,1,160,2|0,3:0|3:0,3:0:0:0:
203,311,234483,2,0,B|162:350|106:375|106:375|133:279,1,200,2|0,3:0|3:0,3:0:0:0:
0,384,234659,22,2,P|214:160|556:38,1,640,0|0,1:0|2:0,1:0:0:0:
512,42,235189,2,2,P|220:155|0:384,1,640,0|0,1:0|2:0,1:0:0:0:
0,384,235718,2,2,P|314:264|522:22,1,640,0|0,1:0|2:0,1:0:0:0:
336,0,236248,86,0,B|322:55|336:102|336:102|349:74|382:46,1,160,2|0,3:0|3:0,3:0:0:0:
482,165,236601,2,0,B|496:220|482:267|482:267|469:239|436:211,1,160,2|0,3:0|3:0,3:0:0:0:
388,382,236777,86,4,L|450:365,1,53.3333333333333,4|4,3:3|3:3,3:3:0:0:
439,367,237012,2,4,L|388:382,1,53.3333333333333,4|4,3:3|3:3,3:3:0:0:
388,382,237248,2,4,L|450:365,1,53.3333333333333,4|4,3:3|3:3,3:3:0:0:
388,382,237483,53,0,1:0:0:0:
308,368,237571,1,0,0:0:0:0:
227,356,237659,1,0,0:0:0:0:
143,343,237748,1,0,0:0:0:0:
65,323,237836,5,0,1:0:0:0:
63,318,237924,1,0,0:0:0:0:
62,314,238012,1,0,0:0:0:0:
61,310,238101,1,0,0:0:0:0:
59,305,238189,102,0,L|27:318,1,20,0|0,1:0|0:0,0:0:0:0:
58,301,238277,5,0,0:0:0:0:
57,297,238365,38,0,B|93:246|138:263|138:263|111:295,1,120.000004577637,2|0,3:3|0:0,0:0:0:0:
302,259,238542,2,0,B|266:310|221:293|221:293|248:261,1,120.000004577637,2|0,3:3|0:0,0:0:0:0:
327,178,238718,2,0,B|363:127|408:144|408:144|381:176,1,120.000004577637,2|0,3:3|0:0,0:0:0:0:
458,255,238895,70,0,L|455:256,3,4,0|0|0|0,1:0|0:0|0:0|0:0,0:0:0:0:
371,16,239248,37,2,3:2:0:0:
322,27,239336,37,0,0:0:0:0:
274,38,239424,1,0,0:0:0:0:
226,49,239512,1,0,0:0:0:0:
178,60,239601,102,2,L|194:104,1,60.0000022888184
178,60,239689,2,2,L|197:107,1,54.0000002059937
178,60,239777,2,2,L|201:111,1,47.9999985351563
178,60,239865,2,2,L|204:114,1,41.9999987182618
178,59,239954,2,2,L|187:82,1,35.9999989013672
178,59,240042,2,2,L|190:85,1,30.0000011444092
178,60,240130,2,2,L|194:90,1,23.9999992675781
178,59,240218,2,0,L|188:76,1,17.9999994506836
130,70,240306,5,0,1:0:0:0:
31,62,240395,70,0,B|15:100|15:100|129:54|182:76,1,160,2|2,3:2|0:0,0:0:0:0:
260,161,240571,37,0,0:0:0:0:
359,154,240659,70,0,B|375:192|375:192|261:146|208:168,1,160,2|0,3:2|0:0,0:0:0:0:
146,298,240836,2,0,B|121:319|121:319|235:273|288:295,1,160,2|0,1:2|0:0,0:0:0:0:
372,384,241012,37,0,0:0:0:0:
406,346,241101,1,0,0:0:0:0:
430,302,241189,70,0,L|446:306,1,15.0000005722046
443,253,241277,37,0,0:0:0:0:
512,178,241365,1,0,1:0:0:0:
464,156,241454,1,0,0:0:0:0:
423,122,241542,1,0,0:0:0:0:
392,80,241630,1,0,0:0:0:0:
327,12,241718,69,0,1:0:0:0:
314,12,241806,1,0,0:0:0:0:
307,16,241895,1,0,0:0:0:0:
279,27,241983,1,0,0:0:0:0:
247,31,242071,1,0,0:0:0:0:
200,18,242159,1,0,0:0:0:0:
206,109,242248,69,0,1:0:0:0:
114,152,242336,1,0,1:0:0:0:
121,47,242424,2,0,L|144:95,1,40,0|0,1:0|0:0,0:0:0:0:
11,251,242601,102,2,B|-22:335|-22:335|10:301|50:294|50:294|51:288|51:288|196:215|236:377|341:318,1,480.000018310548,0|0,1:3|0:0,1:0:0:0:
407,213,243042,37,0,0:0:0:0:
454,222,243130,22,2,B|525:174|525:174|157:236|-38:51,1,600,4|0,1:0|0:0,1:3:0:0:
121,17,243483,21,0,1:0:0:0:
177,2,243571,1,0,0:0:0:0:
232,1,243659,1,0,0:0:0:0:
285,15,243748,1,0,0:0:0:0:
355,73,243836,69,4,1:3:0:0:
348,91,243924,1,0,0:0:0:0:
341,109,244012,1,0,0:0:0:0:
334,128,244101,1,0,0:0:0:0:
296,204,244189,69,8,1:3:0:0:
299,212,244277,1,0,0:0:0:0:
302,222,244365,1,0,0:0:0:0:
306,231,244454,1,0,0:0:0:0:
368,294,244542,85,0,1:0:0:0:
329,337,244630,1,0,0:0:0:0:
283,367,244718,1,0,0:0:0:0:
231,384,244806,1,0,0:0:0:0:
175,378,244895,1,0,1:0:0:0:
132,339,244983,1,0,0:0:0:0:
153,266,245071,21,0,1:0:0:0:
61,309,245159,1,0,1:0:0:0:
62,202,245248,6,2,L|83:237,3,40,0|0|0|0,1:0|0:0|0:0|0:0,1:0:0:0:
67,89,245601,6,2,P|97:74|96:107,3,80,0|0|0|0,2:0|0:0|0:0|0:0,1:0:0:0:
199,94,245954,6,0,P|280:98|422:52,1,200,0|0,1:0|0:0,0:0:0:0:
475,24,246130,21,2,0:0:0:0:
481,23,246218,1,2,0:0:0:0:
486,22,246306,2,2,L|488:85,1,60.0000022888184
512,188,246483,5,0,1:0:0:0:
467,234,246571,1,0,0:0:0:0:
415,271,246659,1,0,0:0:0:0:
358,298,246748,1,0,0:0:0:0:
296,315,246836,38,0,L|334:169,1,120.000004577637,2|0,0:0|0:0,0:0:0:0:
177,384,247012,2,0,L|156:326,1,40,2|0,1:2|0:0,0:0:0:0:
134,349,247101,69,0,0:0:0:0:
152,292,247189,1,0,0:0:0:0:
165,231,247277,1,0,0:0:0:0:
191,119,247365,5,2,1:0:0:0:
269,105,247454,1,0,0:0:0:0:
351,92,247542,1,0,0:0:0:0:
441,80,247630,1,0,0:0:0:0:
512,66,247718,1,0,0:0:0:0:
447,27,247806,101,0,0:0:0:0:
375,19,247895,1,0,1:0:0:0:
306,36,247983,1,0,0:0:0:0:
246,75,248071,1,0,1:0:0:0:
203,132,248159,1,0,0:0:0:0:
182,201,248248,1,0,0:0:0:0:
185,272,248336,1,0,0:0:0:0:
213,339,248424,70,2,L|232:366,1,20,8|0,0:3|0:0,0:1:0:0:
0,202,248601,2,2,P|84:238|136:283,1,120.000004577637,4|0,0:3|0:0,0:1:0:0:
292,382,248777,70,0,L|296:379,3,4,0|0|0|0,1:0|0:0|0:0|0:0,0:0:0:0:
392,363,249130,21,0,2:0:0:0:
375,306,249218,1,0,2:0:0:0:
423,272,249307,1,0,2:0:0:0:
470,307,249395,1,0,2:0:0:0:
452,364,249483,101,2,1:1:0:0:
386,305,249571,1,2,0:1:0:0:
321,247,249660,1,2,0:1:0:0:
256,189,249748,1,2,0:1:0:0:
192,131,249836,1,2,0:1:0:0:
126,73,249924,1,2,0:1:0:0:
60,18,250012,102,0,L|52:103,1,60.0000022888184,4|0,1:3|0:0,0:0:0:0:
248,218,250189,2,0,L|257:182,1,30.0000011444092,12|0,1:3|0:0,0:0:0:0:
432,0,250365,2,0,L|423:77,1,60.0000022888184,4|0,1:3|0:0,0:0:0:0:
506,131,250542,1,4,1:3:0:0:
438,154,250630,85,0,0:0:0:0:
368,142,250718,1,0,0:0:0:0:
312,97,250806,1,0,0:0:0:0:
285,31,250895,37,2,1:1:0:0:
285,31,250983,1,2,2:1:0:0:
285,31,251071,1,2,2:1:0:0:
285,31,251159,1,2,2:1:0:0:
285,31,251248,22,0,L|270:103,1,60.0000022888184,2|0,0:0|0:0,0:0:0:0:
121,0,251424,2,0,L|106:72,1,60.0000022888184,2|0,0:0|0:0,0:0:0:0:
0,192,251601,22,0,B|-24:225|-24:225|115:178,1,160,0|0,1:0|0:0,0:0:0:0:
132,308,251777,2,0,B|108:275|108:275|346:336,1,240,0|0,1:0|0:0,0:0:0:0:
403,346,251954,2,0,B|386:368|386:368|429:352|429:352|530:377,1,160,0|0,1:0|0:0,0:0:0:0:
512,283,252130,2,0,B|415:261|415:261|464:225,1,160,0|0,1:0|0:0,0:0:0:0:
511,111,252306,37,0,1:0:0:0:
456,86,252394,85,0,0:0:0:0:
416,122,252482,1,0,0:0:0:0:
342,103,252570,1,0,0:0:0:0:
278,38,252658,21,0,1:0:0:0:
237,23,252747,85,0,0:0:0:0:
171,54,252835,1,0,0:0:0:0:
117,23,252924,1,0,0:0:0:0:
69,42,253012,70,0,L|68:35,2,8,4|0|0,1:3|0:0|0:0,0:0:0:0:
133,138,253454,69,0,1:0:0:0:
89,266,253542,1,0,1:0:0:0:
0,165,253630,1,0,1:0:0:0:
133,138,253718,22,2,L|100:164,1,30.0000011444092,0|0,0:0|0:0,0:1:0:0:
0,384,253895,70,2,B|109:328|224:362|224:362|210:371|210:371|336:404|450:341,1,480.000018310548,4|0,1:0|3:0,3:0:0:0:
496,230,254336,101,0,0:0:0:0:
492,185,254424,86,2,B|396:104|294:152|294:152|306:165|306:165|196:212|94:126|94:126|162:85|248:94|344:190,1,720.000027465821,4|0,1:0|3:0,3:0:0:0:
449,364,254777,21,0,0:0:0:0:
362,341,254865,1,0,0:0:0:0:
298,279,254953,1,0,0:0:0:0:
240,216,255042,1,0,0:0:0:0:
195,144,255130,70,2,P|77:39|-25:9,1,240.000009155274,8|0,0:3|0:0,1:2:0:0:
0,12,255395,21,0,0:0:0:0:
1,15,255483,86,2,P|118:119|221:149,1,240.000009155274,8|0,0:3|0:0,1:2:0:0:
441,159,255748,37,0,0:0:0:0:
474,168,255836,6,2,B|509:257|509:257|474:221|432:213|432:213|430:207|430:207|274:128|231:302|119:239,1,516.000007873535,4|0,1:0|0:0,1:0:0:0:
1,145,256189,101,0,1:0:0:0:
69,87,256277,1,0,0:0:0:0:
168,43,256365,1,0,0:0:0:0:
264,22,256453,1,0,0:0:0:0:
362,19,256541,1,0,0:0:0:0:
459,35,256629,101,0,0:0:0:0:
456,54,256718,1,0,0:0:0:0:
453,72,256806,1,0,0:0:0:0:
381,148,256895,69,2,0:0:0:0:
381,152,256983,1,2,0:0:0:0:
382,157,257071,1,2,0:0:0:0:
382,161,257159,1,2,0:0:0:0:
495,300,257248,70,2,B|518:284|518:284|470:272|470:272|451:228|451:228|423:272|423:272|278:232|278:232|263:232|263:232|250:224|250:224|-39:151,1,563.999991394043,4|0,1:0|2:3,1:3:0:0:
36,384,257601,101,0,0:0:0:0:
131,322,257689,1,0,0:0:0:0:
226,262,257777,1,0,0:0:0:0:
321,202,257865,1,0,0:0:0:0:
417,142,257953,1,0,0:0:0:0:
512,82,258042,1,0,1:0:0:0:
401,58,258130,1,0,1:0:0:0:
291,35,258218,1,0,1:0:0:0:
181,18,258306,70,0,L|147:10,2,30.0000011444092,4|0|0,1:3|0:0|0:0,0:0:0:0:
84,93,258571,37,0,0:0:0:0:
96,136,258659,102,0,L|97:136,30,2,0|0|0|0|0|0|0|0|0|0|0|0|0|0|0|0|0|0|0|0|0|0|0|0|0|0|0|0|0|0|0,1:0|0:0|0:0|0:0|0:0|0:0|0:0|0:0|0:0|0:0|0:0|0:0|0:0|0:0|0:0|0:0|0:0|0:0|0:0|0:0|0:0|0:0|0:0|0:0|0:0|0:0|0:0|0:0|0:0|0:0|0:0,0:0:0:0:
7,268,260071,54,0,B|-5:284|-5:284|188:235|188:235|179:245|179:245|528:140|528:140|332:305,1,800,2|0,1:0|0:0,0:0:0:0:
0,368,268895,6,0,P|124:295|172:304,1,200
512,98,270659,6,0,P|383:43|362:-1,1,200
365,372,272601,6,0,P|235:346|205:386,1,200
209,4,274365,6,0,P|98:42|-1:20,1,220
50,378,276306,6,0,P|10:275|-10:278,1,160
344,193,278248,6,0,P|415:156|534:173,1,200
168,101,280012,6,0,P|185:37|108:17,1,160
147,374,281954,6,0,P|266:351|336:382,1,200
183,102,283806,6,0,P|165:95|178:83,2,44
506,281,286542,6,0,P|524:274|511:262,2,44
22,365,289365,6,0,P|4:358|17:346,2,44
73,109,293248,6,0,P|28:106|0:88,1,80
119,274,296954,6,0,P|177:151|418:56,1,408
446,311,306483,6,0,P|492:298|519:301,1,76
59,143,310189,6,0,P|13:130|-14:133,1,76
