osu file format v14

[General]
AudioFilename: audio.mp3
AudioLeadIn: 0
PreviewTime: 44882
Countdown: 0
SampleSet: Normal
StackLeniency: 0.3
Mode: 0
LetterboxInBreaks: 0
WidescreenStoryboard: 0

[Editor]
Bookmarks: 47109,168732,287553,296224
DistanceSpacing: 2
BeatDivisor: 4
GridSize: 8
TimelineZoom: 6.099996

[Metadata]
Title:Galaxy Cutter
TitleUnicode:Galaxy Cutter
Artist:hyleo & sakuraburst
ArtistUnicode:hyleo & sakuraburst
Creator:Skite59
Version:Universe
Source:
Tags:soft tech
BeatmapID:1660992
BeatmapSetID:791805

[Difficulty]
HPDrainRate:5.5
CircleSize:4
OverallDifficulty:8.2
ApproachRate:9.5
SliderMultiplier:2
SliderTickRate:1

[Events]
//Background and Video events
0,0,"bgsakura.jpg",0,0
//Break Periods
2,135200,136350
2,260620,265190
//Storyboard Layer 0 (Background)
//Storyboard Layer 1 (Fail)
//Storyboard Layer 2 (Pass)
//Storyboard Layer 3 (Foreground)
//Storyboard Sound Samples

[TimingPoints]
0,468.75,4,1,1,15,1,0
14531,-200,4,1,1,15,0,0
15000,-125,4,1,1,15,0,0
20625,-90.9090909090909,4,1,1,15,0,0
21093,-125,4,1,1,15,0,0
22500,-86.9565217391304,4,1,1,15,0,0
22968,-125,4,1,1,15,0,0
23906,-100,4,1,1,15,0,0
24257,-125,4,1,1,15,0,0
24375,-95.2380952380952,4,1,1,15,0,0
24843,-125,4,1,1,15,0,0
26250,-90.9090909090909,4,1,1,15,0,0
26953,-125,4,1,1,15,0,0
28125,-86.9565217391304,4,1,1,15,0,0
29765,-125,4,1,1,15,0,0
30000,-83.3333333333333,4,1,1,40,0,0
43125,-100,4,1,1,40,0,0
43593,-111.111111111111,4,1,1,40,0,0
44062,-125,4,1,1,40,0,0
44531,-100,4,1,1,40,0,0
45000,-66.6666666666667,4,1,1,50,0,0
46171,-43.4782608695652,4,1,1,50,0,0
46406,-50,4,1,1,50,0,0
46757,-58.8235294117647,4,1,1,50,0,0
49921,-43.4782608695652,4,1,1,50,0,0
50156,-68.0272108843537,4,1,1,50,0,0
50507,-58.8235294117647,4,1,1,50,0,0
51679,-47.6190476190476,4,1,1,50,0,0
51796,-58.8235294117647,4,1,1,50,0,0
53671,-43.4782608695652,4,1,1,50,0,0
53906,-47.6190476190476,4,1,1,50,0,0
54257,-58.8235294117647,4,1,1,50,0,0
57421,-43.4782608695652,4,1,1,50,0,0
57656,-58.8235294117647,4,1,1,50,0,0
61171,-43.4782608695652,4,1,1,50,0,0
61406,-58.8235294117647,4,1,1,50,0,0
63515,-40,4,1,1,50,0,0
63632,-58.8235294117647,4,1,1,50,0,0
64921,-40,4,1,1,50,0,0
65156,-58.8235294117647,4,1,1,50,0,0
65859,-40,4,1,1,50,0,0
65976,-58.8235294117647,4,1,1,50,0,0
66093,-83.3333333333333,4,1,1,50,0,0
66445,-58.8235294117647,4,1,1,50,0,0
66679,-47.6190476190476,4,1,1,50,0,0
66796,-58.8235294117647,4,1,1,50,0,0
68671,-43.4782608695652,4,1,1,50,0,0
68906,-58.8235294117647,4,1,1,50,0,0
71015,-40,4,1,1,50,0,0
71132,-58.8235294117647,4,1,1,50,0,0
75000,-66.6666666666667,4,1,1,50,0,0
90000,-125,4,1,1,10,0,0
104531,-125,4,1,1,40,0,0
105000,-66.6666666666667,4,1,1,50,0,0
106171,-47.6190476190476,4,1,1,50,0,0
108750,-58.8235294117647,4,1,1,50,0,0
109921,-47.6190476190476,4,1,1,50,0,0
110156,-58.8235294117647,4,1,1,50,0,0
113437,-47.6190476190476,4,1,1,50,0,0
114375,-58.8235294117647,4,1,1,50,0,0
118125,-66.6666666666667,4,1,1,50,0,0
120000,-58.8235294117647,4,1,1,50,0,0
121171,-43.4782608695652,4,1,1,50,0,0
121406,-58.8235294117647,4,1,1,50,0,0
123515,-40,4,1,1,50,0,0
123632,-58.8235294117647,4,1,1,50,0,0
128671,-43.4782608695652,4,1,1,50,0,0
128906,-58.8235294117647,4,1,1,50,0,0
131015,-40,4,1,1,50,0,0
131132,-58.8235294117647,4,1,1,50,0,0
132656,-100,4,1,1,50,0,0
133125,-100,4,1,1,10,0,0
133593,-200,4,1,1,10,0,0
134062,-66.6666666666667,4,1,1,50,0,0
136875,-133.333333333333,4,1,1,10,0,0
142500,-66.6666666666667,4,1,1,10,0,0
142951,468.75,4,1,1,30,1,0
142951,-142.857142857143,4,1,1,30,0,0
157482,-200,4,1,1,30,0,0
157540,-200,4,1,1,20,0,0
158419,-142.857142857143,4,1,1,20,0,0
161232,-105.263157894737,4,1,1,20,0,0
164982,-111.111111111111,4,1,1,20,0,0
166857,-105.263157894737,4,1,1,20,0,0
172482,-83.3333333333333,4,1,1,50,0,0
172540,-83.3333333333333,4,1,1,20,0,0
181857,-74.0740740740741,4,1,1,20,0,0
183380,-83.3333333333333,4,1,1,20,0,0
183732,-66.6666666666667,4,1,1,20,0,0
185255,-83.3333333333333,4,1,1,20,0,0
185607,-60.6060606060606,4,1,1,20,0,0
186193,-60.6060606060606,4,1,1,20,0,0
187247,-83.3333333333333,4,1,1,20,0,0
191466,-153.846153846153,4,1,1,20,0,0
192304,352.941176470588,4,1,1,50,1,0
192304,-55.5555555555556,4,1,1,50,0,0
193715,-133.333333333333,4,1,1,40,0,0
193848,-133.333333333333,4,1,1,35,0,0
193980,-133.333333333333,4,1,1,30,0,0
194112,-133.333333333333,4,1,1,25,0,0
194245,-133.333333333333,4,1,1,10,0,0
194951,-133.333333333333,4,1,1,10,0,0
195127,-66.6666666666667,4,1,1,35,0,0
195656,-62.5,4,1,1,40,0,0
196186,-43.4782608695652,4,1,1,50,0,0
197951,-62.5,4,1,1,35,0,0
198480,-55.5555555555556,4,1,1,40,0,0
199009,-39.8406374501992,4,1,1,50,0,0
199539,-100,4,1,1,10,0,0
200774,-66.6666666666667,4,1,1,40,0,0
202186,-66.6666666666667,4,1,1,50,0,0
207304,-100,4,1,1,50,0,0
207392,-66.6666666666667,4,1,1,50,0,0
213480,-133.333333333333,4,1,1,10,0,0
214186,-80,4,1,1,25,0,0
214539,-66.6666666666667,4,1,1,40,0,0
214892,-66.6666666666667,4,1,1,50,0,1
220539,-55.5555555555556,4,1,1,50,0,1
220715,-66.6666666666667,4,1,1,50,0,1
221951,-200,4,1,1,50,0,1
222215,-66.6666666666667,4,1,1,50,0,1
233245,-58.8235294117647,4,1,1,50,0,1
233509,-62.5,4,1,1,50,0,1
236774,-100,4,1,1,50,0,1
237480,-66.6666666666667,4,1,1,50,0,1
237833,-62.5,4,1,1,50,0,1
238892,-57.1428571428571,4,1,1,50,0,1
239156,-62.5,4,1,1,50,0,1
239598,-57.1428571428571,4,1,1,60,0,1
239642,-57.1428571428571,4,1,1,40,0,1
239951,-80,4,1,1,15,0,1
240215,-57.1428571428571,4,1,1,50,0,1
240303,-57.1428571428571,4,1,1,55,0,1
243127,-57.1428571428571,4,1,1,60,0,1
245951,-57.1428571428571,4,1,1,65,0,1
247274,-57.1428571428571,4,1,1,65,0,1
248774,-57.1428571428571,4,1,1,10,0,1
248862,-57.1428571428571,4,1,1,10,0,1
248951,-57.1428571428571,4,1,1,15,0,1
249039,-57.1428571428571,4,1,1,10,0,1
249127,-57.1428571428571,4,1,1,25,0,1
249215,-57.1428571428571,4,1,1,30,0,1
249303,-57.1428571428571,4,1,1,40,0,1
249392,-57.1428571428571,4,1,1,45,0,1
249480,-81.3008130081301,4,1,1,50,0,1
249921,-58.8235294117647,4,1,1,50,0,1
250892,-84.0336134453781,4,1,1,50,0,1
251156,-58.8235294117647,4,1,1,50,0,1
251421,-58.8235294117647,4,1,1,10,0,1
251509,-58.8235294117647,4,1,1,50,0,1
253009,-62.5,4,1,1,50,0,1
253892,-83.3333333333333,4,1,1,50,0,1
254156,-62.5,4,1,1,50,0,1
255480,-47.6190476190476,4,1,1,50,0,1
255745,-62.5,4,1,1,50,0,1
255833,-50,4,1,1,50,0,1
256539,-41.6666666666667,4,1,1,50,0,1
256803,-62.5,4,1,1,50,0,1
257245,-41.6666666666667,4,1,1,50,0,1
257509,-55.5555555555556,4,1,1,50,0,1
259009,-55.5555555555556,4,1,1,60,0,1
260068,-50,4,1,1,80,0,0
260421,-50,4,1,1,60,0,0
268274,-57.1428571428571,4,1,1,10,0,0
268803,468.75,4,1,1,20,1,0
268803,-200,4,1,1,20,0,0
278178,-333.333333333333,4,1,1,20,0,0
278295,-200,4,1,1,20,0,0
282865,-285.714285714284,4,1,1,20,0,0
283685,-200,4,1,1,20,0,0
302553,-333.333333333333,4,1,1,20,0,0

[Colours]
Combo1 : 119,124,162
Combo2 : 134,16,158
Combo3 : 254,169,252
Combo4 : 248,18,128
Combo5 : 113,233,242

[HitObjects]
23,31,0,6,0,P|89:27|122:51,1,100,2|0,2:0|2:0,2:0:0:0:
208,58,468,2,0,P|139:60|107:35,1,100,0|0,2:0|2:0,2:0:0:0:
57,95,937,2,0,L|49:145,2,50,0|0|0,2:0|2:0|2:0,2:0:0:0:
281,152,1406,2,0,L|261:84,2,50,0|0|0,2:0|2:0|2:0,2:0:0:0:
135,200,1875,6,0,P|201:196|234:220,1,100,2|0,2:0|2:0,2:0:0:0:
320,227,2343,2,0,P|251:229|219:204,1,100,0|0,2:0|2:0,2:0:0:0:
161,314,2812,2,0,L|169:264,2,50,0|0|0,2:0|2:0|2:0,2:0:0:0:
378,278,3281,2,0,L|386:328,2,50,0|0|0,2:0|2:0|2:0,2:0:0:0:
281,156,3750,6,0,P|347:152|380:176,1,100,2|0,2:0|2:0,2:0:0:0:
466,183,4218,2,0,P|397:185|365:160,1,100,0|0,2:0|2:0,2:0:0:0:
437,66,4687,2,0,L|424:134,2,50,0|0|0,2:0|2:0|2:0,2:0:0:0:
218,107,5156,2,0,L|205:59,2,50,0|0|0,2:0|2:0|2:0,2:0:0:0:
319,225,5625,6,0,P|250:227|218:202,1,100,2|0,2:0|2:0,2:0:0:0:
134,198,6093,2,0,P|200:194|233:218,1,100,0|0,2:0|2:0,2:0:0:0:
392,320,6562,2,0,L|372:252,2,50,0|0|0,2:0|2:0|2:0,2:0:0:0:
168,264,7031,2,0,L|160:314,2,50,0|0|0,2:0|2:0|2:0,2:0:0:0:
188,141,7500,6,0,P|254:137|287:161,1,100,2|0,2:0|2:0,2:0:0:0:
373,168,7968,2,0,P|304:170|272:145,1,100,0|0,2:0|2:0,2:0:0:0:
114,47,8437,2,0,L|134:115,2,50,0|0|0,2:0|2:0|2:0,2:0:0:0:
337,102,8906,2,0,L|346:53,2,50,0|0|0,2:0|2:0|2:0,2:0:0:0:
225,215,9375,6,0,P|156:217|124:192,1,100,2|0,2:0|2:0,2:0:0:0:
40,188,9843,2,0,P|106:184|139:208,1,100,0|0,2:0|2:0,2:0:0:0:
299,309,10312,2,0,L|279:241,2,50,0|0|0,2:0|2:0|2:0,2:0:0:0:
75,253,10781,2,0,L|67:303,2,50,0|0|0,2:0|2:0|2:0,2:0:0:0:
188,143,11250,6,0,P|257:141|289:166,1,100,2|0,2:0|2:0,2:0:0:0:
373,170,11718,2,0,P|307:174|274:150,1,100,0|0,2:0|2:0,2:0:0:0:
402,0,12187,2,0,L|390:69,1,50,0|0,2:0|2:0,2:0:0:0:
337,102,12421,1,0,2:0:0:0:
256,192,12656,12,0,14296,2:0:0:0:
256,192,14531,6,0,L|337:205,1,75,0|0,2:0|2:0,2:0:0:0:
377,134,15000,6,0,B|372:192|372:192|344:237|344:237|342:300,1,160,2|0,0:0|0:0,0:0:0:0:
291,352,15703,2,0,P|367:365|423:312,1,160
239,285,16406,2,0,B|184:282|184:282|136:298|136:298|74:282,1,160
27,227,17109,6,0,P|-2:284|4:309,1,80,2|0,0:0|0:0,0:0:0:0:
77,166,17578,1,0,0:0:0:0:
0,156,17812,1,0,0:0:0:0:
2,196,17929,1,0,0:0:0:0:
27,227,18046,1,0,0:0:0:0:
154,175,18281,1,0,0:0:0:0:
77,166,18515,1,0,0:0:0:0:
12,74,18750,6,0,B|26:70|46:88|46:88|66:75|113:81|125:99|125:99|147:85|160:91,1,160,2|0,0:0|0:0,0:0:0:0:
239,124,19453,2,0,P|231:47|166:7,1,160
154,175,20156,2,0,B|150:208|150:208|162:256|162:256|149:306,1,120
57,354,20625,6,0,P|150:322|289:357,1,220.000006713867
345,361,21210,1,0,0:0:0:0:
376,351,21327,1,0,0:0:0:0:
363,248,21562,1,0,0:0:0:0:
347,115,21797,1,0,0:0:0:0:
286,257,22031,1,0,0:0:0:0:
440,238,22265,1,0,0:0:0:0:
439,76,22500,6,0,B|385:89|385:89|318:70|318:70|265:76|265:76|354:119,1,230.000004386902,2|0,0:0|0:0,0:0:0:0:
250,170,23203,2,0,P|239:93|171:59,1,160
25,137,23906,2,0,B|70:137|70:137|119:158|119:158|170:145,1,150
124,75,24375,2,0,P|222:75|250:170,1,209.999993591309
240,208,24960,1,0,0:0:0:0:
230,247,25077,1,0,0:0:0:0:
25,137,25312,5,0,0:0:0:0:
33,179,25429,1,0,0:0:0:0:
46,224,25546,1,0,0:0:0:0:
250,170,25781,1,0,0:0:0:0:
58,269,26015,1,0,0:0:0:0:
214,95,26250,6,0,B|213:146|213:146|194:209|194:209|203:278|203:278|235:227,1,220.000006713867,2|0,0:0|0:0,0:0:0:0:
170,350,26953,2,0,P|236:360|321:305,1,160
366,158,27656,2,0,B|375:195|375:195|372:232|372:232|385:276,1,120,2|0,0:0|2:0,0:0:0:0:
314,315,28125,6,0,P|384:357|464:254,1,230.000004386902
428,266,28710,1,0,0:0:0:0:
385,276,28828,1,0,0:0:0:0:
220,249,29062,5,0,0:0:0:0:
358,151,29296,1,0,0:0:0:0:
170,350,29531,1,0,0:0:0:0:
211,71,29765,2,0,L|234:138,1,40,2|0,0:0|2:0,0:0:0:0:
314,315,30000,6,0,P|352:345|444:325,1,120,6|0,0:0|0:0,0:0:0:0:
399,217,30351,1,0,0:0:0:0:
399,217,30468,2,0,L|375:293,1,59.9999981689454
465,176,30703,2,0,P|427:146|336:171,1,119.999996337891
273,192,31054,1,0,0:0:0:0:
273,192,31171,2,0,L|205:212,1,59.9999981689454
23,224,31406,2,0,P|61:254|153:234,1,120
108,126,31875,5,0,0:0:0:0:
108,126,31992,1,0,0:0:0:0:
108,126,32109,2,0,L|84:202,1,59.9999981689454,2|0,0:0|0:0,0:0:0:0:
110,307,32343,1,0,0:0:0:0:
110,307,32460,1,0,0:0:0:0:
110,307,32577,2,0,L|129:250,1,59.9999981689454,2|0,0:0|0:0,0:0:0:0:
108,126,32812,5,0,0:0:0:0:
108,126,32929,1,0,0:0:0:0:
108,126,33046,2,0,L|84:202,1,59.9999981689454,2|0,0:0|0:0,0:0:0:0:
36,327,33281,2,0,P|51:359|86:379,1,59.9999981689454,2|0,0:0|0:0,0:0:0:0:
182,106,33515,2,0,P|167:74|132:54,1,59.9999981689454,2|0,0:0|0:0,0:0:0:0:
23,224,33750,6,0,P|61:254|153:234,1,120
108,126,34101,1,0,0:0:0:0:
108,126,34218,2,0,L|84:202,1,59.9999981689454
288,132,34453,2,0,P|250:102|158:122,1,120
202,230,34804,1,0,0:0:0:0:
202,230,34921,2,0,L|221:173,1,59.9999981689454
137,271,35156,2,0,P|175:301|265:276,1,119.999996337891
221,173,35625,5,0,0:0:0:0:
221,173,35742,1,0,0:0:0:0:
221,173,35859,2,0,L|202:230,1,59.9999981689454,2|0,0:0|0:0,0:0:0:0:
268,86,36093,1,0,0:0:0:0:
268,86,36210,1,0,0:0:0:0:
268,86,36327,2,0,L|287:29,1,59.9999981689454,2|0,0:0|0:0,0:0:0:0:
221,173,36562,1,0,0:0:0:0:
221,173,36679,1,0,0:0:0:0:
221,173,36796,2,8,L|202:230,1,59.9999981689454,2|0,0:0|0:0,0:0:0:0:
342,144,37031,6,0,P|355:117|360:88,1,59.9999981689454,2|0,0:0|0:0,0:0:0:0:
146,114,37265,2,0,P|133:141|129:171,1,59.9999981689454,2|0,0:0|0:0,0:0:0:0:
137,271,37500,6,0,P|175:301|263:278,1,119.999996337891
342,144,37851,1,0,0:0:0:0:
342,144,37968,2,0,P|329:180|329:203,1,59.9999981689454
448,116,38203,2,0,P|390:110|341:144,1,119.999996337891
428,241,38554,1,0,0:0:0:0:
428,241,38671,2,0,L|409:184,1,59.9999981689454
389,309,38906,2,0,P|450:316|496:280,1,119.999996337891
409,184,39375,5,0,0:0:0:0:
409,184,39492,1,0,0:0:0:0:
409,184,39609,2,0,L|428:241,1,59.9999981689454,2|0,0:0|0:0,0:0:0:0:
407,365,39843,1,0,0:0:0:0:
407,365,39960,1,0,0:0:0:0:
407,365,40077,2,0,L|388:308,1,59.9999981689454,2|0,0:0|0:0,0:0:0:0:
409,184,40312,1,0,0:0:0:0:
409,184,40429,1,0,0:0:0:0:
409,184,40546,2,0,L|428:241,1,59.9999981689454,2|0,0:0|0:0,0:0:0:0:
388,308,40781,6,0,L|407:365,1,59.9999981689454,2|0,0:0|0:0,0:0:0:0:
448,116,41015,2,0,L|429:59,1,59.9999981689454,2|0,0:0|0:0,0:0:0:0:
494,281,41250,6,0,P|446:314|386:307,1,119.999996337891
282,267,41601,1,0,0:0:0:0:
282,267,41718,2,0,P|249:256|206:257,1,59.9999981689454
13,242,41953,2,0,P|59:206|117:212,1,119.999996337891
98,338,42304,1,0,0:0:0:0:
98,338,42421,2,0,L|81:280,1,59.9999981689454
153,144,42656,2,0,P|112:72|112:72,1,59.9999981689454
47,34,42890,1,0,0:0:0:0:
212,56,43125,6,0,L|325:38,1,100,2|0,2:2|2:2,2:2:0:0:
267,140,43593,6,0,L|355:125,1,89.9999972534181,2|0,2:2|2:2,2:2:0:0:
325,223,44062,6,0,L|404:210,1,80,2|0,2:2|2:2,2:2:0:0:
136,194,44531,5,8,0:0:0:0:
310,39,44765,1,0,0:0:0:0:
40,47,45000,6,0,B|56:112|56:112|40:188|40:188|58:230|58:230|70:168,1,225.000008583069,4|0,0:0|2:0,0:0:0:0:
23,304,45468,2,0,P|58:312|96:302,1,75.0000028610231,8|0,0:0|0:0,0:0:0:0:
208,192,45703,2,0,P|173:184|135:194,1,75.0000028610231
167,358,45937,2,0,P|202:366|240:356,1,75.0000028610231
348,125,46171,6,0,L|324:237,1,115.000002193451
240,357,46406,6,0,B|336:328|473:337|473:337|430:333|376:303,1,300,8|0,0:0|2:0,0:0:0:0:
323,237,46875,5,2,0:0:0:0:
348,125,46992,2,2,P|306:107|255:109,1,85.0000016212464
116,320,47226,2,2,P|153:308|195:270,1,85.0000016212464
182,107,47460,1,2,0:0:0:0:
98,90,47577,1,2,0:0:0:0:
57,165,47694,1,2,0:0:0:0:
116,226,47811,1,2,0:0:0:0:
194,190,47929,2,2,L|239:190,1,42.5000008106232
267,106,48046,2,2,L|183:106,1,85.0000016212464
239,346,48281,6,2,L|339:346,1,85.0000016212464
478,220,48515,2,2,L|377:219,1,85.0000016212464
324,346,48750,6,0,P|399:356|358:217,1,255.000004863739,4|0,0:0|2:0,0:0:0:0:
320,227,49218,2,0,P|335:266|371:289,1,85.0000016212464,8|0,0:0|0:0,0:0:0:0:
411,147,49453,2,8,P|396:108|361:86,1,85.0000016212464,0|0,0:0|0:0,0:0:0:0:
407,27,49687,2,0,P|366:13|292:40,1,85.0000016212464,0|0,0:0|2:0,0:0:0:0:
150,176,49921,6,0,L|284:161,1,115.000002193451
484,139,50156,6,0,L|242:166,1,220.499989738083,8|0,0:0|2:0,0:0:0:0:
104,179,50625,2,0,L|196:170,1,85.0000016212464
122,0,50859,2,0,L|77:96,1,85.0000016212464
73,286,51093,2,0,L|171:275,1,85.0000016212464,8|0,0:0|0:0,0:0:0:0:
319,48,51328,2,0,L|234:55,1,85.0000016212464
189,171,51562,5,0,0:0:0:0:
263,163,51679,2,2,L|254:237,1,52.4999983978272
337,155,51796,2,0,L|324:260,1,85.0000016212464,2|0,0:0|0:0,0:0:0:0:
201,366,52031,2,0,P|264:328|294:329,1,85.0000016212464,10|0,0:0|0:0,0:0:0:0:
454,366,52265,2,0,P|391:328|361:329,1,85.0000016212464,2|0,0:0|0:0,0:0:0:0:
396,84,52500,6,0,B|417:146|417:146|408:225|408:225|438:262|438:262|436:229|456:191,1,255.000004863739,4|0,0:0|2:0,0:0:0:0:
487,102,52968,2,0,L|459:22,1,85.0000016212464,8|0,0:0|0:0,0:0:0:0:
309,74,53203,2,0,L|337:154,1,85.0000016212464
381,327,53437,2,0,L|288:353,1,85.0000016212464
137,293,53671,6,0,L|253:261,1,115.000002193451
450,201,53906,6,8,B|399:154|399:154|291:154|291:154|190:189|190:189|220:142,1,314.999990386963,8|0,0:0|2:0,0:0:0:0:
309,74,54375,5,0,0:0:0:0:
191,68,54492,2,0,P|151:81|122:112,1,85.0000016212464,2|0,0:0|0:0,0:0:0:0:
174,298,54726,2,2,P|215:289|248:263,1,85.0000016212464,2|10,0:0|0:0,0:0:0:0:
44,256,54960,1,2,0:0:0:0:
44,341,55077,1,2,0:0:0:0:
125,367,55194,1,2,0:0:0:0:
174,298,55311,1,2,0:0:0:0:
125,229,55429,2,2,L|157:197,1,42.5000008106232
63,173,55546,2,2,L|123:113,1,85.0000016212464
159,31,55781,6,2,L|60:31,1,85.0000016212464,10|2,0:0|0:0,0:0:0:0:
155,198,56015,2,2,L|263:198,1,85.0000016212464
435,193,56250,6,0,P|486:137|348:91,1,255.000004863739,4|0,0:0|2:0,0:0:0:0:
335,128,56718,2,0,P|375:138|415:121,1,85.0000016212464,8|0,0:0|0:0,0:0:0:0:
220,119,56953,2,0,P|219:161|240:198,1,85.0000016212464
415,267,57187,2,0,P|378:247|335:254,1,85.0000016212464
176,292,57421,6,0,L|67:326,1,115.000002193451,0|0,0:0|2:0,0:0:0:0:
337,254,57656,6,0,P|366:331|492:268,1,255.000004863739,8|0,0:0|2:0,0:0:0:0:
448,100,58125,2,0,L|431:184,1,85.0000016212464
491,274,58359,6,0,L|500:233,1,42.5000008106232,2|0,0:0|0:0,0:0:0:0:
431,183,58476,2,0,L|414:267,1,85.0000016212464,2|8,0:0|0:0,0:0:0:0:
272,376,58710,2,0,L|293:290,1,85.0000016212464,2|0,0:0|0:0,0:0:0:0:
240,86,58945,2,0,L|219:172,1,85.0000016212464
49,259,59179,6,0,L|40:218,1,42.5000008106232,2|0,0:0|0:0,0:0:0:0:
105,170,59296,2,0,L|126:253,1,85.0000016212464,2|0,0:0|0:0,0:0:0:0:
130,82,59531,2,0,P|86:80|44:101,1,85.0000016212464,10|0,0:0|0:0,0:0:0:0:
212,323,59765,2,0,P|255:316|301:277,1,85.0000016212464,2|0,0:0|0:0,0:0:0:0:
412,100,60000,6,0,P|374:81|414:168,1,255.000004863739,4|0,0:0|2:0,0:0:0:0:
491,117,60468,2,0,P|489:75|467:39,1,85.0000016212464,8|0,0:0|0:0,0:0:0:0:
410,259,60703,2,0,P|450:246|478:214,1,85.0000016212464
317,133,60937,2,0,P|277:146|238:202,1,85.0000016212464,0|0,0:0|2:0,0:0:0:0:
183,350,61171,6,0,L|307:353,1,115.000002193451
511,341,61406,6,0,B|460:354|460:354|429:342|429:342|402:356|402:356|354:329|283:348|283:348|309:357,1,255.000004863739,8|0,0:0|2:0,0:0:0:0:
183,350,61875,6,0,L|94:346,1,85.0000016212464
0,346,62109,1,0,0:0:0:0:
8,343,62226,1,0,0:0:0:0:
16,340,62343,2,0,L|63:264,1,85.0000016212464,8|0,0:0|0:0,0:0:0:0:
246,259,62578,5,0,0:0:0:0:
237,269,62695,1,0,0:0:0:0:
228,278,62812,2,0,L|139:274,1,85.0000016212464
44,129,63046,5,0,0:0:0:0:
27,120,63164,1,0,0:0:0:0:
9,110,63281,2,0,L|35:194,1,85.0000016212464,8|0,0:0|0:0,0:0:0:0:
81,13,63515,6,0,L|125:149,1,125
133,297,63750,6,0,B|199:301|199:301|279:267|279:267|385:289,1,255.000004863739,4|0,0:0|2:0,0:0:0:0:
476,260,64218,2,0,B|466:219|466:219|428:197,1,85.0000016212464,8|0,0:0|0:0,0:0:0:0:
429,52,64453,2,0,B|382:51|382:51|361:83,1,85.0000016212464
395,321,64687,2,0,B|309:303,1,85.0000016212464
116,226,64921,6,0,L|97:356,1,125
266,215,65156,6,0,B|229:266|229:266|256:58,1,255.000004863739,8|0,0:0|2:0,0:0:0:0:
153,24,65625,2,0,L|142:115,1,85.0000016212464
249,338,65859,6,0,L|267:201,1,125
278,25,66093,6,0,B|267:137|267:137|309:195,1,179.999994506836,8|0,0:0|2:0,0:0:0:0:
440,253,66562,5,0,0:0:0:0:
436,177,66679,2,2,L|363:197,1,52.4999983978272
432,102,66796,2,0,L|329:131,1,85.0000016212464,2|0,0:0|0:0,0:0:0:0:
222,230,67031,2,0,P|247:265|307:284,1,85.0000016212464,10|0,0:0|0:0,0:0:0:0:
160,98,67265,2,0,L|79:71,1,85.0000016212464,2|0,0:0|0:0,0:0:0:0:
8,219,67500,6,0,P|40:325|135:268,1,255.000004863739,4|0,0:0|2:0,0:0:0:0:
92,178,67968,2,0,L|66:259,1,85.0000016212464,8|0,0:0|0:0,0:0:0:0:
120,84,68203,2,0,L|147:3,1,85.0000016212464
66,259,68437,2,0,L|40:340,1,85.0000016212464
349,221,68671,6,0,L|238:249,1,115.000002193451
66,259,68906,6,0,B|265:208|265:208|230:262,1,255.000004863739,8|0,0:0|2:0,0:0:0:0:
196,331,69375,6,0,P|269:335|296:319,1,85.0000016212464
366,226,69609,1,0,0:0:0:0:
358,223,69726,1,0,0:0:0:0:
349,221,69843,2,0,P|343:179|319:145,1,85.0000016212464,8|0,0:0|0:0,0:0:0:0:
358,325,70078,5,0,0:0:0:0:
376,326,70195,1,0,0:0:0:0:
395,327,70312,2,0,P|433:307|458:267,1,85.0000016212464
365,38,70546,5,0,0:0:0:0:
335,35,70664,1,0,0:0:0:0:
307,35,70780,2,0,P|266:47|235:75,1,85.0000016212464,8|0,0:0|0:0,0:0:0:0:
128,282,71015,6,0,B|136:308|133:345|133:345|141:308|163:282,1,125
235,75,71250,6,0,B|157:90|90:26|16:55|16:55|53:71,1,255.000004863739,4|0,0:0|2:0,0:0:0:0:
26,156,71718,2,0,P|96:142|111:128,1,85.0000016212464,8|0,0:0|0:0,0:0:0:0:
313,53,71953,2,0,P|243:67|228:81,1,85.0000016212464
104,134,72187,2,0,B|182:119|249:183|323:154|323:154|286:138,1,255.000004863739,0|0,0:0|2:0,0:0:0:0:
148,227,72656,6,0,P|197:326|279:252,1,255.000004863739,8|0,0:0|2:0,0:0:0:0:
372,175,73125,2,0,L|294:141,1,85.0000016212464
279,252,73359,1,0,0:0:0:0:
315,271,73476,1,0,0:0:0:0:
351,289,73593,1,8,0:0:0:0:
190,316,73828,6,0,L|202:340,4,21.2500004053116
166,65,74062,6,0,L|126:80,1,42.5000008106232
87,114,74179,2,0,L|126:97,1,42.5000008106232
185,120,74296,2,0,L|106:151,1,85.0000016212464
389,217,74531,2,0,P|379:258|351:289,1,85.0000016212464,2|0,0:0|0:0,0:0:0:0:
254,76,74765,2,0,P|214:90|185:120,1,85.0000016212464,2|0,0:0|0:0,0:0:0:0:
92,326,75000,6,0,B|193:360|193:360|190:316,1,150.000005722046,6|0,0:0|0:0,0:0:0:0:
184,120,75468,2,0,L|210:198,1,75.0000028610231,8|0,0:0|0:0,0:0:0:0:
287,305,75703,2,0,B|290:349|290:349|190:316,1,150.000005722046
463,93,76171,2,0,L|437:171,1,75.0000028610231
384,294,76406,2,0,B|484:327|484:327|481:283,1,150.000005722046,10|0,0:0|0:0,0:0:0:0:
340,100,76875,6,0,B|272:72|272:72|186:83,1,150.000005722046,2|0,0:0|0:0,0:0:0:0:
53,58,77343,2,0,B|124:89|124:89|206:80,1,150.000005722046,10|0,0:0|0:0,0:0:0:0:
258,160,77812,2,0,L|226:316,1,150.000005722046,2|0,0:0|0:0,0:0:0:0:
340,100,78281,2,0,B|272:72|272:72|196:81,1,150.000005722046,10|0,0:0|0:0,0:0:0:0:
227,306,78750,6,0,B|298:339|298:339|369:337,1,150.000005722046,6|0,0:0|0:0,0:0:0:0:
511,368,79218,2,0,B|479:348|479:348|443:339,1,75.0000028610231,8|0,0:0|0:0,0:0:0:0:
315,248,79453,2,0,L|339:100,1,150.000005722046
85,275,79921,2,0,B|116:294|116:294|166:303,1,75.0000028610231
339,100,80156,2,0,L|315:248,1,150.000005722046,10|0,0:0|0:0,0:0:0:0:
369,337,80625,6,0,B|298:339|298:339|227:306,1,150.000005722046,2|0,0:0|0:0,0:0:0:0:
83,274,81093,2,0,B|150:305|150:305|237:306,1,150.000005722046,10|0,0:0|0:0,0:0:0:0:
192,144,81562,5,2,0:0:0:0:
184,174,81679,1,2,0:0:0:0:
177,205,81796,1,2,0:0:0:0:
226,305,82031,1,10,0:0:0:0:
410,100,82265,1,2,0:0:0:0:
142,44,82500,6,0,B|72:70|72:70|32:134,1,150.000005722046,6|0,0:0|0:0,0:0:0:0:
222,17,82968,2,0,B|219:54|219:54|245:115,1,75.0000028610231,8|0,0:0|0:0,0:0:0:0:
296,198,83203,2,0,B|362:158|362:158|383:87,1,150.000005722046
227,242,83671,2,0,B|256:271|256:271|313:288,1,75.0000028610231
472,193,83906,2,0,B|448:120|448:120|381:87,1,150.000005722046,10|0,0:0|0:0,0:0:0:0:
206,94,84375,6,0,L|230:262,1,150.000005722046,2|0,0:0|0:0,0:0:0:0:
318,338,84843,2,0,L|169:359,1,150.000005722046,10|0,0:0|0:0,0:0:0:0:
57,115,85312,2,0,L|81:283,1,150.000005722046,2|0,0:0|0:0,0:0:0:0:
20,380,85780,2,0,L|169:359,1,150.000005722046,10|0,0:0|0:0,0:0:0:0:
354,336,86250,6,0,B|419:251|419:251|377:239,1,150.000005722046,6|0,0:0|0:0,0:0:0:0:
137,204,86718,2,0,L|211:197,1,75.0000028610231,8|0,0:0|0:0,0:0:0:0:
402,141,86953,2,0,B|336:226|336:226|377:239,1,150.000005722046
193,43,87421,2,0,L|239:102,1,75.0000028610231
212,198,87656,2,0,B|280:115|280:115|239:102,1,150.000005722046,10|0,0:0|0:0,0:0:0:0:
0,80,88125,6,0,B|71:110|71:110|155:98,1,150.000005722046,2|0,0:0|0:0,0:0:0:0:
384,100,88593,2,0,B|308:82|308:82|228:106,1,150.000005722046,10|0,0:0|0:0,0:0:0:0:
6,213,89062,2,0,B|76:245|76:245|161:231,1,150.000005722046,2|0,0:0|0:0,0:0:0:0:
313,173,89531,2,0,L|301:338,1,150.000005722046,10|0,0:0|0:0,0:0:0:0:
302,322,90000,5,2,0:0:0:0:
470,45,90468,1,0,0:0:0:0:
470,45,90703,2,0,B|433:37|433:37|385:40,1,80
344,122,91171,1,0,0:0:0:0:
344,122,91406,2,0,B|381:130|381:130|429:127,1,80
390,39,91875,1,0,0:0:0:0:
294,40,92109,1,0,0:0:0:0:
344,122,92343,1,0,0:0:0:0:
391,38,92578,1,0,0:0:0:0:
294,40,92812,5,0,0:0:0:0:
275,55,92929,1,0,0:0:0:0:
256,71,93046,1,0,0:0:0:0:
159,73,93281,1,0,0:0:0:0:
61,71,93515,1,0,0:0:0:0:
59,240,93750,6,0,B|100:248|100:248|139:246,1,80,2|0,0:0|0:0,0:0:0:0:
237,247,94218,1,0,0:0:0:0:
187,163,94453,2,0,B|147:154|147:154|108:156,1,80,2|0,0:0|0:0,0:0:0:0:
138,246,94921,1,0,0:0:0:0:
237,247,95156,5,0,0:0:0:0:
187,331,95390,1,0,0:0:0:0:
108,156,95625,5,2,0:0:0:0:
187,331,95859,1,0,0:0:0:0:
237,247,96093,5,0,0:0:0:0:
256,262,96210,1,0,0:0:0:0:
275,278,96327,1,0,0:0:0:0:
325,194,96562,1,0,0:0:0:0:
373,280,96796,1,0,0:0:0:0:
275,278,97031,1,0,0:0:0:0:
325,194,97265,1,0,0:0:0:0:
421,366,97500,6,0,P|458:332|466:290,1,80,2|0,0:0|0:0,0:0:0:0:
373,280,97968,1,0,0:0:0:0:
325,194,98203,2,0,P|288:228|280:270,1,80
373,280,98671,1,0,0:0:0:0:
465,304,98906,1,0,0:0:0:0:
280,255,99140,1,0,0:0:0:0:
369,132,99375,6,0,P|332:166|324:208,1,80,2|0,0:0|0:0,0:0:0:0:
413,70,99843,1,0,0:0:0:0:
376,55,99960,1,0,0:0:0:0:
337,61,100077,1,0,0:0:0:0:
280,255,100312,1,0,0:0:0:0:
308,269,100429,1,0,0:0:0:0:
341,267,100546,1,0,0:0:0:0:
413,70,100781,1,0,0:0:0:0:
280,255,101015,1,0,0:0:0:0:
187,48,101250,6,0,L|159:132,1,80,2|0,0:0|0:0,0:0:0:0:
438,145,101718,1,0,0:0:0:0:
413,70,101953,2,0,L|441:154,1,80
135,198,102421,1,0,0:0:0:0:
161,123,102656,2,0,L|133:207,1,80
280,255,103125,1,2,2:0:0:0:
198,303,103359,1,0,2:0:0:0:
116,351,103593,5,0,0:0:0:0:
76,343,103710,1,0,0:0:0:0:
37,335,103827,1,0,0:0:0:0:
280,255,104062,1,0,0:0:0:0:
161,123,104296,2,0,L|146:114,4,10
304,100,104531,6,0,P|323:87|353:79,1,40,8|0,0:0|2:0,0:0:0:0:
404,166,104765,2,0,P|383:166|355:170,1,40,0|0,0:0|2:0,0:0:0:0:
503,14,105000,6,0,B|518:65|503:123|439:150|400:137|400:137|410:201,1,225.000008583069,6|0,0:0|2:0,0:0:0:0:
467,265,105468,2,0,P|431:283|364:270,1,75.0000028610231,8|0,0:0|0:0,0:0:0:0:
404,166,105703,2,0,P|366:167|334:185,1,75.0000028610231
280,288,105937,1,0,0:0:0:0:
248,304,106054,1,0,0:0:0:0:
212,307,106171,6,0,B|164:290|164:290|94:293,1,104.999996795654
64,181,106406,2,0,B|25:218|25:218|4:265,1,104.999996795654,8|0,0:0|0:2,0:2:0:0:
196,89,106640,2,0,B|176:134|176:134|182:207,1,104.999996795654
177,339,106875,2,0,B|129:322|129:322|59:325,1,104.999996795654
324,350,107109,6,0,L|363:232,1,104.999996795654
474,102,107343,2,0,L|435:220,1,104.999996795654,8|0,0:0|0:0,0:0:0:0:
284,372,107578,6,0,L|323:254,1,104.999996795654
375,101,107812,1,0,0:0:0:0:
342,73,107929,1,0,0:0:0:0:
328,114,108046,2,0,L|216:145,1,104.999996795654
56,231,108281,2,0,L|168:200,1,104.999996795654,8|0,0:0|0:0,0:0:0:0:
272,31,108515,2,0,L|160:62,1,104.999996795654
36,112,108750,6,0,B|123:99|123:99|179:57|179:57|281:29,1,255.000004863739,6|0,0:0|2:0,0:0:0:0:
362,21,109218,2,0,P|355:70|330:103,1,85.0000016212464,8|0,0:0|0:0,0:0:0:0:
234,160,109453,2,0,P|241:209|266:242,1,85.0000016212464
448,131,109687,1,0,0:0:0:0:
447,166,109804,1,0,0:0:0:0:
434,199,109921,6,0,B|397:234|397:234|367:297,1,104.999996795654
278,359,110156,6,0,B|161:380|126:303|64:341|64:341|109:350,1,255.000004863739,8|0,0:0|2:0,0:0:0:0:
254,242,110625,2,0,B|246:264|233:283|233:283|247:266|268:256,1,85.0000016212464
136,242,110859,1,0,0:0:0:0:
139,229,110976,1,0,0:0:0:0:
149,229,111093,1,8,0:0:0:0:
146,243,111210,2,0,L|162:285,1,42.5000008106232,2|0,0:0|0:0,0:0:0:0:
66,268,111327,2,0,L|96:347,1,85.0000016212464,2|0,0:0|0:0,0:0:0:0:
6,126,111562,6,0,L|89:143,1,85.0000016212464,2|0,0:0|0:0,0:0:0:0:
315,22,111796,2,0,L|281:100,1,85.0000016212464,2|0,0:0|0:0,0:0:0:0:
342,290,112031,2,0,L|257:290,1,85.0000016212464,10|0,0:0|0:0,0:0:0:0:
281,100,112265,2,0,L|366:100,1,85.0000016212464,2|0,0:0|0:0,0:0:0:0:
502,177,112500,6,0,B|402:177|402:177|349:197|349:197|243:197,1,255.000004863739,6|0,0:0|2:0,0:0:0:0:
88,196,112968,2,0,L|181:196,1,85.0000016212464,8|0,0:0|0:0,0:0:0:0:
8,308,113203,2,0,L|101:308,1,85.0000016212464
54,114,113437,6,0,L|166:114,1,104.999996795654
112,347,113672,2,0,L|228:347,1,104.999996795654
139,72,113906,2,0,L|244:72,1,104.999996795654,8|0,0:0|0:0,0:0:0:0:
242,326,114140,2,0,L|352:326,1,104.999996795654
372,61,114375,6,0,B|452:66|505:180|505:180|475:163|384:160,1,255.000004863739,0|0,0:0|2:0,0:0:0:0:
283,182,114843,1,8,0:0:0:0:
289,234,114960,1,0,0:0:0:0:
319,273,115078,2,0,P|356:295|398:298,1,85.0000016212464
285,68,115312,1,0,0:0:0:0:
243,72,115429,1,0,0:0:0:0:
212,97,115547,2,0,P|186:124|172:180,1,85.0000016212464
78,145,115781,2,0,P|75:182|100:234,1,85.0000016212464,8|0,0:0|0:0,0:0:0:0:
10,276,116015,2,0,P|34:304|87:322,1,85.0000016212464
214,323,116250,6,0,B|408:278|408:278|348:326,1,255.000004863739,6|0,0:0|2:0,0:0:0:0:
414,197,116718,2,0,L|296:224,1,85.0000016212464,8|0,0:0|0:0,0:0:0:0:
426,364,116953,2,0,L|503:300,1,85.0000016212464
499,182,117187,2,0,P|484:145|414:111,1,85.0000016212464
332,216,117421,2,0,L|450:189,1,85.0000016212464
248,232,117656,1,8,0:0:0:0:
261,264,117773,1,8,0:0:0:0:
286,289,117890,1,8,0:0:0:0:
319,302,118007,1,8,0:0:0:0:
355,300,118125,6,0,B|402:289|402:289|436:294|436:294|464:275|464:275|514:265,1,150.000005722046,2|0,0:0|2:0,0:0:0:0:
90,319,118593,5,0,0:0:0:0:
78,329,118710,1,0,0:0:0:0:
72,343,118828,2,0,P|89:367|133:339,1,75.0000028610231
248,232,119062,5,8,0:0:0:0:
256,209,119179,1,8,0:0:0:0:
253,187,119297,2,8,P|212:166|173:233,1,75.0000028610231
148,45,119531,5,8,0:0:0:0:
115,35,119648,1,8,0:0:0:0:
81,40,119766,2,8,P|52:93|98:138,1,75.0000028610231
141,322,120000,6,0,B|224:316|224:316|297:343|297:343|341:332|341:332|282:310,1,255.000004863739,6|0,0:0|2:0,0:0:0:0:
273,162,120468,2,0,P|259:196|275:267,1,85.0000016212464,8|0,0:0|0:0,0:0:0:0:
406,384,120703,2,0,P|420:350|404:279,1,85.0000016212464
394,83,120937,2,0,B|306:83|306:83,1,85.0000016212464,0|0,0:0|2:0,0:0:0:0:
142,39,121171,6,0,B|196:164|196:164,1,115.000002193451,0|0,0:0|2:0,0:0:0:0:
295,315,121406,6,0,B|339:331|339:331|295:342|295:342|222:315|222:315|139:321,1,255.000004863739,8|0,0:0|2:0,0:0:0:0:
52,328,121875,6,0,L|140:320,1,85.0000016212464
225,228,122109,1,0,0:0:0:0:
242,232,122226,1,0,0:0:0:0:
261,236,122343,2,0,L|211:161,1,85.0000016212464,8|0,0:0|0:0,0:0:0:0:
60,128,122578,5,0,0:0:0:0:
53,155,122695,1,0,0:0:0:0:
47,182,122812,2,0,L|135:174,1,85.0000016212464
180,19,123046,5,0,0:0:0:0:
222,12,123164,1,0,0:0:0:0:
260,6,123281,2,0,L|236:90,1,85.0000016212464,8|0,0:0|0:0,0:0:0:0:
131,175,123515,6,0,P|100:228|95:290,1,125
3,58,123750,6,0,P|60:36|125:181,1,255.000004863739,4|0,0:0|2:0,0:0:0:0:
95,290,124218,2,0,P|145:294|181:281,1,85.0000016212464,8|0,0:0|0:0,0:0:0:0:
237,88,124453,2,0,L|260:172,1,85.0000016212464
318,320,124687,2,0,P|362:330|414:297,1,85.0000016212464,0|0,0:0|2:0,0:0:0:0:
497,273,124921,2,0,P|486:233|455:206,1,85.0000016212464,0|0,0:0|2:0,0:0:0:0:
397,63,125156,6,0,P|351:103|461:203,1,255.000004863739,8|0,0:0|2:0,0:0:0:0:
506,105,125625,2,0,L|425:135,1,85.0000016212464
455,206,125859,6,0,L|494:191,1,42.5000008106232,2|0,0:0|0:0,0:0:0:0:
426,134,125976,2,0,L|467:120,1,42.5000008106232,2|0,0:0|0:0,0:0:0:0:
397,63,126093,2,0,L|316:93,1,85.0000016212464,10|0,0:0|0:0,0:0:0:0:
146,195,126328,2,0,L|227:225,1,85.0000016212464,2|0,0:0|0:0,0:0:0:0:
397,327,126562,2,0,L|316:357,1,85.0000016212464,2|0,0:0|0:0,0:0:0:0:
305,195,126796,2,0,L|224:225,1,85.0000016212464,2|0,0:0|0:0,0:0:0:0:
25,263,127030,2,0,L|106:293,1,85.0000016212464,2|0,0:0|0:0,0:0:0:0:
5,55,127265,2,0,L|41:133,1,85.0000016212464,2|0,0:0|0:0,0:0:0:0:
146,195,127500,6,0,B|224:225|224:225|318:190|318:190|396:211,1,255.000004863739,6|0,0:0|2:0,0:0:0:0:
456,317,127968,2,0,L|472:234,1,85.0000016212464,8|0,0:0|0:0,0:0:0:0:
453,48,128203,2,0,L|437:131,1,85.0000016212464
302,361,128437,2,8,L|317:277,1,85.0000016212464,0|0,0:0|0:0,0:0:0:0:
124,128,128671,6,0,B|213:162|213:162|233:157,1,115.000002193451
386,208,128906,6,0,B|318:190|318:190|224:225|224:225|146:195,1,255.000004863739,6|0,0:0|2:0,0:0:0:0:
60,102,129375,6,0,P|24:150|19:201,1,85.0000016212464
1,326,129609,1,0,0:0:0:0:
4,341,129726,1,0,0:0:0:0:
7,353,129843,2,0,P|41:329|62:292,1,85.0000016212464,8|0,0:0|0:0,0:0:0:0:
191,62,130078,5,0,0:0:0:0:
183,44,130195,1,0,0:0:0:0:
174,27,130312,2,0,P|151:62|148:104,1,85.0000016212464
170,303,130546,5,0,0:0:0:0:
171,336,130664,1,0,0:0:0:0:
181,362,130781,2,0,P|211:340|235:296,1,85.0000016212464,8|0,0:0|0:0,0:0:0:0:
311,125,131015,6,0,B|334:105|342:73|342:73|334:105|351:152,1,125
395,308,131250,6,0,B|382:365|382:365|514:335|514:335|467:272,1,255.000004863739,6|0,0:0|2:0,0:0:0:0:
454,204,131718,2,0,L|352:229,1,85.0000016212464,8|0,0:0|0:0,0:0:0:0:
140,294,131953,2,0,L|223:274,1,85.0000016212464
213,186,132187,2,0,B|226:129|226:129|180:138|180:138,1,85.0000016212464,0|0,0:0|2:0,0:0:0:0:
102,158,132421,2,0,B|71:166|71:166|105:210,1,85.0000016212464,0|0,0:0|2:0,0:0:0:0:
201,56,132656,6,0,B|158:65|158:65|127:54|127:54|104:77|104:77|48:90,1,150,8|0,0:0|2:0,0:0:0:0:
12,107,133125,6,0,L|-8:125,6,25
24,176,133593,6,0,L|32:253,1,75,0|0,0:0|2:0,0:0:0:0:
30,346,134062,5,2,0:0:0:0:
94,321,134179,1,2,0:0:0:0:
159,296,134296,2,0,L|231:316,1,75.0000028610231,2|0,0:0|0:0,0:0:0:0:
31,250,134531,5,10,0:0:0:0:
95,225,134648,1,2,0:0:0:0:
160,200,134765,2,0,L|232:220,1,75.0000028610231,2|0,0:0|0:0,0:0:0:0:
389,264,135000,5,4,0:0:0:0:
256,191,136875,6,0,P|219:254|326:177,1,450.000017166138,0|0,2:2|2:2,2:2:0:0:
157,193,138750,6,0,P|203:30|255:191,1,450.000017166138,0|0,2:2|2:2,2:2:0:0:
256,192,140507,12,4,142500,0:0:0:0:
256,192,142951,6,0,L|252:273,1,69.9999978637696,0|0,2:2|2:2,2:2:0:0:
207,341,143419,1,0,2:2:0:0:
207,341,143654,2,0,B|119:308|31:349,1,174.999994659424,0|0,2:2|2:2,2:2:0:0:
24,313,144357,6,0,L|5:272,3,34.9999989318848,0|0|0|0,2:2|2:2|2:2|2:2,2:2:0:0:
81,240,144826,2,0,L|100:199,3,34.9999989318848,0|0|0|0,2:2|2:2|2:2|2:2,2:2:0:0:
30,128,145294,2,0,L|11:87,3,34.9999989318848,0|0|0|0,2:2|2:2|2:2|2:2,2:2:0:0:
24,313,146232,5,0,2:2:0:0:
24,313,146701,1,0,2:2:0:0:
81,240,146935,1,0,2:2:0:0:
30,128,147169,1,0,2:2:0:0:
87,55,147404,1,0,2:2:0:0:
178,67,147638,1,0,2:2:0:0:
295,319,148107,6,0,B|387:292|451:361|451:361|473:273|336:246|404:127|404:127|396:159|411:198|411:198,1,489.999985046387,0|0,2:0|2:0,2:0:0:0:
446,53,149982,6,0,P|412:43|366:51,1,69.9999978637696,0|0,2:0|2:0,2:0:0:0:
178,67,150451,1,0,2:2:0:0:
217,151,150685,1,0,2:2:0:0:
211,358,150919,1,0,2:2:0:0:
295,319,151154,1,0,2:2:0:0:
388,328,151388,2,0,L|465:248,1,104.999996795654,0|0,2:2|2:2,2:2:0:0:
426,205,151857,6,0,L|386:182,3,34.9999989318848,0|0|0|0,2:2|2:2|2:2|2:2,2:2:0:0:
256,235,152326,2,0,L|225:252,3,34.9999989318848,0|0|0|0,2:2|2:2|2:2|2:2,2:2:0:0:
55,282,152794,2,0,L|95:305,3,34.9999989318848,0|0|0|0,2:2|2:2|2:2|2:2,2:2:0:0:
242,166,153732,6,0,L|257:241,1,69.9999978637696,0|0,2:0|2:0,2:0:0:0:
388,328,154201,1,0,2:2:0:0:
426,205,154435,1,0,2:2:0:0:
256,235,154669,1,0,2:2:0:0:
388,328,154904,1,0,2:2:0:0:
55,282,155138,1,0,2:2:0:0:
256,192,155255,12,0,157247,2:2:0:0:
290,67,157482,6,0,B|354:99|418:35|466:67,1,175,4|0,0:0|2:2,2:2:0:0:
432,138,158419,2,0,P|451:163|321:249,1,244.999992523194,0|0,2:2|2:2,2:2:0:0:
381,196,159357,2,0,L|351:173,3,34.9999989318848,0|0|0|0,2:2|2:2|2:2|2:2,2:2:0:0:
250,202,159826,2,0,L|216:218,3,34.9999989318848,0|0|0|0,2:2|2:2|2:2|2:2,2:2:0:0:
30,129,160294,2,0,L|72:112,3,34.9999989318848,0|0|0|0,2:2|2:2|2:2|2:2,2:2:0:0:
296,277,161232,6,0,B|279:221|314:154|314:154|362:209|403:268|377:326|359:361|311:381|260:359|227:353|210:292|216:217|216:217|152:267|76:254,1,712.499980974198,0|0,2:2|2:2,2:2:0:0:
70,168,163107,6,0,P|149:169|54:51,1,332.499991121292,0|0,2:2|2:2,2:2:0:0:
112,103,164044,2,0,B|231:142|303:59|381:86|381:86|364:91|326:114,1,332.499991121292,0|0,2:2|2:2,2:2:0:0:
301,183,164982,6,0,B|285:241|299:302|299:302|346:137|451:151|531:228|496:299|470:347|392:362|392:362|428:311|405:263|405:263|386:280,1,674.999979400635,0|0,2:2|2:2,2:2:0:0:
299,302,166857,2,0,P|278:316|252:337,3,47.4999987316132,0|0|0|0,2:2|2:2|2:2|2:2,2:2:0:0:
123,270,167326,2,0,P|144:284|170:305,3,47.4999987316132,0|0|0|0,2:2|2:2|2:2|2:2,2:2:0:0:
68,102,167794,2,0,P|47:116|21:137,3,47.4999987316132,0|0|0|0,2:2|2:2|2:2|2:2,2:2:0:0:
286,121,168732,6,0,B|258:172|280:245|280:245|337:200|389:150|374:88|363:50|320:21|266:33|232:33|204:89|196:164|196:164|142:103|65:101,1,712.499980974198,0|0,2:2|2:2,2:2:0:0:
93,221,170607,2,0,L|82:274,2,47.4999987316132,0|0|0,2:2|2:2|2:2,2:2:0:0:
67,101,171076,5,8,2:0:0:0:
61,78,171193,1,0,2:0:0:0:
56,56,171310,1,0,2:0:0:0:
93,221,171544,1,0,2:0:0:0:
196,164,171779,1,0,2:0:0:0:
217,344,172013,1,0,2:0:0:0:
363,236,172247,2,0,L|372:218,3,15.8333329105377,0|0|0|0,2:0|2:0|2:0|2:0,2:0:0:0:
341,323,172482,6,0,P|313:312|292:292,2,59.9999981689454,4|0|0,0:0|0:0|0:0,0:0:0:0:
443,172,172951,2,0,P|391:138|331:145,1,119.999996337891
184,179,173419,1,0,0:0:0:0:
291,291,173654,1,8,2:0:0:0:
335,142,173888,1,0,0:0:0:0:
335,142,174005,2,0,L|318:82,1,59.9999981689454
115,37,174357,5,4,0:0:0:0:
92,44,174474,1,0,0:0:0:0:
70,51,174591,1,0,0:0:0:0:
184,179,174826,6,0,L|170:303,1,119.999996337891
234,349,175177,1,0,0:0:0:0:
234,349,175294,1,0,0:0:0:0:
49,305,175529,1,8,2:0:0:0:
291,291,175763,1,0,0:0:0:0:
291,291,175880,2,0,L|361:284,1,59.9999981689454
406,23,176232,5,4,0:0:0:0:
429,30,176349,1,0,0:0:0:0:
451,37,176466,1,0,0:0:0:0:
337,165,176701,2,0,L|351:289,1,119.999996337891
230,296,177169,1,0,0:0:0:0:
470,272,177404,1,8,2:0:0:0:
350,284,177638,1,0,0:0:0:0:
350,284,177755,2,0,L|360:355,1,59.9999981689454
328,105,178107,5,4,0:0:0:0:
311,110,178224,1,0,0:0:0:0:
293,115,178341,1,0,0:0:0:0:
186,227,178576,2,0,L|172:103,1,119.999996337891
236,70,178927,1,0,0:0:0:0:
236,70,179044,1,0,0:0:0:0:
51,101,179279,1,8,2:0:0:0:
186,227,179513,1,0,0:0:0:0:
186,227,179630,2,0,L|196:298,1,59.9999981689454
142,36,179982,5,4,0:0:0:0:
142,36,180060,2,0,L|98:13,5,39.9999987792969,0|0|0|0|0|0,2:0|2:0|2:0|2:0|2:0|2:0,2:0:0:0:
293,115,180919,5,4,0:0:0:0:
186,227,181154,1,8,2:0:0:0:
293,115,181388,1,0,0:0:0:0:
293,115,181505,2,0,L|322:190,1,59.9999981689454
51,101,181857,5,4,0:0:0:0:
51,101,181935,2,0,L|0:118,5,45.0000001716614,0|0|0|0|0|0,2:0|2:0|2:0|2:0|2:0|2:0,2:0:0:0:
257,119,182560,5,0,0:0:0:0:
275,117,182677,1,0,0:0:0:0:
293,115,182794,1,4,0:0:0:0:
296,269,183029,1,8,2:0:0:0:
293,115,183263,1,0,0:0:0:0:
293,115,183380,2,0,L|366:147,1,59.9999981689454
45,226,183732,5,4,0:0:0:0:
45,226,183810,2,0,L|16:280,5,50.0000019073487,0|0|0|0|0|0,2:0|2:0|2:0|2:0|2:0|2:0,2:0:0:0:
347,139,184552,5,0,0:0:0:0:
347,139,184669,1,4,0:0:0:0:
459,246,184904,1,8,2:0:0:0:
347,139,185138,1,0,0:0:0:0:
347,139,185255,2,0,L|422:110,1,59.9999981689454
129,319,185607,5,4,1:0:0:0:
129,319,185685,2,0,L|147:375,5,55.0000005245209,0|0|0|0|0|0,2:0|2:0|2:0|2:0|2:0|2:0,2:0:0:0:
259,280,186193,6,0,L|240:360,1,82.5000007867813
285,183,186427,1,0,0:0:0:0:
311,86,186544,2,0,B|384:72|436:29|436:29|427:55,1,165.000001573563
116,37,187013,5,0,0:0:0:0:
61,148,187247,2,0,L|44:160,8,14.9999995422363,0|0|0|0|0|0|0|0|4,2:0|2:0|2:0|2:0|2:0|2:0|2:0|2:0|2:0,2:0:0:0:
256,192,187599,12,0,190763,0:0:0:0:
233,131,191466,6,0,B|169:118|99:139,1,129.999994049073,0|0,2:2|2:2,2:2:0:0:
74,148,192304,6,0,B|45:107|42:52|42:52|24:143|84:215|45:306,1,359.999989013672,6|0,0:0|2:2,0:0:0:0:
224,302,193715,6,0,L|158:317,6,56.2500021457673,0|0|0|0|0|0|0,2:0|2:0|2:0|2:0|2:0|2:0|2:0,2:0:0:0:
374,369,194951,5,0,0:0:0:0:
374,369,195039,1,0,0:0:0:0:
374,369,195127,2,0,P|407:310|224:305,1,375.000014305115,0|0,0:0|2:0,0:0:0:0:
223,302,195656,6,0,P|363:207|369:372,1,400,0|0,0:0|2:0,0:0:0:0:
374,369,196186,6,0,P|385:194|234:327,1,460.000008773804,4|0,0:0|2:0,0:0:0:0:
146,300,197774,5,8,0:0:0:0:
224,300,197951,2,0,P|189:235|186:367,1,400,2|0,0:0|2:0,0:0:0:0:
146,299,198480,6,0,B|120:232|188:84|188:84|261:235|223:301,1,449.99998626709,0|0,0:0|2:0,0:0:0:0:
223,299,199009,6,0,B|261:235|188:57|188:57|120:232|147:302,1,502.000003063965,4|0,0:0|2:0,0:0:0:0:
312,334,199539,5,0,2:2:0:0:
392,354,199715,1,0,2:2:0:0:
456,300,199892,1,0,2:2:0:0:
371,264,200068,1,0,2:2:0:0:
404,164,200244,1,0,2:2:0:0:
494,217,200421,1,0,2:2:0:0:
456,300,200598,1,0,2:2:0:0:
371,264,200774,6,0,B|450:30|450:30|411:117|338:116,1,375.000014305115,6|0,0:0|2:0,0:0:0:0:
355,20,201304,2,0,B|289:49|242:22|191:32|191:32|227:54|226:93,1,225.000008583069,0|0,0:0|2:0,0:0:0:0:
150,101,201656,2,2,L|132:134,2,37.5000014305115
142,259,201833,2,0,B|101:92|101:92|141:146,1,225.000008583069,4|0,0:0|2:2,0:0:0:0:
170,260,202186,5,0,2:0:0:0:
142,259,202274,1,0,2:0:0:0:
116,264,202362,1,0,2:0:0:0:
95,279,202450,1,0,2:0:0:0:
82,301,202538,1,0,2:0:0:0:
79,327,202626,1,0,2:0:0:0:
87,352,202715,1,0,2:0:0:0:
104,371,202803,1,0,2:0:0:0:
128,381,202892,6,0,B|161:368|161:368|205:366,1,75.0000028610231,0|0,2:0|2:0,2:0:0:0:
357,343,203068,1,0,2:0:0:0:
386,320,203156,1,0,2:0:0:0:
406,288,203244,1,0,2:0:0:0:
409,251,203332,1,0,2:0:0:0:
398,214,203421,1,0,2:0:0:0:
373,186,203509,1,0,2:0:0:0:
339,172,203598,6,0,B|270:172|270:172|199:113|199:113|212:79,1,187.500007152558,6|0,0:0|0:0,0:0:0:0:
302,84,203951,2,0,B|377:84,1,75.0000028610231,14|0,0:0|0:0,0:0:0:0:
109,63,204127,5,0,0:0:0:0:
109,63,204215,1,0,0:0:0:0:
109,63,204304,2,0,L|141:158,1,75.0000028610231,8|0,0:0|0:0,0:0:0:0:
412,172,204480,1,0,0:0:0:0:
412,172,204568,1,0,0:0:0:0:
412,172,204656,2,0,L|380:267,1,75.0000028610231,8|0,0:0|0:0,0:0:0:0:
58,135,204833,1,0,0:0:0:0:
58,135,204921,1,0,0:0:0:0:
58,135,205009,6,0,L|90:230,1,75.0000028610231,8|0,0:0|0:0,0:0:0:0:
338,171,205186,1,0,0:0:0:0:
338,171,205274,1,0,0:0:0:0:
338,171,205362,2,0,L|306:266,1,75.0000028610231,8|0,0:0|0:0,0:0:0:0:
7,207,205539,1,0,0:0:0:0:
7,207,205627,1,0,0:0:0:0:
7,207,205715,2,0,L|39:302,1,75.0000028610231,8|0,0:0|0:0,0:0:0:0:
264,170,205892,1,0,0:0:0:0:
264,170,205980,1,0,0:0:0:0:
264,170,206068,6,0,L|232:265,1,75.0000028610231,8|0,0:0|0:0,0:0:0:0:
109,63,206245,1,0,0:0:0:0:
109,63,206333,1,0,0:0:0:0:
109,63,206421,6,0,L|141:158,1,75.0000028610231,6|0,0:0|0:0,0:0:0:0:
264,312,206598,1,0,0:0:0:0:
289,315,206686,1,0,0:0:0:0:
315,319,206774,1,8,0:0:0:0:
341,322,206862,1,0,0:0:0:0:
367,326,206951,2,0,B|219:356|219:356|196:335|196:335|151:346,1,225.000008583069,6|0,0:0|0:0,0:0:0:0:
30,277,207304,2,0,L|79:267,1,50,8|0,0:0|0:0,0:0:0:0:
337,154,207480,6,0,B|264:174|264:174|224:49|224:49|205:69,1,225.000008583069,14|0,0:0|0:0,0:0:0:0:
109,63,207833,2,0,L|132:134,1,75.0000028610231,8|0,0:0|0:0,0:0:0:0:
313,82,208009,1,0,0:0:0:0:
313,82,208098,1,0,0:0:0:0:
313,82,208186,2,0,L|337:154,1,75.0000028610231,8|0,0:0|0:0,0:0:0:0:
62,183,208362,1,0,0:0:0:0:
62,183,208451,1,0,0:0:0:0:
62,183,208539,6,0,L|86:255,1,75.0000028610231,10|0,0:0|0:0,0:0:0:0:
263,168,208715,2,0,L|286:239,1,75.0000028610231,2|0,0:0|0:0,0:0:0:0:
313,82,208892,1,8,0:0:0:0:
338,85,208980,1,8,0:0:0:0:
364,89,209068,1,8,0:0:0:0:
390,92,209156,1,8,0:0:0:0:
416,95,209245,6,0,B|490:8|490:8|477:128,1,225.000008583069,6|0,0:0|0:0,0:0:0:0:
463,218,209597,1,10,0:0:0:0:
456,244,209685,1,0,0:0:0:0:
442,265,209773,1,0,0:0:0:0:
420,279,209862,1,0,0:0:0:0:
394,285,209950,5,10,0:0:0:0:
368,280,210038,1,0,0:0:0:0:
346,267,210126,1,0,0:0:0:0:
330,246,210215,1,0,0:0:0:0:
323,221,210304,5,10,0:0:0:0:
316,196,210392,1,0,0:0:0:0:
300,175,210481,1,0,0:0:0:0:
278,162,210569,1,0,0:0:0:0:
252,157,210657,5,10,0:0:0:0:
226,163,210745,1,0,0:0:0:0:
204,177,210834,1,0,0:0:0:0:
190,198,210922,1,0,0:0:0:0:
183,224,211009,5,10,0:0:0:0:
187,250,211098,1,0,0:0:0:0:
189,273,211186,1,0,0:0:0:0:
192,307,211274,1,0,0:0:0:0:
171,336,211362,5,10,0:0:0:0:
140,355,211450,1,0,0:0:0:0:
105,359,211538,1,0,0:0:0:0:
71,349,211627,1,0,0:0:0:0:
43,326,211715,5,10,0:0:0:0:
27,294,211803,1,0,0:0:0:0:
27,258,211891,1,0,0:0:0:0:
38,225,211980,1,0,0:0:0:0:
63,199,212068,5,10,0:0:0:0:
147,18,212245,1,10,0:0:0:0:
203,177,212421,1,10,0:0:0:0:
38,225,212598,1,10,0:0:0:0:
302,40,212774,1,10,0:0:0:0:
174,95,212950,1,10,0:0:0:0:
368,280,213127,1,10,0:0:0:0:
203,177,213304,1,10,0:0:0:0:
27,258,213480,6,8,L|15:323,5,50.0000019073487,8|8|8|8|8|8,3:0|3:0|3:0|3:0|3:0|3:0,3:0:0:0:
101,151,214186,6,8,L|116:260,2,83.3333333333333,8|8|10,0:0|0:0|0:0,0:0:0:0:
38,29,214539,6,8,L|-2:142,2,100.000003814697,10|8|8,3:0|3:0|3:0,3:0:0:0:
223,98,214892,6,0,P|288:86|374:110,1,150.000005722046,4|0,0:0|0:0,0:0:0:0:
502,161,215245,1,0,0:0:0:0:
482,18,215421,1,0,0:0:0:0:
368,107,215598,2,0,B|335:174|335:174|358:264,1,150.000005722046,8|0,0:0|0:0,0:0:0:0:
490,375,215951,2,0,B|428:364|428:364|341:377|341:377|251:359,1,225.000008583069,0|0,0:0|2:0,0:0:0:0:
167,242,216304,6,0,B|175:300|175:300|97:381,2,150.000005722046
66,40,216833,1,0,0:0:0:0:
116,233,217009,1,8,0:0:0:0:
206,103,217186,1,0,0:0:0:0:
13,153,217362,1,0,0:0:0:0:
236,93,217539,1,0,0:0:0:0:
35,335,217715,6,0,P|107:367|188:325,1,150.000005722046,4|0,0:0|0:0,0:0:0:0:
323,182,218068,1,0,0:0:0:0:
173,110,218245,1,0,0:0:0:0:
176,308,218421,1,8,0:0:0:0:
384,138,218598,2,2,L|314:188,1,75.0000028610231
176,308,218774,2,0,P|241:275|312:295,1,150.000005722046
408,360,219127,5,0,2:0:0:0:
417,368,219480,1,0,0:0:0:0:
384,138,219656,1,0,0:0:0:0:
312,295,219833,2,0,L|374:252,1,75.0000028610231,10|0,0:0|0:0,0:0:0:0:
478,204,220009,2,0,L|510:272,1,75.0000028610231,2|0,0:0|0:0,0:0:0:0:
290,72,220186,2,0,L|228:115,1,75.0000028610231,2|0,0:0|0:0,0:0:0:0:
275,282,220362,2,0,L|337:239,1,75.0000028610231,2|0,0:0|0:0,0:0:0:0:
450,44,220539,6,0,P|376:24|279:89,1,179.999994506836,6|0,0:0|0:0,0:0:0:0:
174,234,220892,5,0,0:0:0:0:
374,253,221068,1,0,0:0:0:0:
289,71,221245,1,8,0:0:0:0:
268,313,221421,1,0,0:0:0:0:
384,138,221598,2,0,L|171:51,1,225.000008583069,0|0,0:0|2:0,0:0:0:0:
63,24,221951,6,0,P|78:59|72:118,1,75.0000028610231,0|0,2:0|2:0,0:0:0:0:
61,177,222303,5,0,0:0:0:0:
56,207,222391,1,0,0:0:0:0:
41,236,222479,1,0,0:0:0:0:
42,267,222568,1,0,0:0:0:0:
60,295,222656,2,2,L|135:342,1,75.0000028610231,10|2,0:0|0:0,0:0:0:0:
315,357,222833,1,0,0:0:0:0:
245,196,223009,1,0,0:0:0:0:
123,334,223186,1,0,0:0:0:0:
322,372,223362,6,0,L|480:335,1,150.000005722046,6|0,0:0|0:0,0:0:0:0:
496,147,223715,1,0,0:0:0:0:
468,337,223892,1,0,0:0:0:0:
245,196,224068,2,0,L|392:231,1,150.000005722046,8|0,0:0|0:0,0:0:0:0:
224,60,224421,2,0,L|78:95,1,150.000005722046
465,48,224774,6,0,B|507:49|507:49|412:102,1,150.000005722046,0|0,0:0|2:0,0:0:0:0:
444,176,225039,2,0,B|349:229|349:229|399:230,1,150.000005722046,0|0,0:0|2:0,0:0:0:0:
309,156,225303,6,2,L|222:209,1,75.0000028610231
356,333,225480,1,8,0:0:0:0:
244,195,225656,1,0,0:0:0:0:
208,346,225833,1,0,0:0:0:0:
390,229,226009,1,0,0:0:0:0:
224,60,226186,6,0,L|78:95,1,150.000005722046,6|0,0:0|0:0,0:0:0:0:
50,285,226539,1,0,0:0:0:0:
78,95,226716,1,0,0:0:0:0:
280,165,226892,2,0,L|134:200,1,150.000005722046,8|0,0:0|0:0,0:0:0:0:
1,360,227245,2,0,P|83:365|139:304,1,150.000005722046
281,165,227598,5,0,0:0:0:0:
308,142,227686,1,0,0:0:0:0:
341,127,227774,1,0,0:0:0:0:
376,120,227862,1,0,0:0:0:0:
412,124,227951,2,0,L|497:77,1,75.0000028610231,2|0,0:0|0:0,0:0:0:0:
399,311,228127,6,0,L|474:324,1,75.0000028610231,2|0,0:0|0:0,0:0:0:0:
281,165,228303,2,0,L|211:238,1,75.0000028610231,10|0,0:0|0:0,0:0:0:0:
133,330,228480,5,0,0:0:0:0:
97,334,228568,1,0,0:0:0:0:
63,326,228656,1,0,0:0:0:0:
34,304,228745,2,0,B|18:261|18:261|32:211|32:211|29:143,1,150.000005722046,0|0,0:0|2:0,0:0:0:0:
44,31,229009,6,0,P|118:119|147:118,1,150.000005722046,6|0,0:0|0:0,0:0:0:0:
316,55,229274,1,0,0:0:0:0:
316,55,229362,2,0,L|261:140,1,75.0000028610231,2|0,0:0|0:0,0:0:0:0:
141,118,229539,2,0,L|195:203,1,75.0000028610231,2|0,0:0|0:0,0:0:0:0:
300,229,229715,2,0,P|369:208|398:142,1,150.000005722046,8|0,0:0|0:0,0:0:0:0:
61,231,230068,6,0,P|26:295|147:354,1,225.000008583069,0|0,0:0|2:0,0:0:0:0:
174,298,230421,2,0,P|139:285|103:293,1,75.0000028610231,2|0,0:0|0:0,0:0:0:0:
300,229,230598,2,0,P|317:196|316:159,1,75.0000028610231,2|0,0:0|0:0,0:0:0:0:
189,174,230774,2,0,P|178:138|151:113,1,75.0000028610231,2|0,0:0|0:0,0:0:0:0:
351,348,230951,2,0,P|386:336|411:309,1,75.0000028610231,2|0,0:0|0:0,0:0:0:0:
133,362,231127,5,8,0:0:0:0:
133,362,231215,1,0,0:0:0:0:
133,362,231303,1,0,0:0:0:0:
108,368,231391,1,0,0:0:0:0:
77,367,231479,1,6,0:0:0:0:
58,355,231567,1,0,0:0:0:0:
40,337,231655,1,0,0:0:0:0:
29,313,231744,1,0,0:0:0:0:
27,287,231833,6,0,P|60:196|36:126,1,150.000005722046,6|0,0:0|0:0,0:0:0:0:
3,18,232186,1,0,0:0:0:0:
209,125,232362,1,0,0:0:0:0:
138,12,232539,1,8,0:0:0:0:
27,287,232715,1,0,0:0:0:0:
280,238,232892,6,0,B|469:207|469:207|433:239,1,225.000008583069,0|0,0:0|2:0,0:0:0:0:
409,296,233245,6,0,B|341:305|341:305|323:317|323:317|300:312|300:312|199:328|199:328|244:289,1,255.000004863739,0|0,0:0|2:0,0:0:0:0:
285,155,233598,5,0,0:0:0:0:
285,155,233686,1,0,0:0:0:0:
285,155,233774,2,0,L|378:140,1,80,2|0,0:0|0:0,0:0:0:0:
472,48,233950,2,0,L|368:64,1,80,10|0,0:0|2:0,0:0:0:0:
228,32,234127,2,0,L|203:125,1,80,2|0,0:0|2:0,0:0:0:0:
100,204,234303,2,0,L|178:221,1,80,2|0,0:0|2:0,0:0:0:0:
393,325,234480,2,0,L|314:342,1,80,2|0,0:0|2:0,0:0:0:0:
88,348,234656,6,0,B|162:356|162:356|228:302,1,160,6|0,0:0|0:0,0:0:0:0:
285,155,235009,1,0,0:0:0:0:
315,343,235186,1,0,0:0:0:0:
99,203,235362,2,0,B|40:154|40:154|34:69,1,160,8|0,0:0|0:0,0:0:0:0:
231,34,235715,2,0,B|134:103|134:103|206:88,1,160
374,196,236068,5,0,0:0:0:0:
417,55,236245,2,0,B|424:139|424:139|374:196,1,160,0|0,0:0|2:0,0:0:0:0:
297,193,236509,2,0,P|341:266|432:248,1,160,0|0,0:0|2:0,0:0:0:0:
485,270,236774,5,8,0:0:0:0:
487,283,236892,2,8,B|491:254|491:254|468:194,4,66.6666666666667,8|8|8|8|8,3:0|3:0|3:0|3:0|3:0,3:0:0:0:
340,363,237480,6,0,L|73:343,1,225.000008583069,4|0,0:0|2:0,0:0:0:0:
4,306,237833,6,0,B|93:313|93:313|116:295|116:295|136:316|136:316|292:329,1,240,0|0,0:0|2:0,0:0:0:0:
360,218,238186,5,12,0:0:0:0:
134,218,238362,2,0,L|111:315,1,80,2|0,0:0|0:0,0:0:0:0:
228,323,238539,2,0,L|247:246,1,80,2|0,0:0|0:0,0:0:0:0:
22,228,238715,2,0,L|-1:325,1,80,2|0,0:0|0:0,0:0:0:0:
213,134,238892,6,0,P|98:119|22:244,1,262.500002503395
115,295,239245,2,0,L|134:218,1,80
232,56,239421,2,0,L|213:133,1,80
246,245,239598,6,0,L|302:242,6,43.7500004172325,8|0|0|0|0|0|0,0:0|0:0|0:0|0:0|0:0|0:0|0:0,0:0:0:0:
364,254,239951,6,0,B|487:245|487:245|466:209|466:209|428:211,1,187.5,0|0,0:0|2:0,0:0:0:0:
395,156,240303,6,0,L|283:165,1,87.500000834465,4|0,0:0|0:0,0:0:0:0:
227,322,240480,2,0,L|339:313,1,87.500000834465
482,148,240656,2,0,L|370:157,1,87.500000834465,4|0,0:0|0:0,0:0:0:0:
314,314,240833,2,0,L|426:305,1,87.500000834465
387,40,241009,6,0,B|383:21|383:21|330:2|281:19|255:60|265:112|265:112|285:138|285:138|249:126,1,262.500002503395,8|0,0:0|2:0,0:0:0:0:
394,155,241362,2,0,L|335:85,1,87.500000834465
171,22,241539,2,0,L|148:106,1,87.500000834465
125,317,241715,2,0,B|148:325|159:344|159:344|109:326|70:331|70:331|85:273|32:230|32:230|46:211,1,262.500002503395,0|0,0:0|2:0,0:0:0:0:
155,129,242068,5,0,0:0:0:0:
148,106,242156,1,0,0:0:0:0:
124,103,242244,1,0,0:0:0:0:
110,122,242332,1,0,0:0:0:0:
119,140,242421,2,0,P|157:173|206:182,1,87.500000834465,8|0,0:0|0:0,0:0:0:0:
440,101,242598,2,0,B|436:112|458:63|493:24|493:24|424:74|339:89,1,262.500002503395,4|0,0:0|2:0,0:0:0:0:
373,205,242951,2,0,B|373:250|373:250|405:298,1,87.500000834465,2|0,0:0|0:0,0:0:0:0:
499,297,243127,6,0,B|414:312|345:362|345:362|390:329|400:272|400:272,1,262.500002503395,4|0,0:0|2:0,0:0:0:0:
421,206,243480,2,0,B|421:251|421:251|389:299,1,87.500000834465,2|0,0:0|0:0,0:0:0:0:
266,349,243656,2,0,B|236:316|236:316|234:256,1,87.500000834465,2|0,0:0|0:0,0:0:0:0:
202,113,243833,6,0,B|240:71|240:71|240:186|240:186|192:175|150:203,1,262.500002503395,8|0,0:0|2:0,0:0:0:0:
45,216,244186,6,0,B|102:192|154:199|154:199|205:174|240:186|240:186|240:112,1,262.500002503395,0|0,0:0|2:0,0:0:0:0:
235,274,244539,6,0,P|277:267|310:239,1,87.500000834465,0|0,2:0|0:0,0:0:0:0:
315,88,244715,2,0,P|272:95|240:124,1,87.500000834465
424,300,244892,2,0,L|437:214,1,87.500000834465
455,80,245068,1,0,0:0:0:0:
458,60,245156,1,0,0:0:0:0:
461,40,245245,2,0,L|423:309,1,262.500002503395,12|0,0:0|2:0,0:0:0:0:
498,369,245598,2,0,B|452:351|425:300|425:300|386:341|312:355|312:355|328:342|337:315,1,262.500002503395,0|0,0:0|2:0,0:0:0:0:
310,238,245951,6,0,B|263:242|262:283|207:286|172:282|172:282|161:317|161:317|127:304|127:304|113:332|113:332|75:345,1,262.500002503395,6|0,0:0|0:0,0:0:0:0:
32,278,246303,2,0,P|13:317|14:361,1,87.500000834465
116,225,246480,2,0,P|85:192|44:179,1,87.500000834465
277,157,246656,6,0,L|190:150,1,87.500000834465,10|0,0:0|0:0,0:0:0:0:
4,77,246833,2,0,L|91:84,1,87.500000834465,2|0,0:0|0:0,0:0:0:0:
330,129,247009,6,0,L|243:122,1,87.500000834465,2|0,0:0|0:0,0:0:0:0:
57,49,247186,2,0,L|144:56,1,87.500000834465,2|0,0:0|0:0,0:0:0:0:
394,23,247362,6,0,B|374:92|374:92|421:167|421:167|425:234|425:234|409:188,1,262.500002503395,0|0,0:0|2:0,0:0:0:0:
465,312,247715,1,0,0:0:0:0:
429,320,247803,1,0,0:0:0:0:
393,314,247892,2,0,P|336:299|299:309,1,87.500000834465
241,226,248068,6,0,P|190:255|170:288,1,87.500000834465,10|0,0:0|0:0,0:0:0:0:
77,257,248245,2,0,P|62:314|72:351,1,87.500000834465,10|0,0:0|0:0,0:0:0:0:
66,110,248421,2,0,P|106:129|132:163,1,87.500000834465,10|0,0:0|0:0,0:0:0:0:
306,31,248598,2,0,P|266:49|240:83,1,87.500000834465,10|0,0:0|0:0,0:0:0:0:
310,305,248774,5,0,2:0:0:0:
310,305,248862,1,0,0:0:0:0:
310,305,248951,2,0,P|358:355|351:184,1,437.500004172325,0|0,0:0|2:0,0:0:0:0:
400,268,249480,6,0,B|473:98|473:98|374:177,1,307.500004692078,12|0,0:0|2:0,0:0:0:0:
420,27,250009,6,0,L|353:79,1,85.0000016212464,0|0,2:0|0:0,0:0:0:0:
112,268,250186,1,0,2:0:0:0:
400,268,250362,1,0,0:0:0:0:
267,30,250539,2,0,B|244:122|244:122|265:183|265:183|253:302,1,255.000004863739,0|0,0:0|2:0,0:0:0:0:
326,338,250892,6,0,P|250:374|174:323,1,178.499996459198,12|0,0:0|2:0,0:0:0:0:
94,184,251245,6,0,L|114:277,1,85.0000016212464
158,123,251421,6,0,L|130:107,4,21.2500004053116
266,31,251598,6,0,L|246:113,1,85.0000016212464,6|0,0:0|0:0,0:0:0:0:
255,278,251774,2,0,P|295:250|355:247,1,85.0000016212464,2|0,0:0|0:0,0:0:0:0:
347,14,251951,2,0,P|301:32|242:21,1,85.0000016212464,2|0,0:0|0:0,0:0:0:0:
329,243,252127,2,0,L|367:168,1,85.0000016212464,2|0,0:0|0:0,0:0:0:0:
428,30,252303,6,0,B|443:119|443:119,1,85.0000016212464,8|0,0:0|0:0,0:0:0:0:
498,346,252480,2,0,P|462:323|420:318,1,85.0000016212464
329,243,252656,2,0,P|288:252|255:278,1,85.0000016212464
166,208,252833,2,0,P|143:243|137:285,1,85.0000016212464
368,167,253009,6,0,P|419:236|313:329,1,240,0|0,2:0|2:0,0:0:0:0:
254,278,253362,1,0,0:0:0:0:
226,292,253450,1,0,0:0:0:0:
196,272,253538,1,0,0:0:0:0:
168,289,253626,1,0,0:0:0:0:
137,285,253715,2,0,L|39:303,1,80,8|0,0:0|0:0,0:0:0:0:
61,187,253892,6,0,P|251:154|251:154,1,179.999994506836,4|0,0:0|2:0,0:0:0:0:
367,166,254245,2,0,B|365:127|365:127|349:91,1,80,8|0,0:0|0:0,0:0:0:0:
112,131,254421,6,0,P|357:89|357:89,1,240,4|0,0:0|2:0,0:0:0:0:
357,12,254774,2,0,P|400:27|427:83,1,80
382,248,254951,2,0,P|336:244|296:197,1,80
150,26,255127,1,8,0:0:0:0:
124,54,255215,1,0,0:0:0:0:
138,80,255303,2,0,B|101:68|58:94,2,53.3333333333333
111,131,255480,6,0,B|122:251|14:211|18:326|86:371|160:370|177:277,1,314.999990386963,0|0,0:0|2:0,0:0:0:0:
294,203,255833,6,0,P|269:87|201:184,1,300,4|0,0:0|2:0,0:0:0:0:
321,79,256186,6,0,P|276:56|221:60,1,100
184,336,256362,1,0,0:0:0:0:
208,351,256451,1,0,0:0:0:0:
236,354,256539,6,0,B|346:306|356:363|440:372|474:310|474:310|442:247|356:264,1,359.999989013672,8|0,0:0|2:0,0:0:0:0:
472,208,256892,6,0,B|461:204|415:181|369:176|326:255|326:255|366:252|408:264,1,240,0|0,0:2|2:0,0:2:0:0:
472,208,257245,6,0,P|367:62|325:148,1,359.999989013672,4|0,0:0|2:0,0:0:0:0:
305,276,257598,2,0,P|365:273|403:247,1,89.9999972534181
146,179,257774,2,0,P|124:211|114:284,1,89.9999972534181
324,58,257951,1,8,0:0:0:0:
302,31,258039,1,0,0:0:0:0:
269,44,258126,1,0,0:0:0:0:
247,21,258215,1,0,0:0:0:0:
208,31,258303,6,0,P|107:51|180:182,1,269.999991760254
380,155,258656,6,0,B|441:141|490:107|490:107|446:176|439:260,1,269.999991760254,0|0,2:0|2:0,0:0:0:0:
400,323,259009,6,0,L|363:352,18,44.999998626709,0|0|0|0|0|0|0|0|0|0|0|0|0|0|0|0|0|0|0,2:0|2:0|2:0|2:0|2:0|2:0|2:0|2:0|2:0|2:0|2:0|2:0|2:0|2:0|2:0|2:0|2:0|2:0|2:0,2:0:0:0:
440,246,259892,6,0,P|386:239|346:258,1,89.9999972534181,2|0,0:0|0:0,0:0:0:0:
253,338,260068,2,0,B|205:314|139:361|139:361|188:294|152:213|152:213|71:249|61:338|61:338,1,400,4|0,1:1|2:0,2:2:0:0:
256,192,265715,12,0,268274,2:0:0:0:
256,192,268803,6,0,B|321:216|366:153|465:192,1,200,2|0,2:2|2:2,2:2:0:0:
256,192,270678,2,0,B|190:216|145:153|46:192,1,200,2|0,2:2|2:2,2:2:0:0:
256,192,272553,6,0,B|231:257|294:302|266:357|266:357|251:315,1,200,2|0,2:2|2:2,2:2:0:0:
256,192,274428,2,0,B|280:126|217:81|246:27|246:27|261:69,1,200,2|0,2:2|2:2,2:2:0:0:
256,55,276303,6,0,L|275:47,2,12.5,0|0|0,2:2|2:2|2:2,2:2:0:0:
255,328,278178,6,0,L|246:331,2,7.49999977111817,0|0|0,2:2|2:2|2:2,2:2:0:0:
59,187,280053,6,0,L|64:208,1,12.5,0|0,2:2|2:2,2:2:0:0:
453,187,281928,6,0,L|449:210,1,12.5,0|0,2:2|2:2,2:2:0:0:
501,107,282865,2,0,P|450:93|379:130,1,122.499996261597,0|0,2:2|2:2,2:2:0:0:
453,187,283803,6,0,L|440:253,1,50,2|0,2:2|2:2,2:2:0:0:
369,205,284271,2,0,L|356:271,1,50,0|0,2:2|2:2,2:2:0:0:
285,223,284740,2,0,L|272:289,1,50,0|0,2:2|2:2,2:2:0:0:
201,241,285209,2,0,L|188:307,1,50,0|0,2:2|2:2,2:2:0:0:
117,259,285678,6,0,L|109:302,2,25,2|0|0,2:2|2:2|2:2,2:2:0:0:
201,241,286381,6,0,L|188:307,1,50,0|0,2:2|2:2,2:2:0:0:
285,223,286849,2,0,L|272:289,1,50,0|0,2:2|2:2,2:2:0:0:
369,205,287318,1,0,2:2:0:0:
453,187,287553,6,0,L|445:230,2,25,2|0|0,2:2|2:2|2:2,2:2:0:0:
285,223,288021,2,0,L|298:157,1,50,0|0,2:2|2:2,2:2:0:0:
201,241,288490,2,0,L|214:175,1,50,0|0,2:2|2:2,2:2:0:0:
369,205,288958,2,0,L|382:139,1,50,0|0,2:2|2:2,2:2:0:0:
285,223,289428,6,0,L|298:157,1,50,2|0,2:2|2:2,2:2:0:0:
453,187,289896,2,0,L|466:121,1,50,0|0,2:2|2:2,2:2:0:0:
369,205,290365,2,0,L|377:162,2,25,0|0|0,2:2|2:2|2:2,2:2:0:0:
285,223,290834,2,0,L|298:157,1,50,0|0,2:2|2:2,2:2:0:0:
201,241,291303,6,0,L|209:198,2,25,2|0|0,2:2|2:2|2:2,2:2:0:0:
33,277,291771,2,0,L|46:211,1,50,0|0,2:2|2:2,2:2:0:0:
61,128,292240,2,0,L|70:78,1,50,0|0,2:2|2:2,2:2:0:0:
126,209,292709,2,0,L|117:259,1,50,0|0,2:2|2:2,2:2:0:0:
145,110,293178,6,0,L|142:82,2,25,2|0|0,2:2|2:2|2:2,2:2:0:0:
126,209,293646,2,0,L|117:259,2,50,0|0|0,2:2|2:2|2:2,2:2:0:0:
212,209,294349,2,0,L|207:236,3,25,0|0|0|0,2:2|2:2|2:2|2:2,2:2:0:0:
298,167,294818,2,0,L|304:201,1,25,0|0,2:2|2:2,2:2:0:0:
364,279,295053,6,0,L|350:316,3,25,2|0|0|0,2:2|2:2|2:2|2:2,2:2:0:0:
468,262,295521,2,0,L|480:203,1,50,0|0,2:2|2:2,2:2:0:0:
499,97,295990,1,0,2:2:0:0:
395,30,296224,2,0,L|355:36,1,25,0|0,2:2|2:2,2:2:0:0:
289,78,296459,2,0,L|250:65,3,25,0|0|0|0,2:2|2:2|2:2|2:2,2:2:0:0:
184,114,296928,6,0,L|143:117,2,25,2|0|0,2:2|2:2|2:2,2:2:0:0:
70,89,297396,2,0,L|28:36,1,50,0|0,2:2|2:2,2:2:0:0:
92,180,297865,2,0,L|83:247,1,50,0|0,2:2|2:2,2:2:0:0:
160,280,298334,2,0,L|168:347,1,50,0|0,2:2|2:2,2:2:0:0:
256,192,298803,12,0,302084,2:2:0:0:
241,112,302553,6,0,B|248:104|255:73|255:73|288:112|310:163|260:249|221:241|239:333|239:333|246:308|263:292,1,359.999989013672,2|0,2:2|2:2,2:2:0:0:
429,278,306303,6,0,B|457:286|457:286|439:316|392:347|347:326|302:305|316:237|234:233|234:233|257:266|258:295,1,359.999989013672,2|0,2:2|2:2,2:2:0:0:
56,316,310053,2,0,B|84:317|102:305|102:305|105:296|105:296|110:302|110:302|167:291|208:332|268:298|268:298|255:290,1,239.999992675781,2|0,2:2|2:2,2:2:0:0:
