osu file format v14

[General]
AudioFilename: audio.mp3
AudioLeadIn: 0
PreviewTime: 5538
Countdown: 0
SampleSet: None
StackLeniency: 0.7
Mode: 1
LetterboxInBreaks: 0
WidescreenStoryboard: 1

[Editor]
DistanceSpacing: 1.3
BeatDivisor: 4
GridSize: 8
TimelineZoom: 1.7

[Metadata]
Title:super sour
TitleUnicode:super sour
Artist:hyi
ArtistUnicode:hyi
Creator:FusRoYay
Version:taikocide.
Source:
Tags:Lapfox Trax i can't wait to be sad and alone on the edge of the universe breakcore fast streams misery
BeatmapID:1468873
BeatmapSetID:694277

[Difficulty]
HPDrainRate:7
CircleSize:2
OverallDifficulty:6
ApproachRate:9
SliderMultiplier:2
SliderTickRate:1

[Events]
//Background and Video events
0,0,"a1864035559_10.jpg",0,0
//Break Periods
//Storyboard Layer 0 (Background)
//Storyboard Layer 1 (Fail)
//Storyboard Layer 2 (Pass)
//Storyboard Layer 3 (Foreground)
//Storyboard Sound Samples

[TimingPoints]
5538,306.122448979592,7,3,0,100,1,0
5538,-66.6666666666667,4,3,0,100,0,1
6762,-133.333333333333,4,3,0,100,0,1
7374,-100,4,3,0,100,0,1
7680,-66.6666666666667,4,3,0,100,0,1
8599,-133.333333333333,4,3,0,100,0,1
9823,-66.6666666666667,4,3,0,100,0,1
11048,-133.333333333333,4,3,0,100,0,1
11660,-100,4,3,0,100,0,1
11966,-66.6666666666667,4,3,0,100,0,1
12884,-100,4,3,0,100,0,1
13191,-133.333333333333,4,3,0,100,0,1
14109,-66.6666666666667,4,3,0,100,0,1
14262,-100,4,3,0,100,0,1
14415,-66.6666666666667,4,3,0,100,0,1
14568,-100,4,3,0,100,0,1
14721,-66.6666666666667,4,3,0,100,0,1
14874,-100,4,3,0,100,0,1
15027,-66.6666666666667,4,3,0,100,0,1
15180,-100,4,3,0,100,0,1
15333,-133.333333333333,4,3,0,100,0,1
15946,-100,4,3,0,100,0,1
16252,-66.6666666666667,4,3,0,100,0,1
16405,-100,4,3,0,100,0,1
16558,-66.6666666666667,4,3,0,100,0,1
16711,-100,4,3,0,100,0,1
16864,-66.6666666666667,4,3,0,100,0,1
17017,-100,4,3,0,100,0,1
17170,-133.333333333333,4,3,0,100,0,1
18395,-66.6666666666667,4,3,0,100,0,1
18548,-100,4,3,0,100,0,1
18701,-66.6666666666667,4,3,0,100,0,1
18854,-100,4,3,0,100,0,1
19007,-66.6666666666667,4,3,0,100,0,1
19160,-100,4,3,0,100,0,1
19313,-66.6666666666667,4,3,0,100,0,1
19466,-100,4,3,0,100,0,1
19619,-133.333333333333,4,3,0,100,0,1
20231,-100,4,3,0,100,0,1
20538,-66.6666666666667,4,3,0,100,0,1
20691,-100,4,3,0,100,0,1
20844,-66.6666666666667,4,3,0,100,0,1
20997,-100,4,3,0,100,0,1
21150,-66.6666666666667,4,3,0,100,0,1
21303,-100,4,3,0,100,0,1
21456,-100,4,3,0,100,0,1
21762,-133.333333333333,4,3,0,100,0,1
22680,306.122448979592,5,3,0,100,1,0
22680,-133.333333333333,4,3,0,50,0,0
24210,-133.333333333333,4,3,0,75,0,0
24363,-133.333333333333,4,3,0,50,0,0
25741,-133.333333333333,4,3,0,75,0,0
25817,-133.333333333333,4,3,0,50,0,0
27271,-133.333333333333,4,3,0,75,0,0
27348,-133.333333333333,4,3,0,50,0,0
32093,-117.647058823529,4,3,0,60,0,0
32322,-111.111111111111,4,3,0,70,0,0
32552,-105.263157894737,4,3,0,85,0,0
32782,-100,4,3,0,100,0,0
33088,-133.333333333333,4,3,0,50,0,0
34006,-100,4,3,0,100,0,0
34924,-133.333333333333,4,3,0,50,0,0
44108,-117.647058823529,4,3,0,60,0,0
44338,-111.111111111111,4,3,0,85,0,0
44567,-105.263157894737,4,3,0,85,0,0
44797,-100,4,3,0,85,0,0
44950,-133.333333333333,4,3,0,50,0,0
46251,-100,4,3,0,100,0,0
46863,-100,4,3,0,100,0,0
47169,306.122448979592,4,3,0,100,1,0
47245,-133.333333333333,4,2,0,25,0,0
53444,-200,4,2,0,25,0,0
54209,-133.333333333333,4,2,0,25,0,0
57117,-200,4,2,0,25,0,0
57883,-133.333333333333,4,2,0,25,0,0
60791,-200,4,2,0,25,0,0
61556,-133.333333333333,4,2,0,25,0,0
64464,-200,4,2,0,25,0,0
65230,-133.333333333333,4,2,0,25,0,0
68138,-200,4,2,0,25,0,0
69209,306.122448979592,7,3,0,100,1,0
70433,-100,4,3,0,100,0,1
71351,-80,4,3,0,100,0,1
72117,-100,4,3,0,100,0,1
73494,-80,4,3,0,100,0,1
74719,-100,4,3,0,100,0,1
75637,-80,4,3,0,100,0,1
76555,-100,4,3,0,100,0,1
77780,-80,4,3,0,100,0,1
79004,-100,4,3,0,100,0,1
79923,-80,4,3,0,100,0,1
80841,-100,4,3,0,100,0,1
82066,-80,4,3,0,100,0,1
83290,-100,4,3,0,100,0,1
84209,-80,4,3,0,100,0,1
84974,-133.333333333333,4,3,0,100,0,1
86351,306.122448979592,5,3,0,100,1,0
86351,-400,4,2,0,50,0,0
92473,-333.333333333333,4,3,0,75,0,0
94004,-285.714285714286,4,3,0,75,0,0
95228,-250,4,3,0,75,0,0
95687,-222.222222222222,4,3,0,75,0,0
97218,-200,4,3,0,75,0,0
97447,-181.818181818182,4,3,0,75,0,0
98289,-153.846153846154,4,3,0,75,0,0
98595,-142.857142857143,4,3,0,100,0,0
104718,-133.333333333333,4,3,0,100,0,0
106861,-125,4,3,0,100,0,0
107626,-117.647058823529,4,3,0,100,0,0
107703,-111.111111111111,4,3,0,100,0,0
108085,-105.263157894737,4,3,0,100,0,0
110840,306.122448979592,3,3,0,100,1,0
110840,-100,3,3,0,100,0,0
110916,-200,3,3,0,100,0,0

[HitObjects]
248,192,5538,5,4,0:0:0:0:
248,192,5844,1,4,0:0:0:0:
248,192,6150,1,4,0:0:0:0:
248,192,6456,1,4,0:0:0:0:
248,192,6762,1,0,0:0:0:0:
248,192,6915,1,0,0:0:0:0:
248,192,7068,1,0,0:0:0:0:
256,192,7221,1,0,0:0:0:0:
256,192,7374,1,8,0:0:0:0:
248,192,7425,1,8,0:0:0:0:
248,192,7476,1,0,0:0:0:0:
240,176,7527,1,8,0:0:0:0:
256,192,7680,1,4,0:0:0:0:
256,192,7986,1,4,0:0:0:0:
256,192,8293,1,4,0:0:0:0:
248,168,8599,1,0,0:0:0:0:
240,176,8675,1,0,0:0:0:0:
240,176,8752,1,8,0:0:0:0:
216,168,8828,1,0,0:0:0:0:
216,168,8905,1,8,0:0:0:0:
216,168,8981,1,8,0:0:0:0:
224,168,9058,1,8,0:0:0:0:
224,176,9134,1,8,0:0:0:0:
224,176,9211,1,0,0:0:0:0:
216,168,9288,1,8,0:0:0:0:
216,168,9364,1,8,0:0:0:0:
224,176,9441,1,8,0:0:0:0:
216,176,9517,1,0,0:0:0:0:
216,176,9594,1,0,0:0:0:0:
216,176,9670,1,8,0:0:0:0:
256,184,9823,1,4,0:0:0:0:
256,184,10129,1,4,0:0:0:0:
256,184,10435,1,4,0:0:0:0:
256,184,10742,1,4,0:0:0:0:
248,192,11048,1,0,0:0:0:0:
248,192,11201,1,0,0:0:0:0:
248,192,11354,1,0,0:0:0:0:
248,208,11507,1,0,0:0:0:0:
240,200,11660,1,8,0:0:0:0:
240,200,11711,1,8,0:0:0:0:
240,200,11762,1,0,0:0:0:0:
240,200,11813,1,8,0:0:0:0:
256,176,11966,1,4,0:0:0:0:
264,176,12272,1,4,0:0:0:0:
264,176,12578,1,4,0:0:0:0:
256,200,12884,1,0,0:0:0:0:
264,192,12923,1,0,0:0:0:0:
264,192,13038,1,0,0:0:0:0:
264,192,13076,1,0,0:0:0:0:
256,192,13191,1,0,0:0:0:0:
264,184,13267,1,0,0:0:0:0:
264,184,13344,1,8,0:0:0:0:
256,200,13497,1,0,0:0:0:0:
256,184,13573,1,0,0:0:0:0:
256,184,13650,1,8,0:0:0:0:
256,176,13726,1,8,0:0:0:0:
256,176,13803,1,0,0:0:0:0:
256,176,13879,1,0,0:0:0:0:
256,168,13956,1,8,0:0:0:0:
256,200,14109,1,4,0:0:0:0:
256,192,14262,1,8,0:0:0:0:
256,200,14415,1,4,0:0:0:0:
256,192,14568,1,8,0:0:0:0:
256,192,14721,1,4,0:0:0:0:
256,192,14874,1,8,0:0:0:0:
256,200,15027,1,4,0:0:0:0:
256,192,15180,1,8,0:0:0:0:
248,192,15333,1,0,0:0:0:0:
248,192,15410,1,8,0:0:0:0:
256,192,15486,1,0,0:0:0:0:
256,192,15563,1,8,0:0:0:0:
256,192,15640,1,0,0:0:0:0:
256,192,15716,1,8,0:0:0:0:
256,192,15793,1,0,0:0:0:0:
264,184,15869,1,8,0:0:0:0:
256,192,15946,1,8,0:0:0:0:
248,192,15997,1,8,0:0:0:0:
248,192,16048,1,0,0:0:0:0:
240,176,16099,1,8,0:0:0:0:
232,184,16252,1,4,0:0:0:0:
232,184,16405,1,8,0:0:0:0:
232,184,16558,1,4,0:0:0:0:
232,184,16711,1,8,0:0:0:0:
232,184,16864,1,4,0:0:0:0:
232,184,17017,1,8,0:0:0:0:
248,168,17170,1,0,0:0:0:0:
240,176,17246,1,0,0:0:0:0:
240,176,17323,1,8,0:0:0:0:
216,168,17399,1,0,0:0:0:0:
216,168,17476,1,8,0:0:0:0:
216,168,17552,1,8,0:0:0:0:
224,168,17629,1,8,0:0:0:0:
224,176,17705,1,8,0:0:0:0:
224,176,17782,1,0,0:0:0:0:
216,168,17859,1,8,0:0:0:0:
216,168,17935,1,8,0:0:0:0:
224,176,18012,1,8,0:0:0:0:
216,176,18088,1,0,0:0:0:0:
216,176,18165,1,0,0:0:0:0:
216,176,18241,1,8,0:0:0:0:
232,184,18395,1,4,0:0:0:0:
232,184,18548,1,8,0:0:0:0:
232,184,18701,1,4,0:0:0:0:
232,184,18854,1,8,0:0:0:0:
232,184,19007,1,4,0:0:0:0:
232,184,19160,1,8,0:0:0:0:
232,184,19313,1,4,0:0:0:0:
232,184,19466,1,8,0:0:0:0:
232,184,19619,1,0,0:0:0:0:
232,184,19696,1,8,0:0:0:0:
232,184,19772,1,0,0:0:0:0:
232,184,19849,1,8,0:0:0:0:
232,184,19925,1,0,0:0:0:0:
232,184,20002,1,8,0:0:0:0:
232,184,20078,1,0,0:0:0:0:
232,184,20155,1,8,0:0:0:0:
256,192,20231,5,8,0:0:0:0:
248,192,20282,1,8,0:0:0:0:
248,192,20333,1,0,0:0:0:0:
240,176,20384,1,8,0:0:0:0:
232,184,20538,1,4,0:0:0:0:
232,184,20691,1,8,0:0:0:0:
232,184,20844,1,4,0:0:0:0:
232,184,20997,1,8,0:0:0:0:
232,184,21150,1,4,0:0:0:0:
232,184,21303,1,8,0:0:0:0:
256,200,21456,1,0,0:0:0:0:
264,192,21495,1,0,0:0:0:0:
264,192,21610,1,0,0:0:0:0:
264,192,21648,1,0,0:0:0:0:
256,192,21763,1,0,0:0:0:0:
264,184,21839,1,0,0:0:0:0:
264,184,21916,1,8,0:0:0:0:
264,176,21992,1,0,0:0:0:0:
256,200,22069,1,8,0:0:0:0:
256,184,22145,1,0,0:0:0:0:
256,184,22222,1,8,0:0:0:0:
232,184,22298,1,0,0:0:0:0:
232,184,22374,1,0,0:0:0:0:
256,192,22680,5,0,0:0:0:0:
256,192,22756,1,0,0:0:0:0:
256,192,22833,1,0,0:0:0:0:
256,192,22909,1,8,0:0:0:0:
256,192,22986,1,8,0:0:0:0:
256,176,23139,1,0,0:0:0:0:
256,176,23292,1,0,0:0:0:0:
256,192,23368,1,8,0:0:0:0:
256,176,23445,1,8,0:0:0:0:
256,192,23598,1,0,0:0:0:0:
256,192,23674,1,8,0:0:0:0:
256,192,23751,1,0,0:0:0:0:
256,192,23827,1,8,0:0:0:0:
256,192,23904,1,8,0:0:0:0:
256,176,24057,1,0,0:0:0:0:
256,176,24134,1,8,0:0:0:0:
256,176,24210,1,0,0:0:0:0:
256,176,24363,1,8,0:0:0:0:
240,184,24516,1,0,0:0:0:0:
240,184,24669,1,8,0:0:0:0:
240,176,24746,1,0,0:0:0:0:
240,176,24822,1,8,0:0:0:0:
240,176,24975,1,0,0:0:0:0:
240,176,25052,1,8,0:0:0:0:
240,184,25128,1,0,0:0:0:0:
240,176,25205,1,8,0:0:0:0:
240,176,25282,1,8,0:0:0:0:
240,184,25435,1,0,0:0:0:0:
240,184,25511,1,8,0:0:0:0:
240,184,25588,1,0,0:0:0:0:
240,184,25741,1,8,0:0:0:0:
248,184,25817,1,0,0:0:0:0:
248,184,25894,1,0,0:0:0:0:
248,184,25970,1,8,0:0:0:0:
248,184,26047,1,0,0:0:0:0:
248,176,26200,1,0,0:0:0:0:
240,176,26353,1,0,0:0:0:0:
240,176,26506,1,8,0:0:0:0:
240,176,26583,1,8,0:0:0:0:
240,168,26659,1,0,0:0:0:0:
240,160,26812,1,0,0:0:0:0:
224,176,26965,1,8,0:0:0:0:
224,176,27016,1,8,0:0:0:0:
224,176,27067,1,8,0:0:0:0:
232,176,27118,1,0,0:0:0:0:
240,152,27271,1,0,0:0:0:0:
240,160,27424,1,8,0:0:0:0:
240,160,27577,1,0,0:0:0:0:
240,160,27731,1,8,0:0:0:0:
240,160,27807,1,0,0:0:0:0:
232,160,27884,1,8,0:0:0:0:
232,160,27960,1,8,0:0:0:0:
232,160,28037,1,0,0:0:0:0:
232,160,28113,1,8,0:0:0:0:
232,160,28190,1,8,0:0:0:0:
232,160,28266,1,0,0:0:0:0:
240,160,28496,1,4,0:0:0:0:
240,160,28802,1,0,0:0:0:0:
256,192,28955,1,0,0:0:0:0:
256,192,29032,1,8,0:0:0:0:
256,192,29108,1,0,0:0:0:0:
256,192,29185,1,8,0:0:0:0:
256,192,29261,1,0,0:0:0:0:
256,192,29338,1,8,0:0:0:0:
256,192,29516,1,8,0:0:0:0:
256,176,29567,1,8,0:0:0:0:
256,176,29618,1,8,0:0:0:0:
248,176,29669,1,8,0:0:0:0:
248,176,29720,1,0,0:0:0:0:
256,192,29950,1,8,0:0:0:0:
256,192,30026,1,0,0:0:0:0:
256,192,30180,1,0,0:0:0:0:
240,200,30333,1,4,0:0:0:0:
240,200,30562,1,4,0:0:0:0:
240,192,30792,1,4,0:0:0:0:
256,192,30945,1,0,0:0:0:0:
256,192,31021,1,8,0:0:0:0:
256,192,31098,1,0,0:0:0:0:
256,192,31174,1,8,0:0:0:0:
256,192,31251,1,0,0:0:0:0:
256,192,31327,1,8,0:0:0:0:
272,176,31557,1,0,0:0:0:0:
256,184,31633,1,0,0:0:0:0:
256,176,31710,1,0,0:0:0:0:
256,192,31863,1,6,0:0:0:0:
256,192,32093,1,0,0:0:0:0:
256,192,32169,1,0,0:0:0:0:
256,184,32322,5,0,0:0:0:0:
256,184,32398,1,8,0:0:0:0:
256,184,32552,1,8,0:0:0:0:
256,184,32628,1,8,0:0:0:0:
256,176,32782,1,6,0:0:0:0:
256,192,33088,1,8,0:0:0:0:
264,184,33164,1,8,0:0:0:0:
256,184,33241,1,0,0:0:0:0:
264,184,33317,1,8,0:0:0:0:
264,184,33394,1,0,0:0:0:0:
264,176,33547,1,0,0:0:0:0:
264,176,33623,1,0,0:0:0:0:
264,176,33700,1,8,0:0:0:0:
256,176,33776,1,0,0:0:0:0:
256,176,33853,1,8,0:0:0:0:
256,176,33930,1,0,0:0:0:0:
264,176,34006,1,0,0:0:0:0:
264,176,34312,1,6,0:0:0:0:
264,176,34618,1,4,0:0:0:0:
256,192,34924,5,0,0:0:0:0:
256,192,35000,1,0,0:0:0:0:
256,192,35077,1,0,0:0:0:0:
256,192,35153,1,8,0:0:0:0:
256,192,35230,1,8,0:0:0:0:
256,176,35383,1,0,0:0:0:0:
256,176,35536,1,0,0:0:0:0:
256,192,35612,1,8,0:0:0:0:
256,176,35689,1,8,0:0:0:0:
256,192,35842,1,0,0:0:0:0:
256,192,35918,1,8,0:0:0:0:
256,192,35995,1,0,0:0:0:0:
256,192,36071,1,8,0:0:0:0:
256,192,36148,1,8,0:0:0:0:
256,176,36301,1,0,0:0:0:0:
256,176,36378,1,8,0:0:0:0:
256,176,36454,1,0,0:0:0:0:
256,192,36608,1,8,0:0:0:0:
256,192,36761,1,0,0:0:0:0:
256,192,36914,1,8,0:0:0:0:
256,192,36991,1,8,0:0:0:0:
256,200,37067,1,0,0:0:0:0:
248,208,37220,1,0,0:0:0:0:
248,208,37297,1,8,0:0:0:0:
248,208,37373,1,0,0:0:0:0:
248,208,37450,1,8,0:0:0:0:
248,208,37526,1,8,0:0:0:0:
248,208,37603,1,0,0:0:0:0:
248,208,37680,1,0,0:0:0:0:
232,208,37833,1,0,0:0:0:0:
232,216,37986,1,0,0:0:0:0:
240,216,38139,1,8,0:0:0:0:
232,216,38215,1,0,0:0:0:0:
224,216,38292,1,8,0:0:0:0:
232,216,38445,1,0,0:0:0:0:
232,224,38598,1,8,0:0:0:0:
232,224,38751,1,8,0:0:0:0:
232,224,38827,1,8,0:0:0:0:
232,224,38904,1,0,0:0:0:0:
240,224,38981,1,8,0:0:0:0:
240,224,39057,1,0,0:0:0:0:
240,224,39210,1,8,0:0:0:0:
248,224,39248,1,8,0:0:0:0:
248,224,39287,1,8,0:0:0:0:
256,216,39325,1,8,0:0:0:0:
248,232,39363,1,0,0:0:0:0:
248,224,39440,1,8,0:0:0:0:
248,224,39516,1,0,0:0:0:0:
248,224,39669,1,8,0:0:0:0:
248,224,39822,1,0,0:0:0:0:
248,224,39975,1,8,0:0:0:0:
240,224,40128,1,8,0:0:0:0:
240,224,40205,1,8,0:0:0:0:
248,232,40282,1,0,0:0:0:0:
248,232,40358,1,0,0:0:0:0:
248,240,40435,1,8,0:0:0:0:
248,240,40511,1,0,0:0:0:0:
256,240,40588,1,8,0:0:0:0:
256,248,40741,1,4,0:0:0:0:
256,248,40894,1,6,0:0:0:0:
256,248,41047,1,4,0:0:0:0:
256,248,41200,1,8,0:0:0:0:
256,248,41276,1,8,0:0:0:0:
256,248,41353,1,0,0:0:0:0:
256,248,41429,1,8,0:0:0:0:
256,240,41506,1,8,0:0:0:0:
256,248,41659,1,8,0:0:0:0:
256,248,41736,1,8,0:0:0:0:
256,248,41812,1,0,0:0:0:0:
256,248,41889,1,8,0:0:0:0:
256,248,41965,1,0,0:0:0:0:
256,248,42118,1,0,0:0:0:0:
264,248,42195,1,0,0:0:0:0:
256,248,42271,1,8,0:0:0:0:
256,248,42348,1,8,0:0:0:0:
256,248,42424,1,0,0:0:0:0:
264,240,42501,1,8,0:0:0:0:
248,256,42577,1,8,0:0:0:0:
248,256,42731,1,0,0:0:0:0:
248,256,42807,1,0,0:0:0:0:
248,256,42884,1,8,0:0:0:0:
264,240,43037,1,0,0:0:0:0:
264,248,43190,1,8,0:0:0:0:
264,240,43266,1,8,0:0:0:0:
272,256,43343,1,0,0:0:0:0:
272,256,43419,1,8,0:0:0:0:
264,248,43496,1,8,0:0:0:0:
272,256,43572,1,0,0:0:0:0:
264,256,43649,1,8,0:0:0:0:
264,256,43725,1,8,0:0:0:0:
264,248,43802,1,0,0:0:0:0:
256,248,43878,1,0,0:0:0:0:
256,248,43955,1,8,0:0:0:0:
256,192,44108,5,0,0:0:0:0:
256,192,44184,1,0,0:0:0:0:
256,184,44337,5,8,0:0:0:0:
256,184,44413,1,8,0:0:0:0:
256,184,44567,1,8,0:0:0:0:
256,184,44643,1,0,0:0:0:0:
256,176,44797,1,6,0:0:0:0:
256,192,44873,12,0,45486,0:0:0:0:
256,184,45639,5,0,0:0:0:0:
240,176,45792,1,8,0:0:0:0:
256,192,45945,5,8,0:0:0:0:
256,184,45996,1,8,0:0:0:0:
256,184,46047,1,0,0:0:0:0:
248,184,46098,1,0,0:0:0:0:
240,176,46149,1,0,0:0:0:0:
232,176,46200,1,0,0:0:0:0:
232,176,46251,1,0,0:0:0:0:
232,176,46557,1,6,0:0:0:0:
232,184,46863,1,0,0:0:0:0:
256,192,47169,1,6,0:0:0:0:
256,192,48087,5,8,0:0:0:0:
256,192,49311,1,8,0:0:0:0:
256,192,49464,1,8,0:0:0:0:
256,192,50536,1,8,0:0:0:0:
256,192,50842,1,8,0:0:0:0:
256,192,51760,1,8,0:0:0:0:
248,192,52985,5,8,0:0:0:0:
248,192,53138,1,8,0:0:0:0:
240,200,53444,1,8,0:0:0:0:
248,200,53674,1,8,0:0:0:0:
248,200,53903,1,8,0:0:0:0:
256,192,54209,1,8,0:0:0:0:
256,192,54515,1,0,0:0:0:0:
256,200,55434,1,0,0:0:0:0:
256,192,56658,1,0,0:0:0:0:
256,192,56811,1,0,0:0:0:0:
256,192,57117,1,0,0:0:0:0:
256,192,57347,1,0,0:0:0:0:
256,192,57577,1,0,0:0:0:0:
264,152,57883,1,0,0:0:0:0:
256,192,58189,1,0,0:0:0:0:
256,200,59107,1,0,0:0:0:0:
256,200,60332,1,0,0:0:0:0:
256,200,60485,1,0,0:0:0:0:
256,192,60791,1,0,0:0:0:0:
256,192,61021,1,0,0:0:0:0:
256,192,61250,1,0,0:0:0:0:
256,192,61556,1,0,0:0:0:0:
256,192,61862,1,8,0:0:0:0:
256,192,62781,1,8,0:0:0:0:
256,192,64005,1,0,0:0:0:0:
256,192,64158,1,8,0:0:0:0:
256,208,64464,1,8,0:0:0:0:
256,208,64694,1,8,0:0:0:0:
256,208,64924,1,8,0:0:0:0:
248,176,65230,1,8,0:0:0:0:
248,176,65536,1,0,0:0:0:0:
248,176,66454,1,0,0:0:0:0:
248,176,67679,1,0,0:0:0:0:
248,176,67832,1,8,0:0:0:0:
256,168,68138,1,8,0:0:0:0:
256,168,68189,1,0,0:0:0:0:
256,168,68342,1,8,0:0:0:0:
256,168,68393,1,0,0:0:0:0:
256,168,68546,1,8,0:0:0:0:
256,168,68597,1,0,0:0:0:0:
240,160,68750,1,8,0:0:0:0:
256,168,68801,2,0,L|296:168,3,33.3333333333333
256,184,69209,5,6,0:0:0:0:
256,192,69362,1,8,0:0:0:0:
256,184,69515,1,4,0:0:0:0:
256,184,69821,1,4,0:0:0:0:
256,184,70127,1,4,0:0:0:0:
256,192,70433,1,0,0:0:0:0:
256,192,70510,1,0,0:0:0:0:
256,192,70586,1,8,0:0:0:0:
256,192,70663,1,8,0:0:0:0:
256,192,70739,1,0,0:0:0:0:
256,192,70816,1,0,0:0:0:0:
256,192,70892,1,8,0:0:0:0:
256,160,70969,1,0,0:0:0:0:
256,160,71045,1,0,0:0:0:0:
256,184,71198,1,0,0:0:0:0:
256,184,71351,1,6,0:0:0:0:
256,192,71504,1,8,0:0:0:0:
256,184,71657,1,4,0:0:0:0:
256,184,71964,1,4,0:0:0:0:
256,192,72270,1,0,0:0:0:0:
256,192,72346,1,0,0:0:0:0:
256,192,72423,1,0,0:0:0:0:
256,192,72499,1,8,0:0:0:0:
256,192,72576,1,0,0:0:0:0:
256,184,72652,1,0,0:0:0:0:
256,184,72729,1,0,0:0:0:0:
256,184,72805,1,8,0:0:0:0:
256,192,72882,1,0,0:0:0:0:
256,192,72959,1,0,0:0:0:0:
256,192,73035,1,0,0:0:0:0:
256,192,73188,1,8,0:0:0:0:
256,192,73265,1,0,0:0:0:0:
256,192,73341,1,8,0:0:0:0:
256,184,73494,1,6,0:0:0:0:
256,192,73647,1,8,0:0:0:0:
256,184,73800,1,4,0:0:0:0:
256,192,73953,1,8,0:0:0:0:
256,184,74106,1,4,0:0:0:0:
256,192,74260,1,8,0:0:0:0:
256,184,74413,1,4,0:0:0:0:
256,192,74719,1,0,0:0:0:0:
256,192,74795,1,0,0:0:0:0:
256,192,74872,1,8,0:0:0:0:
256,192,74948,1,8,0:0:0:0:
256,192,75025,1,0,0:0:0:0:
256,192,75101,1,0,0:0:0:0:
256,192,75178,1,8,0:0:0:0:
256,192,75254,1,0,0:0:0:0:
256,192,75331,1,8,0:0:0:0:
256,184,75484,1,8,0:0:0:0:
256,184,75637,1,6,0:0:0:0:
256,192,75790,1,0,0:0:0:0:
256,184,75943,1,4,0:0:0:0:
256,192,76096,1,8,0:0:0:0:
256,184,76249,1,4,0:0:0:0:
256,192,76555,1,0,0:0:0:0:
256,192,76632,1,0,0:0:0:0:
256,192,76709,1,0,0:0:0:0:
256,192,76785,1,0,0:0:0:0:
256,192,76862,1,8,0:0:0:0:
256,192,76938,1,0,0:0:0:0:
256,192,77015,1,8,0:0:0:0:
256,192,77091,1,8,0:0:0:0:
256,192,77168,1,8,0:0:0:0:
256,192,77244,1,0,0:0:0:0:
256,192,77321,1,8,0:0:0:0:
256,192,77397,1,0,0:0:0:0:
256,184,77474,1,8,0:0:0:0:
256,184,77550,1,0,0:0:0:0:
256,184,77627,1,8,0:0:0:0:
256,184,77780,1,6,0:0:0:0:
256,192,77933,1,8,0:0:0:0:
256,192,78086,1,0,0:0:0:0:
256,192,78239,1,8,0:0:0:0:
256,184,78392,1,4,0:0:0:0:
256,192,78545,1,8,0:0:0:0:
256,184,78698,1,4,0:0:0:0:
256,192,78851,1,8,0:0:0:0:
256,192,79004,1,0,0:0:0:0:
256,192,79081,1,0,0:0:0:0:
256,192,79157,1,8,0:0:0:0:
256,192,79234,1,0,0:0:0:0:
256,184,79311,1,8,0:0:0:0:
256,192,79387,1,8,0:0:0:0:
256,192,79464,1,8,0:0:0:0:
256,192,79540,1,0,0:0:0:0:
256,192,79617,1,8,0:0:0:0:
256,192,79693,1,0,0:0:0:0:
256,184,79770,1,0,0:0:0:0:
256,184,79923,1,6,0:0:0:0:
256,192,80076,1,8,0:0:0:0:
256,184,80229,1,4,0:0:0:0:
256,192,80382,1,8,0:0:0:0:
256,184,80535,1,4,0:0:0:0:
256,192,80688,1,8,0:0:0:0:
256,192,80841,1,0,0:0:0:0:
256,192,80918,1,8,0:0:0:0:
256,192,80994,1,0,0:0:0:0:
256,192,81071,1,0,0:0:0:0:
256,192,81147,1,8,0:0:0:0:
256,192,81224,1,0,0:0:0:0:
256,192,81300,1,0,0:0:0:0:
256,192,81377,1,8,0:0:0:0:
256,192,81453,1,8,0:0:0:0:
256,192,81530,1,0,0:0:0:0:
256,192,81606,1,8,0:0:0:0:
256,192,81683,1,8,0:0:0:0:
256,184,81760,1,0,0:0:0:0:
256,184,81836,1,8,0:0:0:0:
256,184,81913,1,8,0:0:0:0:
256,184,82066,1,6,0:0:0:0:
256,192,82219,1,0,0:0:0:0:
256,184,82372,1,6,0:0:0:0:
256,184,82525,5,0,0:0:0:0:
256,184,82678,1,4,0:0:0:0:
256,160,82831,1,8,0:0:0:0:
256,184,82984,1,4,0:0:0:0:
256,160,83137,1,8,0:0:0:0:
256,160,83290,1,0,0:0:0:0:
256,160,83367,1,0,0:0:0:0:
256,160,83443,1,8,0:0:0:0:
256,160,83520,1,8,0:0:0:0:
256,160,83596,1,0,0:0:0:0:
256,160,83673,1,8,0:0:0:0:
256,160,83749,1,8,0:0:0:0:
256,160,83826,1,0,0:0:0:0:
256,184,83902,1,8,0:0:0:0:
256,184,83979,1,8,0:0:0:0:
256,184,84055,1,8,0:0:0:0:
256,184,84209,1,6,0:0:0:0:
256,184,84362,1,8,0:0:0:0:
256,184,84515,1,4,0:0:0:0:
256,160,84668,1,8,0:0:0:0:
256,184,84821,1,4,0:0:0:0:
256,160,84974,1,0,0:0:0:0:
256,184,85050,1,0,0:0:0:0:
256,184,85127,1,8,0:0:0:0:
256,184,85203,1,8,0:0:0:0:
256,184,85280,1,8,0:0:0:0:
256,184,85356,1,0,0:0:0:0:
256,184,85433,1,8,0:0:0:0:
256,184,85510,1,8,0:0:0:0:
256,184,85586,1,0,0:0:0:0:
256,184,85663,1,0,0:0:0:0:
256,184,85739,1,8,0:0:0:0:
256,184,85841,1,0,0:0:0:0:
256,184,85943,1,0,0:0:0:0:
256,184,86045,1,8,0:0:0:0:
256,184,86351,1,4,0:0:0:0:
256,192,87269,1,8,0:0:0:0:
256,192,87881,1,0,0:0:0:0:
256,192,88799,1,8,0:0:0:0:
256,192,89412,1,0,0:0:0:0:
256,192,90330,1,8,0:0:0:0:
256,192,90942,1,0,0:0:0:0:
256,192,91860,1,8,0:0:0:0:
256,192,92167,1,8,0:0:0:0:
256,192,92473,1,4,0:0:0:0:
256,192,93085,1,8,0:0:0:0:
256,192,93391,1,0,0:0:0:0:
256,192,93697,1,8,0:0:0:0:
256,192,94004,1,6,0:0:0:0:
288,192,94310,1,0,0:0:0:0:
288,192,94616,1,8,0:0:0:0:
288,192,94922,1,8,0:0:0:0:
288,192,95075,1,0,0:0:0:0:
288,192,95228,1,6,0:0:0:0:
256,192,95381,1,0,0:0:0:0:
256,192,95534,1,0,0:0:0:0:
256,192,95687,1,6,0:0:0:0:
256,192,95840,1,0,0:0:0:0:
256,192,96146,1,8,0:0:0:0:
256,192,96299,1,8,0:0:0:0:
256,192,96453,1,0,0:0:0:0:
256,192,96759,1,8,0:0:0:0:
256,192,96912,1,0,0:0:0:0:
256,192,97065,1,8,0:0:0:0:
256,192,97218,1,0,0:0:0:0:
256,192,97269,1,8,0:0:0:0:
256,192,97473,1,0,0:0:0:0:
256,192,97524,1,8,0:0:0:0:
256,192,97779,1,8,0:0:0:0:
256,192,97932,1,0,0:0:0:0:
256,192,98289,1,8,0:0:0:0:
256,192,98442,1,8,0:0:0:0:
256,184,98595,1,4,0:0:0:0:
256,192,99513,1,8,0:0:0:0:
256,192,100125,1,0,0:0:0:0:
256,192,101043,1,8,0:0:0:0:
256,192,101656,1,0,0:0:0:0:
256,192,102574,1,8,0:0:0:0:
256,192,103186,1,0,0:0:0:0:
259,195,104106,1,8,0:0:0:0:
259,195,104412,1,8,0:0:0:0:
248,200,104718,1,4,0:0:0:0:
248,200,104794,1,8,0:0:0:0:
253,202,104871,1,0,0:0:0:0:
253,200,104947,1,0,0:0:0:0:
259,195,105330,1,8,0:0:0:0:
264,196,105942,1,8,0:0:0:0:
259,195,106019,1,8,0:0:0:0:
259,195,106095,1,8,0:0:0:0:
265,197,106172,1,8,0:0:0:0:
265,197,106248,1,0,0:0:0:0:
265,197,106325,1,0,0:0:0:0:
264,196,106402,1,0,0:0:0:0:
264,196,106478,1,0,0:0:0:0:
264,196,106555,1,8,0:0:0:0:
264,196,106784,1,0,0:0:0:0:
264,196,106861,1,6,0:0:0:0:
255,195,106912,2,0,L|352:192,1,80
290,197,107167,1,0,0:0:0:0:
284,201,107626,1,8,0:0:0:0:
284,201,107703,1,6,0:0:0:0:
283,201,107779,1,0,0:0:0:0:
274,198,108034,1,0,0:0:0:0:
275,198,108086,1,8,0:0:0:0:
290,201,108391,1,0,0:0:0:0:
290,201,108544,1,0,0:0:0:0:
292,209,108595,1,8,0:0:0:0:
292,200,108697,1,0,0:0:0:0:
292,209,108748,1,8,0:0:0:0:
292,209,109081,1,8,0:0:0:0:
292,209,109157,1,8,0:0:0:0:
292,209,109234,1,8,0:0:0:0:
256,192,109386,12,4,110534,0:0:0:0:
248,196,110840,5,4,0:0:0:0:
256,192,114513,1,0,0:0:0:0:
256,192,117574,1,8,0:0:0:0:
256,192,118186,1,4,0:0:0:0:
256,192,118799,1,0,0:0:0:0:
256,192,121248,1,8,0:0:0:0:
256,192,121860,1,4,0:0:0:0:
256,192,122472,1,0,0:0:0:0:
256,192,123084,1,0,0:0:0:0:
256,192,123697,1,12,0:0:0:0:
256,192,125533,1,4,0:0:0:0:
256,192,126146,1,8,0:0:0:0:
256,192,126758,1,8,0:0:0:0:
256,192,127370,1,4,0:0:0:0:
256,192,127982,1,0,0:0:0:0:
256,192,128595,1,8,0:0:0:0:
256,192,129207,1,4,0:0:0:0:
256,192,129819,1,0,0:0:0:0:
256,192,130431,1,8,0:0:0:0:
256,192,131044,1,0,0:0:0:0:
256,192,132880,1,4,0:0:0:0:
256,192,133799,1,8,0:0:0:0:
256,192,134411,1,0,0:0:0:0:
256,192,134717,1,8,0:0:0:0:
256,192,135635,1,8,0:0:0:0:
256,192,135942,1,0,0:0:0:0:
256,192,136248,1,8,0:0:0:0:
256,192,136554,1,4,0:0:0:0:
256,192,137472,5,8,0:0:0:0:
256,192,138391,1,0,0:0:0:0:
256,192,139003,1,0,0:0:0:0:
256,192,139309,1,8,0:0:0:0:
256,192,139921,1,8,0:0:0:0:
256,192,140227,1,4,0:0:0:0:
256,192,140533,1,8,0:0:0:0:
256,192,140840,1,0,0:0:0:0:
256,192,141146,1,8,0:0:0:0:
256,192,141452,1,0,0:0:0:0:
256,192,141758,1,8,0:0:0:0:
256,192,142064,1,0,0:0:0:0:
256,192,143901,1,4,0:0:0:0:
256,192,144819,1,6,0:0:0:0:
256,192,145737,1,6,0:0:0:0:
256,192,146656,1,4,0:0:0:0:
256,192,147574,1,6,0:0:0:0:
256,192,148186,1,0,0:0:0:0:
256,192,148493,1,8,0:0:0:0:
256,192,148952,1,0,0:0:0:0:
256,192,149411,1,8,0:0:0:0:
256,192,149870,1,0,0:0:0:0:
256,192,150329,1,6,0:0:0:0:
256,192,150942,1,0,0:0:0:0:
256,192,151248,1,6,0:0:0:0:
256,192,151554,1,4,0:0:0:0:
256,192,152166,1,8,0:0:0:0:
256,192,152472,1,0,0:0:0:0:
256,192,153084,1,8,0:0:0:0:
256,192,153391,1,0,0:0:0:0:
256,192,154003,1,8,0:0:0:0:
256,192,154462,1,0,0:0:0:0:
256,192,154921,1,0,0:0:0:0:
256,192,156707,1,0,0:0:0:0:
256,192,156758,1,8,0:0:0:0:
256,192,157370,1,8,0:0:0:0:
224,192,157982,1,0,0:0:0:0:
224,192,158595,1,0,0:0:0:0:
256,192,158671,2,0,L|288:192,19,25
256,160,160380,5,0,0:0:0:0:
256,160,160431,1,8,0:0:0:0:
256,160,161044,1,0,0:0:0:0:
256,160,161656,1,0,0:0:0:0:
256,160,162268,1,6,0:0:0:0:
256,192,162345,12,4,165635,0:0:0:0:
256,192,165942,5,0,0:0:0:0:
256,192,166860,1,0,0:0:0:0:
256,192,167778,1,8,0:0:0:0:
256,192,168391,1,0,0:0:0:0:
256,192,169003,1,8,0:0:0:0:
256,192,169615,1,0,0:0:0:0:
256,192,169692,2,0,L|288:192,19,25
288,192,171452,1,8,0:0:0:0:
288,192,172064,1,0,0:0:0:0:
256,192,172676,1,0,0:0:0:0:
256,192,173288,5,6,0:0:0:0:
256,192,173365,12,0,180329,0:0:0:0:
