osu file format v14

[General]
AudioFilename: audio.mp3
AudioLeadIn: 0
PreviewTime: 62798
Countdown: 0
SampleSet: Soft
StackLeniency: 0.7
Mode: 0
LetterboxInBreaks: 0
WidescreenStoryboard: 1

[Editor]
DistanceSpacing: 2
BeatDivisor: 2
GridSize: 4
TimelineZoom: 1

[Metadata]
Title:Rin! Rin! Hi! Hi!
TitleUnicode:Rin! Rin! Hi! Hi!
Artist:hugs The Super Ball
ArtistUnicode:ハシグチカナデリヤ hugs The Super Ball
Creator:Landwii
Version:Normal
Source:ナンバカ
Tags:Nanbaka ナンバカ Opening
BeatmapID:1199495
BeatmapSetID:542003

[Difficulty]
HPDrainRate:4.5
CircleSize:3.8
OverallDifficulty:4
ApproachRate:4
SliderMultiplier:0.500000005960464
SliderTickRate:1

[Events]
//Background and Video events
0,0,"nanbaka-pv-2-1.jpg",0,0
Video,1056,"Nanbaka Opening-SD.mp4"
//Break Periods
2,23469,33243
//Storyboard Layer 0 (Background)
//Storyboard Layer 1 (Fail)
//Storyboard Layer 2 (Pass)
//Storyboard Layer 3 (Foreground)
//Storyboard Sound Samples

[TimingPoints]
681,352.941176470588,4,3,0,69,1,0
51504,-111.111111111111,4,1,0,50,0,0
64210,-90.9090909090909,4,3,0,70,0,1
75504,-100,4,2,0,65,0,0

[Colours]
Combo1 : 193,193,0
Combo2 : 0,155,0
Combo3 : 44,44,44
Combo4 : 102,102,255
Combo5 : 255,45,45
Combo6 : 0,255,0
Combo7 : 0,0,79
Combo8 : 255,230,230

[HitObjects]
116,144,17622,6,0,B|148:104|204:104|204:104|200:152|256:176,1,175.000002086163,2|8,0:0|0:0,0:0:0:0:
300,200,19033,2,0,B|320:168|304:120|384:112,1,125.000001490116,2|8,0:0|0:0,0:0:0:0:
448,116,20092,1,8,0:0:0:0:
424,184,20269,1,8,0:0:0:0:
376,244,20445,2,0,B|344:228|308:204|308:204|236:220|208:192,1,175.000002086163,2|8,0:0|0:0,0:0:0:0:
256,192,21857,12,4,23269,0:0:0:0:
136,72,34563,5,8,0:0:0:0:
208,68,34739,1,8,0:0:0:0:
276,88,34916,2,0,B|264:120|264:120|256:160|320:204,1,125.000001490116,2|8,0:0|0:0,0:0:0:0:
376,216,35975,1,8,0:0:0:0:
324,268,36151,1,8,0:0:0:0:
248,252,36328,2,0,L|204:216,1,50.0000005960464,8|8,0:0|0:0,0:0:0:0:
152,160,36857,5,2,0:0:0:0:
128,60,37210,2,2,B|172:56|172:56|208:56|208:56|256:64,1,125.000001490116,2|6,0:0|0:0,0:0:0:0:
256,192,38445,12,0,39857,0:0:0:0:
256,88,40563,6,0,L|308:88,2,50.0000005960464,0|8|0,0:0|0:0|0:0,0:0:0:0:
152,88,41622,1,0,0:0:0:0:
96,148,41975,2,0,P|80:188|92:252,1,100.000001192093,2|8,0:0|0:0,0:0:0:0:
216,264,43386,6,0,L|260:228,2,50.0000005960464,0|8|0,0:0|0:0|0:0,0:0:0:0:
124,324,44445,2,0,P|96:276|104:216,1,100.000001192093,2|8,0:0|0:0,0:0:0:0:
168,156,45504,1,0,0:0:0:0:
248,212,45857,1,0,0:0:0:0:
212,308,46210,6,0,L|272:316,2,50.0000005960464,0|8|0,0:0|0:0|0:0,0:0:0:0:
120,264,47269,1,0,0:0:0:0:
184,192,47622,2,0,B|200:200|212:168|284:176,1,100.000001192093,2|8,0:0|0:0,0:0:0:0:
480,240,49033,5,0,0:0:0:0:
428,316,49386,1,2,0:0:0:0:
344,276,49739,1,0,0:0:0:0:
268,216,50092,2,0,B|216:216|216:216|184:196|160:140|212:116,1,175.000002086163,2|8,0:0|0:0,0:0:0:0:
320,136,51504,6,2,B|376:124|332:56|416:40,1,134.999997489452,0|2,0:0|0:0,0:0:0:0:
464,104,52916,2,0,L|460:168,1,44.9999991631508
416,244,53622,1,8,0:0:0:0:
332,188,53975,1,8,0:0:0:0:
280,96,54328,6,2,B|216:92|240:168|164:172,1,134.999997489452,0|2,0:0|0:0,0:0:0:0:
88,224,55739,2,0,L|132:264,1,44.9999991631508,0|8,0:0|0:0,0:0:0:0:
204,308,56445,2,0,L|248:272,1,44.9999991631508,0|8,0:0|0:0,0:0:0:0:
312,212,57151,6,2,B|248:224|288:148|204:136,1,134.999997489452,0|2,0:0|0:0,0:0:0:0:
128,92,58563,2,0,L|120:152,1,44.9999991631508,0|8,0:0|0:0,0:0:0:0:
128,236,59269,2,0,L|172:276,1,44.9999991631508,0|8,0:0|0:0,0:0:0:0:
256,192,59975,12,4,62798,0:0:0:0:
256,16,64210,5,0,0:0:0:0:
256,120,64563,2,0,L|312:136,1,55.000002334118
392,184,65269,1,0,0:0:0:0:
320,252,65622,2,0,L|272:288,1,55.000002334118
172,332,66328,1,8,0:0:0:0:
116,248,66680,1,8,0:0:0:0:
176,164,67033,1,8,0:0:0:0:
244,72,67386,6,0,L|304:84,2,55.000002334118,2|2|2,0:0|0:0|0:0,0:0:0:0:
256,344,69857,6,0,L|204:304,1,55.000002334118
184,216,70563,1,0,0:0:0:0:
272,172,70916,1,0,0:0:0:0:
380,168,71269,2,0,L|380:240,1,55.000002334118
340,320,71975,1,8,0:0:0:0:
256,252,72328,2,0,P|220:228|184:232,1,55.000002334118,8|8,0:0|0:0,0:0:0:0:
108,268,73033,6,0,L|88:216,2,55.000002334118,2|2|2,0:0|0:0|0:0,0:0:0:0:
256,192,75504,12,0,76916,0:0:0:0:
256,192,77622,5,2,0:0:0:0:
256,192,78328,12,0,79739,0:0:0:0:
256,192,80445,5,2,0:0:0:0:
256,192,81151,12,0,82563,0:0:0:0:
256,192,83269,5,2,0:0:0:0:
312,88,83975,2,0,L|376:88,2,50.0000005960464,8|8|8,0:0|0:0|0:0,0:0:0:0:
200,88,85033,2,0,L|140:88,2,50.0000005960464,8|8|8,0:0|0:0|0:0,0:0:0:0:
260,172,86092,2,0,L|260:232,1,50.0000005960464,0|8,0:0|0:0,0:0:0:0:
260,312,86798,1,12,0:0:0:0:
