osu file format v14

[General]
AudioFilename: audio.mp3
AudioLeadIn: 0
PreviewTime: 42
Countdown: 0
SampleSet: Normal
StackLeniency: 0.7
Mode: 1
LetterboxInBreaks: 0
WidescreenStoryboard: 0

[Editor]
DistanceSpacing: 0.9
BeatDivisor: 16
GridSize: 4
TimelineZoom: 1.1

[Metadata]
Title:remade my hands & smile
TitleUnicode:remade my hands & smile
Artist:hsiu
ArtistUnicode:hsiu
Creator:Idealism
Version:happiness
Source:
Tags:electronic nightcore lolicore japanese nomico masayoshi minoshima 簑島正佳 shanghai alice in 1884 alstroemeria records 東方紅魔郷 ~ the Embodiment of Scarlet Devil toho touhou 東方project emotional maedasalt you were beautiful when i loved lost part2 never get bored of brainstorming reasons adore
BeatmapID:2433041
BeatmapSetID:1166413

[Difficulty]
HPDrainRate:7
CircleSize:5
OverallDifficulty:5
ApproachRate:5
SliderMultiplier:1.4
SliderTickRate:1

[Events]
//Background and Video events
0,0,"76051900_p0_master1200.jpg",0,-120
//Break Periods
//Storyboard Layer 0 (Background)
//Storyboard Layer 1 (Fail)
//Storyboard Layer 2 (Pass)
//Storyboard Layer 3 (Foreground)
//Storyboard Layer 4 (Overlay)
//Storyboard Sound Samples

[TimingPoints]
42,500,4,1,0,40,1,0
16042,-100,4,1,0,50,0,0
32042,-100,4,1,0,60,0,1
64042,-100,4,1,0,40,0,0
72042,-100,4,1,0,50,0,0
88042,-100,4,1,0,60,0,1
104042,-100,4,1,0,50,0,0
119573,500,4,1,0,40,1,8
120073,500,4,1,0,40,1,0
140073,-100,4,1,0,20,0,0

[HitObjects]
254,187,42,5,0,0:0:0:0:
254,187,292,1,0,0:0:0:0:
254,187,542,1,8,0:0:0:0:
254,187,792,1,0,0:0:0:0:
254,187,1042,1,8,0:0:0:0:
254,187,1542,1,8,0:0:0:0:
254,187,2042,1,8,0:0:0:0:
254,187,2542,1,0,0:0:0:0:
254,187,2792,1,8,0:0:0:0:
254,187,3042,1,0,0:0:0:0:
254,187,4042,1,8,0:0:0:0:
254,187,4292,1,8,0:0:0:0:
254,187,4542,1,0,0:0:0:0:
254,187,5042,1,0,0:0:0:0:
254,187,5292,1,8,0:0:0:0:
254,187,5542,1,0,0:0:0:0:
254,187,6042,1,0,0:0:0:0:
254,187,6542,1,0,0:0:0:0:
254,187,7042,1,8,0:0:0:0:
254,187,7542,1,8,0:0:0:0:
254,187,7667,1,8,0:0:0:0:
254,187,7792,1,0,0:0:0:0:
254,187,7917,1,8,0:0:0:0:
249,187,8042,1,0,0:0:0:0:
254,187,8292,1,8,0:0:0:0:
249,187,8542,1,0,0:0:0:0:
249,187,8792,1,0,0:0:0:0:
249,187,9042,1,8,0:0:0:0:
249,187,9542,1,8,0:0:0:0:
249,187,10042,1,8,0:0:0:0:
249,187,10542,1,0,0:0:0:0:
249,187,10792,1,8,0:0:0:0:
249,187,11042,1,0,0:0:0:0:
249,187,12042,1,8,0:0:0:0:
249,187,12292,1,8,0:0:0:0:
249,187,12542,1,0,0:0:0:0:
249,187,13042,1,0,0:0:0:0:
249,187,13292,1,8,0:0:0:0:
249,187,13542,1,0,0:0:0:0:
249,187,14042,1,0,0:0:0:0:
249,187,14542,1,8,0:0:0:0:
252,183,14792,1,0,0:0:0:0:
252,183,15042,1,8,0:0:0:0:
252,183,15542,1,8,0:0:0:0:
252,183,15667,1,8,0:0:0:0:
252,183,15792,1,0,0:0:0:0:
252,183,15917,1,8,0:0:0:0:
252,183,16042,1,0,0:0:0:0:
244,185,16292,1,0,0:0:0:0:
244,185,16542,1,8,0:0:0:0:
245,185,16792,1,8,0:0:0:0:
244,185,17042,1,0,0:0:0:0:
244,185,17542,1,8,0:0:0:0:
245,185,18042,1,8,0:0:0:0:
240,189,18542,1,0,0:0:0:0:
240,189,18792,1,8,0:0:0:0:
240,189,18917,1,8,0:0:0:0:
243,189,19042,1,0,0:0:0:0:
240,189,19292,1,0,0:0:0:0:
243,178,19542,1,8,0:0:0:0:
241,179,20042,1,0,0:0:0:0:
245,178,20292,1,8,0:0:0:0:
243,178,20417,1,8,0:0:0:0:
243,178,20542,1,0,0:0:0:0:
252,176,21042,1,0,0:0:0:0:
252,176,21292,1,8,0:0:0:0:
243,178,21417,1,8,0:0:0:0:
251,180,21542,1,0,0:0:0:0:
253,182,22042,1,0,0:0:0:0:
251,180,22542,1,8,0:0:0:0:
253,182,22792,1,0,0:0:0:0:
253,182,22917,1,0,0:0:0:0:
253,182,23042,1,8,0:0:0:0:
251,180,23542,1,8,0:0:0:0:
253,182,23667,1,8,0:0:0:0:
253,182,23792,1,0,0:0:0:0:
253,182,23917,1,8,0:0:0:0:
253,182,24042,1,0,0:0:0:0:
257,182,24292,1,0,0:0:0:0:
257,182,24542,1,8,0:0:0:0:
253,182,24792,1,0,0:0:0:0:
253,182,25042,1,0,0:0:0:0:
248,183,25542,1,8,0:0:0:0:
253,182,26042,1,8,0:0:0:0:
248,183,26542,1,0,0:0:0:0:
253,182,26792,1,8,0:0:0:0:
253,182,26917,1,8,0:0:0:0:
253,182,27042,1,0,0:0:0:0:
252,182,27292,1,0,0:0:0:0:
252,182,27542,1,8,0:0:0:0:
253,182,28042,1,8,0:0:0:0:
252,182,28292,1,8,0:0:0:0:
245,176,28417,1,8,0:0:0:0:
252,182,28542,1,0,0:0:0:0:
249,177,29042,1,8,0:0:0:0:
249,177,29292,1,8,0:0:0:0:
249,177,29417,1,8,0:0:0:0:
252,182,29542,1,0,0:0:0:0:
249,177,30042,1,0,0:0:0:0:
244,167,30542,1,8,0:0:0:0:
242,174,30792,1,0,0:0:0:0:
241,172,30917,1,0,0:0:0:0:
241,172,31042,1,8,0:0:0:0:
241,172,31542,1,8,0:0:0:0:
242,174,31667,1,8,0:0:0:0:
242,174,31792,1,8,0:0:0:0:
241,181,31917,1,8,0:0:0:0:
241,182,32042,1,4,0:0:0:0:
244,175,32292,1,0,0:0:0:0:
251,177,32417,1,0,0:0:0:0:
242,174,32542,1,8,0:0:0:0:
246,175,32792,1,0,0:0:0:0:
244,175,33042,1,8,0:0:0:0:
249,177,33292,1,0,0:0:0:0:
244,175,33417,1,0,0:0:0:0:
250,177,33542,1,8,0:0:0:0:
242,167,34042,1,8,0:0:0:0:
242,167,34542,1,0,0:0:0:0:
242,167,34792,1,8,0:0:0:0:
242,167,34917,1,8,0:0:0:0:
242,167,35042,1,0,0:0:0:0:
242,167,35167,1,8,0:0:0:0:
242,167,35292,1,0,0:0:0:0:
242,167,35417,1,0,0:0:0:0:
246,162,35542,1,8,0:0:0:0:
248,162,36042,1,8,0:0:0:0:
250,162,36292,1,8,0:0:0:0:
246,162,36417,1,8,0:0:0:0:
253,163,36542,1,0,0:0:0:0:
253,164,37042,1,0,0:0:0:0:
250,162,37292,1,8,0:0:0:0:
254,164,37417,1,8,0:0:0:0:
253,163,37542,1,0,0:0:0:0:
267,157,38042,1,8,0:0:0:0:
265,157,38542,1,0,0:0:0:0:
267,157,38792,1,0,0:0:0:0:
267,157,38917,1,0,0:0:0:0:
267,157,39042,1,8,0:0:0:0:
265,157,39542,1,8,0:0:0:0:
267,157,39667,1,8,0:0:0:0:
267,157,39792,1,0,0:0:0:0:
267,157,39917,1,8,0:0:0:0:
265,157,40042,1,0,0:0:0:0:
265,157,40292,1,0,0:0:0:0:
240,157,40417,1,0,0:0:0:0:
265,157,40542,1,8,0:0:0:0:
267,157,40792,1,0,0:0:0:0:
265,157,41042,1,8,0:0:0:0:
256,167,41292,1,0,0:0:0:0:
256,167,41417,1,0,0:0:0:0:
265,157,41542,1,8,0:0:0:0:
265,157,42042,1,8,0:0:0:0:
270,157,42542,1,0,0:0:0:0:
270,157,42792,1,8,0:0:0:0:
270,157,42917,1,8,0:0:0:0:
270,157,43042,1,0,0:0:0:0:
259,157,43167,1,8,0:0:0:0:
270,157,43292,1,0,0:0:0:0:
265,154,43417,1,0,0:0:0:0:
274,160,43542,1,8,0:0:0:0:
268,147,44042,1,0,0:0:0:0:
268,147,44292,1,8,0:0:0:0:
269,147,44417,1,8,0:0:0:0:
269,149,44542,1,0,0:0:0:0:
268,147,45042,1,8,0:0:0:0:
268,147,45292,1,8,0:0:0:0:
269,147,45417,1,8,0:0:0:0:
269,149,45542,1,0,0:0:0:0:
269,149,46042,1,0,0:0:0:0:
268,147,46542,1,8,0:0:0:0:
268,147,46792,1,0,0:0:0:0:
268,147,46917,1,0,0:0:0:0:
268,147,47042,1,8,0:0:0:0:
269,149,47542,1,8,0:0:0:0:
268,147,47667,1,8,0:0:0:0:
268,147,47792,1,0,0:0:0:0:
268,147,47917,1,8,0:0:0:0:
268,147,48042,1,0,0:0:0:0:
269,149,48292,1,0,0:0:0:0:
269,149,48417,1,0,0:0:0:0:
269,149,48542,1,8,0:0:0:0:
268,147,48792,1,8,0:0:0:0:
268,147,49042,1,0,0:0:0:0:
269,149,49542,1,8,0:0:0:0:
272,149,50042,1,8,0:0:0:0:
269,149,50542,1,0,0:0:0:0:
272,149,50792,1,8,0:0:0:0:
272,149,51042,1,0,0:0:0:0:
269,149,51167,1,8,0:0:0:0:
274,150,51292,1,0,0:0:0:0:
280,158,51417,1,0,0:0:0:0:
274,150,51542,1,8,0:0:0:0:
280,158,52042,1,0,0:0:0:0:
280,158,52292,1,0,0:0:0:0:
280,158,52417,1,0,0:0:0:0:
280,158,52542,1,8,0:0:0:0:
289,160,53042,1,8,0:0:0:0:
280,158,53292,1,8,0:0:0:0:
280,158,53417,1,8,0:0:0:0:
280,158,53542,1,0,0:0:0:0:
289,160,54042,1,0,0:0:0:0:
280,158,54542,1,8,0:0:0:0:
284,159,54792,1,0,0:0:0:0:
284,159,54917,1,0,0:0:0:0:
283,161,55042,1,8,0:0:0:0:
291,162,55542,1,8,0:0:0:0:
291,162,55667,1,0,0:0:0:0:
290,162,55792,1,8,0:0:0:0:
290,162,55917,1,0,0:0:0:0:
291,162,56042,1,0,0:0:0:0:
291,162,56292,1,8,0:0:0:0:
285,158,56417,1,8,0:0:0:0:
291,162,56542,1,0,0:0:0:0:
290,162,56792,1,0,0:0:0:0:
291,162,57042,1,8,0:0:0:0:
291,162,57542,1,8,0:0:0:0:
291,162,58042,1,8,0:0:0:0:
291,162,58542,1,0,0:0:0:0:
291,162,58792,1,8,0:0:0:0:
291,162,59042,1,0,0:0:0:0:
291,162,59167,1,8,0:0:0:0:
291,162,59292,1,0,0:0:0:0:
291,162,59417,1,0,0:0:0:0:
291,162,59542,1,8,0:0:0:0:
291,162,60042,1,0,0:0:0:0:
296,161,60292,1,0,0:0:0:0:
297,160,60542,1,8,0:0:0:0:
275,155,61042,1,8,0:0:0:0:
280,155,61292,1,8,0:0:0:0:
279,155,61542,1,0,0:0:0:0:
275,155,62042,1,0,0:0:0:0:
279,155,62542,1,0,0:0:0:0:
275,155,62792,1,8,0:0:0:0:
275,155,63042,1,0,0:0:0:0:
279,155,63542,1,8,0:0:0:0:
275,155,63667,1,8,0:0:0:0:
275,155,63792,1,0,0:0:0:0:
275,155,63917,1,8,0:0:0:0:
284,155,64042,1,0,0:0:0:0:
279,155,64542,1,8,0:0:0:0:
275,155,64792,1,0,0:0:0:0:
275,155,64917,1,0,0:0:0:0:
275,151,65167,1,8,0:0:0:0:
275,151,65292,1,0,0:0:0:0:
275,151,65542,1,8,0:0:0:0:
257,139,66042,1,0,0:0:0:0:
261,142,66542,1,8,0:0:0:0:
262,142,66792,1,0,0:0:0:0:
261,144,66917,1,0,0:0:0:0:
259,147,67167,1,8,0:0:0:0:
260,147,67292,1,0,0:0:0:0:
261,147,67542,1,8,0:0:0:0:
259,147,68042,1,0,0:0:0:0:
261,147,68542,1,8,0:0:0:0:
259,147,68792,1,0,0:0:0:0:
259,147,68917,1,0,0:0:0:0:
261,147,69167,1,0,0:0:0:0:
261,147,69292,1,8,0:0:0:0:
259,147,69542,1,8,0:0:0:0:
244,147,70042,1,0,0:0:0:0:
246,147,70542,1,8,0:0:0:0:
244,147,70792,1,0,0:0:0:0:
248,147,70917,1,0,0:0:0:0:
246,147,71167,1,8,0:0:0:0:
246,147,71292,1,0,0:0:0:0:
248,148,71542,1,8,0:0:0:0:
248,148,71792,1,8,0:0:0:0:
236,150,71917,1,8,0:0:0:0:
246,147,72042,1,4,0:0:0:0:
241,152,72292,1,0,0:0:0:0:
242,173,72417,1,0,0:0:0:0:
244,175,72542,1,8,0:0:0:0:
242,174,72792,1,8,0:0:0:0:
248,175,73042,1,0,0:0:0:0:
250,177,73542,1,8,0:0:0:0:
242,167,74042,1,8,0:0:0:0:
242,167,74542,1,0,0:0:0:0:
242,167,74792,1,8,0:0:0:0:
242,167,74917,1,8,0:0:0:0:
242,167,75042,1,0,0:0:0:0:
242,167,75292,1,0,0:0:0:0:
246,162,75542,1,8,0:0:0:0:
248,162,76042,1,8,0:0:0:0:
250,162,76292,1,8,0:0:0:0:
246,162,76417,1,8,0:0:0:0:
253,163,76542,1,0,0:0:0:0:
253,164,77042,1,0,0:0:0:0:
250,162,77292,1,8,0:0:0:0:
254,164,77417,1,8,0:0:0:0:
253,163,77542,1,0,0:0:0:0:
267,157,78042,1,8,0:0:0:0:
265,157,78542,1,0,0:0:0:0:
267,157,78792,1,0,0:0:0:0:
267,157,78917,1,0,0:0:0:0:
267,157,79042,1,8,0:0:0:0:
265,157,79542,1,8,0:0:0:0:
267,157,79667,1,8,0:0:0:0:
267,157,79792,1,0,0:0:0:0:
265,157,80042,1,8,0:0:0:0:
265,157,80292,1,0,0:0:0:0:
240,157,80417,1,0,0:0:0:0:
265,157,80542,1,8,0:0:0:0:
267,157,80792,1,0,0:0:0:0:
265,157,81042,1,8,0:0:0:0:
265,157,81542,1,8,0:0:0:0:
265,157,82042,1,8,0:0:0:0:
265,157,82542,1,0,0:0:0:0:
265,157,82792,1,8,0:0:0:0:
265,157,82917,1,8,0:0:0:0:
270,157,83042,1,0,0:0:0:0:
259,157,83292,1,0,0:0:0:0:
274,160,83542,1,8,0:0:0:0:
268,147,84042,1,0,0:0:0:0:
268,147,84292,1,8,0:0:0:0:
269,147,84417,1,8,0:0:0:0:
269,149,84542,1,0,0:0:0:0:
268,147,85042,1,8,0:0:0:0:
268,147,85292,1,8,0:0:0:0:
269,147,85417,1,8,0:0:0:0:
269,149,85542,1,0,0:0:0:0:
268,147,86042,1,8,0:0:0:0:
269,149,86542,1,0,0:0:0:0:
268,147,86792,1,0,0:0:0:0:
268,147,86917,1,0,0:0:0:0:
268,147,87042,1,8,0:0:0:0:
269,149,87542,1,8,0:0:0:0:
268,147,87667,1,8,0:0:0:0:
268,147,87792,1,0,0:0:0:0:
268,147,87917,1,8,0:0:0:0:
268,147,88042,1,0,0:0:0:0:
269,149,88292,1,0,0:0:0:0:
264,146,88417,1,0,0:0:0:0:
269,149,88542,1,8,0:0:0:0:
268,147,88792,1,8,0:0:0:0:
268,147,89042,1,0,0:0:0:0:
246,143,89292,1,0,0:0:0:0:
246,143,89417,1,0,0:0:0:0:
269,149,89542,1,8,0:0:0:0:
256,144,90042,1,8,0:0:0:0:
269,149,90542,1,0,0:0:0:0:
272,149,90792,1,8,0:0:0:0:
270,151,90917,1,8,0:0:0:0:
272,149,91042,1,0,0:0:0:0:
269,149,91167,1,8,0:0:0:0:
274,150,91292,1,0,0:0:0:0:
280,158,91417,1,0,0:0:0:0:
274,150,91542,1,8,0:0:0:0:
280,158,92042,1,0,0:0:0:0:
280,158,92292,1,8,0:0:0:0:
280,158,92417,1,8,0:0:0:0:
280,158,92542,1,0,0:0:0:0:
289,160,93042,1,8,0:0:0:0:
280,158,93292,1,8,0:0:0:0:
280,158,93417,1,8,0:0:0:0:
280,158,93542,1,0,0:0:0:0:
289,160,94042,1,0,0:0:0:0:
280,158,94292,1,0,0:0:0:0:
280,158,94417,1,0,0:0:0:0:
280,158,94542,1,8,0:0:0:0:
284,159,94792,1,0,0:0:0:0:
283,161,95042,1,8,0:0:0:0:
291,162,95542,1,8,0:0:0:0:
291,162,95667,1,8,0:0:0:0:
290,162,95792,1,0,0:0:0:0:
290,162,95917,1,8,0:0:0:0:
291,162,96042,1,0,0:0:0:0:
291,162,96292,1,0,0:0:0:0:
275,166,96417,1,0,0:0:0:0:
291,162,96542,1,8,0:0:0:0:
264,164,96792,1,0,0:0:0:0:
262,163,97042,1,8,0:0:0:0:
256,158,97292,1,0,0:0:0:0:
258,158,97417,1,0,0:0:0:0:
291,162,97542,1,8,0:0:0:0:
291,162,98042,1,8,0:0:0:0:
284,167,98542,1,0,0:0:0:0:
283,167,98792,1,8,0:0:0:0:
283,167,98917,1,8,0:0:0:0:
291,162,99042,1,0,0:0:0:0:
291,162,99167,1,8,0:0:0:0:
291,162,99292,1,0,0:0:0:0:
291,162,99417,1,0,0:0:0:0:
291,162,99542,1,8,0:0:0:0:
291,162,100042,1,0,0:0:0:0:
287,171,100292,1,8,0:0:0:0:
290,172,100417,1,0,0:0:0:0:
297,160,100542,1,8,0:0:0:0:
275,155,101042,1,0,0:0:0:0:
280,155,101292,1,8,0:0:0:0:
290,172,101417,1,0,0:0:0:0:
289,174,101542,1,8,0:0:0:0:
275,155,102042,1,0,0:0:0:0:
279,155,102542,1,8,0:0:0:0:
275,155,102792,1,0,0:0:0:0:
282,169,102917,1,0,0:0:0:0:
275,155,103042,1,8,0:0:0:0:
279,155,103542,1,8,0:0:0:0:
275,155,103667,1,8,0:0:0:0:
275,155,103792,1,0,0:0:0:0:
275,155,103917,1,8,0:0:0:0:
284,155,104042,1,0,0:0:0:0:
273,170,104292,1,0,0:0:0:0:
273,170,104542,1,8,0:0:0:0:
273,170,104792,1,8,0:0:0:0:
273,170,105042,1,0,0:0:0:0:
273,170,105542,1,8,0:0:0:0:
273,170,106042,1,8,0:0:0:0:
273,170,106542,1,0,0:0:0:0:
273,170,106792,1,8,0:0:0:0:
273,170,107042,1,0,0:0:0:0:
273,170,107542,1,8,0:0:0:0:
273,170,108042,1,0,0:0:0:0:
273,170,108292,1,8,0:0:0:0:
273,170,108542,1,0,0:0:0:0:
273,170,109042,1,8,0:0:0:0:
273,170,109292,1,8,0:0:0:0:
273,170,109542,1,0,0:0:0:0:
273,170,110042,1,0,0:0:0:0:
273,170,110542,1,8,0:0:0:0:
273,170,110792,1,0,0:0:0:0:
273,170,111042,1,8,0:0:0:0:
273,170,111542,1,8,0:0:0:0:
273,170,111667,1,8,0:0:0:0:
273,170,111792,1,0,0:0:0:0:
276,184,111917,1,0,0:0:0:0:
273,170,112042,1,8,0:0:0:0:
273,170,112292,1,0,0:0:0:0:
273,170,112542,1,8,0:0:0:0:
273,170,112792,1,8,0:0:0:0:
273,170,113042,1,0,0:0:0:0:
273,170,113542,1,8,0:0:0:0:
273,170,114042,1,8,0:0:0:0:
273,170,114542,1,8,0:0:0:0:
273,170,114792,1,8,0:0:0:0:
273,170,115042,1,0,0:0:0:0:
273,170,115542,1,8,0:0:0:0:
273,170,116042,1,0,0:0:0:0:
273,170,116292,1,8,0:0:0:0:
265,172,116417,1,8,0:0:0:0:
273,170,116542,1,0,0:0:0:0:
266,175,116792,1,0,0:0:0:0:
266,175,116917,1,0,0:0:0:0:
268,173,117042,1,8,0:0:0:0:
273,170,117292,1,8,0:0:0:0:
265,172,117417,1,8,0:0:0:0:
273,170,117542,1,0,0:0:0:0:
266,175,117792,1,0,0:0:0:0:
266,175,117917,1,0,0:0:0:0:
273,180,118042,1,8,0:0:0:0:
273,180,118542,1,8,0:0:0:0:
273,180,118792,1,0,0:0:0:0:
261,180,119042,1,8,0:0:0:0:
261,180,119573,1,8,0:0:0:0:
261,180,119698,1,8,0:0:0:0:
263,181,119823,1,0,0:0:0:0:
266,181,119948,1,0,0:0:0:0:
236,166,120073,1,0,0:0:0:0:
264,169,120448,1,8,0:0:0:0:
265,169,120698,1,0,0:0:0:0:
236,166,120948,1,0,0:0:0:0:
237,160,121323,1,0,0:0:0:0:
237,160,121448,1,8,0:0:0:0:
238,160,121698,1,0,0:0:0:0:
238,160,121948,1,0,0:0:0:0:
237,160,122448,1,8,0:0:0:0:
238,160,122698,1,0,0:0:0:0:
238,160,122948,1,0,0:0:0:0:
237,160,123073,1,8,0:0:0:0:
227,159,123323,1,0,0:0:0:0:
237,160,123448,1,8,0:0:0:0:
232,159,123573,1,0,0:0:0:0:
231,159,123823,1,8,0:0:0:0:
231,159,123948,1,8,0:0:0:0:
231,159,124073,1,0,0:0:0:0:
237,160,124448,1,8,0:0:0:0:
241,154,124698,1,0,0:0:0:0:
241,154,124948,1,0,0:0:0:0:
240,143,125323,1,0,0:0:0:0:
239,143,125448,1,8,0:0:0:0:
239,143,125698,1,0,0:0:0:0:
239,143,125948,1,0,0:0:0:0:
249,138,126448,1,8,0:0:0:0:
248,139,126698,1,0,0:0:0:0:
243,140,126948,1,0,0:0:0:0:
249,138,127073,1,8,0:0:0:0:
248,139,127323,1,0,0:0:0:0:
244,133,127448,1,8,0:0:0:0:
248,135,127573,1,0,0:0:0:0:
249,138,127823,1,8,0:0:0:0:
247,135,127948,1,8,0:0:0:0:
249,138,128073,1,0,0:0:0:0:
244,133,128448,1,8,0:0:0:0:
245,131,128698,1,0,0:0:0:0:
247,135,128948,1,0,0:0:0:0:
244,133,129323,1,0,0:0:0:0:
244,133,129448,1,8,0:0:0:0:
245,131,129698,1,0,0:0:0:0:
247,135,129948,1,0,0:0:0:0:
244,133,130448,1,8,0:0:0:0:
245,131,130698,1,0,0:0:0:0:
242,132,130948,1,0,0:0:0:0:
244,133,131073,1,8,0:0:0:0:
244,133,131323,1,8,0:0:0:0:
246,127,131448,1,8,0:0:0:0:
245,131,131573,1,0,0:0:0:0:
242,132,131823,1,0,0:0:0:0:
242,132,131948,1,8,0:0:0:0:
244,133,132073,1,0,0:0:0:0:
245,131,132448,1,8,0:0:0:0:
260,123,132698,1,0,0:0:0:0:
260,122,132948,1,0,0:0:0:0:
246,122,133323,1,0,0:0:0:0:
256,123,133448,1,8,0:0:0:0:
260,123,133698,1,0,0:0:0:0:
255,124,133948,1,0,0:0:0:0:
256,123,134448,1,8,0:0:0:0:
255,124,134698,1,0,0:0:0:0:
253,128,134948,1,0,0:0:0:0:
253,128,135073,1,8,0:0:0:0:
256,123,135323,1,8,0:0:0:0:
241,119,135448,1,8,0:0:0:0:
255,124,135573,1,0,0:0:0:0:
247,120,135823,1,0,0:0:0:0:
246,120,135948,1,8,0:0:0:0:
255,124,136073,1,0,0:0:0:0:
256,192,136448,12,0,143948,0:0:0:0:
