osu file format v14

[General]
AudioFilename: audio.mp3
AudioLeadIn: 0
PreviewTime: 73300
Countdown: 0
SampleSet: Soft
StackLeniency: 0.7
Mode: 0
LetterboxInBreaks: 0
WidescreenStoryboard: 1

[Editor]
Bookmarks: 1050,12050,20050,30717,41383,52050,60050,65383,68050,73383,84050,92050,102717,113383,124050,132050,137383,140050,142717,153383,161383,172050,182717,193383,206717,217383,222717,230717,235883
DistanceSpacing: 1
BeatDivisor: 4
GridSize: 32
TimelineZoom: 1.5

[Metadata]
Title:Yumemiru Sora e
TitleUnicode:夢見る空へ
Artist:hololive IDOL PROJECT
ArtistUnicode:hololive IDOL PROJECT
Creator:Amateurre
Version:xidorn's Hard
Source:
Tags:xidorn Shizuku- ホロライブ hororaibu Virtual YouTuber VTuber Original Song Japanese Pop 白上フブキ Shirakami Fubuki 夏色まつり Fubuking Natsuiro Matsuri 赤井はあと Akai Haato はあちゃま HAACHAMA 夜空メル Yozora Mel アキローゼンタール アキロゼ Aki Rosenthal Rozenthal Akiroze Akirose Kento Nagatsuka 永塚健登
BeatmapID:2488837
BeatmapSetID:1136612

[Difficulty]
HPDrainRate:5
CircleSize:4
OverallDifficulty:6
ApproachRate:8
SliderMultiplier:1.4
SliderTickRate:1

[Events]
//Background and Video events
0,0,"Yumemiru Sora e.jpg",0,0
//Break Periods
2,65583,67300
2,137583,139300
2,206717,210967
//Storyboard Layer 0 (Background)
//Storyboard Layer 1 (Fail)
//Storyboard Layer 2 (Pass)
//Storyboard Layer 3 (Foreground)
//Storyboard Layer 4 (Overlay)
//Storyboard Sound Samples

[TimingPoints]
1384,333.333333333333,4,2,1,50,1,0
1384,-111.111111111111,4,2,1,50,0,0
9383,-100,4,2,1,50,0,0
10050,-100,4,2,1,53,0,0
10717,-100,4,2,1,56,0,0
11383,-100,4,2,1,59,0,0
12050,-100,4,2,1,60,0,0
17383,-100,4,2,1,65,0,0
20050,-100,4,2,1,65,0,0
30717,-100,4,2,1,60,0,0
39883,-100,4,2,1,65,0,0
52050,-100,4,2,1,60,0,0
60050,-100,4,2,1,65,0,0
73383,-100,4,2,1,70,0,1
92050,-100,4,2,1,65,0,0
102717,-111.111111111111,4,2,1,55,0,0
110717,-100,4,2,1,65,0,0
124050,-100,4,2,1,60,0,0
132050,-100,4,2,1,65,0,0
142717,-100,4,2,1,70,0,1
161383,-100,4,2,1,50,0,0
163217,-111.111111111111,4,2,1,50,0,0
170717,-111.111111111111,4,2,1,65,0,0
172050,-99.9999999999999,4,2,1,65,0,0
206717,-100,4,2,1,60,0,0
211217,-100,4,2,1,65,0,0
217383,-100,4,2,1,70,0,1
230717,-100,4,2,1,65,0,0

[Colours]
Combo1 : 255,66,66
Combo2 : 250,213,84
Combo3 : 119,217,249
Combo4 : 69,141,222
Combo5 : 239,149,67

[HitObjects]
32,198,1050,6,0,L|29:145,3,35,2|2|2|2,0:2|0:2|0:2|0:0,0:0:0:0:
26,131,1384,6,0,P|83:99|165:118,1,125.999996154785,2|0,0:2|0:0,0:2:0:0:
189,144,1883,1,0,0:0:0:0:
299,83,2217,1,2,0:2:0:0:
353,51,2383,1,2,0:2:0:0:
411,75,2550,6,0,P|426:146|409:212,1,125.999996154785,2|0,0:2|0:0,0:2:0:0:
417,323,3217,1,0,0:2:0:0:
362,352,3383,2,0,L|284:340,1,62.9999980773926,2|0,0:2|0:2,0:2:0:0:
241,316,3717,2,0,L|161:327,1,62.9999980773926,2|0,0:2|0:2,0:2:0:0:
115,324,4050,6,0,P|117:376|126:390,2,62.9999980773926,2|0|0,0:2|0:0|0:0,0:2:0:0:
73,276,4550,1,0,0:0:0:0:
44,153,4883,1,2,0:2:0:0:
91,111,5050,1,2,0:2:0:0:
147,138,5217,6,0,P|217:146|276:117,1,125.999996154785,2|0,0:2|0:0,0:2:0:0:
304,244,5883,2,0,P|291:314|320:377,1,125.999996154785,0|2,0:2|0:2,0:0:0:0:
372,366,6383,2,0,L|460:362,1,62.9999980773926,2|2,0:2|0:2,0:0:0:0:
480,318,6717,6,0,P|500:253|488:168,1,125.999996154785,2|0,0:2|0:0,0:2:0:0:
461,143,7217,1,0,0:0:0:0:
480,83,7383,1,0,0:0:0:0:
370,47,7717,1,2,0:2:0:0:
370,47,7800,1,2,0:2:0:0:
370,47,7883,6,0,P|272:69|241:56,1,125.999996154785,2|0,0:2|0:0,0:2:0:0:
142,125,8550,1,0,0:2:0:0:
114,182,8717,2,0,B|64:172|64:172|-1:201,2,94.499997116089,2|2|2,0:2|0:2|0:2,0:2:0:0:
150,241,9383,6,0,P|215:263|300:246,1,140,2|0,0:2|0:0,0:2:0:0:
397,336,10050,2,0,P|419:271|402:186,1,140,2|0,0:2|0:0,0:2:0:0:
461,153,10550,1,0,0:0:0:0:
430,89,10717,6,0,L|288:75,1,140,2|0,0:2|0:0,0:2:0:0:
232,35,11217,1,0,0:0:0:0:
169,65,11383,1,2,0:2:0:0:
90,181,11717,2,0,L|35:178,2,35
138,231,12050,6,0,P|179:284|132:338,1,140,6|2,3:2|0:2,0:2:0:0:
73,351,12550,1,2,0:2:0:0:
210,374,12883,2,0,P|245:370|285:351,1,70,2|0,3:2|0:0,0:0:0:0:
346,366,13217,6,0,P|345:285|368:221,1,140,2|0,3:2|0:2,0:2:0:0:
421,189,13717,1,2,0:2:0:0:
345,71,14050,2,0,P|283:72|246:62,1,70,2|0,0:2|0:0,0:0:0:0:
212,38,14383,2,0,P|153:37|116:52,1,70,2|0,3:2|0:2,0:2:0:0:
113,103,14717,6,0,P|133:183|114:249,1,140,2|2,3:2|0:2,0:2:0:0:
135,305,15217,2,0,B|79:324|79:324|-10:312,2,140,2|2|2,0:2|3:2|3:2,0:2:0:0:
268,348,16217,2,0,L|264:390,2,35,2|2|2,0:2|0:2|0:2,0:0:0:0:
271,277,16550,6,0,P|334:257|414:254,1,140,6|2,1:2|3:2,0:0:0:0:
445,317,17050,1,4,1:2:0:0:
445,317,17217,1,0,0:0:0:0:
509,288,17383,6,0,P|496:246|505:140,1,140,4|0,3:2|1:2,0:0:0:0:
507,81,17883,1,0,3:2:0:0:
441,107,18050,2,0,P|401:101|353:110,1,70,0|0,1:2|1:2,0:0:0:0:
351,171,18383,2,0,P|318:178|267:166,1,70,0|0,1:2|3:2,0:0:0:0:
222,135,18717,5,4,1:2:0:0:
117,348,20050,6,0,P|99:277|112:203,1,140,6|0,3:2|1:2,0:2:0:0:
63,155,20550,1,0,3:2:0:0:
63,155,20633,1,0,3:2:0:0:
63,155,20717,2,0,P|125:133|152:142,1,70,0|2,3:2|3:2,0:0:0:0:
197,103,21050,1,0,1:2:0:0:
256,152,21217,6,0,B|220:188|220:188|233:295,1,140,6|0,3:2|3:2,0:2:0:0:
277,337,21717,1,0,1:2:0:0:
200,345,21883,2,0,P|165:340|130:344,1,70,2|0,3:2|0:2,0:2:0:0:
54,360,22217,1,2,3:2:0:0:
6,299,22383,1,0,1:2:0:0:
51,151,22717,6,0,P|126:148|198:123,1,140,6|0,3:2|1:2,0:2:0:0:
232,65,23217,1,0,3:2:0:0:
232,65,23300,1,0,3:2:0:0:
232,65,23383,2,0,P|272:69|322:55,1,70,0|2,3:2|3:2,0:0:0:0:
371,31,23717,1,0,1:2:0:0:
426,83,23883,6,0,B|396:130|396:130|410:221,1,140,6|2,3:2|1:2,0:2:0:0:
448,279,24383,2,0,L|500:260,2,35,0|0|2,1:2|3:2|3:2,0:0:0:0:
305,338,24883,1,2,3:2:0:0:
305,338,24967,1,0,0:0:0:0:
305,338,25050,2,0,P|262:338|224:331,1,70,2|0,1:2|1:2,0:2:0:0:
159,348,25383,6,0,B|122:311|122:311|125:210,1,140,6|0,3:2|1:2,0:2:0:0:
171,163,25883,1,0,3:2:0:0:
171,163,25967,1,0,3:2:0:0:
171,163,26050,2,0,P|165:122|177:72,1,70,0|2,3:2|3:2,0:0:0:0:
224,40,26383,1,0,1:2:0:0:
278,94,26550,6,0,B|314:117|314:117|412:107,1,140,6|0,3:2|3:2,0:2:0:0:
472,60,27050,1,0,1:2:0:0:
491,134,27217,2,0,P|474:198|501:269,1,140,2|2,3:2|3:2,0:2:0:0:
500,342,27717,1,0,1:2:0:0:
368,261,28050,6,0,L|382:180,2,70,6|2|2,3:2|0:2|1:2,0:0:0:0:
322,323,28550,1,2,3:2:0:0:
245,314,28717,2,0,P|179:311|103:329,1,140,2|2,1:2|3:2,0:0:0:0:
43,370,29217,1,6,3:2:0:0:
20,222,29550,1,2,3:2:0:0:
20,222,29717,1,6,3:2:0:0:
64,77,30050,1,0,3:2:0:0:
64,77,30217,6,0,P|63:37|55:5,2,70,2|8|4,1:2|0:3|0:3,0:0:0:0:
117,122,30717,2,0,P|155:103|253:117,1,140,2|2,3:2|3:2,0:0:0:0:
284,175,31217,1,2,0:2:0:0:
241,230,31383,2,0,P|234:272|245:322,1,70,2|0,3:2|0:0,0:2:0:0:
294,348,31717,1,2,3:2:0:0:
294,348,31883,6,0,L|433:335,2,140,2|2|2,0:2|0:2|0:2,0:2:0:0:
154,329,32883,1,2,0:2:0:0:
154,329,33050,2,0,P|138:274|157:234,1,70,2|0,3:2|0:0,0:2:0:0:
84,220,33383,6,0,P|134:231|236:198,1,140,0|2,3:2|3:2,0:2:0:0:
236,142,33883,1,2,0:2:0:0:
298,111,34050,2,0,P|341:111|383:135,1,70,2|0,3:2|0:2,0:2:0:0:
386,192,34383,1,2,3:2:0:0:
386,192,34550,6,0,P|400:261|396:338,1,140,2|2,0:2|0:2,0:2:0:0:
257,336,35217,1,2,0:2:0:0:
257,336,35300,1,0,3:2:0:0:
257,336,35383,2,0,P|202:330|167:339,1,70,0|2,3:2|0:2,0:0:0:0:
119,348,35717,1,2,3:2:0:0:
228,260,36050,6,0,P|243:195|225:115,1,140,0|2,3:2|3:2,0:0:0:0:
180,75,36550,1,2,0:2:0:0:
209,14,36717,2,0,P|255:13|283:28,1,70,2|0,3:2|0:0,0:2:0:0:
345,39,37050,1,2,3:2:0:0:
345,39,37217,6,0,L|495:11,2,140,2|2|2,0:2|0:2|0:2,0:2:0:0:
302,172,38217,1,2,0:2:0:0:
302,172,38383,2,0,P|301:211|314:245,1,70,2|0,3:2|0:0,0:2:0:0:
376,267,38717,6,0,P|306:264|238:290,1,140,0|2,3:2|3:2,0:2:0:0:
194,339,39217,1,2,0:2:0:0:
194,339,39383,2,0,L|110:337,1,70,2|0,3:2|0:2,0:2:0:0:
54,348,39717,1,2,3:2:0:0:
16,288,39883,5,6,3:2:0:0:
80,163,40217,1,6,3:2:0:0:
211,211,40550,2,0,P|281:215|352:192,1,140,2|2,0:2|3:2,0:0:0:0:
420,218,41050,2,0,L|429:262,3,35,2|2|2|2,1:2|3:2|3:2|0:2,0:2:0:0:
416,289,41383,6,0,P|375:292|331:314,1,70,4|0,3:2|3:2,0:2:0:0:
284,345,41717,1,2,1:2:0:0:
284,345,41883,1,2,0:2:0:0:
216,306,42050,2,0,P|220:264|208:216,1,70,2|0,3:2|3:0,0:2:0:0:
157,185,42383,1,2,0:2:0:0:
157,185,42550,6,0,P|215:194|295:173,1,140,2|2,1:2|3:2,0:2:0:0:
357,215,43050,1,0,1:2:0:0:
419,168,43217,1,2,3:2:0:0:
419,168,43300,1,0,3:2:0:0:
419,168,43383,2,0,P|418:114|438:78,1,70,0|2,3:2|3:2,0:2:0:0:
460,31,43717,1,2,1:2:0:0:
312,73,44050,6,0,P|252:77|218:63,1,70,0|0,3:2|3:2,0:2:0:0:
170,49,44383,1,2,1:2:0:0:
170,49,44550,1,2,0:2:0:0:
100,82,44717,2,0,P|103:125|92:162,1,70,2|0,3:2|3:0,0:2:0:0:
34,195,45050,1,2,0:2:0:0:
79,257,45217,6,0,B|231:277,1,140,2|2,1:2|3:2,0:2:0:0:
276,325,45717,1,0,1:2:0:0:
343,284,45883,1,2,3:2:0:0:
343,284,45967,1,0,3:2:0:0:
343,284,46050,2,0,P|339:245|350:200,1,70,0|2,3:2|1:2,0:2:0:0:
408,172,46383,2,0,P|412:133|401:88,1,70,2|0,1:2|1:2,0:0:0:0:
381,72,46633,1,0,1:2:0:0:
381,72,46717,6,0,P|320:72|293:60,1,70,0|0,3:2|3:2,0:2:0:0:
245,42,47050,1,2,1:2:0:0:
245,42,47217,1,2,0:2:0:0:
182,86,47383,2,0,P|132:94|82:86,1,70,2|0,3:2|3:0,0:2:0:0:
45,55,47717,1,2,0:2:0:0:
42,131,47883,6,0,P|54:192|37:277,1,140,2|2,1:2|3:2,0:2:0:0:
31,344,48383,1,0,1:2:0:0:
108,319,48550,1,2,3:2:0:0:
108,319,48633,1,0,3:2:0:0:
108,319,48717,2,0,P|154:317|197:324,1,70,0|2,3:2|3:2,0:2:0:0:
238,367,49050,1,2,1:2:0:0:
391,361,49383,6,0,P|393:294|441:219,1,140,2|2,3:2|1:2,0:2:0:0:
503,216,49883,1,2,3:2:0:0:
433,77,50217,1,2,3:2:0:0:
301,156,50550,6,0,P|192:152|155:146,1,140,6|0,3:2|3:2,0:2:0:0:
100,100,51050,1,0,1:2:0:0:
53,161,51217,1,0,3:2:0:0:
53,161,51300,1,0,0:0:0:0:
53,161,51383,2,0,L|51:214,3,35,8|8|8|0,0:3|0:3|3:3|0:3,0:0:0:0:
30,229,51717,2,0,L|28:282,3,35,4|0|8|0,1:3|0:2|3:3|0:2,0:2:0:0:
30,299,52050,6,0,P|85:313|176:310,1,140,6|2,3:2|0:3,0:0:0:0:
302,350,52717,2,0,P|296:290|320:192,1,140,0|2,3:2|1:3,0:2:0:0:
255,169,53217,2,0,P|313:176|399:161,1,140,0|0,3:2|3:2,0:2:0:0:
454,129,53717,2,0,P|448:92|461:54,1,70,0|0,0:2|3:2,0:0:0:0:
390,39,54050,2,0,P|335:38|304:25,1,70,0|0,3:2|0:0,0:2:0:0:
255,47,54383,1,2,1:3:0:0:
255,47,54550,1,0,0:2:0:0:
281,111,54717,6,0,P|290:159|277:258,1,140,0|2,3:2|0:3,0:2:0:0:
230,298,55217,1,0,3:2:0:0:
230,298,55383,2,0,L|76:311,1,140,0|2,3:2|1:3,0:2:0:0:
36,265,55883,2,0,P|21:183|27:94,2,140,0|0|0,3:2|3:2|3:2,0:2:0:0:
22,334,56717,1,0,3:2:0:0:
156,373,57050,1,2,1:3:0:0:
290,336,57383,6,0,P|278:263|287:191,1,140,4|2,3:2|0:3,0:0:0:0:
209,79,58050,2,0,P|282:67|354:76,1,140,0|2,3:2|1:3,0:2:0:0:
411,102,58550,2,0,L|420:250,1,140,0|0,3:2|3:2,0:2:0:0:
392,306,59050,2,0,P|332:316|309:303,1,70,0|0,0:2|3:2,0:0:0:0:
258,293,59383,2,0,L|166:304,2,70,0|0|2,3:2|0:2|1:3,0:0:0:0:
249,138,60050,6,0,P|207:138|180:143,1,70,2|0,3:2|0:0,0:2:0:0:
109,110,60383,1,2,1:2:0:0:
65,173,60550,2,0,P|75:221|51:311,1,140,2|2,3:2|3:2,0:2:0:0:
198,358,61217,6,0,P|243:345|343:368,1,140,2|2,3:2|3:2,0:2:0:0:
403,331,61717,1,2,1:2:0:0:
361,266,61883,1,2,3:2:0:0:
390,194,62050,2,0,B|438:179|438:179|509:185,2,105,2|0|0,3:2|3:2|0:2,0:2:0:0:
318,164,62717,6,0,P|321:117|310:88,2,70,2|0|2,3:2|3:0|1:2,0:0:0:0:
260,215,63217,2,0,P|189:208|114:218,1,140,2|2,3:2|3:2,0:2:0:0:
55,175,63717,1,0,1:2:0:0:
6,234,63883,6,0,P|0:285|34:370,1,140,2|2,3:2|3:2,0:2:0:0:
101,334,64383,1,2,1:2:0:0:
101,334,64550,1,2,3:2:0:0:
173,361,64717,2,0,B|224:369|224:369|306:356,2,105,2|0|0,3:2|3:2|0:0,0:2:0:0:
166,284,65383,5,4,3:2:0:0:
50,87,68050,6,0,P|131:73|187:124,1,140,4|0,3:2|3:2,0:0:0:0:
231,156,68550,1,0,3:2:0:0:
193,223,68717,2,0,P|185:266|203:313,1,70,0|0,3:2|1:2,0:0:0:0:
249,340,69050,2,0,P|292:332|339:350,1,70,0|0,3:2|1:2,0:0:0:0:
379,292,69383,5,0,3:2:0:0:
444,250,69550,1,0,1:2:0:0:
444,250,69633,1,0,3:2:0:0:
444,250,69717,2,0,L|432:192,3,35,0|0|0|0,1:2|1:2|1:2|1:2,0:2:0:0:
459,184,70050,2,0,L|454:137,3,35,0|0|0|0,1:2|1:2|1:2|1:2,0:0:0:0:
443,112,70383,2,0,P|394:101|349:109,1,70,4|4,3:3|3:3,0:0:0:0:
297,109,70717,5,4,1:2:0:0:
86,333,71383,5,4,1:2:0:0:
379,239,72050,6,0,B|416:250|416:250|467:232|467:232|518:236,2,140,4|4|4,1:2|1:2|1:2,0:0:0:0:
221,179,73050,2,0,L|229:140,2,35,6|2|2,1:2|0:2|0:2,0:2:0:0:
176,249,73383,6,0,P|138:259|48:221,1,140,6|2,3:2|1:2,0:2:0:0:
90,148,73883,1,2,3:2:0:0:
90,148,73967,1,0,3:2:0:0:
90,148,74050,2,0,P|102:90|97:56,1,70,0|2,3:2|3:2,0:0:0:0:
175,40,74383,1,0,1:2:0:0:
241,92,74550,6,0,B|290:109|290:109|384:88,1,140,6|0,3:2|3:2,0:2:0:0:
451,52,75050,1,2,1:2:0:0:
451,52,75217,1,0,0:2:0:0:
436,134,75383,2,0,P|435:185|449:223,1,70,2|0,3:2|3:2,0:0:0:0:
506,255,75717,1,2,1:2:0:0:
372,357,76050,6,0,B|317:327|317:327|211:333,1,140,6|2,3:2|1:2,0:2:0:0:
157,348,76550,2,0,P|113:345|76:328,1,70,6|0,3:2|0:2,0:2:0:0:
6,350,76883,2,0,P|9:306|29:270,1,70,2|0,3:2|1:2,0:0:0:0:
54,258,77133,1,0,1:2:0:0:
54,258,77217,6,0,B|78:202|78:202|75:114,1,140,6|2,3:2|3:2,0:2:0:0:
156,89,77717,1,2,1:2:0:0:
156,89,77800,1,2,0:2:0:0:
156,89,77883,2,0,P|219:75|313:91,1,140,2|0,3:2|3:2,0:2:0:0:
377,73,78383,1,2,1:2:0:0:
429,138,78550,1,2,3:2:0:0:
372,200,78717,6,0,P|378:263|359:339,1,140,6|2,3:2|1:2,0:2:0:0:
279,310,79217,1,2,3:2:0:0:
279,310,79300,1,0,3:2:0:0:
279,310,79383,2,0,P|228:306|194:327,1,70,2|0,3:2|3:2,0:0:0:0:
133,345,79717,1,2,1:2:0:0:
56,311,79883,1,2,3:2:0:0:
104,242,80050,6,0,P|107:202|80:104,1,140,6|2,3:2|1:2,0:2:0:0:
32,50,80550,1,2,3:2:0:0:
32,50,80633,1,0,3:2:0:0:
32,50,80717,2,0,P|88:32|126:38,1,70,2|0,3:2|3:2,0:0:0:0:
176,64,81050,1,2,1:2:0:0:
301,175,81383,6,0,P|347:193|420:265,1,140,6|2,3:2|1:2,0:2:0:0:
497,254,81883,2,0,P|451:272|378:344,1,140,6|2,3:2|3:2,0:2:0:0:
303,310,82383,1,0,1:2:0:0:
232,356,82550,2,0,L|85:344,1,140,6|2,3:2|1:2,0:2:0:0:
26,292,83050,1,2,1:2:0:0:
26,292,83217,1,2,1:2:0:0:
102,142,83550,5,0,3:2:0:0:
167,88,83717,2,0,L|166:45,2,35,6|2|2,1:2|0:2|0:2,0:0:0:0:
188,169,84050,6,0,P|178:233|201:310,1,140,6|2,3:2|1:2,0:2:0:0:
273,340,84550,1,2,3:2:0:0:
273,340,84633,1,0,3:2:0:0:
273,340,84717,2,0,P|317:334|362:351,1,70,0|2,3:2|3:2,0:0:0:0:
424,352,85050,1,0,1:2:0:0:
472,283,85217,6,0,P|491:211|466:127,1,140,6|0,3:2|3:2,0:2:0:0:
448,69,85717,2,0,P|400:76|365:74,1,70,2|0,1:2|0:2,0:2:0:0:
302,38,86050,1,2,3:2:0:0:
302,38,86217,1,0,3:2:0:0:
238,92,86383,1,2,1:2:0:0:
260,237,86717,6,0,P|218:239|114:275,1,140,6|2,3:2|1:2,0:2:0:0:
55,316,87217,2,0,P|44:271|52:232,1,70,6|0,3:2|0:2,0:2:0:0:
85,173,87550,2,0,P|96:128|88:89,1,70,2|0,3:2|1:2,0:0:0:0:
117,70,87800,1,0,1:2:0:0:
117,70,87883,6,0,B|165:51|165:51|262:69,1,140,6|2,3:2|3:2,0:2:0:0:
322,130,88383,1,2,1:2:0:0:
322,130,88467,1,2,0:2:0:0:
322,130,88550,2,0,P|310:186|331:264,1,140,2|0,3:2|3:2,0:2:0:0:
388,326,89050,1,2,3:2:0:0:
388,326,89217,1,2,3:2:0:0:
307,349,89383,6,0,L|152:341,1,140,6|2,1:2|1:2,0:2:0:0:
97,294,89883,1,2,3:2:0:0:
139,221,90050,2,0,P|148:179|140:138,1,70,2|0,1:2|1:2,0:0:0:0:
134,69,90383,2,0,P|182:68|214:42,1,70,2|0,1:2|1:2,0:0:0:0:
279,27,90717,5,6,1:2:0:0:
443,37,92050,6,0,P|461:110|437:194,1,140,6|0,3:2|1:2,0:2:0:0:
477,253,92550,1,0,3:2:0:0:
477,253,92633,1,0,3:2:0:0:
477,253,92717,2,0,P|421:244|378:249,1,70,0|2,3:2|3:2,0:0:0:0:
356,302,93050,1,0,1:2:0:0:
293,257,93217,6,0,B|256:211|256:211|152:211,1,140,2|0,3:2|3:2,0:2:0:0:
100,231,93717,1,0,1:2:0:0:
138,297,93883,2,0,P|134:347|117:382,1,70,2|0,3:2|0:2,0:2:0:0:
49,369,94217,1,2,3:2:0:0:
11,302,94383,1,0,1:2:0:0:
47,152,94717,6,0,B|100:166|100:166|207:142,1,140,2|0,3:2|1:2,0:2:0:0:
233,88,95217,1,0,3:2:0:0:
233,88,95300,1,0,3:2:0:0:
233,88,95383,2,0,P|278:80|320:101,1,70,0|2,3:2|3:2,0:0:0:0:
367,48,95717,1,0,1:2:0:0:
426,96,95883,6,0,B|469:133|469:133|457:241,1,140,2|2,3:2|1:2,0:2:0:0:
423,283,96383,2,0,L|432:323,2,35,0|0|2,1:2|3:2|3:2,0:0:0:0:
303,185,96883,1,2,3:2:0:0:
303,185,96967,1,0,3:0:0:0:
303,185,97050,2,0,P|261:176|208:191,1,70,2|0,1:2|1:2,0:2:0:0:
179,125,97383,6,0,B|154:162|154:162|164:281,1,140,2|0,3:2|1:2,0:2:0:0:
114,317,97883,1,0,3:2:0:0:
114,317,97967,1,0,3:2:0:0:
114,317,98050,2,0,P|172:338|192:329,1,70,0|2,3:2|3:2,0:0:0:0:
235,286,98383,1,0,1:2:0:0:
295,333,98550,6,0,B|341:354|341:354|442:342,1,140,2|0,3:2|0:2,0:2:0:0:
479,284,99050,1,0,1:2:0:0:
429,224,99217,2,0,P|419:138|441:75,1,140,2|2,3:2|3:2,0:2:0:0:
483,28,99717,1,0,1:2:0:0:
331,52,100050,6,0,P|272:51|246:46,2,70,6|2|2,3:2|0:2|1:2,0:0:0:0:
400,19,100550,1,2,3:2:0:0:
390,95,100717,2,0,P|380:147|403:253,1,140,2|2,1:2|3:2,0:0:0:0:
443,290,101217,1,6,3:2:0:0:
296,337,101550,1,2,3:2:0:0:
296,337,101717,1,6,3:2:0:0:
144,311,102050,1,0,3:2:0:0:
144,311,102217,6,0,P|93:338|67:337,2,70,0|8|4,1:0|0:3|0:3,0:0:0:0:
174,247,102717,1,0,3:2:0:0:
120,117,103050,2,0,P|74:115|45:102,2,62.9999980773926,2|2|2,0:0|0:0|0:0,0:0:0:0:
235,62,103717,1,2,0:2:0:0:
235,62,103883,2,0,P|294:66|372:47,1,125.999996154785,2|2,0:2|0:0,0:0:0:0:
461,125,104550,2,0,P|458:191|476:269,1,125.999996154785,2|2,0:0|0:0,0:0:0:0:
497,306,105050,1,2,0:2:0:0:
374,333,105383,5,2,0:2:0:0:
297,232,105717,2,0,P|299:191|291:142,2,62.9999980773926,2|2|2,0:0|0:0|0:0,0:0:0:0:
190,297,106383,1,2,0:2:0:0:
190,297,106550,2,0,P|130:299|42:292,2,125.999996154785,2|2|2,0:2|0:0|0:2,0:0:0:0:
316,330,107550,1,2,0:2:0:0:
316,330,107717,1,2,0:2:0:0:
238,230,108050,5,2,0:2:0:0:
113,214,108383,2,0,P|54:222|31:215,2,62.9999980773926,2|2|2,0:0|0:0|0:0,0:0:0:0:
236,178,109050,1,2,0:2:0:0:
236,178,109217,2,0,P|243:116|231:44,1,125.999996154785,2|2,0:2|0:2,0:0:0:0:
359,42,109883,2,0,P|424:51|496:39,1,125.999996154785,2|2,0:2|0:2,0:0:0:0:
493,105,110383,1,2,0:2:0:0:
478,248,110717,6,0,B|450:284|450:284|344:290,1,140,2|2,3:2|3:2,0:0:0:0:
311,234,111217,1,0,3:2:0:0:
239,230,111383,2,0,P|193:232|144:216,1,70,2|0,3:2|1:2,0:0:0:0:
116,180,111717,1,2,1:2:0:0:
58,219,111883,5,6,3:2:0:0:
107,350,112217,1,6,3:2:0:0:
246,353,112550,1,6,3:2:0:0:
291,221,112883,1,6,3:2:0:0:
418,279,113217,6,0,P|442:218|427:119,1,140,6|0,3:2|3:2,0:2:0:0:
459,70,113717,1,2,1:2:0:0:
391,33,113883,1,2,0:2:0:0:
391,33,113967,1,0,0:0:0:0:
391,33,114050,2,0,P|330:29|299:50,1,70,2|0,3:2|0:0,0:2:0:0:
255,67,114383,1,2,0:2:0:0:
181,44,114550,6,0,B|162:83|162:83|178:196,1,140,2|2,1:2|3:2,0:2:0:0:
219,241,115050,1,2,1:2:0:0:
271,297,115217,2,0,L|327:289,2,35,2|0|0,3:2|3:2|3:2,0:0:0:0:
220,356,115550,1,2,3:2:0:0:
142,351,115717,1,2,1:2:0:0:
53,225,116050,6,0,L|-36:237,2,70,0|0|2,3:2|0:2|1:2,0:2:0:0:
100,166,116550,1,2,3:2:0:0:
100,166,116633,1,0,3:2:0:0:
100,166,116717,2,0,P|134:153|197:150,1,70,2|0,3:2|3:2,0:2:0:0:
227,99,117050,1,2,0:2:0:0:
239,175,117217,6,0,B|221:230|221:230|238:344,1,140,2|2,1:2|3:2,0:2:0:0:
292,360,117717,1,0,1:2:0:0:
340,300,117883,1,2,3:2:0:0:
340,300,117967,1,0,3:2:0:0:
340,300,118050,2,0,L|432:296,1,70,0|2,3:2|1:2,0:0:0:0:
457,235,118383,2,0,L|508:236,2,35,2|0|0,1:2|3:2|3:2,0:0:0:0:
418,167,118717,6,0,P|414:136|430:94,1,70,0|0,3:2|3:2,0:2:0:0:
468,35,119050,1,2,1:2:0:0:
468,35,119217,1,2,0:2:0:0:
391,33,119383,2,0,P|338:37|306:29,1,70,2|0,3:2|0:0,0:2:0:0:
246,14,119717,1,2,0:2:0:0:
264,88,119883,6,0,B|283:126|283:126|274:235,1,140,2|2,1:2|3:2,0:2:0:0:
310,291,120383,1,0,1:2:0:0:
245,330,120550,1,2,3:2:0:0:
245,330,120633,1,0,3:2:0:0:
245,330,120717,2,0,P|207:322|154:333,1,70,0|2,3:2|3:2,0:2:0:0:
108,358,121050,1,2,1:2:0:0:
108,358,121217,1,0,1:2:0:0:
122,282,121383,6,0,P|133:214|130:120,1,140,2|2,3:2|1:2,0:2:0:0:
189,90,121883,2,0,P|120:104|50:101,2,140,2|2|2,3:2|3:2|3:2,0:2:0:0:
343,97,122883,1,0,3:2:0:0:
395,40,123050,1,0,1:2:0:0:
455,103,123217,1,0,3:2:0:0:
455,103,123300,1,0,0:0:0:0:
455,103,123383,2,0,L|465:163,3,35,4|4|8|8,0:3|0:3|3:3|3:3,0:0:0:0:
485,168,123717,2,0,L|496:223,3,35,4|0|8|8,1:3|0:2|3:3|3:3,0:2:0:0:
497,236,124050,6,0,P|439:263|343:246,1,140,4|2,3:2|0:3,0:0:0:0:
258,348,124717,2,0,L|116:344,1,140,0|2,3:2|1:3,0:2:0:0:
48,338,125217,2,0,P|44:258|67:183,1,140,0|0,3:2|3:2,0:2:0:0:
24,139,125717,2,0,L|30:67,1,70,0|0,0:2|3:2,0:0:0:0:
94,42,126050,2,0,P|138:39|172:53,1,70,0|0,3:2|0:0,0:2:0:0:
228,24,126383,1,2,1:3:0:0:
147,138,126717,6,0,P|145:208|171:274,1,140,0|2,3:2|0:3,0:2:0:0:
193,340,127217,1,0,3:2:0:0:
262,332,127383,2,0,P|381:338|414:321,1,140,0|2,3:2|1:3,0:2:0:0:
397,260,127883,2,0,P|390:180|405:108,2,140,0|0|0,3:2|3:2|3:2,0:2:0:0:
458,294,128717,1,0,3:2:0:0:
504,162,129050,1,2,1:3:0:0:
438,38,129383,6,0,P|365:36|299:57,1,140,0|2,3:2|0:3,0:0:0:0:
162,41,130050,2,0,P|152:101|165:200,1,140,0|2,3:2|1:3,0:2:0:0:
180,246,130550,2,0,L|334:246,1,140,0|0,3:2|3:2,0:2:0:0:
381,279,131050,2,0,P|383:325|373:357,1,70,0|0,0:2|3:2,0:0:0:0:
307,359,131383,1,0,3:2:0:0:
169,332,131717,1,2,1:3:0:0:
30,352,132050,6,0,P|38:310|24:258,1,70,2|0,3:2|0:0,0:2:0:0:
14,208,132383,1,2,1:2:0:0:
69,154,132550,2,0,P|73:109|58:15,1,140,2|2,3:2|3:2,0:2:0:0:
190,94,133217,6,0,P|273:105|339:84,1,140,2|2,3:2|3:2,0:2:0:0:
399,65,133717,1,2,1:2:0:0:
387,140,133883,1,2,3:2:0:0:
423,207,134050,2,0,B|480:216|480:216|528:184,2,105,2|2|2,3:2|3:2|3:2,0:2:0:0:
356,247,134717,6,0,P|364:292|359:329,2,70,2|0|2,3:2|3:2|1:2,0:2:0:0:
285,215,135217,2,0,P|193:220|124:211,1,140,2|2,3:2|3:2,0:2:0:0:
82,170,135717,1,0,1:2:0:0:
13,204,135883,6,0,P|18:255|-10:348,1,140,2|2,3:2|3:2,0:2:0:0:
64,371,136383,1,2,1:2:0:0:
64,371,136550,1,2,3:2:0:0:
120,317,136717,2,0,B|179:327|179:327|218:292,2,105,2|2|2,3:2|3:2|3:2,0:2:0:0:
102,241,137383,5,4,3:2:0:0:
19,178,140050,6,0,P|90:186|173:155,1,140,4|0,3:2|3:2,0:0:0:0:
216,120,140550,1,0,3:2:0:0:
270,174,140717,2,0,P|336:172|367:160,1,70,0|0,3:2|1:2,0:0:0:0:
387,110,141050,1,0,3:0:0:0:
427,44,141217,1,0,1:0:0:0:
502,34,141383,5,4,1:2:0:0:
481,186,141717,1,4,1:2:0:0:
497,338,142050,1,4,1:2:0:0:
334,316,142383,2,0,L|292:325,3,35,6|2|2|2,1:2|0:2|0:2|0:2,0:2:0:0:
261,330,142717,6,0,P|166:333|115:316,1,140,6|2,3:2|1:2,0:2:0:0:
48,341,143217,1,2,3:2:0:0:
48,341,143300,1,0,3:2:0:0:
48,341,143383,2,0,P|43:294|57:243,1,70,0|2,3:2|3:2,0:0:0:0:
81,194,143717,1,0,1:2:0:0:
41,120,143883,6,0,B|48:68|48:68|164:47,1,140,6|0,3:2|3:2,0:2:0:0:
217,28,144383,1,2,1:2:0:0:
217,28,144550,1,0,3:2:0:0:
237,109,144717,2,0,P|236:154|252:197,1,70,2|0,3:2|3:2,0:0:0:0:
301,237,145050,1,2,1:2:0:0:
163,332,145383,6,0,P|261:338|324:341,1,140,6|2,3:2|1:2,0:2:0:0:
380,373,145883,2,0,P|439:366|457:344,1,70,6|0,3:2|0:2,0:2:0:0:
473,281,146217,2,0,P|469:246|477:210,1,70,2|0,3:2|1:2,0:0:0:0:
489,174,146467,1,0,1:2:0:0:
489,174,146550,6,0,P|481:107|430:51,1,140,6|2,3:2|3:2,0:2:0:0:
363,90,147050,1,2,1:2:0:0:
363,90,147133,1,2,0:2:0:0:
363,90,147217,2,0,P|289:96|207:70,1,140,2|0,3:2|3:2,0:2:0:0:
147,48,147717,1,2,1:2:0:0:
147,48,147883,1,2,3:2:0:0:
158,131,148050,6,0,P|148:191|170:275,1,140,6|2,3:2|1:2,0:2:0:0:
117,337,148550,1,2,3:2:0:0:
117,337,148633,1,0,3:2:0:0:
117,337,148717,2,0,P|160:356|201:354,1,70,2|0,3:2|3:2,0:0:0:0:
267,348,149050,1,2,1:2:0:0:
267,348,149217,1,2,3:2:0:0:
330,292,149383,6,0,P|317:239|319:194,1,70,6|0,3:2|0:2,0:2:0:0:
341,142,149717,1,2,1:2:0:0:
295,72,149883,1,2,3:2:0:0:
295,72,149967,1,0,3:2:0:0:
295,72,150050,2,0,P|244:77|204:66,1,70,2|0,3:2|3:2,0:0:0:0:
148,42,150383,1,2,1:2:0:0:
214,196,150717,6,0,P|185:252|115:296,1,140,6|2,3:2|1:2,0:2:0:0:
38,287,151217,2,0,P|67:343|137:387,1,140,6|2,3:2|3:2,0:2:0:0:
198,336,151717,1,0,1:2:0:0:
276,365,151883,2,0,L|415:345,1,140,6|2,3:2|1:2,0:2:0:0:
489,305,152383,1,2,1:2:0:0:
482,221,152550,1,2,1:2:0:0:
344,125,152883,5,0,3:2:0:0:
277,72,153050,2,0,L|289:24,2,35,6|2|2,1:2|0:2|0:2,0:0:0:0:
219,133,153383,6,0,P|157:132|77:108,1,140,6|2,3:2|1:2,0:2:0:0:
17,57,153883,1,2,3:2:0:0:
17,57,153967,1,0,3:2:0:0:
17,57,154050,2,0,P|0:94|3:135,1,70,0|2,3:2|3:2,0:0:0:0:
51,189,154383,1,0,1:2:0:0:
11,263,154550,6,0,P|39:303|137:322,1,140,6|0,3:2|3:2,0:2:0:0:
181,264,155050,2,0,P|236:263|260:272,1,70,2|0,1:2|0:2,0:2:0:0:
310,325,155383,2,0,P|356:329|400:312,1,70,2|0,3:2|3:2,0:0:0:0:
458,352,155717,1,2,1:2:0:0:
482,185,156050,6,0,P|504:121|502:48,1,140,6|2,3:2|1:2,0:2:0:0:
426,12,156550,2,0,P|369:11|329:22,1,70,6|0,3:2|0:2,0:2:0:0:
311,84,156883,2,0,P|254:85|214:74,1,70,2|0,3:2|1:2,0:0:0:0:
203,64,157133,1,0,1:2:0:0:
203,64,157217,6,0,B|179:109|179:109|179:218,1,140,6|2,3:2|3:2,0:2:0:0:
103,234,157717,1,2,1:2:0:0:
103,234,157800,1,2,0:2:0:0:
103,234,157883,2,0,P|151:279|236:272,1,140,2|0,3:2|3:2,0:2:0:0:
294,237,158383,1,2,3:2:0:0:
294,237,158550,1,2,3:2:0:0:
362,285,158717,6,0,P|400:218|398:152,1,140,6|2,1:2|1:2,0:2:0:0:
432,79,159217,1,2,3:2:0:0:
348,76,159383,2,0,P|288:76|251:66,1,70,2|0,1:2|1:2,0:0:0:0:
200,40,159717,1,2,1:2:0:0:
145,103,159883,1,0,1:2:0:0:
70,63,160050,5,6,3:2:0:0:
34,104,161383,5,2,0:0:0:0:
34,104,163217,6,0,P|76:95|124:104,1,62.9999980773926,2|2,0:2|0:2,0:0:0:0:
145,60,163550,1,2,0:2:0:0:
145,60,163717,2,0,L|213:59,1,62.9999980773926,2|2,0:2|0:2,0:0:0:0:
266,35,164050,5,2,0:2:0:0:
372,111,164383,1,2,0:2:0:0:
372,111,164550,1,2,0:2:0:0:
307,219,164883,1,2,0:2:0:0:
394,309,165217,6,0,P|323:333|252:324,1,125.999996154785,2|0,0:2|0:2,0:0:0:0:
162,280,165883,1,0,0:2:0:0:
162,280,166050,2,0,L|71:283,2,62.9999980773926,0|0|2,0:2|0:2|0:2,0:0:0:0:
272,218,166717,6,0,P|260:144|282:90,1,125.999996154785,2|2,0:2|0:2,0:2:0:0:
324,55,167217,1,2,0:2:0:0:
437,108,167550,1,2,0:2:0:0:
461,231,167883,6,0,B|399:263|398:194|315:246,1,125.999996154785,2|0,0:2|0:0,0:2:0:0:
236,303,168550,1,2,0:2:0:0:
236,303,168717,2,0,P|237:348|236:373,2,62.9999980773926,2|2|2,0:2|0:2|0:2,0:0:0:0:
195,254,169217,1,2,0:2:0:0:
204,191,169383,6,0,P|198:142|216:58,1,125.999996154785,2|0,0:2|0:2,0:2:0:0:
272,48,169883,1,0,0:2:0:0:
310,97,170050,2,0,P|349:103|444:83,1,125.999996154785,0|0,0:2|0:2,0:0:0:0:
442,232,170717,5,4,3:2:0:0:
468,296,170883,1,4,3:2:0:0:
345,364,171217,1,4,3:2:0:0:
325,225,171550,2,0,P|323:170|354:78,1,125.999996154785,4|0,3:2|0:0,0:2:0:0:
278,46,172050,6,0,P|231:54|126:35,1,140,6|2,3:2|1:2,0:2:0:0:
83,90,172550,1,2,3:2:0:0:
83,90,172633,1,0,3:2:0:0:
83,90,172717,2,0,P|87:158|83:175,1,70,0|2,3:2|3:2,0:0:0:0:
50,227,173050,1,0,1:2:0:0:
89,293,173217,6,0,B|120:338|120:338|237:320,1,140,2|0,3:2|3:2,0:2:0:0:
256,267,173717,1,0,1:2:0:0:
313,318,173883,2,0,L|316:356,2,35,0|0|0,3:2|3:2|3:2,0:0:0:0:
379,278,174217,2,0,P|435:281|480:273,2,70,2|2|2,3:2|1:2|3:2,0:0:0:0:
346,208,174717,6,0,P|347:146|381:63,1,140,2|2,3:2|1:2,0:2:0:0:
320,33,175217,1,2,3:2:0:0:
320,33,175300,1,0,3:2:0:0:
320,33,175383,2,0,P|260:39|226:34,1,70,0|2,3:2|3:2,0:0:0:0:
180,72,175717,1,0,1:2:0:0:
239,120,175883,6,0,B|272:169|272:170|262:279,1,140,6|0,3:2|3:2,0:2:0:0:
314,311,176383,1,2,1:2:0:0:
245,334,176550,1,0,3:2:0:0:
245,334,176633,1,0,3:2:0:0:
245,334,176717,2,0,P|190:337|154:326,1,70,2|0,3:2|3:2,0:2:0:0:
101,353,177050,1,2,1:2:0:0:
101,353,177217,1,0,1:2:0:0:
66,284,177383,6,0,P|89:231|84:121,1,140,2|4,3:2|1:2,0:2:0:0:
50,84,177883,1,0,3:2:0:0:
50,84,177967,1,0,3:2:0:0:
50,84,178050,2,0,P|99:71|143:82,1,70,0|0,3:2|3:2,0:0:0:0:
187,41,178383,1,2,1:2:0:0:
238,98,178550,6,0,P|293:112|387:106,1,140,2|0,3:2|3:2,0:2:0:0:
440,66,179050,1,0,1:2:0:0:
474,134,179217,2,0,L|522:128,2,35,0|0|0,3:2|3:2|3:2,0:0:0:0:
445,205,179550,1,0,3:2:0:0:
445,205,179717,1,2,1:2:0:0:
340,318,180050,6,0,P|276:342|179:323,1,140,2|4,3:2|1:2,0:2:0:0:
141,371,180550,1,0,3:2:0:0:
141,371,180633,1,0,3:2:0:0:
141,371,180717,2,0,P|127:322|136:273,1,70,0|0,3:2|3:2,0:0:0:0:
76,245,181050,1,2,1:2:0:0:
148,219,181217,6,0,B|167:165|167:165|155:79,1,140,6|0,3:2|3:2,0:0:0:0:
216,36,181717,2,0,P|277:32|299:48,1,70,0|0,3:2|3:2,0:0:0:0:
359,28,182050,1,0,3:2:0:0:
423,87,182217,1,0,3:2:0:0:
423,87,182300,1,0,3:2:0:0:
423,87,182383,2,0,L|431:142,3,35,0|0|0|0,1:2|3:2|3:2|3:2,0:2:0:0:
449,158,182717,6,0,P|454:210|444:252,1,70,6|0,3:2|0:2,0:2:0:0:
472,301,183050,1,2,1:2:0:0:
405,330,183217,1,0,3:2:0:0:
405,330,183300,1,0,3:2:0:0:
405,330,183383,2,0,P|354:317|307:327,1,70,2|0,3:2|3:2,0:0:0:0:
260,332,183717,1,2,1:2:0:0:
197,288,183883,6,0,B|230:240|230:240|237:152,1,140,2|0,3:2|3:2,0:2:0:0:
236,81,184383,1,0,1:2:0:0:
159,92,184550,2,0,P|120:97|80:89,1,70,2|0,3:2|0:0,0:2:0:0:
27,51,184883,1,2,3:2:0:0:
27,51,185050,1,2,1:2:0:0:
31,168,185383,6,0,P|40:213|34:253,1,70,6|0,3:2|0:2,0:2:0:0:
18,311,185717,1,2,1:2:0:0:
101,312,185883,1,0,3:2:0:0:
101,312,185967,1,0,3:2:0:0:
101,312,186050,2,0,P|144:307|199:315,1,70,2|0,3:2|3:2,0:0:0:0:
241,338,186383,1,2,1:2:0:0:
233,261,186550,6,0,B|208:211|208:211|224:107,1,140,2|0,3:2|3:2,0:2:0:0:
189,57,187050,1,0,1:2:0:0:
265,67,187217,2,0,P|307:78|355:62,1,70,2|0,3:2|0:0,0:2:0:0:
401,39,187550,1,2,3:2:0:0:
401,39,187717,1,2,1:2:0:0:
467,177,188050,6,0,B|444:234|444:234|450:329,1,140,6|2,3:2|1:2,0:2:0:0:
383,345,188550,1,0,3:2:0:0:
383,345,188633,1,0,3:2:0:0:
383,345,188717,2,0,P|312:354|286:341,1,70,2|0,3:2|3:2,0:0:0:0:
249,315,189050,1,2,1:2:0:0:
176,341,189217,6,0,P|85:340|29:312,1,140,6|2,3:2|3:2,0:2:0:0:
66,247,189717,1,2,1:2:0:0:
48,172,189883,2,0,P|48:136|65:95,1,70,4|0,3:2|0:0,0:2:0:0:
73,27,190217,1,0,3:2:0:0:
129,79,190383,2,0,P|165:79|206:62,1,70,2|2,1:2|1:2,0:0:0:0:
228,46,190633,1,0,1:2:0:0:
228,46,190717,6,0,L|372:49,1,140,6|2,3:2|1:2,0:2:0:0:
436,103,191217,1,0,3:2:0:0:
436,103,191300,1,0,3:2:0:0:
436,103,191383,2,0,P|441:147|437:180,1,70,2|0,3:2|3:2,0:0:0:0:
399,239,191717,1,2,1:2:0:0:
442,302,191883,5,2,3:2:0:0:
301,336,192217,2,0,L|302:380,2,35,0|0|0,3:2|3:0|1:2,0:0:0:0:
242,285,192550,1,0,3:2:0:0:
242,285,192633,1,0,1:2:0:0:
242,285,192717,2,0,P|192:277|142:290,1,70,0|0,3:2|1:2,0:0:0:0:
106,318,193050,1,0,1:2:0:0:
44,177,193383,6,0,P|96:184|133:180,1,70,6|2,3:2|0:2,0:2:0:0:
164,124,193717,1,2,1:2:0:0:
225,186,193883,1,0,3:2:0:0:
225,186,193967,1,0,3:2:0:0:
225,186,194050,2,0,P|219:248|239:332,1,140,2|2,3:2|1:2,0:0:0:0:
304,358,194550,6,0,P|372:365|458:330,1,140,6|2,3:2|3:2,0:2:0:0:
512,356,195050,1,2,1:2:0:0:
484,284,195217,2,0,L|476:192,1,70,2|0,3:2|0:2,0:2:0:0:
428,154,195550,1,2,3:2:0:0:
464,86,195717,1,2,1:2:0:0:
310,77,196050,6,0,P|310:44|304:4,2,70,6|2|0,3:2|3:2|1:2,0:0:0:0:
245,113,196550,1,2,3:2:0:0:
245,113,196633,1,0,3:2:0:0:
245,113,196717,2,0,P|188:108|148:118,1,70,6|0,3:2|3:2,0:0:0:0:
104,80,197050,1,2,1:2:0:0:
109,156,197217,6,0,B|95:203|95:203|110:236|110:236|95:295,1,140,6|2,3:2|3:2,0:2:0:0:
43,344,197717,1,0,1:2:0:0:
125,366,197883,1,2,3:2:0:0:
125,366,197967,1,0,0:0:0:0:
125,366,198050,2,0,P|167:358|210:344,1,70,2|2,3:2|3:2,0:0:0:0:
260,312,198383,1,0,1:2:0:0:
339,346,198550,1,0,1:2:0:0:
339,346,198633,1,0,1:2:0:0:
339,346,198717,6,0,P|398:342|423:324,1,70,6|2,3:2|0:2,0:2:0:0:
449,273,199050,2,0,P|442:231|455:178,1,70,2|2,1:2|3:2,0:2:0:0:
491,142,199383,1,2,3:2:0:0:
429,94,199550,2,0,P|392:85|360:91,1,70,0|2,3:2|1:2,0:0:0:0:
314,28,199883,6,0,B|283:61|283:61|297:181,1,140,6|2,3:2|3:2,0:2:0:0:
259,224,200383,1,2,1:2:0:0:
317,274,200550,2,0,P|359:274|396:256,2,70,6|0|2,3:2|0:0|3:2,0:2:0:0:
262,328,201050,1,6,1:2:0:0:
119,271,201383,6,0,L|49:283,2,70,6|2|2,3:2|1:2|1:2,0:0:0:0:
168,213,201883,1,2,3:2:0:0:
168,213,201967,1,2,3:2:0:0:
168,213,202050,2,0,P|166:156|146:120,1,70,2|2,1:2|3:2,0:0:0:0:
101,96,202383,1,2,3:2:0:0:
173,70,202550,6,0,B|220:56|220:56|253:71|253:71|312:56,1,140,6|0,1:2|3:2,0:0:0:0:
374,22,203050,2,0,P|383:69|367:110,1,70,0|0,1:2|3:2,0:0:0:0:
339,156,203383,1,0,1:2:0:0:
339,156,203550,1,0,1:2:0:0:
394,209,203717,2,0,P|400:250|387:282,1,70,0|0,1:2|1:2,0:0:0:0:
340,334,204050,5,4,1:2:0:0:
198,60,204717,1,4,1:2:0:0:
71,340,205383,6,0,P|37:354|-5:271,2,140,4|4|4,1:2|1:2|1:2,0:0:0:0:
176,227,206383,1,4,1:2:0:0:
69,130,211717,6,0,P|126:119|164:123,1,70,4|0,0:3|3:2,0:0:0:0:
191,174,212050,2,0,P|185:218|200:316,1,140,4|0,3:2|3:2,0:0:0:0:
265,350,212550,1,0,3:2:0:0:
323,300,212717,2,0,P|363:295|399:306,1,70,0|0,3:2|3:2,0:0:0:0:
457,342,213050,1,0,3:2:0:0:
457,342,213217,1,0,3:2:0:0:
462,265,213383,6,0,P|448:221|464:125,1,140,4|0,3:2|3:2,0:0:0:0:
491,58,213883,1,0,3:2:0:0:
417,35,214050,2,0,P|377:31|326:46,1,70,0|0,3:2|3:2,0:0:0:0:
290,88,214383,1,0,3:2:0:0:
212,91,214550,1,0,3:2:0:0:
156,36,214717,5,4,1:2:0:0:
63,158,215050,1,0,0:2:0:0:
63,158,215217,2,0,B|68:205|68:205|52:308,1,140,4|4,3:2|3:2,0:2:0:0:
191,364,215883,1,4,3:2:0:0:
329,296,216217,2,0,L|409:301,2,70,0|0|0,3:2|1:2|3:2,0:0:0:0:
269,153,216883,5,0,3:2:0:0:
206,107,217050,2,0,L|171:123,2,35,6|2|2,1:2|0:2|0:2,0:0:0:0:
273,70,217383,1,10,0:3:0:0:
273,70,217550,1,4,0:3:0:0:
352,97,217717,5,6,1:2:0:0:
415,42,217883,2,0,L|408:4,2,35,2|0|0,3:2|3:2|3:2,0:0:0:0:
441,122,218217,2,0,P|446:169|432:212,1,70,2|0,3:2|1:2,0:2:0:0:
405,267,218550,6,0,P|273:271|257:266,1,140,6|0,3:2|3:2,0:2:0:0:
219,200,219050,1,2,1:2:0:0:
192,279,219217,2,0,P|193:317|170:352,1,70,0|2,0:2|3:2,0:0:0:0:
95,360,219550,1,0,3:2:0:0:
17,326,219717,1,2,1:2:0:0:
89,174,220050,6,0,P|95:122|86:90,1,70,6|0,3:2|0:0,0:2:0:0:
31,45,220383,1,2,1:2:0:0:
114,34,220550,2,0,B|152:27|156:24|252:48,1,140,6|2,3:2|3:2,0:2:0:0:
342,61,221050,1,0,1:2:0:0:
342,61,221133,1,0,1:2:0:0:
342,61,221217,6,0,P|347:127|321:196,1,140,6|2,3:2|3:2,0:2:0:0:
347,275,221717,2,0,L|411:278,2,35,2|2|2,1:2|2:2|3:2,0:0:0:0:
192,329,222217,1,0,3:2:0:0:
192,329,222300,1,0,3:0:0:0:
192,329,222383,2,0,P|181:284|195:239,1,70,2|2,1:2|3:2,0:0:0:0:
115,212,222717,6,0,P|117:167|110:134,1,70,6|0,1:2|3:2,0:2:0:0:
75,72,223050,1,2,1:2:0:0:
75,72,223217,1,2,3:2:0:0:
158,81,223383,2,0,P|198:82|241:64,1,70,2|0,1:2|3:2,0:2:0:0:
296,119,223717,1,2,1:2:0:0:
354,58,223883,1,2,3:2:0:0:
406,123,224050,6,0,P|403:166|422:223,1,70,6|0,1:2|3:2,0:2:0:0:
457,260,224383,1,2,1:2:0:0:
416,336,224550,1,2,3:2:0:0:
416,336,224633,1,0,3:2:0:0:
416,336,224717,2,0,P|365:325|319:333,1,70,2|0,1:2|3:2,0:2:0:0:
267,351,225050,1,2,1:2:0:0:
196,305,225217,1,2,3:2:0:0:
120,341,225383,6,0,P|71:346|39:332,1,70,6|0,1:2|3:2,0:2:0:0:
15,268,225717,1,2,1:2:0:0:
15,268,225883,1,2,3:2:0:0:
42,188,226050,2,0,P|38:151|21:117,2,70,2|0|2,1:2|3:2|1:2,0:2:0:0:
112,234,226550,1,2,3:2:0:0:
178,182,226717,6,0,P|231:169|268:175,1,70,2|2,1:2|3:2,0:0:0:0:
315,123,227050,1,6,1:2:0:0:
388,163,227217,1,2,3:2:0:0:
463,125,227383,1,2,3:2:0:0:
463,125,227467,1,0,3:2:0:0:
463,125,227550,2,0,P|473:63|458:35,1,70,0|2,3:2|1:2,0:0:0:0:
389,36,227883,1,2,3:2:0:0:
326,92,228050,6,0,P|341:151|336:248,1,140,6|0,3:2|1:2,0:0:0:0:
386,299,228550,1,0,3:2:0:0:
315,345,228717,2,0,P|261:344|214:331,1,70,0|0,1:2|1:2,0:0:0:0:
185,281,229050,1,0,1:2:0:0:
141,353,229217,1,0,1:2:0:0:
102,278,229383,5,4,3:2:0:0:
102,278,230717,6,0,P|57:278|20:266,2,70,4|0|0,3:2|3:2|1:2,0:2:0:0:
167,225,231217,1,4,3:2:0:0:
222,287,231383,2,0,P|222:334|242:368,1,70,0|0,3:2|1:2,0:0:0:0:
315,357,231717,1,4,3:2:0:0:
371,295,231883,2,0,P|373:243|356:202,1,70,0|0,3:2|1:2,0:0:0:0:
402,148,232217,6,0,P|455:151|489:139,2,70,8|4|0,0:3|0:3|3:2,0:0:0:0:
342,88,232717,1,4,1:2:0:0:
265,122,232883,1,4,1:2:0:0:
196,275,233217,6,0,P|109:282|151:97,1,350,4|0,3:2|0:0,0:0:0:0:
298,152,234383,2,0,L|298:200,3,35,0|0|0|0,3:2|3:2|3:2|3:2,0:0:0:0:
320,222,234717,6,0,P|242:243|176:281,1,140,4|0,1:2|0:0,0:0:0:0:
161,191,235217,2,0,P|83:170|17:132,1,140,4|0,1:2|0:0,0:0:0:0:
33,57,235717,1,4,1:2:0:0:
109,91,235883,1,4,1:2:0:0:
