osu file format v14

[General]
AudioFilename: audio.mp3
AudioLeadIn: 0
PreviewTime: 62203
Countdown: 0
SampleSet: Soft
StackLeniency: 0.7
Mode: 0
LetterboxInBreaks: 0
WidescreenStoryboard: 1

[Editor]
Bookmarks: 64078,91221,94257
DistanceSpacing: 1.15
BeatDivisor: 4
GridSize: 16
TimelineZoom: 1

[Metadata]
Title:Shiny Smily Story
TitleUnicode:Shiny Smily Story
Artist:hololive IDOL PROJECT
ArtistUnicode:hololive IDOL PROJECT
Creator:Sotarks
Version:Rosiie's Hard
Source:
Tags:nymphe kiyoshi guarden chiga rosiie ホロライブ カバー cover corp. virtual youtuber vtuber idol jpop ときのそら tokino sora ロボ子さん roboco-san robocosan さくらみこ sakura miko 赤井はあと akai haato 夜空メル yozora mel 夏色まつり natsuiro matsuri アキ・ローゼンタール aki rosenthal 白上フブキ shirakami fubuki 大空スバル oozora subaru 癒月ちょこ yuzuki choco 紫咲シオン murasaki shion 百鬼あやめ nakiri ayame 湊あくあ minato aqua 大神ミオ ookami mio 猫又おかゆ nekomata okayu 戌神ころね inugami korone haachama akirose akiroze ojou japanese pop female vocalist version short azur lane looking glass of fact and fiction
BeatmapID:2606688
BeatmapSetID:1251840

[Difficulty]
HPDrainRate:4
CircleSize:3.6
OverallDifficulty:6.2
ApproachRate:7.5
SliderMultiplier:1.7
SliderTickRate:1

[Events]
//Background and Video events
0,0,"bg.jpg",0,0
Video,-2499,"video.mp4"
//Break Periods
//Storyboard Layer 0 (Background)
//Storyboard Layer 1 (Fail)
//Storyboard Layer 2 (Pass)
//Storyboard Layer 3 (Foreground)
//Storyboard Layer 4 (Overlay)
//Storyboard Sound Samples

[TimingPoints]
1400,357.142857142857,4,2,22,42,1,0
1400,-142.857142857143,4,2,22,42,0,0
7114,-142.857142857143,4,2,22,52,0,0
8007,-125,4,2,22,52,0,0
9971,-125,4,2,22,62,0,0
12828,-105.263157894737,4,2,22,72,0,0
25685,-133.333333333333,4,2,22,52,0,0
34257,-125,4,2,22,72,0,0
37114,-117.647058823529,4,2,22,62,0,0
46935,-117.647058823529,4,2,22,72,0,0
48542,-142.857142857143,4,2,22,72,0,0
54078,-117.647058823529,4,2,22,72,0,0
56935,-142.857142857143,4,2,22,72,0,0
58542,-125,4,2,22,72,0,0
59971,-117.647058823529,4,2,22,72,0,0
62828,-95.2380952380952,4,2,22,82,0,0
82828,-105.263157894737,4,2,22,82,0,0
85685,-111.111111111111,4,2,22,92,0,0
88542,-105.263157894737,4,2,22,92,0,0
91221,-500,4,2,22,82,0,0
91310,-500,4,2,22,22,0,0
94257,-500,4,2,22,12,0,0

[Colours]
Combo1 : 255,243,164
Combo2 : 44,202,254
Combo3 : 253,176,255
Combo4 : 182,255,164

[HitObjects]
493,75,1400,6,0,P|467:49|386:51,1,118.999996368408,2|2,0:0|0:0,0:0:0:0:
229,96,2114,2,0,B|159:95|196:55|112:58,1,118.999996368408,2|2,0:0|0:0,0:0:0:0:
51,104,2649,2,0,P|61:141|66:175,1,59.4999981842042,2|0,0:0|0:0,0:0:0:0:
21,234,3007,2,0,P|15:268|21:304,1,59.4999981842042,2|2,0:0|0:0,0:0:0:0:
79,348,3364,2,0,B|154:327|154:327|199:353,1,118.999996368408,2|0,0:0|0:0,0:0:0:0:
267,377,3899,1,0,0:0:0:0:
430,344,4257,6,0,P|435:300|460:203,1,118.999996368408,2|2,0:0|0:0,0:0:0:0:
498,67,4971,2,0,P|462:46|370:56,1,118.999996368408,2|2,0:0|0:0,0:0:0:0:
318,96,5507,2,0,P|286:90|253:85,1,59.4999981842042,2|0,0:0|0:0,0:0:0:0:
195,139,5864,2,0,P|193:173|201:202,1,59.4999981842042,2|2,0:0|0:0,0:0:0:0:
269,242,6221,2,0,P|285:288|241:368,1,118.999996368408,2|0,0:0|0:0,0:0:0:0:
180,369,6757,1,8,0:3:0:0:
117,314,6935,1,2,0:0:0:0:
46,358,7114,6,0,B|-5:311|-5:311|37:144,1,237.999992736817,6|8,1:2|0:3,0:0:0:0:
93,91,8007,1,4,0:3:0:0:
93,91,8185,1,4,0:3:0:0:
166,127,8364,1,6,0:3:0:0:
211,61,8542,5,2,1:2:0:0:
211,61,8721,2,0,P|252:67|293:72,1,68,0|4,3:0|0:3,0:0:0:0:
349,120,9078,1,2,3:2:0:0:
349,120,9257,2,0,P|388:112|426:108,1,68,0|0,1:2|1:2,0:2:0:0:
460,115,9524,1,0,1:2:0:0:
460,115,9614,2,0,P|476:151|472:192,1,68,4|2,1:2|0:2,0:2:0:0:
427,246,9971,5,10,0:2:0:0:
427,246,10149,2,0,P|416:287|407:329,1,68,2|0,1:2|1:2,0:0:0:0:
349,366,10507,2,0,P|316:371|276:360,1,68,10|0,0:2|1:2,0:0:0:0:
237,301,10864,1,0,1:2:0:0:
237,301,11042,2,0,P|243:260|251:219,1,68,8|0,0:2|1:2,0:0:0:0:
294,166,11399,1,0,1:2:0:0:
238,105,11578,6,0,P|231:66|223:28,1,68,12|0,1:2|0:0,0:2:0:0:
151,8,11935,1,2,1:2:0:0:
151,8,12024,1,0,1:2:0:0:
151,8,12114,2,0,P|112:-2|75:9,1,68,14|0,0:2|0:2,0:2:0:0:
35,68,12471,2,0,P|43:105|53:151,1,68,2|2,0:2|0:2,0:0:0:0:
133,182,12828,6,0,P|125:222|118:266,1,80.7499978437424,4|0,1:2|0:0,0:2:0:0:
70,341,13185,2,0,P|106:358|147:353,1,80.7499978437424,10|0,0:2|3:2,0:0:0:0:
214,290,13542,2,0,P|260:280|300:298,1,80.7499978437424,2|0,1:2|0:2,0:2:0:0:
349,351,13899,2,0,P|389:363|434:348,1,80.7499978437424,10|0,0:2|0:2,0:2:0:0:
490,297,14257,6,0,B|521:264|521:264|491:145,1,161.499995687485,2|10,1:2|0:2,0:2:0:0:
438,86,14792,2,0,P|401:77|357:91,1,80.7499978437424,2|0,0:2|1:2,0:2:0:0:
300,148,15149,1,2,0:2:0:0:
300,148,15328,2,0,P|257:149|215:131,1,80.7499978437424,8|2,0:2|3:2,0:0:0:0:
174,65,15685,6,0,P|136:69|92:77,1,80.7499978437424,0|0,1:2|0:0,0:2:0:0:
15,43,16042,2,0,P|4:80|15:125,1,80.7499978437424,10|0,0:2|0:0,0:0:0:0:
70,183,16399,2,0,P|81:224|68:268,1,80.7499978437424,2|0,1:2|0:2,0:0:0:0:
45,341,16757,2,0,P|85:340|130:325,1,80.7499978437424,10|0,0:2|0:2,0:2:0:0:
196,372,17114,6,0,B|299:377|243:316|345:315,1,161.499995687485,2|10,1:2|0:2,0:2:0:0:
386,245,17649,2,0,P|375:191|365:149,1,80.7499978437424,2|0,0:2|1:2,0:0:0:0:
348,88,18007,1,2,1:2:0:0:
348,88,18185,2,0,P|384:68|423:69,1,80.7499978437424,10|0,0:2|0:2,0:2:0:0:
498,108,18542,6,0,P|507:148|514:198,1,80.7499978437424,2|0,1:2|0:0,0:2:0:0:
474,263,18899,2,0,P|465:303|459:348,1,80.7499978437424,8|0,0:2|0:0,0:0:0:0:
389,384,19257,1,0,1:2:0:0:
389,384,19435,1,2,3:2:0:0:
340,312,19614,2,0,P|303:300|263:307,1,80.7499978437424,10|2,0:2|3:2,0:0:0:0:
201,364,19971,6,0,P|157:358|108:350,1,80.7499978437424,2|2,1:2|3:2,0:0:0:0:
61,300,20328,1,10,0:2:0:0:
61,300,20507,2,0,P|52:260|59:219,1,80.7499978437424,2|0,3:2|0:0,0:2:0:0:
106,152,20864,1,0,0:2:0:0:
106,151,21042,2,0,P|114:112|101:75,1,80.7499978437424,14|8,0:2|0:2,0:0:0:0:
165,19,21399,6,0,P|203:11|244:22,1,80.7499978437424,6|0,1:2|0:0,0:2:0:0:
319,59,21757,2,0,P|366:62|405:49,1,80.7499978437424,14|0,0:2|0:0,0:2:0:0:
479,27,22114,2,0,P|472:59|464:111,1,80.7499978437424,6|0,1:2|0:0,0:2:0:0:
414,175,22471,2,0,P|421:209|426:260,1,80.7499978437424,14|0,0:2|0:0,0:2:0:0:
478,321,22828,5,14,0:2:0:0:
414,375,23007,1,2,1:2:0:0:
414,375,23096,1,0,1:2:0:0:
414,375,23185,1,8,0:2:0:0:
345,324,23364,2,0,B|307:308|262:321|286:337|248:362|192:339,1,161.499995687485,6|0,1:2|1:2,0:2:0:0:
116,357,23899,1,2,0:3:0:0:
116,357,23989,1,4,0:3:0:0:
116,357,24078,1,4,0:3:0:0:
68,286,24257,6,0,P|71:245|78:205,1,80.7499978437424,6|2,1:2|1:2,0:0:0:0:
124,134,24614,1,10,0:2:0:0:
60,78,24792,2,0,P|83:36|193:30,1,161.499995687485,6|0,1:2|1:2,0:2:0:0:
257,72,25328,1,12,0:2:0:0:
316,7,25507,1,0,3:2:0:0:
316,7,25596,1,0,3:2:0:0:
316,7,25685,6,0,P|358:8|387:17,1,63.7500024318696,0|2,1:2|0:2,0:2:0:0:
430,78,26042,2,0,P|418:112|409:154,1,63.7500024318696,2|0,1:2|0:2,0:2:0:0:
439,217,26399,2,0,P|480:222|509:228,2,63.7500024318696,2|2|2,1:2|0:2|1:2,0:2:0:0:
374,268,26935,1,0,0:2:0:0:
374,268,27114,6,0,P|337:277|301:290,1,63.7500024318696,2|2,1:2|0:2,0:0:0:0:
249,338,27471,1,2,1:2:0:0:
249,338,27649,2,0,P|186:357|121:325,1,127.500004863739,2|2,0:2|0:2,0:2:0:0:
77,270,28185,2,0,P|67:228|57:191,1,63.7500024318696,2|2,1:2|3:2,0:0:0:0:
18,136,28542,5,2,1:2:0:0:
121,7,28899,1,2,1:2:0:0:
121,7,29078,2,0,P|156:12|198:21,1,63.7500024318696,2|0,0:2|1:2,0:2:0:0:
242,75,29435,2,0,P|252:107|250:139,1,63.7500024318696,2|0,0:2|1:2,0:0:0:0:
207,209,29792,1,2,0:2:0:0:
207,209,29971,6,0,P|189:255|236:345,1,127.500004863739,0|0,1:2|1:2,0:2:0:0:
385,343,30685,1,0,1:2:0:0:
385,343,30864,2,0,P|421:338|455:329,1,63.7500024318696,2|2,3:2|1:2,0:0:0:0:
489,261,31221,5,2,3:2:0:0:
489,261,31399,1,0,1:2:0:0:
443,191,31578,2,0,P|447:154|455:108,1,63.7500024318696,2|2,0:2|1:2,0:0:0:0:
406,57,31935,2,0,P|370:45|333:53,1,63.7500024318696,2|0,0:2|1:2,0:2:0:0:
265,71,32292,2,0,P|234:80|202:77,1,63.7500024318696,2|0,0:2|1:2,0:2:0:0:
133,43,32649,6,0,P|95:33|15:93,1,127.500004863739,2|2,0:2|0:2,0:2:0:0:
55,156,33185,1,2,1:2:0:0:
55,156,33364,2,0,P|62:187|68:222,1,63.7500024318696,2|0,0:2|1:2,0:2:0:0:
107,291,33721,2,0,P|140:300|186:287,1,63.7500024318696,0|0,0:2|1:2,0:0:0:0:
250,265,34078,1,2,3:2:0:0:
250,265,34167,1,0,3:2:0:0:
250,265,34257,6,0,B|285:253|321:269|298:279|330:303|376:290,1,136,6|6,1:2|1:2,0:2:0:0:
496,160,34971,2,0,P|507:105|461:29,1,136,6|6,1:2|1:2,0:2:0:0:
388,68,35507,1,2,0:2:0:0:
321,18,35685,5,2,1:2:0:0:
321,18,35864,2,0,P|282:24|229:31,1,68,2|8,1:2|0:3,0:0:0:0:
189,89,36221,1,6,1:2:0:0:
35,11,36578,1,2,1:2:0:0:
35,11,36757,2,0,P|46:47|51:95,1,68,8|4,0:3|0:3,0:0:0:0:
6,147,37114,5,4,1:2:0:0:
71,205,37292,1,2,0:2:0:0:
71,205,37471,2,0,P|57:246|51:281,1,72.2500013780594,10|0,0:2|0:2,0:2:0:0:
107,335,37828,2,0,P|149:346|187:333,1,72.2500013780594,2|2,1:2|0:2,0:0:0:0:
240,286,38185,2,0,P|282:274|320:285,1,72.2500013780594,10|0,0:2|0:2,0:2:0:0:
386,310,38542,6,0,P|378:352|372:389,2,72.2500013780594,2|2|10,1:2|0:2|0:2,0:0:0:0:
445,251,39078,2,0,P|440:211|433:172,1,72.2500013780594,2|0,0:2|1:2,0:2:0:0:
471,107,39435,1,2,0:2:0:0:
470,107,39614,2,0,P|477:72|467:37,1,72.2500013780594,10|2,0:2|3:2,0:0:0:0:
434,20,39882,1,0,3:2:0:0:
434,20,39971,6,0,P|390:28|331:37,1,72.2500013780594,2|0,1:2|0:0,0:2:0:0:
290,70,40328,1,10,0:2:0:0:
290,70,40507,2,0,P|282:106|277:151,1,72.2500013780594,2|0,0:2|1:2,0:2:0:0:
231,210,40864,2,0,P|239:246|245:293,1,72.2500013780594,2|8,0:2|0:2,0:2:0:0:
181,335,41221,1,2,0:2:0:0:
181,335,41399,6,0,P|121:356|34:303,1,144.500002756119,0|8,1:2|0:2,0:0:0:0:
75,242,41935,2,0,P|80:205|70:168,1,72.2500013780594,0|0,0:2|1:2,0:2:0:0:
34,98,42292,1,14,0:3:0:0:
34,98,42471,2,0,L|-2:108,2,36.1250006890297,4|4|6,0:3|0:3|0:3,0:0:0:0:
90,33,42828,5,4,1:2:0:0:
90,33,43007,2,0,P|122:27|168:39,1,72.2500013780594,2|10,0:2|0:2,0:0:0:0:
227,89,43364,2,0,P|262:91|296:78,1,72.2500013780594,2|0,0:2|1:2,0:2:0:0:
359,21,43721,2,0,P|402:19|440:35,1,72.2500013780594,2|8,0:2|0:2,0:0:0:0:
496,86,44078,1,2,0:2:0:0:
496,86,44257,6,0,P|488:123|480:172,1,72.2500013780594,0|0,1:2|3:2,0:0:0:0:
419,211,44614,1,10,0:2:0:0:
419,211,44792,2,0,P|426:255|431:294,1,72.2500013780594,2|0,3:2|1:2,0:0:0:0:
373,343,45149,1,0,3:2:0:0:
373,343,45328,1,8,0:2:0:0:
304,295,45507,1,2,0:2:0:0:
241,349,45685,6,0,P|201:344|142:326,1,72.2500013780594,2|4,1:2|0:3,0:0:0:0:
133,352,45953,1,8,0:3:0:0:
133,352,46042,1,6,0:3:0:0:
74,293,46221,1,2,1:2:0:0:
157,149,46578,1,2,1:2:0:0:
40,31,46935,6,0,P|80:7|182:26,1,144.500002756119,6|2,1:2|1:2,0:2:0:0:
242,65,47471,2,0,P|284:59|314:52,1,72.2500013780594,14|0,0:2|0:2,0:2:0:0:
379,2,47828,2,0,P|416:8|454:17,1,72.2500013780594,0|4,1:2|0:3,0:2:0:0:
503,79,48185,1,8,0:2:0:0:
443,135,48364,1,8,0:2:0:0:
443,135,48453,1,8,0:2:0:0:
443,135,48542,6,0,P|435:171|429:219,1,59.4999981842042,4|0,1:2|0:0,0:2:0:0:
482,262,48899,1,2,0:2:0:0:
482,262,49078,1,2,1:2:0:0:
444,333,49257,2,0,P|384:359|309:343,1,118.999996368408,10|2,0:2|0:2,0:2:0:0:
262,313,49792,6,0,P|219:289|131:313,1,118.999996368408,2|2,1:2|1:2,0:2:0:0:
84,341,50328,2,0,P|76:297|66:262,1,59.4999981842042,2|0,0:2|1:2,0:2:0:0:
92,204,50685,1,8,0:2:0:0:
6,67,51042,1,2,1:2:0:0:
69,16,51221,1,0,1:2:0:0:
69,16,51310,1,0,1:2:0:0:
69,16,51399,6,0,P|120:20|149:24,1,59.4999981842042,2|8,1:2|0:2,0:0:0:0:
197,63,51757,2,0,P|240:56|278:52,1,59.4999981842042,2|0,1:2|1:2,0:0:0:0:
326,14,52114,2,0,P|381:13|425:73,1,118.999996368408,10|2,0:2|0:2,0:2:0:0:
387,129,52649,6,0,B|359:168|359:168|391:256,1,118.999996368408,2|2,1:2|1:2,0:2:0:0:
412,309,53185,2,0,P|376:325|333:321,1,59.4999981842042,2|0,0:2|1:2,0:2:0:0:
277,344,53542,1,8,0:2:0:0:
225,289,53721,1,6,0:3:0:0:
225,289,53899,1,6,0:3:0:0:
274,217,54078,6,0,B|306:180|306:180|278:86,1,144.500002756119,6|2,1:2|1:2,0:2:0:0:
221,29,54614,1,2,1:2:0:0:
221,29,54792,1,2,1:2:0:0:
163,93,54971,2,0,P|125:93|77:67,1,72.2500013780594,2|8,1:2|0:2,0:0:0:0:
18,35,55328,1,8,0:2:0:0:
1,120,55507,6,0,P|26:162|35:280,1,144.500002756119,6|2,1:2|1:2,0:2:0:0:
6,337,56042,1,2,1:2:0:0:
6,337,56221,1,2,1:2:0:0:
85,370,56399,2,0,P|124:368|160:350,1,72.2500013780594,2|8,1:2|0:2,0:0:0:0:
222,299,56757,1,8,0:2:0:0:
284,356,56935,6,0,B|356:353|326:312|394:308,1,118.999996368408,6|0,1:2|1:2,0:2:0:0:
461,268,57471,2,0,P|479:324|453:376,2,118.999996368408,2|2|2,1:2|1:2|1:2,0:2:0:0:
363,106,58542,6,0,P|326:101|289:93,1,68,2|0,1:2|0:2,0:2:0:0:
223,50,58899,2,0,P|184:55|133:67,1,68,2|0,1:2|0:2,0:2:0:0:
80,97,59257,1,2,1:2:0:0:
80,97,59435,1,0,0:2:0:0:
136,160,59614,2,0,P|125:205|117:252,1,68,6|0,1:2|1:2,0:2:0:0:
55,283,59971,5,2,1:2:0:0:
125,342,60149,1,2,1:2:0:0:
125,342,60328,2,0,P|164:335|209:332,1,72.2500013780594,2|0,1:2|0:0,0:0:0:0:
280,369,60685,1,2,1:2:0:0:
280,369,60864,1,2,1:2:0:0:
305,197,61221,6,0,P|293:140|259:41,1,144.500002756119,2|0,1:2|1:2,0:0:0:0:
338,9,61757,2,0,P|384:-3|421:5,1,72.2500013780594,14|0,0:2|0:0,0:2:0:0:
476,51,62114,1,0,0:2:0:0:
426,121,62292,1,2,1:2:0:0:
426,121,62471,1,2,1:2:0:0:
497,186,62649,1,2,1:2:0:0:
497,186,62739,1,0,1:2:0:0:
497,186,62828,6,0,P|480:236|472:281,1,89.2499972763062,6|0,0:2|0:2,0:2:0:0:
406,337,63185,2,0,P|362:350|316:337,1,89.2499972763062,10|0,0:2|3:2,0:2:0:0:
248,280,63542,2,0,P|201:267|157:285,1,89.2499972763062,2|0,1:2|0:2,0:2:0:0:
93,341,63899,1,10,0:2:0:0:
27,273,64078,6,0,B|27:277|29:264|24:224|13:172,1,89.2499972763062,2|0,0:2|1:2,0:2:0:0:
70,110,64435,1,2,0:2:0:0:
70,110,64614,1,10,0:2:0:0:
19,31,64792,2,0,P|66:16|113:28,1,89.2499972763062,2|0,0:2|1:2,0:0:0:0:
182,85,65149,1,0,3:2:0:0:
182,85,65328,2,0,P|228:87|273:66,1,89.2499972763062,8|0,0:2|3:2,0:2:0:0:
331,1,65685,6,0,P|375:7|431:15,1,89.2499972763062,2|0,1:2|0:2,0:2:0:0:
468,93,66042,2,0,P|485:132|474:186,1,89.2499972763062,10|0,0:2|0:2,0:2:0:0:
411,243,66399,2,0,P|401:287|411:332,1,89.2499972763062,2|0,1:2|0:2,0:2:0:0:
329,383,66757,1,10,0:2:0:0:
267,312,66935,6,0,P|223:304|183:321,1,89.2499972763062,2|0,0:2|1:2,0:2:0:0:
101,363,67291,1,2,0:2:0:0:
101,363,67470,1,10,0:2:0:0:
33,298,67649,2,0,P|37:248|42:204,1,89.2499972763062,2|0,0:2|1:2,0:0:0:0:
106,140,68007,2,0,P|103:97|94:51,1,89.2499972763062,0|8,3:2|0:2,0:0:0:0:
178,2,68364,1,2,3:2:0:0:
253,66,68542,5,6,1:2:0:0:
253,66,68721,2,0,P|298:70|346:48,1,89.2499972763062,2|8,0:2|0:2,0:2:0:0:
413,0,69078,2,0,P|424:42|431:91,1,89.2499972763062,2|0,0:2|1:2,0:2:0:0:
503,154,69435,1,8,0:2:0:0:
503,154,69614,1,8,0:2:0:0:
428,210,69792,1,2,3:2:0:0:
500,278,69971,5,2,1:2:0:0:
500,278,70149,2,0,P|484:320|476:364,1,89.2499972763062,2|8,0:2|0:2,0:2:0:0:
381,372,70507,2,0,P|338:381|290:355,1,89.2499972763062,2|0,0:2|1:2,0:2:0:0:
243,291,70864,1,8,0:2:0:0:
243,291,71042,1,8,0:2:0:0:
309,224,71221,1,2,3:2:0:0:
234,168,71399,6,0,P|228:122|218:66,1,89.2499972763062,6|0,1:2|0:0,0:2:0:0:
139,31,71757,2,0,P|94:19|46:36,1,89.2499972763062,6|0,1:2|0:0,0:2:0:0:
1,108,72114,2,0,P|11:144|19:196,1,89.2499972763062,6|0,1:2|0:0,0:2:0:0:
96,248,72471,2,0,P|88:286|81:340,1,89.2499972763062,2|0,1:2|3:2,0:0:0:0:
164,379,72828,5,2,1:2:0:0:
219,304,73007,1,12,0:2:0:0:
219,304,73185,1,8,0:2:0:0:
287,368,73364,2,0,P|350:368|394:346,1,89.2499972763062,2|2,0:2|1:2,0:0:0:0:
413,274,73721,2,0,P|419:226|430:168,1,89.2499972763062,12|8,0:2|0:2,0:0:0:0:
469,106,74078,1,0,3:2:0:0:
469,106,74167,1,0,3:2:0:0:
469,106,74257,6,0,P|428:87|366:94,1,89.2499972763062,6|0,0:2|0:2,0:2:0:0:
299,127,74614,2,0,P|258:140|214:132,1,89.2499972763062,10|0,0:2|3:2,0:2:0:0:
150,62,74971,2,0,P|110:53|60:75,1,89.2499972763062,2|0,1:2|0:2,0:2:0:0:
2,138,75328,1,10,0:2:0:0:
66,206,75507,6,0,P|57:246|53:295,1,89.2499972763062,2|0,0:2|1:2,0:2:0:0:
104,378,75864,1,2,0:2:0:0:
104,378,76042,1,10,0:2:0:0:
163,305,76221,2,0,P|209:295|252:313,1,89.2499972763062,2|0,0:2|1:2,0:0:0:0:
323,372,76578,1,0,3:2:0:0:
323,372,76757,2,0,P|370:374|409:358,1,89.2499972763062,8|0,0:2|3:2,0:2:0:0:
492,317,77114,6,0,P|498:268|505:222,1,89.2499972763062,2|0,1:2|0:2,0:2:0:0:
461,144,77471,2,0,B|453:97|442:52,1,89.2499972763062,10|0,0:2|0:2,0:2:0:0:
361,9,77828,2,0,P|319:1|273:19,1,89.2499972763062,2|0,1:2|0:2,0:2:0:0:
204,76,78185,1,10,0:2:0:0:
277,135,78364,6,0,P|267:180|260:232,1,89.2499972763062,2|0,0:2|1:2,0:2:0:0:
324,299,78721,1,2,0:2:0:0:
324,299,78899,1,10,0:2:0:0:
257,365,79078,2,0,P|214:375|166:358,1,89.2499972763062,2|0,0:2|1:2,0:0:0:0:
114,294,79435,1,0,3:2:0:0:
114,294,79614,1,8,0:2:0:0:
51,363,79792,1,2,3:2:0:0:
1,286,79971,5,6,1:2:0:0:
1,286,80149,2,0,P|9:236|17:189,1,89.2499972763062,2|8,0:2|0:2,0:2:0:0:
84,132,80507,2,0,P|76:90|66:39,1,89.2499972763062,2|0,0:2|1:2,0:2:0:0:
154,5,80864,1,8,0:2:0:0:
154,5,81042,1,8,0:2:0:0:
217,74,81221,1,2,3:2:0:0:
281,6,81399,5,2,1:2:0:0:
281,6,81578,2,0,P|328:10|378:15,1,89.2499972763062,2|8,0:2|0:2,0:2:0:0:
442,76,81935,2,0,P|460:119|452:170,1,89.2499972763062,2|0,0:2|1:2,0:2:0:0:
381,216,82292,1,8,0:2:0:0:
381,216,82471,1,8,0:2:0:0:
452,276,82649,1,2,3:2:0:0:
384,344,82828,5,6,1:2:0:0:
384,344,83007,2,0,P|339:357|286:336,1,80.7499978437424,2|0,0:2|1:2,0:0:0:0:
252,291,83364,1,2,0:2:0:0:
252,291,83542,2,0,P|261:242|269:200,1,80.7499978437424,4|0,1:3|1:2,0:0:0:0:
291,133,83899,1,8,1:3:0:0:
291,133,84078,2,0,P|283:87|275:49,1,80.7499978437424,4|0,1:3|1:2,0:0:0:0:
203,8,84435,5,14,0:2:0:0:
63,100,84792,1,2,1:2:0:0:
63,100,84882,1,0,1:2:0:0:
63,100,84971,2,0,P|74:137|77:185,1,80.7499978437424,14|8,0:2|0:2,0:0:0:0:
25,245,85328,1,2,1:2:0:0:
25,245,85507,1,2,1:2:0:0:
85,304,85685,6,0,P|126:310|169:294,1,76.4999976654053,10|0,0:2|1:2,0:0:0:0:
232,256,86042,1,0,1:2:0:0:
232,256,86221,2,0,P|272:250|316:270,1,76.4999976654053,14|0,0:2|1:2,0:0:0:0:
378,313,86578,1,0,1:2:0:0:
378,313,86757,2,0,P|385:271|395:224,1,76.4999976654053,14|0,0:2|1:2,0:0:0:0:
439,168,87114,1,0,1:2:0:0:
439,168,87292,6,0,P|434:120|425:82,1,76.4999976654053,14|0,0:2|1:2,0:0:0:0:
363,38,87649,1,0,1:2:0:0:
363,38,87828,2,0,P|321:26|288:32,1,76.4999976654053,14|0,0:2|1:2,0:0:0:0:
221,81,88185,1,14,0:2:0:0:
221,81,88364,1,0,1:2:0:0:
153,23,88542,6,0,P|112:30|56:45,1,80.7499978437424,14|0,0:2|1:2,0:0:0:0:
12,97,88899,1,0,1:2:0:0:
12,97,89078,2,0,P|27:135|31:182,1,80.7499978437424,14|0,0:2|1:2,0:0:0:0:
102,229,89435,1,0,1:2:0:0:
102,229,89614,2,0,P|87:267|83:314,1,80.7499978437424,14|0,0:2|1:2,0:0:0:0:
154,352,89971,1,0,1:2:0:0:
154,352,90149,6,0,P|196:358|248:338,1,80.7499978437424,14|0,0:2|1:2,0:0:0:0:
292,287,90507,1,0,1:2:0:0:
292,287,90685,2,0,P|284:240|275:188,1,80.7499978437424,14|0,0:2|1:2,0:0:0:0:
315,130,91042,1,12,0:2:0:0:
254,67,91221,6,0,B|186:42|89:94|165:120|96:177|1:159,1,289,6|0,1:2|0:2,0:2:0:0:
