osu file format v14

[General]
AudioFilename: audio.mp3
AudioLeadIn: 0
PreviewTime:62203
Countdown: 0
SampleSet: Soft
StackLeniency: 0.7
Mode: 0
LetterboxInBreaks: 0
WidescreenStoryboard: 0

[Editor]
Bookmarks: 64078,91221,94257
DistanceSpacing: 2.4
BeatDivisor: 4
GridSize: 16
TimelineZoom: 2.2

[Metadata]
Title:Shiny Smily Story
TitleUnicode:Shiny Smily Story
Artist:hololive IDOL PROJECT
ArtistUnicode:hololive IDOL PROJECT
Creator:Sotarks
Version:Nymphe's Insane
Source:
Tags:nymphe kiyoshi guarden chiga rosiie ホロライブ カバー cover corp. virtual youtuber vtuber idol jpop ときのそら tokino sora ロボ子さん roboco-san robocosan さくらみこ sakura miko 赤井はあと akai haato 夜空メル yozora mel 夏色まつり natsuiro matsuri アキ・ローゼンタール aki rosenthal 白上フブキ shirakami fubuki 大空スバル oozora subaru 癒月ちょこ yuzuki choco 紫咲シオン murasaki shion 百鬼あやめ nakiri ayame 湊あくあ minato aqua 大神ミオ ookami mio 猫又おかゆ nekomata okayu 戌神ころね inugami korone haachama akirose akiroze ojou japanese pop female vocalist version short azur lane looking glass of fact and fiction
BeatmapID:2601894
BeatmapSetID:1251840

[Difficulty]
HPDrainRate:4.8
CircleSize:3.8
OverallDifficulty:8.5
ApproachRate:9
SliderMultiplier:1.72
SliderTickRate:1

[Events]
//Background and Video events
0,0,"bg.jpg"
Video,-2499,"video.mp4"
//Break Periods
//Storyboard Layer 0 (Background)
//Storyboard Layer 1 (Fail)
//Storyboard Layer 2 (Pass)
//Storyboard Layer 3 (Foreground)
//Storyboard Layer 4 (Overlay)
//Storyboard Sound Samples

[TimingPoints]
1400,357.142857142857,4,2,22,42,1,0
1400,-138.888888888889,4,2,22,42,0,0
3542,-192.307692307693,4,2,22,42,0,0
4257,-138.888888888889,4,2,22,42,0,0
7114,-138.888888888889,4,2,22,52,0,0
7828,-121.951219512195,4,2,22,52,0,0
9971,-121.951219512195,4,2,22,62,0,0
12828,-108.695652173913,4,2,22,72,0,0
21399,-98.0392156862745,4,2,22,72,0,0
25685,-121.951219512195,4,2,22,52,0,0
34257,-98.0392156862744,4,2,22,72,0,0
35864,-121.951219512195,4,2,22,72,0,0
37114,-121.951219512195,4,2,22,62,0,0
46935,-121.951219512195,4,2,22,72,0,0
48542,-138.888888888889,4,2,22,72,0,0
54078,-108.695652173913,4,2,22,72,0,0
56935,-121.951219512195,4,2,22,72,0,0
58542,-108.695652173913,4,2,22,72,0,0
62292,-192.307692307692,4,2,22,72,0,0
62828,-98.0392156862745,4,2,22,82,0,0
85685,-108.695652173913,4,2,22,92,0,0
91221,-714.285714285714,4,2,22,82,0,0
91310,-714.285714285714,4,2,22,22,0,0
94257,-714.285714285714,4,2,22,12,0,0

[Colours]
Combo1 : 255,243,164
Combo2 : 44,202,254
Combo3 : 253,176,255
Combo4 : 182,255,164

[HitObjects]
39,122,1400,6,0,L|105:108,1,61.9200015117188,2|0,0:0|0:0,0:0:0:0:
185,211,1757,2,0,L|119:197,1,61.9200015117188,2|0,0:0|0:0,0:0:0:0:
187,16,2114,2,0,B|223:53|223:53|205:144,1,123.840003023438,2|2,0:0|0:0,0:0:0:0:
276,231,2649,2,0,B|316:213|352:228|340:238|365:258|407:245,1,123.840003023438,2|2,0:0|0:0,0:0:0:0:
491,207,3185,1,2,0:0:0:0:
395,156,3364,1,2,0:0:0:0:
395,156,3542,2,0,L|406:50,1,89.4399994541016,0|0,0:2|0:2,0:0:0:0:
262,12,4257,6,0,L|335:-3,1,61.9200015117188,2|0,0:0|0:0,0:0:0:0:
274,126,4614,2,0,L|201:111,1,61.9200015117188,2|0,0:0|0:0,0:0:0:0:
96,17,4971,2,0,B|129:48|129:48|110:133,1,123.840003023438,2|2,0:0|0:0,0:0:0:0:
46,277,5507,2,0,P|75:224|150:218,1,123.840003023438,2|2,0:0|0:0,0:0:0:0:
223,311,6042,1,2,0:0:0:0:
223,311,6221,2,0,P|190:298|155:298,1,61.9200015117188,2|0,0:0|0:0,0:0:0:0:
268,208,6578,1,0,0:0:0:0:
305,364,6757,2,0,P|335:361|364:349,1,61.9200015117188,8|2,0:3|0:0,0:0:0:0:
470,137,7114,6,0,B|437:158|410:172|410:172|432:234|444:296,1,185.760004535156,6|0,1:2|0:2,0:0:0:0:
512,384,7828,2,0,L|430:372,1,70.5200010760498,8|4,0:3|0:3,0:0:0:0:
268,286,8185,2,0,L|348:272,1,70.5200010760498,4|6,0:3|0:3,0:0:0:0:
470,137,8542,6,0,B|424:114|392:136|405:161|366:177|307:155,1,141.0400021521,2|4,1:2|0:3,0:0:0:0:
200,117,9078,1,2,3:2:0:0:
297,11,9257,2,0,L|289:107,1,70.5200010760498,0|0,1:2|1:2,0:2:0:0:
153,253,9614,2,0,L|147:182,1,70.5200010760498,4|2,1:2|0:2,0:2:0:0:
147,2,9971,5,10,0:2:0:0:
257,176,10149,1,2,1:2:0:0:
50,121,10328,1,0,1:2:0:0:
251,29,10507,1,10,0:2:0:0:
153,253,10685,2,0,L|58:240,1,70.5200010760498,0|0,1:2|1:2,0:0:0:0:
310,103,11042,2,0,B|354:138|354:138|331:228,1,141.0400021521,8|0,0:2|1:2,0:0:0:0:
158,24,11578,6,0,P|93:27|80:116,1,141.0400021521,12|2,1:2|1:2,0:2:0:0:
116,156,12024,1,0,1:2:0:0:
116,156,12113,2,0,L|208:128,1,70.5200010760498,14|0,0:2|0:2,0:2:0:0:
324,12,12471,2,0,L|246:-2,1,70.5200010760498,2|2,0:2|0:2,0:0:0:0:
287,229,12828,6,0,L|275:120,1,79.1199973439942,4|0,1:2|0:0,0:2:0:0:
456,25,13185,2,0,L|447:103,1,79.1199973439942,10|0,0:2|3:2,0:0:0:0:
371,285,13542,1,2,1:2:0:0:
504,232,13721,1,0,0:2:0:0:
357,82,13899,2,0,L|365:160,1,79.1199973439942,10|0,0:2|0:2,0:2:0:0:
505,344,14257,6,0,B|457:315|414:334|432:366|387:381|338:362,1,158.239994687988,2|10,1:2|0:2,0:2:0:0:
178,272,14792,1,2,0:2:0:0:
178,272,14881,1,0,0:0:0:0:
178,272,14970,1,0,1:2:0:0:
325,174,15149,1,2,0:2:0:0:
241,354,15328,1,8,0:2:0:0:
176,163,15507,1,2,3:2:0:0:
329,290,15685,6,0,L|426:273,1,79.1199973439942,0|0,1:2|0:0,0:2:0:0:
512,114,16042,2,0,L|415:97,1,79.1199973439942,10|0,0:2|0:0,0:0:0:0:
231,46,16399,1,2,1:2:0:0:
311,197,16578,1,0,0:2:0:0:
344,0,16757,2,0,L|329:101,1,79.1199973439942,10|0,0:2|0:2,0:2:0:0:
229,231,17114,6,0,B|183:200|137:221|151:245|111:267|57:244,1,158.239994687988,2|10,1:2|0:2,0:2:0:0:
225,323,17649,2,0,L|320:302,1,79.1199973439942,2|0,0:2|1:2,0:0:0:0:
440,363,18007,1,2,1:2:0:0:
315,208,18185,2,0,L|393:226,1,79.1199973439942,10|0,0:2|0:2,0:2:0:0:
486,120,18542,6,0,B|531:156|531:156|505:266,1,158.239994687988,2|8,1:2|0:2,0:2:0:0:
387,88,19078,2,0,P|410:45|465:37,1,79.1199973439942,0|0,0:0|1:2,0:0:0:0:
396,236,19435,1,2,3:2:0:0:
309,133,19614,2,0,P|294:73|315:35,1,79.1199973439942,10|2,0:2|3:2,0:0:0:0:
359,308,19971,5,2,1:2:0:0:
430,156,20149,1,2,3:2:0:0:
453,344,20328,1,10,0:2:0:0:
313,216,20507,2,0,L|225:224,1,79.1199973439942,2|0,3:2|1:0,0:2:0:0:
356,346,20864,1,0,0:2:0:0:
414,176,21042,2,0,L|502:184,1,79.1199973439942,14|8,0:2|0:2,0:0:0:0:
269,315,21399,6,0,B|226:292|192:304|204:325|165:341|130:327,1,131.580000803101,6|0,1:2|0:2,0:2:0:0:
116,353,21757,2,0,B|112:286|112:286|117:280|117:280|114:211,1,131.580000803101,14|0,0:2|0:2,0:2:0:0:
39,192,22114,2,0,P|87:198|135:131,1,131.580000803101,6|0,1:2|0:2,0:2:0:0:
143,47,22471,2,0,L|77:62,3,43.8600002677002,14|0|0|0,0:2|1:0|1:0|1:2,0:2:0:0:
238,3,22828,5,14,0:2:0:0:
290,185,23007,1,2,1:2:0:0:
290,185,23096,1,0,1:2:0:0:
290,185,23185,1,8,0:2:0:0:
389,4,23364,2,0,B|419:27|447:47|447:47|429:95|410:167,1,175.440001070801,6|0,1:2|1:2,0:2:0:0:
283,272,23899,2,0,L|230:258,2,43.8600002677002,2|4|4,0:3|0:3|0:3,0:2:0:0:
451,313,24257,5,6,1:2:0:0:
326,135,24435,1,2,1:2:0:0:
292,374,24614,1,10,0:2:0:0:
512,203,24792,2,0,B|461:171|413:197|436:221|396:248|333:225,1,175.440001070801,6|0,1:2|1:2,0:2:0:0:
227,139,25328,1,12,0:2:0:0:
344,30,25507,1,0,3:2:0:0:
344,30,25596,1,0,3:2:0:0:
344,30,25685,6,0,L|350:106,1,70.5200010760498,0|2,1:2|0:2,0:2:0:0:
431,141,26042,2,0,L|425:211,1,70.5200010760498,2|0,1:2|0:2,0:2:0:0:
364,329,26399,2,0,L|452:314,1,70.5200010760498,2|2,1:2|0:2,0:2:0:0:
329,231,26757,2,0,L|241:216,1,70.5200010760498,2|0,1:2|0:2,0:2:0:0:
143,131,27114,6,0,B|97:170|97:170|119:268,1,141.0400021521,2|2,1:2|1:2,0:0:0:0:
210,349,27649,2,0,B|250:323|286:341|274:352|305:377|358:356,1,141.0400021521,2|2,0:2|0:2,0:2:0:0:
459,303,28185,1,2,1:2:0:0:
330,220,28364,1,2,3:2:0:0:
330,220,28453,1,0,3:2:0:0:
330,220,28542,6,0,B|337:286|337:286|335:294|335:294|344:377,1,141.0400021521,2|2,1:2|1:2,0:2:0:0:
431,145,29078,2,0,L|425:230,1,70.5200010760498,2|0,0:2|1:2,0:2:0:0:
332,75,29435,2,0,P|266:73|233:150,1,141.0400021521,2|2,0:2|0:2,0:0:0:0:
183,266,29971,6,0,L|262:255,1,70.5200010760498,0|0,1:2|0:0,0:2:0:0:
396,345,30328,2,0,L|317:332,1,70.5200010760498,0|0,1:2|3:2,0:0:0:0:
298,329,30596,1,0,3:2:0:0:
298,329,30685,1,0,1:2:0:0:
430,178,30864,2,0,L|420:267,1,70.5200010760498,2|2,3:2|1:2,0:0:0:0:
313,187,31221,2,0,L|306:117,1,70.5200010760498,2|0,3:2|1:2,0:2:0:0:
249,7,31578,6,0,L|338:22,1,70.5200010760498,2|2,0:2|1:2,0:0:0:0:
229,102,31935,2,0,L|136:114,1,70.5200010760498,2|0,0:2|1:2,0:2:0:0:
33,49,32292,2,0,L|45:129,1,70.5200010760498,2|0,0:2|1:2,0:2:0:0:
108,234,32649,6,0,B|151:214|188:234|169:252|199:274|256:260,1,141.0400021521,2|2,0:2|0:2,0:2:0:0:
372,212,33185,1,2,1:2:0:0:
277,138,33364,1,2,0:2:0:0:
343,307,33542,2,0,L|436:287,1,70.5200010760498,0|0,1:2|0:2,0:0:0:0:
345,87,33899,1,0,1:2:0:0:
267,232,34078,1,2,3:2:0:0:
181,43,34257,6,0,P|125:49|109:135,1,131.580000803101,6|0,1:2|0:2,0:2:0:0:
148,175,34614,2,0,P|206:145|293:138,1,131.580000803101,6|0,1:2|0:2,0:2:0:0:
345,87,34971,2,0,P|290:58|252:58,1,87.7200005354004,6|0,1:2|0:0,0:2:0:0:
380,234,35328,1,6,1:2:0:0:
457,100,35507,1,2,0:2:0:0:
306,185,35685,5,2,1:2:0:0:
466,283,35864,2,0,L|474:189,1,70.5200010760498,2|8,1:2|0:3,0:0:0:0:
368,55,36221,2,0,L|373:125,1,70.5200010760498,6|0,1:2|0:2,0:2:0:0:
313,284,36578,2,0,B|260:278|260:278|228:292|228:292|167:288,1,141.0400021521,2|4,1:2|0:3,0:0:0:0:
58,255,37114,6,0,L|69:341,1,70.5200010760498,4|2,1:2|0:2,0:2:0:0:
159,213,37471,2,0,L|167:143,1,70.5200010760498,10|0,0:2|0:2,0:2:0:0:
211,24,37828,2,0,L|121:44,1,70.5200010760498,2|2,1:2|0:2,0:0:0:0:
255,118,38185,2,0,L|345:138,1,70.5200010760498,10|0,0:2|0:2,0:2:0:0:
461,65,38542,6,0,B|417:101|417:101|440:202,1,141.0400021521,2|10,1:2|0:2,0:0:0:0:
511,294,39078,2,0,B|470:274|436:294|449:314|417:336|369:321,1,141.0400021521,2|2,0:2|0:2,0:2:0:0:
248,254,39614,1,10,0:2:0:0:
368,167,39792,1,2,3:2:0:0:
368,167,39882,1,0,3:2:0:0:
368,167,39971,6,0,L|357:256,1,70.5200010760498,2|0,1:2|0:0,0:2:0:0:
295,346,40328,1,10,0:2:0:0:
264,102,40507,2,0,L|278:197,1,70.5200010760498,2|0,0:2|1:2,0:2:0:0:
209,323,40864,2,0,L|126:303,1,70.5200010760498,2|8,0:2|0:2,0:2:0:0:
64,104,41221,6,0,B|19:139|19:139|44:242,1,141.0400021521,2|0,0:2|3:2,0:0:0:0:
51,245,41667,1,0,3:2:0:0:
49,244,41757,2,0,L|138:226,1,70.5200010760498,8|0,0:2|0:2,0:0:0:0:
226,151,42114,1,0,1:2:0:0:
226,151,42292,2,0,L|148:140,2,70.5200010760498,14|4|6,0:3|0:3|0:3,0:0:0:0:
382,198,42828,6,0,B|340:179|308:205|323:224|294:252|246:245,1,141.0400021521,4|10,1:2|0:2,0:2:0:0:
150,357,43364,2,0,L|167:259,1,70.5200010760498,2|0,0:2|1:2,0:2:0:0:
46,184,43721,2,0,L|59:254,1,70.5200010760498,2|8,0:2|0:2,0:0:0:0:
209,118,44078,6,0,B|151:113|151:113|125:88|125:88|50:82,1,141.0400021521,2|0,0:2|3:2,0:2:0:0:
46,87,44524,1,0,3:2:0:0:
46,87,44614,1,10,0:2:0:0:
216,5,44792,2,0,L|291:20,1,70.5200010760498,2|0,3:2|1:2,0:0:0:0:
372,107,45149,2,0,L|297:122,1,70.5200010760498,0|8,3:2|0:2,0:0:0:0:
407,10,45507,1,2,0:2:0:0:
465,132,45685,6,0,L|457:210,1,70.5200010760498,2|4,1:2|0:3,0:0:0:0:
456,231,45953,1,0,0:0:0:0:
456,231,46042,1,6,0:3:0:0:
371,347,46221,6,0,L|320:335,1,35.2600005380249,2|0,1:2|0:0,0:0:0:0:
378,361,46578,2,0,L|327:349,1,35.2600005380249,2|0,1:2|0:0,0:0:0:0:
98,230,46935,6,0,B|134:208|178:230|161:246|198:270|234:258,1,141.0400021521,6|2,1:2|1:2,0:2:0:0:
322,102,47471,2,0,P|304:132|295:169,1,70.5200010760498,14|0,0:2|0:2,0:2:0:0:
382,303,47828,2,0,L|347:310,3,35.2600005380249,0|8|4|4,1:2|0:3|0:3|0:3,0:2:0:0:
457,256,48185,5,8,0:2:0:0:
454,243,48274,1,8,0:2:0:0:
452,232,48364,1,8,0:2:0:0:
449,220,48453,1,8,0:2:0:0:
445,204,48542,6,0,L|363:217,1,61.9200015117188,4|0,1:2|0:0,0:2:0:0:
272,181,48899,1,2,0:2:0:0:
272,181,49078,1,2,1:2:0:0:
336,114,49257,2,0,L|339:39,1,61.9200015117188,10|0,0:2|0:0,0:2:0:0:
249,0,49614,1,2,0:2:0:0:
249,0,49792,6,0,L|240:73,1,61.9200015117188,2|0,1:2|0:2,0:2:0:0:
207,183,50149,1,2,1:2:0:0:
207,183,50328,2,0,L|289:171,1,61.9200015117188,2|0,0:2|1:2,0:2:0:0:
155,87,50685,2,0,L|73:75,1,61.9200015117188,8|0,0:2|0:0,0:2:0:0:
0,141,51042,1,2,1:2:0:0:
108,221,51221,1,0,1:2:0:0:
108,221,51310,1,0,1:2:0:0:
108,221,51399,6,0,L|99:145,1,61.9200015117188,2|8,1:2|0:2,0:0:0:0:
7,229,51757,2,0,L|0:291,1,61.9200015117188,2|0,1:2|1:2,0:0:0:0:
118,374,52114,2,0,L|39:387,1,61.9200015117188,10|0,0:2|0:0,0:2:0:0:
155,286,52471,1,2,0:2:0:0:
155,286,52649,6,0,L|234:289,1,61.9200015117188,2|0,1:2|0:2,0:2:0:0:
286,361,53007,1,2,1:2:0:0:
286,361,53185,2,0,L|373:347,1,61.9200015117188,2|0,0:2|1:2,0:2:0:0:
501,278,53542,1,8,0:2:0:0:
351,210,53721,1,6,0:3:0:0:
430,337,53899,1,6,0:3:0:0:
407,91,54078,6,0,B|459:129|459:129|433:249,1,158.239994687988,6|2,1:2|1:2,0:2:0:0:
321,344,54614,2,0,L|232:327,1,79.1199973439942,2|2,1:2|1:2,0:0:0:0:
100,279,54971,1,2,1:2:0:0:
248,160,55149,1,8,0:2:0:0:
65,117,55328,1,8,0:2:0:0:
376,231,55507,6,0,B|325:206|287:225|302:242|262:269|209:249,1,158.239994687988,6|2,1:2|1:2,0:2:0:0:
129,47,56042,2,0,P|167:85|176:135,1,79.1199973439942,2|2,1:2|1:2,0:0:0:0:
123,313,56399,1,2,1:2:0:0:
65,117,56578,1,8,0:2:0:0:
236,261,56757,1,8,0:2:0:0:
19,230,56935,6,0,L|103:216,1,70.5200010760498,6|0,1:2|0:0,0:2:0:0:
186,151,57292,1,0,1:2:0:0:
186,151,57471,2,0,L|263:162,1,70.5200010760498,2|0,1:2|0:2,0:2:0:0:
370,226,57828,2,0,L|355:131,1,70.5200010760498,2|0,1:2|0:2,0:2:0:0:
468,80,58185,2,0,L|457:149,1,70.5200010760498,2|0,1:2|0:2,0:2:0:0:
376,40,58542,6,0,P|336:24|288:39,1,79.1199973439942,2|0,1:2|0:2,0:2:0:0:
180,140,58899,2,0,P|219:152|266:136,1,79.1199973439942,2|0,1:2|0:2,0:2:0:0:
177,17,59257,1,2,1:2:0:0:
177,17,59435,1,0,0:2:0:0:
85,114,59614,2,0,L|93:209,1,79.1199973439942,6|0,1:2|1:2,0:2:0:0:
140,364,59971,5,2,1:2:0:0:
0,271,60149,1,2,1:2:0:0:
191,213,60328,2,0,L|277:227,1,79.1199973439942,2|0,1:2|0:0,0:0:0:0:
129,375,60685,1,2,1:2:0:0:
78,152,60864,2,0,L|-8:166,1,79.1199973439942,2|0,1:2|0:0,0:0:0:0:
185,0,61221,6,0,B|235:38|235:38|209:150,1,158.239994687988,2|0,1:2|1:2,0:0:0:0:
309,296,61757,2,0,P|366:298|406:272,1,79.1199973439942,14|0,0:2|1:0,0:2:0:0:
405,266,62024,1,0,1:0:0:0:
405,266,62114,1,0,1:2:0:0:
330,119,62292,2,0,L|330:164,2,44.7199997270508,2|2|2,1:2|1:2|1:2,0:0:0:0:
145,35,62828,6,0,P|188:12|245:21,1,87.7200005354004,6|0,0:2|0:2,0:2:0:0:
98,230,63185,2,0,P|54:229|17:208,1,87.7200005354004,10|0,0:2|3:2,0:2:0:0:
211,104,63542,2,0,L|220:205,1,87.7200005354004,2|0,1:2|0:2,0:2:0:0:
175,330,63899,1,10,0:2:0:0:
314,168,64078,2,0,L|305:269,1,87.7200005354004,2|0,0:2|1:2,0:2:0:0:
391,366,64435,1,2,0:2:0:0:
212,252,64614,1,10,0:2:0:0:
416,188,64792,1,2,0:2:0:0:
285,378,64971,2,0,L|174:364,1,87.7200005354004,0|0,1:2|3:2,0:0:0:0:
56,244,65328,1,8,0:2:0:0:
192,163,65507,1,0,3:2:0:0:
81,330,65685,6,0,P|30:330|-9:302,1,87.7200005354004,2|0,1:2|0:2,0:2:0:0:
121,95,66042,2,0,P|159:74|202:76,1,87.7200005354004,10|0,0:2|0:2,0:2:0:0:
257,309,66399,2,0,L|158:284,1,87.7200005354004,2|0,1:2|0:2,0:2:0:0:
313,168,66757,1,10,0:2:0:0:
354,366,66935,2,0,L|454:343,1,87.7200005354004,2|0,0:2|1:2,0:2:0:0:
426,108,67292,1,2,0:2:0:0:
323,256,67471,1,10,0:2:0:0:
502,179,67649,1,2,0:2:0:0:
337,31,67828,2,0,L|322:132,1,87.7200005354004,0|0,1:2|3:2,0:0:0:0:
425,301,68185,2,0,L|412:214,1,87.7200005354004,8|2,0:2|3:2,0:0:0:0:
233,168,68542,5,6,1:2:0:0:
181,339,68721,2,0,L|88:327,1,87.7200005354004,2|8,0:2|0:2,0:2:0:0:
0,177,69078,2,0,L|93:165,1,87.7200005354004,2|0,0:2|1:2,0:2:0:0:
280,90,69435,1,8,0:2:0:0:
203,249,69614,1,8,0:2:0:0:
155,57,69792,1,2,3:2:0:0:
307,185,69971,5,2,1:2:0:0:
113,307,70149,2,0,L|120:207,1,87.7200005354004,2|8,0:2|0:2,0:2:0:0:
238,27,70507,2,0,L|245:115,1,87.7200005354004,2|0,0:2|1:2,0:2:0:0:
290,304,70864,1,8,0:2:0:0:
380,148,71042,1,8,0:2:0:0:
196,225,71221,1,2,3:2:0:0:
196,225,71310,1,0,3:2:0:0:
196,225,71399,6,0,B|157:258|157:258|185:344,1,131.580000803101,6|0,1:2|0:2,0:2:0:0:
240,384,71757,2,0,B|306:366|306:366|313:368|313:368|377:349,1,131.580000803101,6|0,1:2|0:2,0:2:0:0:
438,301,72114,2,0,P|392:239|314:263,1,131.580000803101,6|0,1:2|0:2,0:2:0:0:
277,293,72471,2,0,P|264:265|260:214,3,43.8600002677002,2|0|0|0,1:2|3:0|3:2|3:2,0:0:0:0:
285,165,72828,5,2,1:2:0:0:
168,337,73007,1,12,0:2:0:0:
209,121,73185,2,0,P|249:84|291:79,1,87.7200005354004,8|2,0:2|0:2,0:2:0:0:
370,342,73542,1,2,1:2:0:0:
178,231,73721,1,12,0:2:0:0:
389,179,73899,1,8,0:2:0:0:
268,351,74078,1,0,3:2:0:0:
292,113,74257,6,0,L|398:78,1,87.7200005354004,6|0,0:2|0:2,0:2:0:0:
489,286,74614,2,0,L|401:264,1,87.7200005354004,10|0,0:2|3:2,0:2:0:0:
253,373,74971,2,0,L|271:251,1,87.7200005354004,2|0,1:2|0:2,0:2:0:0:
176,160,75328,1,10,0:2:0:0:
356,319,75507,2,0,L|338:197,1,87.7200005354004,2|0,0:2|1:2,0:2:0:0:
303,80,75864,1,2,0:2:0:0:
220,246,76042,1,10,0:2:0:0:
395,148,76221,1,2,0:2:0:0:
220,33,76399,2,0,L|132:48,1,87.7200005354004,0|0,1:2|3:2,0:0:0:0:
0,150,76757,1,8,0:2:0:0:
40,0,76935,1,0,3:2:0:0:
131,157,77114,6,0,L|119:259,1,87.7200005354004,2|0,1:2|0:2,0:2:0:0:
254,376,77471,2,0,L|243:288,1,87.7200005354004,10|0,0:2|0:2,0:2:0:0:
323,114,77828,2,0,L|226:140,1,87.7200005354004,2|0,1:2|0:2,0:2:0:0:
361,270,78185,1,10,0:2:0:0:
409,49,78364,2,0,L|506:75,1,87.7200005354004,2|0,0:2|1:2,0:2:0:0:
456,324,78721,1,2,0:2:0:0:
271,212,78899,1,10,0:2:0:0:
463,170,79078,1,2,0:2:0:0:
344,363,79257,2,0,P|293:375|250:362,1,87.7200005354004,0|0,1:2|3:2,0:0:0:0:
122,242,79614,1,8,0:2:0:0:
250,143,79792,1,2,3:2:0:0:
166,342,79971,5,6,1:2:0:0:
90,153,80149,2,0,L|-1:172,1,87.7200005354004,2|8,0:2|0:2,0:2:0:0:
237,291,80507,2,0,L|340:275,1,87.7200005354004,2|0,0:2|1:2,0:2:0:0:
457,122,80864,1,8,0:2:0:0:
287,171,81042,1,8,0:2:0:0:
451,251,81221,1,2,3:2:0:0:
334,78,81399,5,2,1:2:0:0:
353,311,81578,2,0,L|367:211,1,87.7200005354004,2|8,0:2|0:2,0:2:0:0:
191,76,81935,2,0,L|203:162,1,87.7200005354004,2|0,0:2|1:2,0:2:0:0:
197,320,82292,1,8,0:2:0:0:
313,180,82471,1,8,0:2:0:0:
101,260,82649,1,2,3:2:0:0:
306,373,82828,6,0,P|397:364|423:268,1,175.440001070801,6|0,1:2|1:2,0:2:0:0:
257,98,83364,2,0,P|226:139|231:199,1,87.7200005354004,2|4,0:2|1:3,0:0:0:0:
441,140,83721,1,0,1:2:0:0:
287,6,83899,1,8,1:3:0:0:
411,242,84078,2,0,L|515:222,1,87.7200005354004,4|0,1:3|1:2,0:0:0:0:
350,92,84435,5,14,0:2:0:0:
350,92,84792,1,2,1:2:0:0:
350,92,84882,1,0,1:2:0:0:
350,92,84971,2,0,L|339:185,1,87.7200005354004,14|8,0:2|0:2,0:0:0:0:
270,325,85328,1,2,1:2:0:0:
402,263,85507,1,2,1:2:0:0:
239,162,85685,6,0,L|251:243,2,79.1199973439942,10|0|0,0:2|1:2|1:2,0:0:0:0:
112,96,86221,2,0,L|123:17,2,79.1199973439942,14|0|0,0:2|1:2|1:2,0:0:0:0:
183,262,86757,1,14,0:2:0:0:
279,106,86935,1,0,1:2:0:0:
95,208,87114,1,0,1:2:0:0:
286,315,87292,6,0,L|395:303,1,79.1199973439942,14|0,0:2|1:2,0:0:0:0:
208,170,87649,1,0,1:2:0:0:
153,362,87828,2,0,L|44:350,1,79.1199973439942,14|0,0:2|1:2,0:0:0:0:
0,186,88185,2,0,L|78:177,1,79.1199973439942,14|0,0:2|1:2,0:0:0:0:
282,103,88542,6,0,L|266:201,2,79.1199973439942,14|0|0,0:2|1:2|1:2,0:0:0:0:
404,315,89078,2,0,L|391:236,2,79.1199973439942,14|0|0,0:2|1:2|1:2,0:0:0:0:
232,292,89614,1,14,0:2:0:0:
394,144,89792,1,0,1:2:0:0:
317,357,89971,1,0,1:2:0:0:
199,151,90149,5,14,0:2:0:0:
358,255,90328,1,0,1:2:0:0:
151,314,90507,1,0,1:2:0:0:
301,92,90685,6,0,L|287:194,1,79.1199973439942,14|0,0:2|1:2,0:0:0:0:
151,80,91042,1,12,0:2:0:0:
355,286,91221,6,0,B|304:255|249:288|275:329|211:359|176:343,1,204.680002498535,6|0,1:2|0:2,0:2:0:0:
