osu file format v14

[General]
AudioFilename: audio.mp3
AudioLeadIn: 0
PreviewTime: 62203
Countdown: 0
SampleSet: Soft
StackLeniency: 0.7
Mode: 0
LetterboxInBreaks: 0
WidescreenStoryboard: 0

[Editor]
DistanceSpacing: 1.3
BeatDivisor: 4
GridSize: 16
TimelineZoom: 1

[Metadata]
Title:Shiny Smily Story
TitleUnicode:Shiny Smily Story
Artist:hololive IDOL PROJECT
ArtistUnicode:hololive IDOL PROJECT
Creator:Sotarks
Version:Expert
Source:
Tags:nymphe kiyoshi guarden chiga rosiie ホロライブ カバー cover corp. virtual youtuber vtuber idol jpop ときのそら tokino sora ロボ子さん roboco-san robocosan さくらみこ sakura miko 赤井はあと akai haato 夜空メル yozora mel 夏色まつり natsuiro matsuri アキ・ローゼンタール aki rosenthal 白上フブキ shirakami fubuki 大空スバル oozora subaru 癒月ちょこ yuzuki choco 紫咲シオン murasaki shion 百鬼あやめ nakiri ayame 湊あくあ minato aqua 大神ミオ ookami mio 猫又おかゆ nekomata okayu 戌神ころね inugami korone haachama akirose akiroze ojou japanese pop female vocalist version short azur lane looking glass of fact and fiction
BeatmapID:2601893
BeatmapSetID:1251840

[Difficulty]
HPDrainRate:5.2
CircleSize:3.8
OverallDifficulty:8.7
ApproachRate:9.1
SliderMultiplier:1.72
SliderTickRate:1

[Events]
//Background and Video events
0,0,"bg.jpg",0,0
Video,-2499,"video.mp4"
//Break Periods
//Storyboard Layer 0 (Background)
//Storyboard Layer 1 (Fail)
//Storyboard Layer 2 (Pass)
//Storyboard Layer 3 (Foreground)
//Storyboard Layer 4 (Overlay)
//Storyboard Sound Samples

[TimingPoints]
1400,357.142857142857,4,2,22,42,1,0
1400,-161.290322580645,4,2,22,42,0,0
7114,-121.951219512195,4,2,22,52,0,0
9971,-98.0392156862744,4,2,22,62,0,0
12114,-108.695652173913,4,2,22,62,0,0
12828,-98.0392156862745,4,2,22,72,0,0
21399,-89.2857142857143,4,2,22,72,0,0
21757,-81.9672131147541,4,2,22,72,0,0
22114,-75.7575757575758,4,2,22,72,0,0
22471,-70.4225352112676,4,2,22,72,0,0
22828,-65.7894736842105,4,2,22,72,0,0
23899,-98.0392156862745,4,2,22,72,0,0
24792,-75.7575757575758,4,2,22,72,0,0
25685,-121.951219512195,4,2,22,52,0,0
34257,-108.695652173913,4,2,22,72,0,0
34971,-98.0392156862744,4,2,22,72,0,0
37114,-108.695652173913,4,2,22,62,0,0
46935,-98.0392156862745,4,2,22,72,0,0
48542,-108.695652173913,4,2,22,72,0,0
54078,-98.0392156862745,4,2,22,72,0,0
56935,-108.695652173913,4,2,22,72,0,0
61757,-89.2857142857143,4,2,22,72,0,0
62828,-89.2857142857143,4,2,22,82,0,0
71399,-81.9672131147541,4,2,22,82,0,0
74257,-89.2857142857143,4,2,22,82,0,0
85685,-89.2857142857143,4,2,22,92,0,0
91221,-238.095238095238,4,2,22,82,0,0
91310,-238.095238095238,4,2,22,22,0,0
94257,-238.095238095238,4,2,22,12,0,0

[Colours]
Combo1 : 255,243,164
Combo2 : 44,202,254
Combo3 : 253,176,255
Combo4 : 182,255,164

[HitObjects]
89,336,1400,6,0,P|115:328|141:323,1,53.3199978846436,2|0,0:0|0:0,0:0:0:0:
251,283,1757,2,0,P|225:275|199:269,1,53.3199978846436,2|0,0:0|0:0,0:0:0:0:
322,353,2114,2,0,P|329:297|338:226,1,106.639995769287,2|2,0:0|0:0,0:0:0:0:
418,301,2649,2,0,P|411:248|404:195,1,106.639995769287,2|2,0:0|0:0,0:0:0:0:
432,109,3185,1,2,0:0:0:0:
432,109,3364,2,0,B|371:83|322:130|345:144|301:193|228:169,1,213.279991538575,2|0,0:0|0:0,0:0:0:0:
146,140,4257,6,0,P|153:176|158:208,1,53.3199978846436,2|0,0:0|0:0,0:0:0:0:
62,248,4614,2,0,P|66:221|71:195,1,53.3199978846436,2|0,0:0|0:0,0:0:0:0:
151,283,4971,2,0,P|204:270|258:258,1,106.639995769287,2|2,0:0|0:0,0:0:0:0:
243,172,5507,2,0,P|295:183|346:196,1,106.639995769287,2|2,0:0|0:0,0:0:0:0:
396,265,6042,1,2,0:0:0:0:
396,265,6221,2,0,P|443:223|411:122,1,159.959993653931,2|8,0:0|0:3,0:0:0:0:
427,134,6935,1,2,0:0:0:0:
473,26,7114,5,6,1:2:0:0:
346,196,7292,2,0,P|270:185|202:175,1,141.0400021521,2|0,0:2|0:2,0:2:0:0:
103,114,7828,1,8,0:3:0:0:
142,232,8007,1,4,0:3:0:0:
265,92,8185,1,4,0:3:0:0:
206,280,8364,1,6,0:3:0:0:
348,51,8542,5,2,1:2:0:0:
419,260,8721,1,0,3:0:0:0:
284,171,8899,1,4,0:3:0:0:
496,224,9078,1,2,3:2:0:0:
341,384,9257,2,0,P|333:340|324:286,1,70.5200010760498,0|0,1:2|1:2,0:2:0:0:
262,266,9524,1,0,1:2:0:0:
262,266,9614,2,0,P|256:300|249:335,1,70.5200010760498,4|2,1:2|0:2,0:2:0:0:
183,99,9971,5,10,0:2:0:0:
375,208,10149,1,2,1:2:0:0:
154,323,10328,1,0,1:2:0:0:
399,76,10507,5,10,0:2:0:0:
207,185,10685,1,0,1:2:0:0:
428,300,10864,1,0,1:2:0:0:
273,44,11042,5,8,0:2:0:0:
177,320,11221,1,0,1:2:0:0:
437,199,11399,1,0,1:2:0:0:
175,89,11578,6,0,P|111:148|131:245,1,175.440001070801,12|2,1:2|1:2,0:2:0:0:
207,271,12024,1,0,1:2:0:0:
207,271,12114,2,0,P|200:224|192:178,1,79.1199973439942,14|0,0:2|0:2,0:2:0:0:
86,335,12471,1,2,0:2:0:0:
288,207,12649,1,2,0:2:0:0:
23,59,12828,6,0,P|103:110|184:80,1,175.440001070801,4|10,1:2|0:2,0:2:0:0:
326,22,13364,1,0,3:2:0:0:
326,22,13453,1,0,3:2:0:0:
326,22,13542,2,0,P|321:70|315:126,1,87.7200005354004,2|0,1:2|0:2,0:2:0:0:
467,194,13899,2,0,P|462:150|457:106,1,87.7200005354004,10|0,0:2|0:2,0:2:0:0:
233,257,14257,2,0,P|279:268|338:284,1,87.7200005354004,2|0,1:2|0:2,0:2:0:0:
174,88,14614,1,10,0:2:0:0:
106,323,14792,2,0,P|60:334|1:350,1,87.7200005354004,2|0,0:2|1:2,0:2:0:0:
219,230,15149,2,0,P|261:240|304:251,1,87.7200005354004,2|8,0:2|0:2,0:2:0:0:
451,356,15507,1,2,3:2:0:0:
451,356,15596,1,0,3:2:0:0:
451,356,15685,6,0,P|494:300|455:199,2,175.440001070801,0|10|2,1:2|0:2|1:2,0:2:0:0:
304,251,16578,1,0,0:2:0:0:
422,111,16757,2,0,P|464:121|507:132,1,87.7200005354004,10|0,0:2|0:2,0:2:0:0:
350,359,17114,2,0,P|343:315|337:272,1,87.7200005354004,2|0,1:2|0:2,0:2:0:0:
227,140,17471,1,10,0:2:0:0:
437,208,17649,1,2,0:2:0:0:
253,340,17828,1,0,1:2:0:0:
411,88,18007,1,2,1:2:0:0:
411,88,18096,1,0,1:2:0:0:
411,88,18185,2,0,P|453:98|496:109,1,87.7200005354004,10|0,0:2|0:2,0:2:0:0:
170,223,18542,6,0,B|150:203|120:178|120:178|142:133|166:76,2,175.440001070801,2|8|0,1:2|0:2|1:2,0:2:0:0:
47,79,19435,1,2,3:2:0:0:
244,158,19614,1,10,0:2:0:0:
66,286,19792,1,2,3:2:0:0:
174,56,19971,5,2,1:2:0:0:
261,299,20149,1,2,3:2:0:0:
36,195,20328,1,10,0:2:0:0:
312,94,20507,2,0,B|264:80|228:118|240:123|203:167|148:147,1,175.440001070801,2|0,3:2|0:2,0:2:0:0:
279,2,21042,1,14,0:2:0:0:
190,251,21221,1,8,0:2:0:0:
190,251,21310,1,8,0:2:0:0:
190,251,21399,6,0,P|267:236|348:221,1,144.480001763672,6|0,1:2|0:2,0:2:0:0:
460,260,21757,2,0,P|471:198|432:239,1,157.379993516144,14|0,0:2|0:2,0:2:0:0:
385,336,22114,2,0,B|350:341|306:309|306:309|272:352|205:369,1,170.279999480347,6|0,1:2|0:2,0:2:0:0:
117,342,22471,2,0,P|57:292|100:186,1,183.179990776154,14|0,0:2|0:2,0:2:0:0:
111,182,22828,5,14,0:2:0:0:
3,351,23007,1,2,1:2:0:0:
3,351,23096,1,0,1:2:0:0:
3,351,23185,1,8,0:2:0:0:
204,145,23364,2,0,B|285:108|337:170|311:188|366:258|476:196,1,261.439996808594,6|0,1:2|1:2,0:2:0:0:
282,56,23899,2,0,P|277:33|271:3,2,43.8600002677002,2|4|4,0:3|0:3|0:3,0:2:0:0:
224,256,24257,5,6,1:2:0:0:
412,115,24435,1,2,1:2:0:0:
242,239,24614,1,10,0:2:0:0:
445,39,24792,2,0,B|475:70|512:89|512:89|470:156|450:236,1,227.039999307129,6|0,1:2|1:2,0:2:0:0:
508,352,25328,1,12,0:2:0:0:
390,124,25507,1,0,3:2:0:0:
390,124,25596,1,0,3:2:0:0:
390,124,25685,6,0,P|349:135|303:148,1,70.5200010760498,0|2,1:2|0:2,0:2:0:0:
224,256,26042,2,0,P|258:265|292:274,1,70.5200010760498,2|0,1:2|0:2,0:2:0:0:
167,68,26399,2,0,P|161:102|155:137,1,70.5200010760498,2|2,1:2|0:2,0:2:0:0:
32,229,26757,2,0,P|26:194|20:159,1,70.5200010760498,2|0,1:2|0:2,0:2:0:0:
164,241,27114,1,2,1:2:0:0:
59,76,27292,1,2,0:2:0:0:
14,270,27471,1,2,1:2:0:0:
155,137,27649,2,0,P|189:146|223:155,1,70.5200010760498,2|0,0:2|1:2,0:2:0:0:
356,71,28007,1,2,0:2:0:0:
264,252,28185,1,2,1:2:0:0:
175,52,28364,1,2,3:2:0:0:
175,52,28453,1,0,3:2:0:0:
175,52,28542,6,0,P|141:61|107:70,1,70.5200010760498,2|0,1:2|0:2,0:2:0:0:
57,240,28899,1,2,1:2:0:0:
223,155,29078,2,0,P|189:146|155:137,1,70.5200010760498,2|0,0:2|1:2,0:2:0:0:
271,293,29435,1,2,0:2:0:0:
295,92,29614,1,0,1:2:0:0:
160,236,29792,1,2,0:2:0:0:
391,161,29971,2,0,P|375:88|359:13,1,141.0400021521,0|0,1:2|1:2,0:2:0:0:
223,201,30507,1,0,3:2:0:0:
223,201,30596,1,0,3:2:0:0:
223,201,30685,1,0,1:2:0:0:
346,105,30864,1,2,3:2:0:0:
276,331,31042,1,2,1:2:0:0:
113,127,31221,6,0,P|119:162|125:197,1,70.5200010760498,2|0,3:2|1:2,0:2:0:0:
45,349,31578,1,2,0:2:0:0:
197,258,31757,1,2,1:2:0:0:
27,170,31935,2,0,P|21:205|15:240,1,70.5200010760498,2|0,0:2|1:2,0:2:0:0:
186,359,32292,2,0,P|180:324|174:289,1,70.5200010760498,2|0,0:2|1:2,0:2:0:0:
113,127,32649,2,0,P|147:136|181:145,1,70.5200010760498,2|0,0:2|1:2,0:2:0:0:
345,234,33007,1,2,0:2:0:0:
269,65,33185,1,2,1:2:0:0:
174,289,33364,2,0,P|208:280|242:271,1,70.5200010760498,2|0,0:2|1:2,0:2:0:0:
409,115,33721,1,0,0:2:0:0:
351,362,33899,1,0,1:2:0:0:
203,170,34078,1,2,3:2:0:0:
203,170,34167,1,0,3:2:0:0:
203,170,34257,6,0,P|261:163|316:217,1,118.679996015991,6|0,1:2|0:2,0:2:0:0:
352,124,34614,2,0,P|397:160|398:237,1,118.679996015991,6|0,1:2|0:2,0:2:0:0:
457,317,34971,2,0,P|435:279|337:281,1,131.580000803101,6|0,1:2|0:2,0:2:0:0:
293,335,35328,2,0,P|340:344|401:371,1,87.7200005354004,6|2,1:2|0:2,0:2:0:0:
203,170,35685,1,2,1:2:0:0:
143,384,35864,1,2,1:2:0:0:
341,230,36042,1,8,0:3:0:0:
102,125,36221,2,0,P|117:181|131:234,1,87.7200005354004,6|0,1:2|0:2,0:2:0:0:
35,345,36578,1,2,1:2:0:0:
193,145,36757,1,8,0:3:0:0:
222,138,36846,1,4,0:3:0:0:
253,138,36935,1,4,0:3:0:0:
283,145,37024,1,4,0:3:0:0:
310,159,37114,6,0,P|316:113|324:63,1,79.1199973439942,4|2,1:2|0:2,0:2:0:0:
108,18,37471,2,0,P|113:57|118:96,1,79.1199973439942,10|0,0:2|0:2,0:2:0:0:
41,237,37828,1,2,1:2:0:0:
222,138,38007,1,2,0:2:0:0:
25,64,38185,2,0,P|19:103|14:142,1,79.1199973439942,10|0,0:2|0:2,0:2:0:0:
230,299,38542,1,2,1:2:0:0:
124,125,38721,1,2,0:2:0:0:
54,332,38899,1,10,0:2:0:0:
239,173,39078,2,0,P|284:181|328:190,1,79.1199973439942,2|0,0:2|1:2,0:2:0:0:
462,300,39435,1,2,0:2:0:0:
392,93,39613,1,10,0:2:0:0:
311,294,39792,1,2,3:2:0:0:
311,294,39882,1,0,3:2:0:0:
311,294,39971,6,0,B|260:274|229:311|246:320|213:353|156:337,1,158.239994687988,2|10,1:2|0:2,0:2:0:0:
14,220,40507,2,0,P|8:259|2:298,1,79.1199973439942,2|0,0:2|1:2,0:2:0:0:
168,161,40864,2,0,P|173:200|179:239,1,79.1199973439942,2|8,0:2|0:2,0:2:0:0:
62,94,41221,1,2,0:2:0:0:
270,172,41399,1,0,1:2:0:0:
61,319,41578,1,0,3:2:0:0:
61,319,41667,1,0,3:2:0:0:
61,319,41757,1,8,0:2:0:0:
159,69,41935,2,0,P|204:77|248:86,1,79.1199973439942,0|0,0:2|1:2,0:2:0:0:
324,267,42292,1,14,0:3:0:0:
416,86,42471,1,4,0:3:0:0:
393,80,42560,1,4,0:3:0:0:
369,82,42649,1,6,0:3:0:0:
347,91,42739,1,4,0:3:0:0:
330,107,42828,6,0,P|335:146|341:185,1,79.1199973439942,4|2,1:2|0:2,0:2:0:0:
259,352,43185,1,10,0:2:0:0:
431,176,43364,2,0,P|426:215|420:254,1,79.1199973439942,2|0,0:2|1:2,0:2:0:0:
258,158,43721,1,2,0:2:0:0:
451,62,43899,1,8,0:2:0:0:
287,267,44078,2,0,P|280:227|275:188,1,79.1199973439942,2|0,0:2|1:2,0:2:0:0:
177,80,44435,1,0,3:2:0:0:
177,80,44524,1,0,3:2:0:0:
177,80,44614,1,10,0:2:0:0:
354,120,44792,1,2,3:2:0:0:
191,247,44971,1,0,1:2:0:0:
311,43,45149,1,0,3:2:0:0:
389,267,45328,2,0,P|427:259|466:252,1,79.1199973439942,8|2,0:2|0:2,0:2:0:0:
291,150,45685,5,2,1:2:0:0:
386,359,45864,1,4,0:3:0:0:
304,176,46042,1,6,0:3:0:0:
189,377,46221,1,2,1:2:0:0:
502,195,46578,1,2,1:2:0:0:
201,18,46935,6,0,B|177:44|153:62|153:62|187:116|209:174,1,175.440001070801,6|2,1:2|1:2,0:2:0:0:
362,101,47471,2,0,P|305:90|258:82,1,87.7200005354004,14|0,0:2|0:2,0:2:0:0:
156,266,47828,2,0,P|199:257|242:250,1,87.7200005354004,0|4,1:2|0:3,0:2:0:0:
92,141,48185,1,8,0:2:0:0:
230,350,48364,1,8,0:2:0:0:
230,350,48453,1,8,0:2:0:0:
230,350,48542,6,0,B|272:363|309:330|294:320|330:287|378:306,1,158.239994687988,4|2,1:2|0:2,0:2:0:0:
483,380,49078,1,2,1:2:0:0:
243,262,49257,2,0,P|161:279|69:298,1,158.239994687988,10|2,0:2|0:2,0:2:0:0:
321,125,49792,2,0,P|331:171|343:235,1,79.1199973439942,2|0,1:2|0:2,0:2:0:0:
197,109,50149,1,2,1:2:0:0:
423,27,50328,2,0,P|413:73|401:137,1,79.1199973439942,2|0,0:2|1:2,0:2:0:0:
462,244,50685,2,0,P|422:193|320:220,1,158.239994687988,8|2,0:2|1:2,0:2:0:0:
252,300,51221,1,0,1:2:0:0:
252,300,51310,1,0,1:2:0:0:
252,300,51399,5,2,1:2:0:0:
314,114,51578,1,8,0:2:0:0:
376,332,51757,1,2,1:2:0:0:
232,163,51935,1,0,1:2:0:0:
155,368,52114,2,0,P|96:369|58:265,1,158.239994687988,10|2,0:2|0:2,0:2:0:0:
169,105,52649,2,0,P|179:151|191:215,1,79.1199973439942,2|0,1:2|0:2,0:2:0:0:
140,288,53007,1,2,1:2:0:0:
296,151,53185,2,0,P|286:197|274:261,1,79.1199973439942,2|0,0:2|1:2,0:2:0:0:
360,341,53542,1,8,0:2:0:0:
192,217,53721,1,6,0:3:0:0:
379,128,53899,1,6,0:3:0:0:
140,288,54078,6,0,B|119:266|91:249|91:249|114:208|142:135,1,175.440001070801,6|2,1:2|1:2,0:2:0:0:
231,325,54614,1,2,1:2:0:0:
22,207,54792,1,2,1:2:0:0:
242,76,54971,1,2,1:2:0:0:
87,340,55149,1,8,0:2:0:0:
185,34,55328,1,8,0:2:0:0:
263,356,55507,6,0,P|327:376|403:287,1,175.440001070801,6|2,1:2|1:2,0:2:0:0:
373,132,56042,1,2,1:2:0:0:
505,249,56221,1,2,1:2:0:0:
357,44,56399,1,2,1:2:0:0:
314,288,56578,1,8,0:2:0:0:
490,91,56757,1,8,0:2:0:0:
228,222,56935,6,0,P|140:207|55:193,1,158.239994687988,6|0,1:2|1:2,0:2:0:0:
146,41,57471,2,0,P|156:94|162:126,1,79.1199973439942,2|0,1:2|0:2,0:2:0:0:
257,202,57828,2,0,P|264:163|271:124,1,79.1199973439942,2|0,1:2|0:2,0:2:0:0:
360,25,58185,2,0,P|370:78|376:110,1,79.1199973439942,2|0,1:2|0:2,0:2:0:0:
439,225,58542,2,0,P|394:213|348:201,1,79.1199973439942,2|0,1:2|0:2,0:2:0:0:
237,322,58899,2,0,P|275:311|313:301,1,79.1199973439942,2|0,1:2|0:2,0:2:0:0:
252,116,59257,2,0,P|244:154|237:193,1,79.1199973439942,2|0,1:2|0:2,0:2:0:0:
129,282,59614,2,0,P|121:243|114:204,1,79.1199973439942,6|0,1:2|1:2,0:2:0:0:
107,174,59882,1,0,1:2:0:0:
107,174,59971,1,2,1:2:0:0:
30,346,60149,5,2,1:2:0:0:
221,93,60328,1,2,1:2:0:0:
221,93,60685,5,2,1:2:0:0:
329,381,60864,1,2,1:2:0:0:
11,176,61221,5,2,1:2:0:0:
344,23,61578,5,0,1:2:0:0:
205,375,61757,6,0,B|180:261|271:302|214:154,1,192.640002351563,14|0,0:2|0:2,0:2:0:0:
308,344,62292,1,2,1:2:0:0:
137,235,62471,1,2,1:2:0:0:
314,112,62649,1,2,1:2:0:0:
314,112,62739,1,0,1:2:0:0:
314,112,62828,6,0,P|325:168|337:235,1,96.3200011757813,6|0,0:2|0:2,0:2:0:0:
475,350,63185,2,0,P|483:302|493:255,1,96.3200011757813,10|0,0:2|3:2,0:2:0:0:
468,184,63453,1,0,3:2:0:0:
468,184,63542,2,0,P|417:194|367:204,1,96.3200011757813,2|0,1:2|0:2,0:2:0:0:
263,341,63899,1,10,0:2:0:0:
132,143,64078,6,0,P|183:153|233:163,1,96.3200011757813,2|0,0:2|1:2,0:2:0:0:
57,318,64435,1,2,0:2:0:0:
176,61,64614,1,10,0:2:0:0:
263,341,64792,1,2,0:2:0:0:
18,166,64971,1,0,1:2:0:0:
297,47,65149,1,0,3:2:0:0:
145,280,65328,2,0,P|136:232|126:185,1,96.3200011757813,8|0,0:2|3:2,0:2:0:0:
160,120,65596,1,0,3:2:0:0:
160,120,65685,6,0,P|211:130|261:140,1,96.3200011757813,2|0,1:2|0:2,0:2:0:0:
369,4,66042,2,0,P|321:13|274:22,1,96.3200011757813,10|0,0:2|0:2,0:2:0:0:
356,223,66399,2,0,P|364:175|374:128,1,96.3200011757813,2|0,1:2|0:2,0:2:0:0:
474,307,66757,1,10,0:2:0:0:
232,167,66935,6,0,P|241:214|250:261,1,96.3200011757813,2|0,0:2|1:2,0:2:0:0:
165,384,67292,1,2,0:2:0:0:
363,289,67471,1,10,0:2:0:0:
127,192,67649,1,2,0:2:0:0:
382,312,67828,1,0,1:2:0:0:
240,58,68007,1,0,3:2:0:0:
168,348,68185,1,8,0:2:0:0:
390,124,68364,1,2,3:2:0:0:
117,219,68542,5,6,1:2:0:0:
382,312,68721,2,0,P|373:264|363:217,1,96.3200011757813,2|8,0:2|0:2,0:2:0:0:
512,84,69078,2,0,P|502:131|493:178,1,96.3200011757813,2|0,0:2|1:2,0:2:0:0:
362,22,69435,1,8,0:2:0:0:
471,264,69614,1,8,0:2:0:0:
290,115,69792,1,2,3:2:0:0:
290,115,69882,1,0,3:2:0:0:
290,115,69971,1,2,1:2:0:0:
228,350,70149,6,0,P|180:340|133:331,1,96.3200011757813,2|8,0:2|0:2,0:2:0:0:
0,177,70507,2,0,P|47:167|94:158,1,96.3200011757813,2|0,0:2|1:2,0:2:0:0:
251,36,70864,1,8,0:2:0:0:
147,292,71042,1,8,0:2:0:0:
23,48,71221,1,2,3:2:0:0:
23,48,71310,1,0,3:2:0:0:
23,48,71399,6,0,P|97:25|161:114,1,157.379993516144,6|0,1:2|0:2,0:2:0:0:
233,8,71757,2,0,P|301:44|283:152,1,157.379993516144,6|0,1:2|0:2,0:2:0:0:
405,93,72114,2,0,P|428:167|339:231,1,157.379993516144,6|0,1:2|0:2,0:2:0:0:
349,226,72471,1,2,1:2:0:0:
226,93,72649,1,0,3:2:0:0:
226,93,72739,1,0,3:2:0:0:
226,93,72828,5,2,1:2:0:0:
135,308,73007,1,12,0:2:0:0:
329,45,73185,2,0,P|341:109|353:171,1,104.919995677429,8|2,0:2|0:2,0:2:0:0:
130,34,73542,1,2,1:2:0:0:
438,111,73721,1,12,0:2:0:0:
94,236,73899,1,8,0:2:0:0:
408,359,74078,1,0,3:2:0:0:
408,359,74167,1,0,3:2:0:0:
408,359,74257,6,0,P|399:311|389:264,1,96.3200011757813,6|0,0:2|0:2,0:2:0:0:
142,302,74614,2,0,P|187:318|232:333,1,96.3200011757813,10|0,0:2|3:2,0:2:0:0:
330,118,74971,2,0,P|293:149|257:180,1,96.3200011757813,2|0,1:2|0:2,0:2:0:0:
389,264,75328,1,10,0:2:0:0:
170,107,75507,6,0,P|160:154|151:201,1,96.3200011757813,2|0,0:2|1:2,0:2:0:0:
248,384,75864,1,2,0:2:0:0:
16,251,76042,1,10,0:2:0:0:
257,180,76221,1,2,0:2:0:0:
101,384,76399,1,0,1:2:0:0:
50,131,76578,1,0,3:2:0:0:
287,270,76757,2,0,P|334:260|381:251,1,96.3200011757813,8|0,0:2|3:2,0:2:0:0:
437,180,77024,1,0,3:2:0:0:
437,180,77114,6,0,P|389:170|342:161,1,96.3200011757813,2|0,1:2|0:2,0:2:0:0:
223,342,77471,2,0,P|254:305|286:269,1,96.3200011757813,10|0,0:2|0:2,0:2:0:0:
173,77,77828,2,0,P|188:122|204:168,1,96.3200011757813,2|0,1:2|0:2,0:2:0:0:
104,275,78185,1,10,0:2:0:0:
309,122,78364,6,0,P|356:131|403:140,1,96.3200011757813,2|0,0:2|1:2,0:2:0:0:
484,283,78721,1,2,0:2:0:0:
371,46,78899,1,10,0:2:0:0:
266,284,79078,1,2,0:2:0:0:
490,149,79257,1,0,1:2:0:0:
195,246,79435,1,0,3:2:0:0:
475,118,79614,1,8,0:2:0:0:
231,19,79792,1,2,3:2:0:0:
428,284,79971,5,6,1:2:0:0:
180,124,80149,2,0,P|170:171|161:218,1,96.3200011757813,2|8,0:2|0:2,0:2:0:0:
344,362,80507,2,0,P|335:314|325:267,1,96.3200011757813,2|0,0:2|1:2,0:2:0:0:
392,65,80864,1,8,0:2:0:0:
210,335,81042,1,8,0:2:0:0:
412,189,81221,1,2,3:2:0:0:
412,189,81310,1,0,3:2:0:0:
412,189,81399,5,2,1:2:0:0:
180,59,81578,2,0,P|189:106|198:153,1,96.3200011757813,2|8,0:2|0:2,0:2:0:0:
57,333,81935,2,0,P|65:285|75:238,1,96.3200011757813,2|0,0:2|1:2,0:2:0:0:
220,341,82292,1,8,0:2:0:0:
28,97,82471,1,8,0:2:0:0:
236,234,82649,1,2,3:2:0:0:
236,234,82739,1,0,3:2:0:0:
236,234,82828,6,0,P|283:224|330:215,1,96.3200011757813,6|2,1:2|0:2,0:2:0:0:
488,147,83185,2,0,P|440:137|393:128,1,96.3200011757813,0|2,1:2|0:2,0:2:0:0:
299,53,83542,1,4,1:3:0:0:
403,224,83721,1,0,1:2:0:0:
461,0,83899,1,8,1:3:0:0:
236,234,84078,1,4,1:3:0:0:
393,128,84257,5,0,1:2:0:0:
239,11,84435,2,0,P|224:109|208:214,1,192.640002351563,14|2,0:2|1:2,0:2:0:0:
236,234,84882,1,0,1:2:0:0:
236,234,84971,1,14,0:2:0:0:
128,39,85149,1,8,0:2:0:0:
329,140,85328,1,2,1:2:0:0:
114,264,85507,1,2,1:2:0:0:
114,264,85596,1,0,1:2:0:0:
114,264,85685,5,10,0:2:0:0:
239,11,85864,1,0,1:2:0:0:
337,282,86042,1,0,1:2:0:0:
83,137,86221,5,14,0:2:0:0:
334,72,86399,1,0,1:2:0:0:
247,315,86578,1,0,1:2:0:0:
150,58,86757,5,14,0:2:0:0:
349,164,86935,1,0,1:2:0:0:
149,287,87114,1,0,1:2:0:0:
285,78,87292,5,14,0:2:0:0:
254,291,87471,1,0,1:2:0:0:
105,158,87649,1,0,1:2:0:0:
344,220,87828,5,14,0:2:0:0:
47,335,88007,1,0,1:2:0:0:
390,313,88185,5,14,0:2:0:0:
93,198,88364,1,0,1:2:0:0:
297,382,88542,5,14,0:2:0:0:
200,108,88721,1,0,1:2:0:0:
127,384,88899,1,0,1:2:0:0:
345,147,89078,5,14,0:2:0:0:
37,256,89257,1,0,1:2:0:0:
320,157,89435,1,0,1:2:0:0:
57,41,89614,5,14,0:2:0:0:
287,288,89792,1,0,1:2:0:0:
70,57,89971,1,0,1:2:0:0:
138,384,90149,5,14,0:2:0:0:
291,65,90328,1,0,1:2:0:0:
149,360,90507,1,0,1:2:0:0:
409,147,90685,5,14,0:2:0:0:
66,245,90864,1,0,1:2:0:0:
426,328,91042,1,12,0:2:0:0:
0,112,91221,6,0,B|154:-6|274:178|207:204|322:361|504:269,1,614.039981260987,6|0,1:2|0:2,0:2:0:0:
