osu file format v14

[General]
AudioFilename: audio.mp3
AudioLeadIn: 0
PreviewTime: 62203
Countdown: 0
SampleSet: Soft
StackLeniency: 0.7
Mode: 0
LetterboxInBreaks: 0
WidescreenStoryboard: 1

[Editor]
Bookmarks: 64078,91221,94257
DistanceSpacing: 1
BeatDivisor: 4
GridSize: 16
TimelineZoom: 1

[Metadata]
Title:Shiny Smily Story
TitleUnicode:Shiny Smily Story
Artist:hololive IDOL PROJECT
ArtistUnicode:hololive IDOL PROJECT
Creator:Sotarks
Version:Chiga's Normal
Source:
Tags:nymphe kiyoshi guarden chiga rosiie ホロライブ カバー cover corp. virtual youtuber vtuber idol jpop ときのそら tokino sora ロボ子さん roboco-san robocosan さくらみこ sakura miko 赤井はあと akai haato 夜空メル yozora mel 夏色まつり natsuiro matsuri アキ・ローゼンタール aki rosenthal 白上フブキ shirakami fubuki 大空スバル oozora subaru 癒月ちょこ yuzuki choco 紫咲シオン murasaki shion 百鬼あやめ nakiri ayame 湊あくあ minato aqua 大神ミオ ookami mio 猫又おかゆ nekomata okayu 戌神ころね inugami korone haachama akirose akiroze ojou japanese pop female vocalist version short azur lane looking glass of fact and fiction
BeatmapID:2606227
BeatmapSetID:1251840

[Difficulty]
HPDrainRate:3
CircleSize:3.5
OverallDifficulty:4
ApproachRate:5
SliderMultiplier:1.1
SliderTickRate:1

[Events]
//Background and Video events
0,0,"bg.jpg",0,0
Video,-2499,"video.mp4"
//Break Periods
//Storyboard Layer 0 (Background)
//Storyboard Layer 1 (Fail)
//Storyboard Layer 2 (Pass)
//Storyboard Layer 3 (Foreground)
//Storyboard Layer 4 (Overlay)
//Storyboard Sound Samples

[TimingPoints]
1400,357.142857142857,4,2,22,42,1,0
1400,-125,4,2,22,42,0,0
7114,-125,4,2,22,52,0,0
7828,-125,4,2,22,52,0,0
9971,-125,4,2,22,62,0,0
12828,-125,4,2,22,72,0,0
13185,-111.111111111111,4,2,22,72,0,0
21399,-111.111111111111,4,2,22,72,0,0
25685,-125,4,2,22,52,0,0
34257,-125,4,2,22,72,0,0
35864,-125,4,2,22,72,0,0
37114,-125,4,2,22,62,0,0
46935,-125,4,2,22,72,0,0
48542,-125,4,2,22,72,0,0
54078,-125,4,2,22,72,0,0
56935,-125,4,2,22,72,0,0
58542,-125,4,2,22,72,0,0
62292,-125,4,2,22,72,0,0
62828,-100,4,2,22,82,0,0
85685,-100,4,2,22,92,0,0
91221,-100,4,2,22,82,0,0
91310,-100,4,2,22,22,0,0
94257,-100,4,2,22,12,0,0

[Colours]
Combo1 : 255,243,164
Combo2 : 44,202,254
Combo3 : 253,176,255
Combo4 : 182,255,164

[HitObjects]
92,271,1400,6,0,L|74:166,1,88,2|2,0:0|0:0,0:0:0:0:
125,111,2114,2,0,P|177:96|221:119,1,88,2|2,0:0|0:0,0:0:0:0:
232,143,2649,2,0,P|281:167|326:158,1,88,2|2,0:0|0:0,0:0:0:0:
348,136,3185,1,2,0:0:0:0:
348,136,3364,2,0,B|333:174|353:206|353:206|375:234|366:279,1,132,2|0,0:0|0:0,0:0:0:0:
381,348,4257,6,0,L|277:326,1,88,2|2,0:0|0:0,0:0:0:0:
230,269,4971,2,0,P|227:216|248:186,1,88,2|2,0:0|0:0,0:0:0:0:
276,157,5507,2,0,P|309:113|302:69,1,88,2|2,0:0|0:0,0:0:0:0:
291,46,6042,1,2,0:0:0:0:
291,46,6221,2,0,L|192:64,1,88,2|0,0:0|0:0,0:0:0:0:
166,39,6757,1,8,0:3:0:0:
163,126,7114,6,0,L|143:227,1,88,6|0,1:2|0:0,0:0:0:0:
120,248,7649,2,0,P|66:244|35:212,1,88,0|4,0:2|0:3,0:0:0:0:
29,180,8185,1,4,0:3:0:0:
93,120,8542,2,0,L|189:141,1,88,2|4,1:2|0:3,0:0:0:0:
210,170,9078,2,0,L|302:151,1,88,2|0,3:2|1:2,0:0:0:0:
332,127,9614,1,4,1:2:0:0:
398,185,9971,6,0,P|403:212|398:238,1,44,10|2,0:2|1:2,0:0:0:0:
382,270,10328,1,0,1:2:0:0:
382,270,10507,2,0,P|329:272|302:240,1,88,10|0,0:2|1:2,0:0:0:0:
289,208,11042,2,0,L|300:165,1,44,8|0,0:2|1:2,0:0:0:0:
233,107,11578,6,0,L|211:207,1,88,12|2,1:2|1:2,0:2:0:0:
172,207,12114,2,0,P|132:243|130:292,1,88,14|2,0:2|0:2,0:2:0:0:
150,317,12649,1,2,0:2:0:0:
150,317,12828,1,4,1:2:0:0:
241,278,13185,6,0,L|335:309,1,98.9999969787599,10|2,0:2|1:2,0:0:0:0:
405,381,13899,1,10,0:2:0:0:
480,316,14257,2,0,P|494:264|463:221,1,98.9999969787599,2|10,1:2|0:2,0:2:0:0:
424,214,14792,1,2,0:2:0:0:
365,133,15149,2,0,P|357:107|361:77,1,49.4999984893799,2|8,0:2|0:2,0:2:0:0:
386,43,15507,6,0,P|440:37|477:69,1,98.9999969787599,2|0,3:2|0:0,0:0:0:0:
484,110,16042,1,10,0:2:0:0:
422,187,16399,2,0,P|367:195|319:208,1,98.9999969787599,2|10,1:2|0:2,0:0:0:0:
266,286,17114,2,0,P|212:275|160:269,1,98.9999969787599,2|10,1:2|0:2,0:2:0:0:
123,290,17649,1,2,0:2:0:0:
117,190,18007,2,0,P|123:164|132:137,2,49.4999984893799,2|10|0,1:2|0:2|0:2,0:0:0:0:
68,199,18542,6,0,P|33:239|36:298,1,98.9999969787599,2|8,1:2|0:2,0:2:0:0:
96,356,19257,1,0,1:2:0:0:
183,309,19614,2,0,L|244:322,1,49.4999984893799,10|2,0:2|3:2,0:0:0:0:
279,308,19971,6,0,P|305:260|290:209,1,98.9999969787599,2|10,1:2|0:2,0:0:0:0:
253,192,20507,2,0,P|227:144|239:91,1,98.9999969787599,2|0,3:2|0:2,0:2:0:0:
265,64,21042,2,0,P|293:62|324:74,1,49.4999984893799,14|8,0:2|0:2,0:0:0:0:
341,109,21399,5,6,1:2:0:0:
362,205,21757,1,14,0:2:0:0:
459,222,22114,1,6,1:2:0:0:
472,320,22471,1,14,0:2:0:0:
374,335,22828,6,0,P|372:307|381:276,2,49.4999984893799,14|2|8,0:2|1:2|0:2,0:0:0:0:
337,368,23364,2,0,P|284:378|239:349,1,98.9999969787599,6|0,1:2|1:2,0:2:0:0:
217,316,23899,1,2,0:3:0:0:
138,255,24257,6,0,P|95:268|73:279,2,49.4999984893799,6|2|10,1:2|1:2|0:2,0:0:0:0:
186,244,24792,2,0,P|196:191|164:147,1,98.9999969787599,6|0,1:2|1:2,0:2:0:0:
137,120,25328,2,0,P|129:90|133:64,2,49.4999984893799,12|0|0,0:2|3:2|1:2,0:0:0:0:
217,84,26042,6,0,P|271:71|320:65,1,88,2|2,1:2|1:2,0:2:0:0:
347,68,26578,2,0,P|365:89|370:118,1,44,2|2,0:2|1:2,0:0:0:0:
368,148,26935,1,0,0:2:0:0:
437,201,27292,2,0,P|431:228|427:258,1,44,2|2,0:2|1:2,0:0:0:0:
432,288,27649,2,0,P|395:250|346:248,1,88,2|2,0:2|0:2,0:2:0:0:
327,271,28185,1,2,1:2:0:0:
245,234,28542,6,0,P|260:181|271:131,1,88,2|2,1:2|1:2,0:2:0:0:
260,105,29078,2,0,P|227:63|176:59,1,88,2|2,0:2|0:2,0:2:0:0:
111,81,29792,2,0,B|97:122|118:148|118:148|140:175|132:207,1,132,2|0,0:2|1:2,0:0:0:0:
107,241,30507,1,0,3:2:0:0:
153,315,30864,2,0,P|178:317|213:306,1,44,2|2,3:2|1:2,0:0:0:0:
236,301,31221,6,0,P|195:266|191:217,1,88,2|2,3:2|0:2,0:2:0:0:
210,198,31757,1,2,1:2:0:0:
210,198,31935,2,0,P|249:162|300:170,1,88,2|2,0:2|0:2,0:2:0:0:
340,227,32649,2,0,P|394:216|440:210,1,88,2|2,0:2|0:2,0:2:0:0:
462,184,33185,1,2,1:2:0:0:
462,184,33364,2,0,P|481:140|455:90,1,88,2|0,0:2|0:2,0:2:0:0:
439,71,33899,2,0,P|412:73|390:89,1,44,0|2,1:2|3:2,0:0:0:0:
374,118,34257,5,6,1:2:0:0:
293,81,34614,1,6,1:2:0:0:
228,140,34971,1,6,1:2:0:0:
252,224,35328,2,0,P|279:228|306:217,1,44,6|2,1:2|0:2,0:2:0:0:
320,189,35685,5,2,1:2:0:0:
320,189,35864,1,2,1:2:0:0:
387,244,36221,1,6,1:2:0:0:
458,192,36578,2,0,P|445:138|435:90,1,88,2|4,1:2|0:3,0:0:0:0:
446,62,37114,5,4,1:2:0:0:
359,79,37471,2,0,P|305:91|259:98,1,88,10|2,0:2|1:2,0:2:0:0:
241,65,38007,2,0,P|245:38|251:10,2,44,2|10|0,0:2|0:2|0:2,0:0:0:0:
199,78,38542,5,2,1:2:0:0:
224,167,38899,1,10,0:2:0:0:
224,167,39078,2,0,P|242:217|224:265,1,88,2|2,0:2|0:2,0:2:0:0:
206,283,39614,2,0,P|178:282|155:269,1,44,10|2,0:2|3:2,0:0:0:0:
132,244,39971,5,2,1:2:0:0:
139,159,40328,1,10,0:2:0:0:
139,159,40507,2,0,L|121:54,1,88,2|2,0:2|0:2,0:2:0:0:
197,23,41221,2,0,P|240:23|275:49,1,88,2|0,0:2|3:2,0:0:0:0:
279,97,41757,1,8,0:2:0:0:
279,97,41935,1,0,0:2:0:0:
362,125,42292,2,0,P|390:124|416:115,1,44,14|4,0:3|0:3,0:0:0:0:
432,92,42649,6,0,P|406:139|408:188,1,88,6|2,0:3|0:2,0:0:0:0:
443,202,43185,1,10,0:2:0:0:
443,202,43364,2,0,L|424:306,1,88,2|2,0:2|0:2,0:2:0:0:
341,309,44078,2,0,L|360:209,1,88,2|0,0:2|3:2,0:2:0:0:
346,184,44614,1,10,0:2:0:0:
346,184,44792,2,0,P|302:154|252:160,1,88,2|0,3:2|3:2,0:0:0:0:
237,184,45328,2,0,P|213:198|188:201,1,44,8|2,0:2|0:2,0:2:0:0:
156,184,45685,5,2,1:2:0:0:
78,221,46042,1,6,0:3:0:0:
78,221,46221,1,2,1:2:0:0:
35,298,46578,1,2,1:2:0:0:
103,352,46935,6,0,P|151:344|178:315,1,88,6|2,1:2|1:2,0:2:0:0:
187,273,47471,2,0,P|170:205|110:191,1,132,14|4,0:2|0:3,0:2:0:0:
74,202,48185,1,8,0:2:0:0:
74,114,48542,6,0,P|128:105|176:90,1,88,4|2,1:2|0:2,0:2:0:0:
193,67,49078,1,2,1:2:0:0:
192,67,49257,2,0,P|244:81|267:125,1,88,10|2,0:2|0:2,0:2:0:0:
267,150,49792,1,2,1:2:0:0:
286,240,50149,1,2,1:2:0:0:
286,240,50328,2,0,P|233:225|181:215,1,88,2|8,0:2|0:2,0:2:0:0:
127,266,51042,1,2,1:2:0:0:
161,347,51399,6,0,P|214:352|251:317,1,88,2|2,1:2|1:2,0:0:0:0:
327,316,52114,2,0,P|345:266|320:222,1,88,10|2,0:2|0:2,0:2:0:0:
348,194,52649,2,0,P|304:162|258:175,1,88,2|2,1:2|1:2,0:2:0:0:
238,193,53185,1,2,0:2:0:0:
197,114,53542,2,0,P|204:87|208:65,2,44,8|6|6,0:2|0:3|0:3,0:0:0:0:
155,128,54078,6,0,B|128:112|90:117|90:117|64:152|71:196,1,132,6|2,1:2|1:2,0:2:0:0:
90,262,54971,2,0,P|82:289|81:315,2,44,2|8|8,1:2|0:2|0:2,0:0:0:0:
129,241,55507,6,0,B|170:237|190:273|190:273|207:309|253:309,1,132,6|2,1:2|1:2,0:2:0:0:
298,246,56399,2,0,L|283:193,2,44,2|8|8,1:2|0:2|0:2,0:0:0:0:
337,266,56935,6,0,P|369:337|324:377,1,132,6|2,1:2|1:2,0:2:0:0:
261,330,57828,2,0,P|215:301|166:307,1,88,2|2,1:2|1:2,0:2:0:0:
109,349,58542,2,0,L|87:246,1,88,2|2,1:2|1:2,0:2:0:0:
26,202,59257,2,0,L|43:95,1,88,2|6,1:2|1:2,0:2:0:0:
106,57,59971,6,0,P|132:68|159:77,1,44,2|2,1:2|1:2,0:0:0:0:
187,56,60328,1,2,1:2:0:0:
195,147,60685,1,2,1:2:0:0:
195,147,60864,1,2,1:2:0:0:
273,186,61221,2,0,P|327:174|376:166,1,88,2|0,1:2|1:2,0:0:0:0:
400,182,61757,6,0,P|433:254|400:307,1,132,14|2,0:2|1:2,0:2:0:0:
373,317,62471,2,0,P|353:304|344:278,1,44,2|2,1:2|1:2,0:0:0:0:
334,232,62828,5,6,0:2:0:0:
231,271,63185,1,10,0:2:0:0:
181,173,63542,2,0,P|140:138|82:139,1,110,2|10,1:2|0:2,0:2:0:0:
50,179,64078,2,0,P|59:232|67:289,1,110,2|2,0:2|0:2,0:2:0:0:
53,343,64614,1,10,0:2:0:0:
53,343,64792,2,0,B|78:325|107:330|107:330|134:336|162:322,1,110,2|0,0:2|3:2,0:0:0:0:
189,277,65328,1,8,0:2:0:0:
287,326,65685,5,2,1:2:0:0:
357,241,66042,1,10,0:2:0:0:
266,178,66399,2,0,P|247:128|275:73,1,110,2|10,1:2|0:2,0:2:0:0:
317,53,66935,2,0,P|371:63|429:71,1,110,2|2,0:2|0:2,0:2:0:0:
481,56,67471,1,10,0:2:0:0:
481,56,67649,2,0,B|471:109|471:109|473:114|473:114|463:169,1,110,2|0,0:2|3:2,0:0:0:0:
473,218,68185,1,8,0:2:0:0:
390,290,68542,5,6,1:2:0:0:
390,289,68721,2,0,P|336:288|297:248,1,110,2|2,0:2|0:2,0:2:0:0:
255,148,69435,2,0,P|260:121|268:92,2,55,8|8|2,0:2|0:2|3:2,0:0:0:0:
210,178,69971,1,2,1:2:0:0:
210,178,70149,2,0,P|157:162|97:148,1,110,2|2,0:2|0:2,0:2:0:0:
23,224,70864,2,0,P|29:250|36:281,2,55,8|8|2,0:2|0:2|3:2,0:0:0:0:
1,173,71399,5,6,1:2:0:0:
104,149,71757,1,6,1:2:0:0:
169,60,72114,1,6,1:2:0:0:
275,88,72471,1,2,1:2:0:0:
358,16,72828,5,2,1:2:0:0:
357,15,73007,2,0,P|384:23|412:27,2,55,12|8|2,0:2|0:2|0:2,0:0:0:0:
311,43,73542,1,2,1:2:0:0:
311,43,73721,2,0,P|284:45|253:55,2,55,12|8|0,0:2|0:2|3:2,0:0:0:0:
335,92,74257,5,6,0:2:0:0:
284,189,74614,1,10,0:2:0:0:
384,234,74971,2,0,P|429:290|414:343,1,110,2|10,1:2|0:2,0:2:0:0:
378,350,75507,2,0,P|325:340|267:332,1,110,2|2,0:2|0:2,0:2:0:0:
223,313,76042,1,10,0:2:0:0:
223,313,76221,2,0,P|232:259|240:201,1,110,2|0,0:2|3:2,0:0:0:0:
225,151,76757,1,8,0:2:0:0:
117,175,77114,5,2,1:2:0:0:
51,86,77471,1,10,0:2:0:0:
126,5,77828,2,0,P|178:-8|228:20,1,110,2|10,1:2|0:2,0:2:0:0:
248,67,78364,2,0,P|297:91|351:73,1,110,2|2,0:2|0:2,0:2:0:0:
377,31,78899,1,10,0:2:0:0:
377,31,79078,2,0,P|383:85|393:142,1,110,2|0,0:2|3:2,0:0:0:0:
408,192,79614,1,8,0:2:0:0:
307,231,79971,5,6,1:2:0:0:
307,230,80149,2,0,P|272:278|282:342,1,110,2|2,0:2|0:2,0:2:0:0:
373,371,80864,2,0,L|439:367,2,55,8|8|2,0:2|0:2|3:2,0:0:0:0:
377,322,81399,1,2,1:2:0:0:
377,322,81578,2,0,P|384:267|393:208,1,110,2|2,0:2|0:2,0:2:0:0:
306,144,82292,2,0,P|279:139|247:131,2,55,8|8|2,0:2|0:2|3:2,0:0:0:0:
364,142,82828,5,6,1:2:0:0:
364,142,83007,2,0,P|385:93|357:42,1,110,2|2,0:2|0:2,0:0:0:0:
251,50,83721,2,0,P|224:44|195:35,2,55,0|8|4,1:2|1:3|1:3,0:0:0:0:
361,45,84435,5,14,0:2:0:0:
350,157,84792,1,2,1:2:0:0:
350,156,84971,2,0,P|362:210|373:266,1,110,14|2,0:2|1:2,0:0:0:0:
279,322,85685,6,0,P|283:295|290:265,2,55,10|0|0,0:2|1:2|1:2,0:0:0:0:
252,370,86221,2,0,P|198:376|155:340,1,110,14|0,0:2|1:2,0:0:0:0:
172,290,86757,1,14,0:2:0:0:
66,288,87114,5,0,1:2:0:0:
66,288,87292,2,0,B|75:243|75:243|79:240|79:240|91:179,1,110,14|0,0:2|1:2,0:0:0:0:
65,134,87828,1,14,0:2:0:0:
139,53,88185,1,14,0:2:0:0:
236,102,88542,6,0,P|263:94|291:87,2,55,14|0|0,0:2|1:2|1:2,0:0:0:0:
202,145,89078,2,0,P|192:197|224:240,1,110,14|0,0:2|1:2,0:0:0:0:
279,237,89614,1,14,0:2:0:0:
358,320,89971,5,0,1:2:0:0:
358,320,90149,2,0,P|367:266|381:208,1,110,14|0,0:2|1:2,0:0:0:0:
420,174,90685,1,14,0:2:0:0:
346,99,91042,1,12,0:2:0:0:
346,99,91221,5,6,1:2:0:0:
256,192,91310,12,0,94257,0:2:0:0:
