osu file format v14

[General]
AudioFilename: audio.mp3
AudioLeadIn: 0
PreviewTime: 61964
Countdown: 0
SampleSet: Soft
StackLeniency: 0.7
Mode: 0
LetterboxInBreaks: 0
WidescreenStoryboard: 0

[Editor]
Bookmarks: 1250,6964,12678,25535,36964,48392,62678,85535,91249,102678,114107,128392,151249,174107,188392,199821,212678,215535,235535,246785,249821
DistanceSpacing: 0.6
BeatDivisor: 8
GridSize: 16
TimelineZoom: 5.099997

[Metadata]
Title:Shiny Smily Story
TitleUnicode:Shiny Smily Story
Artist:hololive IDOL PROJECT
ArtistUnicode:hololive IDOL PROJECT
Creator:Amateurre
Version:Shining Stars
Source:
Tags:japanese pop F4UZ4N Mimilie Hitsukuya Suzuhara Lulu -[Shady]- Shady ホロライブ カバー cover corp. virtual youtuber vtuber idol j-pop jpop ときのそら tokino sora ロボ子さん roboco-san robocosan さくらみこ sakura miko 赤井はあと akai haato 夜空メル yozora mel 夏色まつり natsuiro matsuri アキ・ローゼンタール aki rosenthal 白上フブキ shirakami fubuki 大空スバル oozora subaru 癒月ちょこ yuzuki choco 紫咲シオン murasaki shion 百鬼あやめ nakiri ayame 湊あくあ minato aqua 大神ミオ ookami mio 猫又おかゆ nekomata okayu 戌神ころね inugami korone haachama akirose akiroze ojou fbk SSS full version nonstop とまらない tomaranai
BeatmapID:2402851
BeatmapSetID:1151079

[Difficulty]
HPDrainRate:5.4
CircleSize:4
OverallDifficulty:8.7
ApproachRate:9.2
SliderMultiplier:1.7
SliderTickRate:1

[Events]
//Background and Video events
0,0,"shiny smily story.jpg",0,0
//Break Periods
//Storyboard Layer 0 (Background)
//Storyboard Layer 1 (Fail)
//Storyboard Layer 2 (Pass)
//Storyboard Layer 3 (Foreground)
//Storyboard Layer 4 (Overlay)
//Storyboard Sound Samples

[TimingPoints]
1250,357.142857142857,4,2,1,60,1,0
1250,-166.666666666667,4,2,1,60,0,0
6517,-166.666666666667,4,2,1,5,0,0
6607,-166.666666666667,4,2,1,60,0,0
6874,-166.666666666667,4,2,1,5,0,0
6964,-166.666666666667,4,2,1,70,0,0
9821,-166.666666666667,4,2,1,75,0,0
11964,-100,4,2,1,75,0,0
12678,-76.9230769230769,4,2,1,80,0,0
13303,-76.9230769230769,4,2,1,5,0,0
13392,-76.9230769230769,4,2,1,80,0,0
13660,-76.9230769230769,4,2,1,5,0,0
13749,-76.9230769230769,4,2,1,80,0,0
14017,-76.9230769230769,4,2,1,5,0,0
14107,-76.9230769230769,4,2,1,80,0,0
15803,-76.9230769230769,4,2,1,5,0,0
15892,-76.9230769230769,4,2,1,80,0,0
16160,-76.9230769230769,4,2,1,5,0,0
16249,-76.9230769230769,4,2,1,80,0,0
16517,-76.9230769230769,4,2,1,5,0,0
16607,-76.9230769230769,4,2,1,80,0,0
18303,-76.9230769230769,4,2,1,5,0,0
18392,-76.9230769230769,4,2,1,80,0,0
21517,-76.9230769230769,4,2,1,5,0,0
21607,-76.9230769230769,4,2,1,80,0,0
21874,-76.9230769230769,4,2,1,5,0,0
21964,-76.9230769230769,4,2,1,80,0,0
22232,-76.9230769230769,4,2,1,5,0,0
22321,-76.9230769230769,4,2,1,80,0,0
25535,-111.111111111111,4,2,1,70,0,0
34374,-111.111111111111,4,2,1,5,0,0
34464,-111.111111111111,4,2,1,70,0,0
34732,-111.111111111111,4,2,1,5,0,0
34821,-111.111111111111,4,2,1,70,0,0
35089,-111.111111111111,4,2,1,5,0,0
35178,-111.111111111111,4,2,1,70,0,0
36964,-90.9090909090908,4,2,1,70,0,0
48392,-125,4,2,1,60,0,0
53928,-100,4,2,1,70,0,0
59821,-100,4,2,1,75,0,0
62678,-76.9230769230769,4,2,1,80,0,1
62946,-76.9230769230769,4,2,1,5,0,1
63035,-76.9230769230769,4,2,1,80,0,1
63303,-76.9230769230769,4,2,1,5,0,1
63392,-76.9230769230769,4,2,1,80,0,1
63660,-76.9230769230769,4,2,1,5,0,1
63749,-76.9230769230769,4,2,1,80,0,1
65803,-76.9230769230769,4,2,1,5,0,1
65892,-76.9230769230769,4,2,1,80,0,1
66160,-76.9230769230769,4,2,1,5,0,1
66249,-76.9230769230769,4,2,1,80,0,1
66517,-76.9230769230769,4,2,1,5,0,1
66607,-76.9230769230769,4,2,1,80,0,1
71517,-76.9230769230769,4,2,1,5,0,1
71607,-76.9230769230769,4,2,1,80,0,1
71874,-76.9230769230769,4,2,1,5,0,1
71964,-76.9230769230769,4,2,1,80,0,1
72232,-76.9230769230769,4,2,1,5,0,1
72321,-76.9230769230769,4,2,1,80,0,1
72589,-76.9230769230769,4,2,1,5,0,1
72678,-76.9230769230769,4,2,1,80,0,1
74374,-76.9230769230769,4,2,1,5,0,1
74464,-76.9230769230769,4,2,1,80,0,1
74732,-76.9230769230769,4,2,1,5,0,1
74821,-76.9230769230769,4,2,1,80,0,1
75089,-76.9230769230769,4,2,1,5,0,1
75178,-76.9230769230769,4,2,1,80,0,1
77232,-76.9230769230769,4,2,1,5,0,1
77321,-76.9230769230769,4,2,1,80,0,1
77589,-76.9230769230769,4,2,1,5,0,1
77678,-76.9230769230769,4,2,1,80,0,1
77946,-76.9230769230769,4,2,1,5,0,1
78035,-76.9230769230769,4,2,1,80,0,1
85535,-76.9230769230769,4,2,1,75,0,0
87678,-100,4,2,1,80,0,0
91249,-166.666666666667,4,2,1,60,0,0
100714,-90.9090909090908,4,2,1,70,0,0
114107,-125,4,2,1,60,0,0
119642,-100,4,2,1,70,0,0
125535,-100,4,2,1,75,0,0
128392,-76.9230769230769,4,2,1,80,0,1
128660,-76.9230769230769,4,2,1,5,0,1
128749,-76.9230769230769,4,2,1,80,0,1
129017,-76.9230769230769,4,2,1,5,0,1
129107,-76.9230769230769,4,2,1,80,0,1
129374,-76.9230769230769,4,2,1,5,0,1
129464,-76.9230769230769,4,2,1,80,0,1
131517,-76.9230769230769,4,2,1,5,0,1
131607,-76.9230769230769,4,2,1,80,0,1
131874,-76.9230769230769,4,2,1,5,0,1
131964,-76.9230769230769,4,2,1,80,0,1
132232,-76.9230769230769,4,2,1,5,0,1
132321,-76.9230769230769,4,2,1,80,0,1
137232,-76.9230769230769,4,2,1,5,0,1
137321,-76.9230769230769,4,2,1,80,0,1
137589,-76.9230769230769,4,2,1,5,0,1
137678,-76.9230769230769,4,2,1,80,0,1
137946,-76.9230769230769,4,2,1,5,0,1
138035,-76.9230769230769,4,2,1,80,0,1
138303,-76.9230769230769,4,2,1,5,0,1
138392,-76.9230769230769,4,2,1,80,0,1
140089,-76.9230769230769,4,2,1,5,0,1
140178,-76.9230769230769,4,2,1,80,0,1
140446,-76.9230769230769,4,2,1,5,0,1
140535,-76.9230769230769,4,2,1,80,0,1
140803,-76.9230769230769,4,2,1,5,0,1
140892,-76.9230769230769,4,2,1,80,0,1
143035,-76.9230769230769,4,2,1,80,0,1
143303,-76.9230769230769,4,2,1,5,0,1
143392,-76.9230769230769,4,2,1,80,0,1
143660,-76.9230769230769,4,2,1,5,0,1
143749,-76.9230769230769,4,2,1,80,0,1
151249,-76.9230769230769,4,2,1,70,0,0
182678,-100,4,2,1,75,0,0
188392,-142.857142857143,4,2,1,60,0,0
199732,-142.857142857143,4,2,1,5,0,0
199821,-111.111111111111,4,2,1,70,0,0
208392,-111.111111111111,4,2,1,75,0,0
212142,-111.111111111111,4,2,1,70,0,0
212678,-90.9090909090909,4,2,1,75,0,0
212946,-90.9090909090909,4,2,1,5,0,0
213035,-90.9090909090909,4,2,1,75,0,0
213303,-90.9090909090909,4,2,1,5,0,0
213392,-90.9090909090909,4,2,1,75,0,0
213660,-90.9090909090909,4,2,1,5,0,0
213749,-90.9090909090909,4,2,1,75,0,0
215446,-90.9090909090909,4,2,1,5,0,0
215535,-76.9230769230769,4,2,1,80,0,1
215803,-76.9230769230769,4,2,1,5,0,1
215892,-76.9230769230769,4,2,1,80,0,1
216160,-76.9230769230769,4,2,1,5,0,1
216249,-76.9230769230769,4,2,1,80,0,1
216517,-76.9230769230769,4,2,1,5,0,1
216607,-76.9230769230769,4,2,1,80,0,1
221517,-76.9230769230769,4,2,1,5,0,1
221607,-76.9230769230769,4,2,1,80,0,1
221874,-76.9230769230769,4,2,1,5,0,1
221964,-76.9230769230769,4,2,1,80,0,1
222232,-76.9230769230769,4,2,1,5,0,1
222321,-76.9230769230769,4,2,1,80,0,1
224732,-76.9230769230769,4,2,1,5,0,1
224821,-76.9230769230769,4,2,1,80,0,1
225089,-76.9230769230769,4,2,1,5,0,1
225178,-76.9230769230769,4,2,1,80,0,1
227232,-76.9230769230769,4,2,1,5,0,1
227321,-76.9230769230769,4,2,1,80,0,1
227589,-76.9230769230769,4,2,1,5,0,1
227678,-76.9230769230769,4,2,1,80,0,1
227946,-76.9230769230769,4,2,1,5,0,1
228035,-76.9230769230769,4,2,1,80,0,1
235535,-76.9230769230769,4,2,1,75,0,0
249821,-76.9230769230769,4,2,1,5,0,0

[Colours]
Combo1 : 96,243,52
Combo2 : 80,158,245
Combo3 : 237,109,215
Combo4 : 245,75,101
Combo5 : 250,186,37
Combo6 : 252,238,63

[HitObjects]
178,114,714,5,2,0:2:0:0:
174,93,892,1,2,0:2:0:0:
170,72,1071,1,2,0:2:0:0:
156,192,1250,6,0,P|163:182|261:177,1,101.999996887207,2|0,0:2|0:2,0:2:0:0:
245,166,1964,2,0,L|265:50,1,101.999996887207,2|0,0:2|0:2,0:2:0:0:
361,25,2499,2,0,L|341:141,1,101.999996887207,2|2,0:2|0:2,0:2:0:0:
435,164,3035,1,2,0:2:0:0:
435,164,3214,2,0,P|369:159|318:228,1,152.999995330811,2|0,0:2|0:2,0:2:0:0:
141,341,4107,6,0,B|200:326|184:375|249:357,1,101.999996887207,2|0,0:2|0:2,0:2:0:0:
237,360,4821,2,0,P|262:311|311:298,1,101.999996887207,2|0,0:2|0:2,0:2:0:0:
388,286,5357,2,0,P|341:268|320:223,1,101.999996887207,2|2,0:2|0:2,0:2:0:0:
256,154,5892,1,2,0:2:0:0:
256,154,6071,2,0,B|178:134|200:198|115:174,1,127.499996109009,2|0,0:2|0:2,0:2:0:0:
65,224,6607,6,0,L|58:140,1,76.4999976654054,0|0,3:2|0:2,0:2:0:0:
53,68,6964,5,6,3:2:0:0:
141,254,7321,5,0,3:2:0:0:
145,258,7499,1,2,3:2:0:0:
70,304,7678,1,0,3:2:0:0:
74,308,7856,1,0,3:2:0:0:
61,220,8035,1,0,3:2:0:0:
65,224,8213,1,2,3:2:0:0:
219,287,8392,5,6,3:2:0:0:
74,308,8571,1,0,3:2:0:0:
234,367,8749,1,0,3:2:0:0:
145,177,8928,1,2,3:2:0:0:
294,241,9107,5,0,3:2:0:0:
145,336,9285,1,0,3:2:0:0:
148,339,9374,1,0,3:2:0:0:
152,343,9464,1,0,1:2:0:0:
61,134,9642,1,2,3:2:0:0:
64,137,9732,1,0,3:2:0:0:
68,141,9821,5,6,1:2:0:0:
205,264,9999,1,2,3:2:0:0:
249,97,10178,1,0,3:2:0:0:
115,217,10357,5,6,1:2:0:0:
183,36,10535,1,0,3:2:0:0:
309,173,10714,1,0,3:2:0:0:
141,106,10892,5,4,1:2:0:0:
296,249,11071,1,0,3:2:0:0:
350,51,11249,1,0,3:2:0:0:
29,217,11428,5,4,1:2:0:0:
360,354,11785,5,2,3:2:0:0:
360,354,11874,1,2,3:2:0:0:
360,354,11964,2,0,L|381:230,1,85,2|0,1:2|0:2,0:2:0:0:
473,109,12321,1,2,3:2:0:0:
457,148,12410,1,0,3:2:0:0:
424,173,12499,1,2,3:2:0:0:
382,177,12588,1,0,3:2:0:0:
344,159,12678,6,0,P|305:135|210:155,1,110.499994941712,6|0,3:2|0:2,0:2:0:0:
55,270,13035,2,0,B|152:250|121:333|219:314,1,165.749992412568,2|0,1:2|0:2,0:2:0:0:
301,377,13392,2,0,L|281:205,1,165.749992412568,2|0,3:2|0:2,0:2:0:0:
281,73,13749,2,0,P|238:139|156:123,1,165.749992412568,2|0,1:2|0:2,0:2:0:0:
88,60,14107,6,0,L|79:177,1,110.499994941712,2|0,3:2|0:2,0:2:0:0:
199,235,14464,1,2,1:2:0:0:
23,265,14642,2,0,L|142:291,1,110.499994941712,2|0,0:2|3:2,0:2:0:0:
357,129,14999,1,2,0:2:0:0:
297,313,15178,1,0,1:2:0:0:
158,169,15357,1,2,0:2:0:0:
435,270,15535,6,0,B|367:259|367:259|343:235|343:235|280:224,1,165.749992412568,2|0,3:2|0:2,0:2:0:0:
148,258,15892,2,0,P|213:247|242:156,1,165.749992412568,2|0,1:2|0:2,0:2:0:0:
143,97,16249,2,0,B|170:54|170:54|154:195,1,165.749992412568,2|0,3:2|0:2,0:2:0:0:
57,269,16607,2,0,B|154:249|123:332|221:313,1,165.749992412568,2|0,1:2|0:2,0:2:0:0:
394,155,16964,6,0,L|375:264,1,110.499994941712,2|0,3:2|0:2,0:2:0:0:
274,372,17321,1,2,1:2:0:0:
196,238,17499,2,0,P|296:236|321:280,1,110.499994941712,2|0,0:2|3:2,0:2:0:0:
449,349,17857,1,2,0:2:0:0:
449,349,17947,1,2,0:2:0:0:
449,349,18035,2,0,B|467:312|467:312|384:343|384:343|338:335,1,165.749992412568,2|0,1:2|0:2,0:2:0:0:
250,293,18392,6,0,L|236:164,1,110.499994941712,2|0,3:2|0:2,0:2:0:0:
93,57,18749,1,0,1:2:0:0:
286,70,18928,2,0,L|175:111,1,110.499994941712,2|0,0:2|3:2,0:2:0:0:
38,286,19285,1,2,0:2:0:0:
168,214,19464,1,2,1:2:0:0:
39,130,19642,1,2,0:2:0:0:
141,309,19821,5,2,3:2:0:0:
244,180,19999,1,2,0:2:0:0:
335,333,20178,1,2,1:2:0:0:
480,212,20357,2,0,L|362:196,1,110.499994941712,2|0,0:2|3:2,0:2:0:0:
153,114,20714,1,2,3:2:0:0:
234,282,20892,1,2,1:2:0:0:
340,102,21071,1,2,3:2:0:0:
340,102,21160,1,2,3:2:0:0:
340,102,21249,6,0,B|311:60|311:60|285:199,1,165.749992412568,6|0,3:2|0:2,0:2:0:0:
234,282,21607,2,0,P|284:219|367:237,1,165.749992412568,6|0,3:2|0:2,0:2:0:0:
510,271,21964,2,0,B|413:251|444:334|346:315,1,165.749992412568,6|0,3:2|0:2,0:2:0:0:
263,352,22321,2,0,P|211:321|152:328,1,110.499994941712,4|2,3:2|0:2,0:2:0:0:
71,347,22589,1,2,3:2:0:0:
75,351,22678,5,4,3:2:0:0:
195,180,22857,1,2,3:2:0:0:
195,180,22946,1,0,3:2:0:0:
195,180,23035,1,0,1:2:0:0:
0,110,23214,2,0,L|39:225,1,110.499994941712,6|0,3:2|0:2,0:2:0:0:
194,70,23571,1,2,3:2:0:0:
133,248,23749,1,6,1:2:0:0:
136,251,23839,1,2,1:2:0:0:
140,255,23928,1,2,3:2:0:0:
113,42,24107,5,6,1:2:0:0:
288,103,24285,1,2,3:2:0:0:
233,265,24464,1,2,3:2:0:0:
58,204,24642,1,6,1:2:0:0:
355,191,24999,5,0,3:2:0:0:
495,236,25178,2,0,P|428:245|391:287,1,110.499994941712,4|0,1:2|3:2,0:2:0:0:
374,350,25446,1,0,3:2:0:0:
374,350,25535,5,0,3:2:0:0:
233,265,25714,1,2,0:2:0:0:
233,265,25892,2,0,L|309:273,1,76.4999976654053,2|0,3:2|0:2,0:2:0:0:
431,199,26249,2,0,L|355:191,1,76.4999976654053,2|2,3:2|0:2,0:2:0:0:
246,132,26607,1,2,3:2:0:0:
335,32,26785,1,2,0:2:0:0:
335,32,26964,6,0,L|350:132,2,76.4999976654053,2|2|2,3:2|0:2|3:2,0:2:0:0:
257,207,27499,2,0,L|245:131,1,76.4999976654053,2|0,0:2|3:2,0:2:0:0:
354,190,27857,1,2,0:2:0:0:
312,271,28035,1,2,3:2:0:0:
422,347,28214,1,2,0:2:0:0:
422,347,28303,1,2,0:2:0:0:
422,347,28392,6,0,B|360:343|360:343|338:357|338:357|251:352,1,152.999995330811,2|2,3:2|3:2,0:2:0:0:
109,285,28928,2,0,L|32:293,1,76.4999976654053,2|0,0:2|3:2,0:2:0:0:
197,361,29285,2,0,L|273:352,1,76.4999976654053,2|0,0:2|3:2,0:2:0:0:
208,202,29642,1,2,0:2:0:0:
208,202,29732,1,2,0:2:0:0:
208,202,29821,6,0,L|196:277,1,76.4999976654053,2|0,3:2|0:2,0:2:0:0:
116,366,30178,1,0,3:2:0:0:
32,293,30357,1,2,0:2:0:0:
32,293,30446,1,2,0:2:0:0:
32,293,30535,1,2,3:2:0:0:
120,209,30714,2,0,L|108:284,1,76.4999976654053,2|2,0:2|3:2,0:2:0:0:
20,113,31071,6,0,L|112:128,1,76.4999976654053,2|0,0:2|3:2,0:2:0:0:
183,150,31428,1,2,0:2:0:0:
257,97,31607,1,2,3:2:0:0:
194,222,31785,2,0,P|179:182|188:135,1,76.4999976654053,2|0,0:2|3:2,0:2:0:0:
337,74,32142,2,0,P|339:111|325:146,1,76.4999976654053,2|0,0:2|3:2,0:2:0:0:
258,178,32499,1,2,0:2:0:0:
258,178,32678,5,0,3:2:0:0:
388,221,32857,2,0,L|303:240,1,76.4999976654053,2|2,0:2|3:2,0:2:0:0:
196,304,33214,2,0,L|270:320,1,76.4999976654053,2|0,0:2|3:2,0:2:0:0:
470,240,33571,1,0,1:2:0:0:
375,335,33749,1,0,3:2:0:0:
220,187,33928,1,2,3:2:0:0:
220,187,34017,1,2,3:2:0:0:
220,187,34107,6,0,P|275:195|313:237,1,114.749996498108,6|0,3:2|0:2,0:2:0:0:
375,335,34464,2,0,L|389:207,1,114.749996498108,6|0,3:2|0:2,0:2:0:0:
480,169,34821,2,0,P|442:211|387:220,1,114.749996498108,6|0,3:2|0:2,0:2:0:0:
318,156,35178,1,6,3:2:0:0:
415,42,35357,1,2,0:2:0:0:
467,296,35535,5,2,1:2:0:0:
402,135,35714,1,2,1:2:0:0:
318,156,36071,1,2,1:2:0:0:
239,181,36428,1,2,3:2:0:0:
203,99,36607,1,0,1:2:0:0:
239,89,36696,1,0,1:2:0:0:
276,97,36785,1,0,3:2:0:0:
305,122,36874,1,0,3:2:0:0:
318,156,36964,5,0,3:2:0:0:
222,269,37142,1,2,0:2:0:0:
402,257,37321,2,0,L|308:237,1,93.5000028533936,2|0,1:2|0:2,0:2:0:0:
126,285,37678,1,2,3:2:0:0:
287,320,37857,1,2,0:2:0:0:
159,195,38035,1,2,1:2:0:0:
203,353,38214,1,2,0:2:0:0:
311,238,38392,5,2,3:2:0:0:
422,360,38571,1,2,0:2:0:0:
287,320,38749,1,2,1:2:0:0:
456,188,38928,2,0,L|437:289,1,93.5000028533936,2|0,0:2|3:2,0:2:0:0:
328,150,39285,1,2,0:2:0:0:
480,89,39464,1,2,1:2:0:0:
313,50,39642,1,2,0:2:0:0:
313,50,39732,1,2,0:2:0:0:
313,50,39821,6,0,L|415:40,1,93.5000028533936,2|0,3:2|0:2,0:2:0:0:
176,159,40178,1,2,1:2:0:0:
192,28,40357,2,0,P|230:61|240:101,1,93.5000028533936,2|0,0:2|3:2,0:2:0:0:
141,237,40714,2,0,P|146:187|176:158,1,93.5000028533936,2|0,0:2|1:2,0:2:0:0:
313,50,41071,1,2,0:2:0:0:
226,230,41249,5,0,3:2:0:0:
70,85,41428,1,0,0:2:0:0:
49,255,41607,1,0,1:2:0:0:
240,101,41785,2,0,L|133:70,1,93.5000028533936,0|0,0:2|3:2,0:2:0:0:
11,145,42142,1,2,0:2:0:0:
103,2,42321,1,2,1:2:0:0:
106,5,42410,1,2,3:2:0:0:
110,9,42499,1,2,3:2:0:0:
154,166,42678,5,2,3:2:0:0:
338,138,42857,1,2,0:2:0:0:
213,248,43035,1,2,1:2:0:0:
247,89,43214,2,0,L|266:196,1,93.5000028533936,2|0,0:2|3:2,0:2:0:0:
380,295,43571,2,0,L|396:197,1,93.5000028533936,2|0,0:2|1:2,0:2:0:0:
215,327,43928,1,2,0:2:0:0:
215,327,44107,6,0,P|166:318|131:275,1,93.5000028533936,0|2,3:2|0:2,0:2:0:0:
97,158,44464,1,2,1:2:0:0:
46,336,44642,2,0,L|35:233,1,93.5000028533936,2|0,0:2|3:2,0:2:0:0:
30,220,44910,1,0,3:2:0:0:
34,224,44999,1,0,3:2:0:0:
159,90,45178,1,0,1:2:0:0:
211,246,45357,1,2,0:2:0:0:
413,119,45535,5,4,1:2:0:0:
375,113,45624,1,0,3:2:0:0:
337,108,45713,1,0,3:2:0:0:
299,103,45802,1,0,3:2:0:0:
261,98,45892,1,0,3:2:0:0:
483,68,46071,5,4,3:2:0:0:
197,154,46428,5,4,3:2:0:0:
446,328,46785,6,0,L|456:231,1,93.5000028533936,4|0,3:2|0:2,0:2:0:0:
292,369,47142,1,0,3:2:0:0:
353,203,47321,2,0,L|363:268,3,46.7500014266968,2|2|2|2,1:2|0:2|0:2|0:2,0:2:0:0:
292,369,47678,2,0,L|300:301,1,46.7500014266968,2|2,3:2|0:2,0:2:0:0:
234,195,47857,2,0,L|246:262,1,46.7500014266968,2|2,3:2|0:2,0:2:0:0:
176,356,48035,1,2,1:2:0:0:
138,359,48124,1,2,0:2:0:0:
104,343,48213,1,2,0:2:0:0:
84,311,48302,1,2,0:2:0:0:
83,273,48392,5,6,3:2:0:0:
250,46,48749,2,0,L|261:117,1,68,2|2,3:2|0:2,0:2:0:0:
234,195,49107,2,0,P|263:149|365:153,1,136,2|2,1:2|0:2,0:2:0:0:
425,124,49642,2,0,L|415:195,1,68,2|0,3:2|0:2,0:2:0:0:
321,215,49999,1,2,3:2:0:0:
321,215,50178,2,0,L|314:284,1,68,2|0,0:3|3:2,0:2:0:0:
404,343,50535,2,0,L|413:269,1,68,0|0,1:2|0:2,0:2:0:0:
314,282,50892,2,0,P|261:281|239:295,1,68,2|0,3:2|3:2,0:2:0:0:
187,347,51160,1,0,3:2:0:0:
187,347,51249,5,2,3:2:0:0:
40,219,51428,2,0,P|104:207|160:256,1,136,0|0,1:2|3:2,0:2:0:0:
91,360,51964,2,0,L|85:274,1,68,2|0,1:2|0:2,0:2:0:0:
117,174,52321,1,2,0:2:0:0:
117,174,52499,2,0,B|173:171|173:171|206:184|206:184|276:182,1,136,2|0,3:2|3:2,0:2:0:0:
345,161,53035,2,0,L|336:230,2,68,2|0|0,0:3|3:2|1:3,0:2:0:0:
227,105,53571,1,2,3:2:0:0:
258,263,53749,1,2,0:2:0:0:
474,69,53928,6,0,B|414:98|414:98|283:62,1,170,6|2,3:2|3:2,0:2:0:0:
117,173,54464,1,2,3:2:0:0:
269,138,54642,1,2,3:2:0:0:
125,35,54821,1,2,3:2:0:0:
178,258,54999,5,8,0:2:0:0:
223,31,55178,1,8,0:2:0:0:
40,290,55357,6,0,B|130:281|110:355|207:337,1,170,6|2,3:2|3:2,0:2:0:0:
428,262,55892,1,2,3:2:0:0:
245,208,56071,1,2,3:2:0:0:
393,372,56249,1,2,3:2:0:0:
375,132,56428,5,8,0:2:0:0:
297,361,56607,1,8,0:2:0:0:
135,140,56785,6,0,B|167:102|167:102|159:240,1,170,4|0,3:2|0:2,0:2:0:0:
127,301,57321,2,0,P|190:299|221:272,1,85,2|0,3:2|0:2,0:2:0:0:
324,194,57678,2,0,P|261:196|230:223,1,85,2|0,3:2|0:2,0:2:0:0:
373,337,58035,2,0,L|390:239,1,85,2|0,3:2|0:2,0:2:0:0:
258,123,58392,6,0,L|243:206,1,85,2|0,3:2|0:2,0:2:0:0:
109,58,58749,2,0,P|172:60|203:87,1,85,2|0,3:2|0:2,0:2:0:0:
274,279,59107,2,0,P|211:277|180:250,1,85,2|0,3:2|0:2,0:2:0:0:
356,55,59464,2,0,L|370:138,1,85,2|0,1:2|0:2,0:2:0:0:
387,253,59821,5,2,3:2:0:0:
188,71,59999,1,0,1:2:0:0:
431,21,60178,1,0,1:2:0:0:
272,172,60357,1,0,3:2:0:0:
275,175,60446,1,0,3:2:0:0:
279,179,60535,1,0,1:2:0:0:
494,293,60714,1,0,1:2:0:0:
370,138,60892,1,0,3:2:0:0:
220,337,61071,6,0,L|316:327,1,85,4|0,1:2|0:2,0:2:0:0:
188,152,61428,1,0,3:2:0:0:
106,323,61607,2,0,B|135:278|135:278|99:131,1,170,4|0,1:2|0:2,0:2:0:0:
168,33,62143,1,2,3:2:0:0:
55,103,62321,1,2,1:2:0:0:
73,140,62410,1,0,1:2:0:0:
107,164,62499,1,2,3:2:0:0:
149,169,62588,1,0,3:2:0:0:
188,152,62678,6,0,B|253:147|253:147|296:167|296:167|388:151,1,165.749992412568,6|0,3:2|0:2,0:2:0:0:
401,71,63035,2,0,B|357:53|357:53|303:92|354:167,1,165.749992412568,2|0,1:2|0:2,0:2:0:0:
430,252,63392,2,0,B|444:228|467:216|467:216|339:240,1,165.749992412568,2|0,3:2|0:2,0:2:0:0:
238,226,63749,1,2,1:2:0:0:
310,60,63928,6,0,P|348:117|345:166,1,110.499994941712,2|0,0:2|3:2,0:2:0:0:
163,308,64285,1,2,0:2:0:0:
263,131,64464,1,2,1:2:0:0:
33,167,64642,2,0,B|149:147|114:245|260:223,1,220.999989883423,2|0,0:2|0:2,0:2:0:0:
126,87,65178,1,0,1:2:0:0:
61,269,65357,1,0,0:2:0:0:
385,282,65535,6,0,B|345:266|326:227|326:227|327:271|281:308,1,165.749992412568,2|0,3:2|0:2,0:2:0:0:
217,348,65892,2,0,P|265:315|224:220,1,165.749992412568,2|0,1:2|0:2,0:2:0:0:
99,177,66249,2,0,B|139:193|158:232|158:232|156:187|202:150,1,165.749992412568,2|0,3:2|0:2,0:2:0:0:
270,102,66607,1,2,1:2:0:0:
64,95,66785,6,0,L|184:64,1,110.499994941712,2|0,0:2|3:2,0:2:0:0:
451,113,67142,1,2,0:2:0:0:
269,223,67321,1,2,1:2:0:0:
385,33,67499,2,0,B|354:96|354:96|400:244,1,220.999989883423,2|0,0:2|0:2,0:2:0:0:
272,103,68035,1,0,1:2:0:0:
489,206,68214,5,2,0:2:0:0:
299,341,68392,1,2,3:2:0:0:
348,154,68571,2,0,P|397:199|390:260,1,110.499994941712,2|0,0:2|1:2,0:2:0:0:
148,320,68928,2,0,P|209:275|260:282,1,110.499994941712,2|0,0:2|3:2,0:2:0:0:
101,77,69285,5,8,0:2:0:0:
42,349,69464,1,8,0:2:0:0:
207,190,69642,5,2,0:2:0:0:
24,31,69821,1,2,3:2:0:0:
300,85,69999,2,0,L|185:106,1,110.499994941712,2|0,0:2|1:2,0:2:0:0:
24,214,70357,2,0,L|139:235,1,110.499994941712,2|0,0:2|3:2,0:2:0:0:
364,167,70714,5,8,0:2:0:0:
123,0,70892,1,8,0:2:0:0:
248,289,71071,5,2,3:2:0:0:
462,68,71249,2,0,P|383:93|375:193,1,165.749992412568,6|0,3:2|0:2,0:2:0:0:
479,284,71607,2,0,P|496:203|414:146,1,165.749992412568,6|0,3:2|0:2,0:2:0:0:
284,195,71964,2,0,P|345:250|435:207,1,165.749992412568,6|0,3:2|0:2,0:2:0:0:
363,166,72321,2,0,P|352:221|341:337,1,165.749992412568,6|0,3:2|0:2,0:2:0:0:
345,358,72678,5,2,3:2:0:0:
138,167,72857,1,0,1:2:0:0:
390,90,73035,1,0,1:2:0:0:
165,278,73214,1,2,3:2:0:0:
168,281,73303,1,0,3:2:0:0:
172,285,73392,1,2,3:2:0:0:
69,47,73571,1,0,1:2:0:0:
216,208,73749,1,0,1:2:0:0:
254,222,73839,1,0,1:2:0:0:
297,220,73929,1,0,3:2:0:0:
331,196,74018,1,0,3:2:0:0:
349,159,74107,6,0,B|330:148|316:124|316:124|327:248,1,165.749992412568,6|0,3:2|0:2,0:2:0:0:
266,344,74464,2,0,P|327:271|410:295,1,165.749992412568,2|0,1:2|0:2,0:2:0:0:
468,384,74821,2,0,B|458:331|458:331|478:288|478:288|473:223,1,165.749992412568,2|0,3:2|0:2,0:2:0:0:
445,106,75178,1,2,1:2:0:0:
248,140,75357,6,0,P|311:169|357:151,1,110.499994941712,2|0,0:2|3:2,0:2:0:0:
482,9,75714,1,2,0:2:0:0:
311,84,75892,1,2,1:2:0:0:
466,279,76071,2,0,P|450:177|348:158,1,220.999989883423,2|0,0:2|0:2,0:2:0:0:
236,320,76607,1,0,1:2:0:0:
385,243,76786,1,0,0:2:0:0:
257,75,76964,6,0,B|192:84|192:84|155:113|155:113|102:116,1,165.749992412568,2|0,3:2|0:2,0:2:0:0:
74,39,77321,2,0,P|142:45|168:159,1,165.749992412568,2|0,1:2|0:2,0:2:0:0:
219,244,77678,2,0,B|257:221|246:166|246:166|226:201|183:204,1,165.749992412568,2|0,3:2|0:2,0:2:0:0:
135,278,78035,1,2,1:2:0:0:
257,89,78214,6,0,P|306:111|326:162,1,110.499994941712,2|0,0:2|3:2,0:2:0:0:
250,329,78571,1,2,0:2:0:0:
474,227,78749,1,2,1:2:0:0:
219,244,78928,2,0,B|334:217|312:333|432:296,1,220.999989883423,2|0,0:2|0:2,0:2:0:0:
326,162,79464,1,0,1:2:0:0:
250,329,79642,5,2,0:2:0:0:
72,280,79821,1,6,3:2:0:0:
236,134,79999,2,0,L|218:246,1,110.499994941712,2|0,0:2|1:2,0:2:0:0:
7,214,80357,2,0,P|51:183|104:191,1,110.499994941712,2|0,0:2|3:2,0:2:0:0:
250,329,80714,5,8,0:2:0:0:
361,124,80892,1,8,1:2:0:0:
397,262,81071,5,2,0:2:0:0:
236,134,81249,1,6,3:2:0:0:
485,70,81428,2,0,L|371:40,1,110.499994941712,2|0,0:2|1:2,0:2:0:0:
212,231,81785,2,0,L|318:202,1,110.499994941712,2|0,0:2|3:2,0:2:0:0:
177,45,82142,5,8,0:2:0:0:
83,296,82321,1,8,0:2:0:0:
212,231,82499,5,2,0:2:0:0:
81,115,82678,1,6,3:2:0:0:
290,24,82857,2,0,L|259:154,1,110.499994941712,2|0,0:2|3:0,0:2:0:0:
209,324,83214,1,2,3:2:0:0:
375,264,83392,5,0,1:2:0:0:
188,190,83571,1,0,1:2:0:0:
390,146,83749,1,0,1:2:0:0:
165,54,83928,1,0,1:2:0:0:
107,286,84107,5,0,3:2:0:0:
287,22,84285,1,0,1:2:0:0:
427,352,84642,5,2,3:2:0:0:
427,352,84732,1,0,3:2:0:0:
427,352,84821,2,0,L|301:344,1,110.499994941712,2|0,1:2|0:2,0:2:0:0:
188,190,85178,1,2,1:2:0:0:
228,182,85267,1,2,1:2:0:0:
267,193,85356,1,2,3:2:0:0:
297,221,85445,1,0,3:2:0:0:
311,260,85535,5,4,1:2:0:0:
283,115,85714,1,0,3:2:0:0:
161,215,85892,1,0,3:2:0:0:
70,64,86071,5,4,1:2:0:0:
201,137,86249,1,0,3:2:0:0:
202,0,86428,1,0,3:2:0:0:
59,217,86607,5,4,1:2:0:0:
155,69,86785,1,0,3:2:0:0:
239,218,86964,1,0,3:2:0:0:
3,129,87142,5,4,1:2:0:0:
96,304,87321,1,0,3:2:0:0:
201,137,87499,1,0,3:2:0:0:
302,314,87678,5,6,3:2:0:0:
302,314,87767,1,2,3:2:0:0:
302,314,87857,2,0,L|310:265,1,42.5,2|2,3:2|3:2,0:2:0:0:
382,45,88035,1,6,1:2:0:0:
385,48,88124,1,2,3:2:0:0:
389,52,88214,2,0,L|395:93,1,42.5,2|2,3:2|3:2,0:2:0:0:
452,295,88392,5,4,1:2:0:0:
311,179,88571,1,0,3:2:0:0:
489,118,88749,1,0,3:2:0:0:
220,110,88928,5,4,1:2:0:0:
294,276,89107,1,0,3:2:0:0:
404,128,89285,1,0,3:2:0:0:
155,221,89464,5,4,1:2:0:0:
326,96,89642,1,0,3:2:0:0:
141,10,89821,1,0,3:2:0:0:
275,250,89999,5,4,1:2:0:0:
137,94,90178,1,0,3:2:0:0:
65,284,90357,1,0,3:2:0:0:
270,162,90535,5,8,0:3:0:0:
270,162,90624,1,8,0:3:0:0:
270,162,90714,2,8,L|203:149,1,42.5,8|8,0:3|0:3,0:3:0:0:
7,101,90892,1,4,0:3:0:0:
10,104,90981,1,4,0:3:0:0:
14,108,91071,2,4,L|81:95,1,42.5,4|4,0:3|0:3,0:3:0:0:
246,75,91249,5,4,3:2:0:0:
270,162,91428,1,2,0:2:0:0:
270,162,91607,2,0,L|276:213,1,50.9999984436036,2|0,0:2|0:2,0:2:0:0:
148,94,91964,2,0,L|154:144,2,50.9999984436036,2|2|2,0:2|0:2|0:2,0:2:0:0:
148,94,92499,1,2,0:2:0:0:
85,193,92678,5,2,0:2:0:0:
116,220,92857,1,2,0:2:0:0:
158,227,93035,1,2,0:2:0:0:
197,213,93214,2,0,P|219:191|228:172,1,50.9999984436036,2|0,0:2|0:2,0:2:0:0:
250,75,93571,1,2,0:2:0:0:
250,75,93749,1,0,0:2:0:0:
325,137,93928,1,2,0:2:0:0:
325,137,94017,1,2,0:2:0:0:
325,137,94107,6,0,L|341:261,1,101.999996887207,2|2,0:2|0:2,0:2:0:0:
315,319,94642,2,0,L|384:316,1,50.9999984436036,2|0,0:2|0:2,0:2:0:0:
438,245,94999,2,0,L|402:248,2,25.4999992218018,2|2|2,0:2|0:2|0:2,0:2:0:0:
446,327,95357,1,2,0:2:0:0:
310,234,95535,5,2,0:3:0:0:
278,239,95714,1,0,0:2:0:0:
251,256,95892,1,2,0:3:0:0:
233,282,96071,1,2,0:3:0:0:
226,313,96249,1,0,0:2:0:0:
72,252,96428,1,2,0:2:0:0:
190,180,96607,1,2,0:2:0:0:
146,338,96785,5,2,3:2:0:0:
32,161,96964,2,0,P|100:153|128:115,1,101.999996887207,4|2,1:2|0:2,0:2:0:0:
201,47,97499,2,0,L|198:119,1,50.9999984436036,2|0,0:2|0:2,0:2:0:0:
275,154,97857,2,0,L|277:103,1,50.9999984436036,2|0,0:2|0:2,0:2:0:0:
342,44,98214,1,2,0:2:0:0:
416,194,98392,6,0,P|355:205|330:236,1,101.999996887207,6|0,1:2|0:2,0:2:0:0:
266,326,98928,2,0,L|256:254,1,50.9999984436036,2|0,0:2|0:2,0:2:0:0:
275,154,99285,1,0,3:2:0:0:
364,333,99464,1,0,3:2:0:0:
164,260,99642,1,2,3:2:0:0:
287,248,99821,5,2,0:2:0:0:
43,55,100714,5,0,3:2:0:0:
43,55,100803,1,0,3:2:0:0:
43,55,100892,2,0,L|54:150,1,93.5000028533936,4|0,1:2|3:2,0:2:0:0:
58,173,101160,1,0,3:2:0:0:
62,177,101249,5,2,3:2:0:0:
251,89,101428,1,2,3:2:0:0:
222,85,101517,1,0,3:2:0:0:
194,81,101606,1,0,3:2:0:0:
165,77,101695,1,0,3:2:0:0:
136,73,101785,2,0,L|150:174,1,93.5000028533936,2|0,1:2|0:2,0:2:0:0:
245,304,102142,1,2,1:2:0:0:
91,252,102321,1,0,3:2:0:0:
252,204,102499,6,0,L|293:194,4,23.3750007133484,2|2|2|2|2,3:2|0:2|3:2|0:2|3:2,0:2:0:0:
179,254,102857,1,2,3:2:0:0:
360,153,103035,2,0,L|347:249,1,93.5000028533936,6|2,3:2|0:2,0:2:0:0:
339,343,103393,1,2,3:2:0:0:
438,279,103572,1,2,3:2:0:0:
273,199,103750,1,2,1:2:0:0:
447,140,103929,1,2,0:2:0:0:
269,40,104107,5,2,3:2:0:0:
360,153,104286,1,2,0:2:0:0:
435,25,104464,1,2,1:2:0:0:
288,122,104643,2,0,L|187:103,1,93.5000028533936,2|0,3:2|0:2,0:2:0:0:
22,231,105000,1,2,3:2:0:0:
178,184,105179,1,2,1:2:0:0:
37,26,105357,1,2,0:2:0:0:
37,26,105447,1,2,0:2:0:0:
37,26,105536,6,0,L|47:128,1,93.5000028533936,2|0,3:2|0:2,0:2:0:0:
207,265,105893,1,2,1:2:0:0:
22,231,106072,2,0,P|55:193|95:183,1,93.5000028533936,2|0,0:2|3:2,0:2:0:0:
207,345,106428,2,0,P|163:333|134:298,1,93.5000028533936,2|0,3:2|1:2,0:2:0:0:
255,172,106786,1,2,0:2:0:0:
349,317,106964,5,0,3:2:0:0:
207,265,107143,1,0,3:2:0:0:
207,265,107232,1,0,3:2:0:0:
207,265,107321,1,0,1:2:0:0:
340,139,107500,2,0,L|357:247,1,93.5000028533936,0|0,3:2|0:2,0:2:0:0:
189,94,107857,1,2,3:2:0:0:
334,40,108035,1,2,1:2:0:0:
248,165,108214,1,2,3:2:0:0:
251,168,108303,1,2,3:2:0:0:
255,172,108392,5,2,3:2:0:0:
141,29,108572,1,2,0:2:0:0:
23,127,108750,1,2,1:2:0:0:
125,214,108929,2,0,L|108:121,1,93.5000028533936,2|0,0:2|3:2,0:2:0:0:
255,3,109286,2,0,L|270:95,1,93.5000028533936,2|0,3:2|1:2,0:2:0:0:
208,224,109642,1,2,0:2:0:0:
208,224,109821,6,0,P|241:191|286:184,1,93.5000028533936,0|2,3:2|0:2,0:2:0:0:
442,253,110178,1,2,1:2:0:0:
389,72,110357,2,0,L|378:175,1,93.5000028533936,2|0,3:2|3:2,0:2:0:0:
372,189,110625,1,0,3:2:0:0:
376,193,110714,1,0,3:2:0:0:
270,95,110893,1,0,1:2:0:0:
473,28,111072,1,2,3:2:0:0:
350,292,111250,5,4,1:2:0:0:
312,298,111339,1,0,3:2:0:0:
274,303,111428,1,0,3:2:0:0:
236,308,111517,1,0,3:2:0:0:
198,313,111607,1,0,3:2:0:0:
423,344,111786,5,4,3:2:0:0:
137,251,112143,5,4,3:2:0:0:
326,100,112500,6,0,L|336:197,1,93.5000028533936,6|0,3:2|0:2,0:2:0:0:
274,303,112857,1,2,3:2:0:0:
179,79,113035,2,0,L|189:176,1,93.5000028533936,2|0,1:2|3:2,0:2:0:0:
143,324,113392,1,8,0:3:0:0:
146,327,113482,1,8,0:3:0:0:
150,331,113571,1,8,0:3:0:0:
259,216,113749,1,4,0:3:0:0:
262,219,113839,1,4,0:3:0:0:
266,223,113928,1,4,0:3:0:0:
87,135,114107,5,4,3:2:0:0:
82,341,114464,2,0,L|149:330,1,68,2|2,0:2|0:2,0:2:0:0:
228,302,114822,2,0,B|285:310|285:310|306:327|306:327|371:337,1,136,2|2,0:2|0:2,0:2:0:0:
452,297,115357,2,0,L|442:368,1,68,2|0,0:2|0:2,0:2:0:0:
368,252,115714,1,2,0:2:0:0:
368,252,115892,1,2,0:2:0:0:
471,198,116071,2,0,L|459:142,2,34,8|8|8,0:3|0:3|0:3,0:2:0:0:
354,168,116428,1,12,0:3:0:0:
448,85,116607,2,0,P|395:86|373:72,1,68,4|4,0:3|0:3,0:2:0:0:
323,16,116875,1,0,3:2:0:0:
323,16,116964,6,0,P|271:57|207:45,1,136,6|2,3:2|0:2,0:2:0:0:
117,94,117499,1,0,0:2:0:0:
117,94,117678,2,0,L|122:162,1,68,2|0,0:2|0:2,0:2:0:0:
222,243,118036,1,2,0:2:0:0:
222,243,118214,2,0,B|166:240|166:240|133:253|133:253|88:251,1,136,2|2,0:2|3:2,0:2:0:0:
202,324,118750,1,2,3:2:0:0:
235,319,118928,1,0,3:2:0:0:
269,315,119107,1,0,3:2:0:0:
119,341,119286,5,2,3:2:0:0:
316,247,119464,1,2,1:2:0:0:
68,90,119642,6,0,B|98:140|98:140|87:263,1,170,6|2,3:2|3:2,0:2:0:0:
11,170,120178,1,2,3:2:0:0:
161,75,120357,1,2,3:2:0:0:
88,251,120535,1,2,3:2:0:0:
13,26,120714,5,8,0:2:0:0:
192,218,120892,1,8,0:2:0:0:
424,67,121071,6,0,B|359:57|359:57|332:71|332:71|241:58,1,170,6|2,3:2|3:2,0:2:0:0:
192,218,121607,1,2,3:2:0:0:
399,156,121785,1,2,3:2:0:0:
258,60,121964,1,2,3:2:0:0:
297,258,122142,5,8,0:2:0:0:
360,27,122321,1,8,0:2:0:0:
460,317,122499,6,0,B|412:282|374:292|374:292|347:346|283:342,1,170,4|0,3:2|0:2,0:2:0:0:
310,178,123035,2,0,P|308:241|281:272,1,85,2|0,3:2|0:2,0:2:0:0:
116,212,123392,2,0,L|200:207,1,85,2|0,3:2|0:2,0:2:0:0:
316,339,123749,2,0,L|231:343,1,85,2|0,3:2|0:2,0:2:0:0:
54,157,124106,6,0,P|35:195|37:237,1,85,2|0,3:2|0:2,0:2:0:0:
241,128,124464,2,0,P|243:86|225:49,1,85,2|0,3:2|0:2,0:2:0:0:
116,212,124821,2,0,L|200:207,1,85,2|0,3:2|0:2,0:2:0:0:
148,37,125178,2,0,L|63:32,1,85,2|0,1:2|0:2,0:2:0:0:
200,207,125535,5,2,3:2:0:0:
423,117,125713,1,0,1:2:0:0:
262,16,125892,1,0,1:2:0:0:
322,237,126071,1,0,3:2:0:0:
325,240,126160,1,0,3:2:0:0:
329,244,126249,1,0,1:2:0:0:
492,49,126428,1,0,1:2:0:0:
288,103,126606,1,0,3:2:0:0:
453,307,126785,6,0,L|463:211,1,85,4|0,1:2|0:2,0:2:0:0:
330,358,127142,1,0,3:2:0:0:
288,103,127321,2,0,B|275:171|275:171|257:193|257:193|242:267,1,170,4|0,1:2|0:2,0:2:0:0:
378,209,127857,1,2,3:2:0:0:
198,121,128035,1,2,1:2:0:0:
157,113,128124,1,0,1:2:0:0:
118,127,128213,1,2,3:2:0:0:
89,158,128302,1,0,3:2:0:0:
80,199,128392,6,0,B|106:229|106:229|89:80,1,165.749992412568,6|0,3:2|0:2,0:2:0:0:
51,8,128749,2,0,P|111:68|190:21,1,165.749992412568,2|0,1:2|0:2,0:2:0:0:
322,111,129107,2,0,B|282:94|241:109|241:109|274:78|266:20,1,165.749992412568,2|0,3:2|0:2,0:2:0:0:
363,38,129464,1,2,1:2:0:0:
294,296,129642,6,0,L|278:183,1,110.499994941712,2|0,0:2|3:2,0:2:0:0:
177,43,129999,1,2,0:2:0:0:
116,246,130178,1,2,1:2:0:0:
4,53,130357,2,0,P|36:126|168:116,1,220.999989883423,2|0,0:2|0:2,0:2:0:0:
319,21,130892,1,0,1:2:0:0:
369,208,131071,1,0,0:2:0:0:
256,114,131249,6,0,B|376:96|376:96|352:109|344:144,1,165.749992412568,2|0,3:2|0:2,0:2:0:0:
280,237,131607,2,0,P|269:174|355:131,1,165.749992412568,2|0,1:2|0:2,0:2:0:0:
428,160,131964,2,0,B|408:221|408:221|413:259|413:259|395:319,1,165.749992412568,2|0,3:2|0:2,0:2:0:0:
323,358,132321,1,2,1:2:0:0:
116,246,132499,6,0,L|-1:254,1,110.499994941712,2|0,0:2|3:2,0:2:0:0:
158,363,132857,1,2,0:2:0:0:
282,236,133035,1,2,1:2:0:0:
155,93,133214,2,0,B|169:178|169:178|198:211|198:211|215:323,1,220.999989883423,2|0,0:2|0:2,0:2:0:0:
74,167,133749,1,0,1:2:0:0:
253,32,133928,5,2,0:2:0:0:
183,196,134107,1,2,3:2:0:0:
55,77,134285,2,0,P|124:84|157:126,1,110.499994941712,2|0,0:2|1:2,0:2:0:0:
122,345,134642,2,0,P|93:281|113:232,1,110.499994941712,2|0,0:2|3:2,0:2:0:0:
267,115,134999,5,8,0:2:0:0:
431,352,135178,1,8,0:2:0:0:
453,106,135357,5,2,0:2:0:0:
301,249,135535,1,2,3:2:0:0:
493,216,135714,2,0,L|373:186,1,110.499994941712,2|0,0:2|1:2,0:2:0:0:
245,364,136071,2,0,L|365:334,1,110.499994941712,2|0,0:2|3:2,0:2:0:0:
304,57,136428,5,8,0:2:0:0:
197,270,136607,1,8,0:2:0:0:
385,189,136785,5,2,3:2:0:0:
66,72,136964,2,0,P|145:97|153:197,1,165.749992412568,6|0,3:2|0:2,0:2:0:0:
304,57,137322,2,0,P|246:111|170:90,1,165.749992412568,6|0,3:2|0:2,0:2:0:0:
197,270,137678,2,0,P|178:194|234:137,1,165.749992412568,6|0,3:2|0:2,0:2:0:0:
304,57,138036,2,4,P|293:112|282:228,1,165.749992412568,6|0,3:2|0:2,0:2:0:0:
287,249,138393,5,2,3:2:0:0:
435,141,138571,1,0,1:2:0:0:
188,62,138749,1,0,1:2:0:0:
367,207,138928,1,2,3:2:0:0:
370,210,139017,1,0,3:2:0:0:
374,214,139107,1,2,3:2:0:0:
196,271,139285,1,0,1:2:0:0:
305,57,139464,1,0,1:2:0:0:
339,303,139642,1,0,3:2:0:0:
339,303,139731,1,0,3:2:0:0:
339,303,139821,6,0,B|274:313|274:313|241:343|241:343|146:354,1,165.749992412568,6|0,3:2|0:2,0:2:0:0:
131,194,140178,2,0,B|171:169|171:169|231:199|192:281,1,165.749992412568,2|0,1:2|0:2,0:2:0:0:
84,373,140535,2,0,P|62:289|26:214,1,165.749992412568,2|0,3:2|0:2,0:2:0:0:
39,123,140892,1,2,1:2:0:0:
348,55,141071,6,0,L|330:164,1,110.499994941712,2|0,0:2|3:2,0:2:0:0:
196,271,141428,1,2,0:2:0:0:
248,96,141607,1,2,1:2:0:0:
360,245,141785,2,0,B|245:261|286:170|156:189,1,220.999989883423,2|0,0:2|0:2,0:2:0:0:
291,338,142321,1,0,1:2:0:0:
422,149,142499,1,0,0:2:0:0:
395,321,142678,6,0,B|373:363|373:363|359:233,1,165.749992412568,2|0,3:2|0:2,0:2:0:0:
334,161,143035,2,0,P|391:230|469:219,1,165.749992412568,2|0,1:2|0:2,0:2:0:0:
501,144,143392,2,0,B|460:130|420:148|420:148|450:115|441:70,1,165.749992412568,2|0,3:2|0:2,0:2:0:0:
512,20,143749,1,2,1:2:0:0:
260,65,143928,6,0,L|375:90,1,110.499994941712,2|0,0:2|3:2,0:2:0:0:
236,188,144285,1,2,0:2:0:0:
126,34,144464,1,2,1:2:0:0:
83,248,144642,2,0,P|189:194|149:71,1,220.999989883423,2|0,0:2|0:2,0:2:0:0:
48,16,145178,1,0,1:2:0:0:
259,65,145357,5,0,3:2:0:0:
104,156,145535,1,6,3:2:0:0:
275,280,145714,2,0,P|265:212|231:185,1,110.499994941712,2|0,0:2|1:2,0:2:0:0:
28,321,146071,2,0,L|146:338,1,110.499994941712,2|0,0:2|3:2,0:2:0:0:
338,80,146428,5,8,0:2:0:0:
421,359,146607,1,8,0:2:0:0:
191,263,146785,5,2,0:2:0:0:
373,179,146964,1,6,3:2:0:0:
225,76,147142,2,0,L|234:186,1,110.499994941712,2|0,0:2|1:2,0:2:0:0:
420,358,147499,2,0,L|411:248,1,110.499994941712,2|0,0:2|3:2,0:2:0:0:
224,75,147857,5,8,0:2:0:0:
158,337,148035,1,8,0:2:0:0:
234,186,148214,5,2,0:2:0:0:
59,237,148392,1,6,3:2:0:0:
117,50,148571,2,0,L|224:75,1,110.499994941712,2|0,0:2|3:2,0:2:0:0:
452,138,148928,1,2,3:2:0:0:
301,229,149106,5,0,1:2:0:0:
401,62,149285,1,0,1:2:0:0:
214,157,149463,1,0,1:2:0:0:
401,268,149642,1,0,1:2:0:0:
154,236,149821,5,4,1:2:0:0:
311,48,149999,1,0,3:2:0:0:
401,268,150178,1,0,3:2:0:0:
99,102,150357,5,6,1:2:0:0:
282,265,150535,1,2,3:2:0:0:
58,347,150714,1,0,3:2:0:0:
311,48,150892,5,2,1:2:0:0:
315,75,150981,1,0,1:2:0:0:
319,102,151070,1,2,3:2:0:0:
323,129,151159,1,0,3:2:0:0:
327,157,151249,6,0,L|212:163,1,110.499994941712,6|2,3:2|0:2,0:2:0:0:
10,86,151607,1,10,3:2:0:0:
188,273,151785,5,2,0:2:0:0:
1,207,151964,1,2,3:2:0:0:
159,78,152142,1,2,0:2:0:0:
107,321,152321,6,0,L|94:201,1,110.499994941712,10|2,3:2|0:2,0:2:0:0:
71,14,152678,1,2,3:2:0:0:
270,195,152857,5,2,0:2:0:0:
89,122,153035,1,10,3:2:0:0:
242,0,153214,1,2,0:2:0:0:
400,190,153392,5,2,3:2:0:0:
159,78,153571,1,10,0:2:0:0:
451,115,153749,5,10,3:2:0:0:
168,161,153928,1,2,0:2:0:0:
413,358,154107,6,0,P|454:290|446:245,1,110.499994941712,2|0,3:2|0:2,0:2:0:0:
329,107,154464,1,8,3:2:0:0:
160,286,154642,2,0,B|247:271|247:271|285:298|285:298|382:281,1,220.999989883423,2|0,0:2|0:2,0:2:0:0:
329,107,155178,6,0,L|310:222,1,110.499994941712,10|0,3:2|0:2,0:2:0:0:
192,363,155535,1,0,3:2:0:0:
369,283,155714,1,2,0:2:0:0:
194,202,155892,2,0,P|140:192|94:220,1,110.499994941712,8|0,3:2|0:2,0:2:0:0:
245,116,156249,1,2,3:2:0:0:
151,287,156428,1,8,0:2:0:0:
22,128,156607,2,0,L|170:113,1,110.499994941712,10|0,3:2|0:2,0:2:0:0:
380,169,156964,5,2,3:2:0:0:
194,202,157142,1,2,0:2:0:0:
277,32,157320,1,10,3:2:0:0:
489,180,157499,2,0,L|379:168,1,110.499994941712,2|0,0:2|3:2,0:2:0:0:
209,89,157857,1,0,0:2:0:0:
139,298,158035,2,0,L|248:286,1,110.499994941712,8|0,3:2|0:2,0:2:0:0:
420,264,158392,5,0,3:2:0:0:
313,37,158571,1,2,0:2:0:0:
445,116,158749,1,10,3:2:0:0:
293,192,158928,1,2,0:2:0:0:
490,328,159107,1,2,3:2:0:0:
385,184,159285,1,10,0:2:0:0:
262,340,159464,2,0,L|383:332,1,110.499994941712,10|2,3:2|0:2,0:2:0:0:
199,172,159821,5,2,3:2:0:0:
66,358,159999,1,2,0:2:0:0:
244,265,160178,1,10,3:2:0:0:
15,167,160357,1,2,0:2:0:0:
211,32,160535,1,2,3:2:0:0:
126,226,160714,1,2,0:2:0:0:
14,76,160893,2,0,L|123:91,1,110.499994941712,10|0,3:2|0:2,0:2:0:0:
384,206,161249,6,0,L|493:190,1,110.499994941712,2|0,3:2|0:2,0:2:0:0:
299,50,161607,2,0,L|281:178,1,110.499994941712,14|0,3:2|0:2,0:2:0:0:
134,334,161964,1,2,3:2:0:0:
307,266,162142,1,8,0:2:0:0:
172,150,162321,1,10,1:2:0:0:
132,140,162410,1,0,1:2:0:0:
92,149,162499,1,0,3:2:0:0:
61,176,162588,1,0,3:2:0:0:
46,215,162678,6,0,L|41:82,1,110.499994941712,6|0,3:2|0:2,0:2:0:0:
188,237,163035,1,0,1:2:0:0:
24,308,163214,2,0,B|107:299|107:299|152:323|152:323|240:311,1,220.999989883423,2|0,0:2|0:2,0:2:0:0:
390,220,163749,2,0,L|267:199,1,110.499994941712,2|0,1:2|0:2,0:2:0:0:
467,117,164107,5,0,3:2:0:0:
427,307,164285,2,0,B|408:372|408:372|387:199,1,220.999989883423,2|0,0:2|0:2,0:2:0:0:
491,22,164821,2,0,L|385:51,1,110.499994941712,2|2,3:2|0:2,0:2:0:0:
234,111,165178,2,0,L|340:140,1,110.499994941712,2|0,1:2|0:2,0:2:0:0:
228,324,165535,6,0,L|210:206,1,110.499994941712,2|0,3:2|0:2,0:2:0:0:
123,50,165892,1,0,1:2:0:0:
36,180,166071,2,0,B|121:165|121:165|146:126|146:126|254:107,1,220.999989883423,2|0,0:2|0:2,0:2:0:0:
406,166,166607,2,0,L|421:47,1,110.499994941712,2|0,1:2|0:2,0:2:0:0:
460,282,166964,5,0,3:2:0:0:
292,209,167142,2,0,P|394:197|461:288,1,220.999989883423,2|0,0:2|0:2,0:2:0:0:
237,362,167678,2,0,L|216:237,1,110.499994941712,2|0,3:2|0:2,0:2:0:0:
270,100,168035,1,2,1:2:0:0:
252,137,168124,1,0,3:2:0:0:
219,160,168213,1,0,3:2:0:0:
178,163,168302,1,0,3:2:0:0:
141,145,168393,6,0,L|27:133,1,110.499994941712,2|0,3:2|0:2,0:2:0:0:
197,66,168749,1,0,1:2:0:0:
303,209,168928,2,0,P|370:215|432:79,1,220.999989883423,2|0,0:2|0:2,0:2:0:0:
330,13,169464,2,0,L|354:142,1,110.499994941712,2|0,1:2|0:2,0:2:0:0:
453,230,169821,5,0,3:2:0:0:
246,284,169999,2,0,B|302:232|364:248|364:248|384:307|446:312,1,220.999989883423,2|0,0:2|0:2,0:2:0:0:
256,172,170535,2,0,L|244:299,1,110.499994941712,2|0,3:2|0:2,0:2:0:0:
29,184,170892,1,2,1:2:0:0:
47,147,170981,1,0,3:2:0:0:
80,124,171070,1,0,3:2:0:0:
121,121,171160,1,0,3:2:0:0:
157,138,171249,6,0,P|197:169|266:167,1,110.499994941712,2|0,3:2|0:2,0:2:0:0:
385,54,171607,1,0,1:2:0:0:
356,213,171785,2,0,B|340:130|340:130|302:95|302:95|287:5,1,220.999989883423,2|0,0:2|0:2,0:2:0:0:
167,261,172321,2,0,L|287:244,1,110.499994941712,2|0,1:2|0:2,0:2:0:0:
447,224,172678,5,0,3:2:0:0:
300,331,172857,1,2,0:2:0:0:
340,103,173036,2,0,L|355:212,1,110.499994941712,4|2,1:2|0:2,0:2:0:0:
357,250,173303,1,0,3:2:0:0:
361,254,173392,1,0,3:2:0:0:
238,110,173571,5,0,1:2:0:0:
201,109,173660,1,0,1:2:0:0:
166,121,173749,1,8,0:3:0:0:
139,146,173838,1,8,0:3:0:0:
112,170,173928,1,4,3:3:0:0:
77,183,174017,1,4,3:3:0:0:
41,185,174107,6,0,L|27:57,1,110.499994941712,4|0,3:2|0:2,0:2:0:0:
217,200,174464,1,0,1:2:0:0:
40,283,174642,1,2,0:2:0:0:
44,287,174821,1,2,3:2:0:0:
108,166,174999,1,2,3:2:0:0:
112,170,175178,1,2,1:2:0:0:
227,316,175357,1,2,0:2:0:0:
325,176,175535,6,0,L|214:200,1,110.499994941712,0|0,3:2|0:2,0:2:0:0:
350,290,175892,1,0,1:2:0:0:
428,149,176071,1,2,3:2:0:0:
491,316,176249,2,0,P|438:282|425:229,1,110.499994941712,2|0,0:2|3:2,0:2:0:0:
495,72,176607,2,0,P|475:122|428:149,1,110.499994941712,2|0,1:2|0:2,0:2:0:0:
296,82,176964,6,0,L|180:71,1,110.499994941712,2|0,3:2|0:2,0:2:0:0:
56,169,177321,1,2,1:2:0:0:
268,160,177499,2,0,L|152:149,1,110.499994941712,2|0,0:2|3:2,0:2:0:0:
0,46,177857,2,0,L|116:35,1,110.499994941712,2|0,3:2|1:2,0:2:0:0:
73,278,178214,1,2,0:2:0:0:
73,278,178392,6,0,L|53:150,1,110.499994941712,0|0,3:2|0:2,0:2:0:0:
110,35,178749,1,0,1:2:0:0:
269,160,178928,1,2,3:2:0:0:
143,219,179107,1,2,0:2:0:0:
185,71,179285,1,2,3:2:0:0:
302,239,179464,2,0,L|421:249,1,110.499994941712,2|0,1:2|0:2,0:2:0:0:
407,48,179821,6,0,L|377:166,1,110.499994941712,2|0,3:2|0:2,0:2:0:0:
377,342,180178,1,2,1:2:0:0:
169,188,180357,2,0,P|226:155|277:163,1,110.499994941712,2|0,0:2|3:2,0:2:0:0:
377,342,180714,2,0,P|319:309|301:260,1,110.499994941712,2|0,3:2|1:2,0:2:0:0:
469,156,181071,1,2,0:2:0:0:
326,52,181249,6,0,L|209:43,1,110.499994941712,0|0,3:2|0:2,0:2:0:0:
81,242,181607,2,0,P|160:204|173:163,1,110.499994941712,2|0,1:2|0:2,0:2:0:0:
45,20,181964,1,2,3:2:0:0:
91,160,182142,1,0,3:2:0:0:
215,43,182321,1,2,1:2:0:0:
275,176,182499,1,0,3:2:0:0:
275,176,182589,1,0,3:2:0:0:
275,176,182678,6,2,L|385:184,1,85,6|2,1:2|3:2,0:2:0:0:
223,284,183035,1,0,3:2:0:0:
484,139,183214,5,6,1:2:0:0:
366,278,183393,1,2,3:2:0:0:
319,96,183571,1,0,3:2:0:0:
137,245,183749,6,0,L|130:357,1,85,4|0,1:2|3:2,0:2:0:0:
275,176,184107,1,0,3:2:0:0:
0,231,184285,5,4,1:2:0:0:
66,45,184464,1,0,3:2:0:0:
191,182,184642,1,2,3:2:0:0:
0,115,184821,5,6,1:2:0:0:
215,43,184999,1,2,3:2:0:0:
66,46,185178,5,6,1:2:0:0:
276,177,185357,1,2,3:2:0:0:
67,282,185535,5,4,3:2:0:0:
215,43,185713,1,0,1:2:0:0:
351,249,185892,1,0,1:2:0:0:
151,156,186071,1,0,3:2:0:0:
154,159,186160,1,0,3:2:0:0:
158,163,186249,1,0,1:2:0:0:
330,57,186428,1,0,1:2:0:0:
246,291,186606,1,0,3:2:0:0:
479,176,186785,6,0,L|383:166,1,85,4|0,1:2|0:2,0:2:0:0:
211,222,187142,1,0,3:2:0:0:
300,16,187321,2,0,B|329:61|329:61|301:174,1,170,4|0,1:2|0:2,0:2:0:0:
389,11,187857,1,2,0:2:0:0:
243,76,188035,1,2,0:2:0:0:
394,167,188214,1,2,0:2:0:0:
211,222,188392,5,2,3:2:0:0:
125,199,188749,1,2,0:2:0:0:
42,177,189107,2,0,L|31:302,1,118.999996368408,2|2,0:2|0:2,0:2:0:0:
91,362,189642,2,0,P|134:323|207:330,1,118.999996368408,2|2,0:2|0:2,0:2:0:0:
288,357,190178,1,2,0:2:0:0:
288,357,190357,2,0,B|273:293|273:293|314:162,1,178.499994552612,2|0,0:2|0:2,0:2:0:0:
49,78,191249,5,2,0:2:0:0:
135,55,191606,1,2,0:2:0:0:
218,33,191964,2,0,L|337:59,1,118.999996368408,2|2,0:2|0:2,0:2:0:0:
418,117,192499,2,0,L|299:143,1,118.999996368408,2|2,0:2|0:2,0:2:0:0:
194,147,193035,1,2,0:2:0:0:
194,147,193214,2,0,P|250:145|315:239,1,178.499994552612,2|0,0:2|0:2,0:2:0:0:
490,72,194107,5,2,0:2:0:0:
404,49,194464,1,2,0:2:0:0:
321,27,194822,2,0,L|310:152,1,118.999996368408,2|2,0:2|0:2,0:2:0:0:
402,259,195357,2,0,L|412:140,1,118.999996368408,2|2,0:2|0:2,0:2:0:0:
312,238,195892,1,2,0:2:0:0:
312,238,196071,2,0,B|215:225|245:299|137:280,1,178.499994552612,2|0,0:2|0:2,0:2:0:0:
491,311,196964,5,2,0:2:0:0:
405,334,197321,1,2,0:2:0:0:
322,356,197679,2,0,L|311:231,1,118.999996368408,2|0,0:2|0:2,0:2:0:0:
339,158,198214,2,0,P|296:200|234:205,1,118.999996368408,2|0,0:2|0:2,0:2:0:0:
152,169,198749,1,2,0:2:0:0:
152,169,198928,2,0,L|158:248,1,59.4999981842042,2|0,0:2|0:2,0:2:0:0:
234,124,199285,1,2,0:3:0:0:
234,124,199374,1,2,0:3:0:0:
234,124,199464,2,0,P|207:67|165:52,1,89.2499972763062,2|0,0:3|0:2,0:2:0:0:
106,24,199821,6,0,L|276:11,1,152.999995330811,4|0,3:2|0:2,0:2:0:0:
411,88,200357,1,2,3:2:0:0:
330,140,200535,2,0,L|319:54,1,76.4999976654053,2|0,1:3|0:2,0:2:0:0:
338,236,200892,1,0,3:2:0:0:
338,236,201071,6,0,L|262:214,1,76.4999976654053,0|0,3:2|0:2,0:2:0:0:
439,292,201428,2,0,L|515:270,1,76.4999976654053,0|0,3:2|0:2,0:2:0:0:
349,323,201785,1,0,3:2:0:0:
349,323,201964,2,0,L|188:276,1,152.999995330811,0|0,1:2|0:2,0:2:0:0:
106,296,202499,1,0,3:2:0:0:
106,296,202589,1,0,3:2:0:0:
106,296,202678,6,0,P|152:288|185:174,1,152.999995330811,0|0,3:2|0:2,0:2:0:0:
210,114,203214,1,0,3:2:0:0:
210,114,203392,2,0,L|285:103,1,76.4999976654053,0|0,1:2|0:2,0:2:0:0:
113,216,203749,1,0,3:2:0:0:
113,216,203928,6,0,L|100:138,1,76.4999976654053,0|0,3:2|0:2,0:2:0:0:
210,114,204285,2,0,L|223:36,1,76.4999976654053,0|0,3:2|0:2,0:2:0:0:
279,209,204642,1,0,3:2:0:0:
395,151,204821,1,0,1:2:0:0:
289,102,204999,1,0,3:2:0:0:
396,245,205178,1,0,1:2:0:0:
479,86,205357,1,2,3:2:0:0:
479,86,205446,1,0,3:2:0:0:
479,86,205535,5,6,3:2:0:0:
433,332,205892,5,0,3:2:0:0:
437,336,206070,1,2,3:2:0:0:
393,242,206249,1,0,3:2:0:0:
397,246,206427,1,0,3:2:0:0:
330,321,206606,1,0,3:2:0:0:
334,325,206785,1,2,3:2:0:0:
487,259,206963,5,2,3:2:0:0:
305,234,207142,1,2,3:2:0:0:
465,173,207320,1,0,3:2:0:0:
333,328,207499,1,2,3:2:0:0:
275,145,207678,5,0,3:2:0:0:
143,309,207856,1,0,3:2:0:0:
146,312,207945,1,0,3:2:0:0:
150,316,208035,1,0,1:2:0:0:
392,240,208213,1,2,3:2:0:0:
395,243,208303,1,0,3:2:0:0:
399,247,208392,5,6,1:2:0:0:
251,363,208570,1,2,3:2:0:0:
201,181,208749,1,0,3:2:0:0:
420,136,208928,5,6,1:2:0:0:
297,285,209106,1,0,3:2:0:0:
478,326,209285,1,0,3:2:0:0:
201,181,209463,5,4,1:2:0:0:
264,382,209642,1,0,3:2:0:0:
410,237,209820,1,0,3:2:0:0:
106,284,209999,5,4,1:2:0:0:
186,73,210178,1,0,3:2:0:0:
305,242,210357,1,0,3:2:0:0:
32,101,210535,5,4,1:2:0:0:
325,136,210714,1,0,3:2:0:0:
52,205,210892,5,0,3:2:0:0:
302,46,211071,1,4,1:2:0:0:
356,343,212142,5,2,3:2:0:0:
359,346,212232,1,0,3:2:0:0:
363,350,212321,1,2,1:2:0:0:
331,159,212499,1,2,0:2:0:0:
448,276,212678,6,0,B|348:254|348:254|375:249|404:220,1,140.25000428009,6|0,3:2|0:2,0:2:0:0:
418,117,213035,2,0,P|425:185|382:238,1,140.25000428009,6|0,3:2|0:2,0:2:0:0:
294,306,213392,2,0,B|267:282|272:240|272:240|257:282|220:295,1,140.25000428009,6|0,3:2|0:2,0:2:0:0:
239,367,213749,1,2,3:2:0:0:
98,218,213928,6,0,L|216:219,1,93.5000028533936,6|0,3:2|0:2,0:2:0:0:
418,117,214285,1,2,3:2:0:0:
250,153,214464,1,2,3:2:0:0:
315,7,214642,2,0,L|328:123,1,93.5000028533936,6|0,3:2|0:2,0:2:0:0:
500,179,214999,1,0,3:2:0:0:
500,179,215089,1,0,3:2:0:0:
500,179,215178,2,0,P|431:171|383:247,1,140.25000428009,4|0,1:2|0:2,0:2:0:0:
273,318,215535,6,0,B|309:289|308:245|308:245|325:286|367:300,1,165.749992412568,6|0,3:2|0:2,0:2:0:0:
463,332,215892,2,0,B|437:366|437:366|464:227,1,165.749992412568,2|0,1:2|0:2,0:2:0:0:
350,145,216249,2,0,B|386:173|385:217|385:217|402:176|443:163,1,165.749992412568,2|0,3:2|0:2,0:2:0:0:
304,213,216607,1,2,1:2:0:0:
512,69,216785,6,0,P|432:76|401:107,1,110.499994941712,2|0,0:2|3:2,0:2:0:0:
380,239,217142,1,2,0:2:0:0:
282,82,217321,1,2,1:2:0:0:
90,205,217499,2,0,B|175:198|175:198|225:224|225:224|345:206,1,220.999989883423,2|0,0:2|0:2,0:2:0:0:
156,316,218035,1,0,1:2:0:0:
201,120,218214,5,2,0:2:0:0:
0,88,218392,1,2,3:2:0:0:
156,316,218571,2,0,L|183:192,1,110.499994941712,2|0,0:2|1:2,0:2:0:0:
0,88,218928,2,0,L|27:212,1,110.499994941712,2|0,0:2|3:2,0:2:0:0:
58,353,219285,5,8,0:2:0:0:
201,120,219464,1,8,0:2:0:0:
313,308,219642,5,2,0:2:0:0:
386,158,219821,1,2,3:2:0:0:
512,272,219999,2,0,L|377:246,1,110.499994941712,2|0,0:2|1:2,0:2:0:0:
201,120,220357,2,0,L|336:94,1,110.499994941712,2|0,0:2|3:2,0:2:0:0:
467,182,220714,5,8,0:2:0:0:
218,336,220892,1,8,0:2:0:0:
403,251,221071,5,2,3:2:0:0:
201,120,221249,2,0,P|122:145|114:245,1,165.749992412568,6|0,3:2|0:2,0:2:0:0:
218,336,221607,2,0,P|235:255|153:198,1,165.749992412568,6|0,3:2|0:2,0:2:0:0:
23,247,221964,2,0,P|84:302|174:259,1,165.749992412568,6|0,3:2|0:2,0:2:0:0:
180,201,222321,1,6,3:2:0:0:
14,360,222499,1,0,3:2:0:0:
17,363,222589,1,0,3:2:0:0:
21,367,222678,5,2,3:2:0:0:
237,258,222857,1,0,1:2:0:0:
16,133,223035,1,0,1:2:0:0:
141,356,223214,1,2,3:2:0:0:
144,359,223303,1,0,3:2:0:0:
148,363,223392,1,2,3:2:0:0:
280,144,223571,1,0,1:2:0:0:
354,331,223749,5,0,1:2:0:0:
314,340,223838,1,0,1:2:0:0:
274,328,223927,1,0,3:2:0:0:
246,298,224016,1,0,3:2:0:0:
237,258,224107,6,0,L|240:205,6,27.6249987354279,2|2|2|2|2|2|2,3:2|0:2|0:2|0:2|0:2|0:2|0:2,0:2:0:0:
196,163,224464,6,0,B|225:203|225:203|214:319,1,165.749992412568,6|0,1:2|0:2,0:2:0:0:
83,281,224821,2,0,P|180:270|214:322,1,165.749992412568,2|0,3:2|0:2,0:2:0:0:
137,346,225178,1,2,1:2:0:0:
1,170,225357,6,0,L|118:156,1,110.499994941712,2|0,0:2|3:2,0:2:0:0:
348,182,225714,1,2,0:2:0:0:
234,64,225892,1,2,1:2:0:0:
281,250,226071,2,0,P|381:270|421:133,1,220.999989883423,2|0,0:2|0:2,0:2:0:0:
334,357,226607,1,0,1:2:0:0:
222,165,226785,1,0,0:2:0:0:
471,65,226964,6,0,B|378:51|402:122|309:102,1,165.749992412568,2|0,3:2|0:2,0:2:0:0:
169,78,227321,2,0,B|213:60|213:60|267:99|216:174,1,165.749992412568,2|0,1:2|0:2,0:2:0:0:
180,288,227678,2,0,B|142:265|153:210|153:210|173:245|216:248,1,165.749992412568,2|0,3:2|0:2,0:2:0:0:
261,315,228035,1,2,1:2:0:0:
450,146,228214,6,0,L|458:265,1,110.499994941712,2|0,0:2|3:2,0:2:0:0:
316,106,228571,1,2,0:2:0:0:
144,214,228749,1,2,1:2:0:0:
314,187,228928,2,0,B|193:209|241:107|101:132,1,220.999989883423,2|0,0:2|0:2,0:2:0:0:
242,263,229464,1,0,1:2:0:0:
166,48,229642,5,2,3:2:0:0:
166,48,229732,1,0,3:2:0:0:
166,48,229821,1,6,3:2:0:0:
43,202,229999,2,0,P|106:227|149:215,1,110.499994941712,2|0,0:2|1:2,0:2:0:0:
316,106,230357,2,0,P|262:96|213:121,1,110.499994941712,2|0,0:2|3:2,0:2:0:0:
242,360,230714,5,8,0:2:0:0:
392,141,230892,1,8,0:2:0:0:
379,327,231071,5,2,0:2:0:0:
294,202,231249,1,6,3:2:0:0:
470,275,231428,2,0,P|394:305|369:347,1,110.499994941712,2|0,0:2|1:2,0:2:0:0:
202,151,231785,2,0,P|240:189|293:201,1,110.499994941712,2|0,0:2|3:2,0:2:0:0:
468,17,232142,5,8,0:2:0:0:
390,253,232321,1,8,0:2:0:0:
512,152,232499,5,2,0:2:0:0:
292,87,232678,2,0,L|406:72,1,110.499994941712,6|0,3:2|0:2,0:2:0:0:
293,201,233035,1,2,3:2:0:0:
165,54,233214,1,2,3:2:0:0:
34,230,233392,5,0,1:2:0:0:
205,148,233571,1,0,1:2:0:0:
6,91,233749,1,0,1:2:0:0:
224,259,233928,1,0,1:2:0:0:
119,71,234107,5,0,3:2:0:0:
58,322,234285,1,0,1:2:0:0:
493,142,234643,5,2,3:2:0:0:
493,142,234732,1,0,3:2:0:0:
493,142,234821,2,0,L|370:124,1,110.499994941712,2|0,3:2|0:2,0:2:0:0:
215,75,235178,1,2,1:2:0:0:
255,79,235267,1,0,1:2:0:0:
289,102,235356,1,2,3:2:0:0:
309,138,235445,1,0,3:2:0:0:
309,179,235535,5,4,1:2:0:0:
141,100,235714,1,0,3:2:0:0:
301,8,235892,1,0,3:2:0:0:
235,265,236071,5,4,1:2:0:0:
255,79,236249,1,0,3:2:0:0:
407,201,236428,1,0,3:2:0:0:
124,224,236607,5,4,1:2:0:0:
256,367,236786,1,0,3:2:0:0:
309,179,236964,1,0,3:2:0:0:
15,260,237142,5,4,1:2:0:0:
138,127,237321,1,0,3:2:0:0:
194,305,237499,1,0,3:2:0:0:
0,168,237678,5,6,3:2:0:0:
0,168,237767,1,2,0:2:0:0:
0,168,237857,2,0,L|99:156,1,55.2499974708558,2|2,3:2|3:2,0:2:0:0:
187,62,238035,1,6,1:2:0:0:
190,65,238124,1,2,3:2:0:0:
194,69,238214,2,2,L|293:81,1,55.2499974708558,2|2,3:2|3:2,3:2:0:0:
464,266,238392,5,4,1:2:0:0:
304,176,238571,1,0,3:2:0:0:
454,83,238749,1,0,3:2:0:0:
190,198,238928,5,4,1:2:0:0:
339,79,239107,1,0,3:2:0:0:
366,265,239285,1,0,3:2:0:0:
129,108,239464,5,4,1:2:0:0:
155,294,239642,1,0,3:2:0:0:
304,176,239821,1,0,3:2:0:0:
65,217,239999,5,4,1:2:0:0:
241,86,240178,1,0,3:2:0:0:
269,288,240357,1,0,3:2:0:0:
128,106,240535,5,6,3:2:0:0:
128,106,240624,1,2,3:2:0:0:
128,106,240714,2,0,L|135:166,1,55.2499974708558,2|2,3:2|3:2,0:2:0:0:
255,335,240892,1,6,1:2:0:0:
258,338,240981,1,0,3:2:0:0:
262,342,241071,2,0,L|269:282,1,55.2499974708558,2|2,3:2|3:2,0:2:0:0:
245,88,241249,5,4,1:2:0:0:
139,264,241428,1,0,3:2:0:0:
28,88,241607,1,0,3:2:0:0:
274,200,241785,5,4,1:2:0:0:
143,31,241964,1,0,3:2:0:0:
49,229,242142,1,0,3:2:0:0:
387,188,242321,5,4,1:2:0:0:
173,132,242500,1,0,3:2:0:0:
248,324,242679,1,0,3:2:0:0:
453,102,242857,5,4,1:2:0:0:
277,196,243036,1,0,3:2:0:0:
450,297,243214,1,0,3:2:0:0:
334,109,243392,5,6,3:2:0:0:
334,109,243482,1,2,3:2:0:0:
334,109,243571,2,0,L|268:102,1,55.2499974708558,2|2,3:2|3:2,0:2:0:0:
86,269,243749,1,6,1:2:0:0:
89,272,243839,1,2,3:2:0:0:
93,276,243928,2,0,L|159:269,1,55.2499974708558,2|2,3:2|3:2,0:2:0:0:
389,189,244107,5,4,1:2:0:0:
295,331,244285,1,0,3:2:0:0:
222,180,244464,1,0,3:2:0:0:
486,285,244642,5,4,1:2:0:0:
418,87,244821,1,0,3:2:0:0:
283,245,244999,1,0,3:2:0:0:
248,41,245178,5,4,1:2:0:0:
402,242,245357,1,0,3:2:0:0:
501,23,245535,1,0,3:2:0:0:
162,283,245714,5,4,1:2:0:0:
336,108,245893,1,0,3:2:0:0:
419,341,246071,1,0,3:2:0:0:
138,138,246249,5,4,1:2:0:0:
460,181,246428,1,0,3:2:0:0:
162,283,246607,5,0,3:2:0:0:
418,51,246785,1,4,1:2:0:0:
256,192,246874,12,0,249821,0:2:0:0:
