osu file format v14

[General]
AudioFilename: audio.mp3
AudioLeadIn: 0
PreviewTime: 60034
Countdown: 0
SampleSet: Normal
StackLeniency: 0.7
Mode: 1
LetterboxInBreaks: 0
WidescreenStoryboard: 1

[Editor]
DistanceSpacing: 1.2
BeatDivisor: 2
GridSize: 32
TimelineZoom: 0.4999999

[Metadata]
Title:SHIJOSHUGI ADTRUCK
TitleUnicode:至上主義アドトラック
Artist:hololive IDOL PROJECT
ArtistUnicode:hololive IDOL PROJECT
Creator:Maimaing
Version:Cdh's Kantan
Source:
Tags:japanese electronic jpop j-pop pop floral circlet バーチャルyoutuber cover corp 夏色まつり 大神ミオ 不知火フレア Natsuiro Matsuri Ookami Mio Shiranui Flare ホロライブ 如月結愛 はる Kisaragi Yunna Haru original cdh twc twc2021 Cynplytholowazy Bouquet cdhsausageboy
BeatmapID:2986858
BeatmapSetID:1452720

[Difficulty]
HPDrainRate:7
CircleSize:5
OverallDifficulty:3
ApproachRate:5
SliderMultiplier:1.4
SliderTickRate:1

[Events]
//Background and Video events
0,0,"shijoshugi.jpg",0,0
//Break Periods
//Storyboard Layer 0 (Background)
//Storyboard Layer 1 (Fail)
//Storyboard Layer 2 (Pass)
//Storyboard Layer 3 (Foreground)
//Storyboard Layer 4 (Overlay)
//Storyboard Sound Samples

[TimingPoints]
597,375,4,1,0,75,1,0
24597,-100,4,1,0,75,0,0
60597,-100,4,1,0,90,0,1
71097,-100,4,1,0,85,0,0
72597,-100,4,1,0,90,0,1
83847,-100,4,1,0,85,0,0
132597,-100,4,1,0,90,0,1
143097,-100,4,1,0,85,0,0
144597,-100,4,1,0,90,0,1
155847,-100,4,1,0,85,0,0
194847,375,4,1,0,80,1,0
194847,-100,4,1,0,90,0,0
197847,-100,4,1,0,92,0,1
205347,-100,4,1,0,88,0,0
206847,-100,4,1,0,92,0,1
217347,-100,4,1,0,90,0,0
218847,-100,4,1,0,92,0,1
230847,-100,4,1,0,85,0,0
236847,-100,4,1,0,85,0,1
242472,-100,4,1,0,85,0,0

[HitObjects]
218,250,597,5,4,0:0:0:0:
417,147,1347,1,0,0:0:0:0:
193,147,2097,1,0,0:0:0:0:
403,224,2847,1,8,0:0:0:0:
319,149,3222,1,8,0:0:0:0:
405,220,3597,1,0,0:0:0:0:
184,182,4347,1,0,0:0:0:0:
405,216,5097,1,0,0:0:0:0:
189,155,5847,1,8,0:0:0:0:
297,184,6222,1,8,0:0:0:0:
408,186,6597,1,0,0:0:0:0:
185,156,7347,1,0,0:0:0:0:
408,164,8097,1,0,0:0:0:0:
408,195,8847,1,8,0:0:0:0:
474,192,9222,1,8,0:0:0:0:
362,178,9597,1,0,0:0:0:0:
362,178,10347,1,0,0:0:0:0:
421,152,10909,1,12,0:0:0:0:
323,170,12597,1,4,0:0:0:0:
374,174,13347,1,0,0:0:0:0:
406,66,13722,1,0,0:0:0:0:
366,188,14847,1,8,0:0:0:0:
256,210,15222,1,0,0:0:0:0:
427,160,15597,1,0,0:0:0:0:
324,359,16347,1,8,0:0:0:0:
220,160,17097,1,0,0:0:0:0:
261,28,17472,1,0,0:0:0:0:
423,186,17847,1,8,0:0:0:0:
199,206,18597,1,4,0:0:0:0:
421,182,19347,1,0,0:0:0:0:
421,182,19722,1,0,0:0:0:0:
109,306,20847,1,8,0:0:0:0:
213,265,21222,1,0,0:0:0:0:
290,174,21597,1,0,0:0:0:0:
394,180,22347,1,8,0:0:0:0:
171,208,23097,1,0,0:0:0:0:
411,169,23472,1,0,0:0:0:0:
365,163,23847,1,8,0:0:0:0:
365,163,24222,1,8,0:0:0:0:
255,187,24597,1,0,0:0:0:0:
478,181,25347,1,0,0:0:0:0:
478,181,25909,1,0,0:0:0:0:
36,255,26847,1,8,0:0:0:0:
255,212,27597,1,0,0:0:0:0:
469,145,28347,1,0,0:0:0:0:
324,230,28909,1,0,0:0:0:0:
81,370,29847,1,8,0:0:0:0:
267,245,30597,1,8,0:0:0:0:
466,143,31347,1,0,0:0:0:0:
309,204,31909,1,0,0:0:0:0:
441,169,32847,1,8,0:0:0:0:
224,226,33597,1,0,0:0:0:0:
315,161,34347,1,0,0:0:0:0:
203,161,34722,1,0,0:0:0:0:
249,191,34909,1,0,0:0:0:0:
393,163,36222,1,8,0:0:0:0:
281,171,36597,1,4,0:0:0:0:
504,157,37347,1,8,0:0:0:0:
312,272,38097,1,0,0:0:0:0:
284,164,39597,1,0,0:0:0:0:
498,227,40347,1,0,0:0:0:0:
303,116,41097,1,8,0:0:0:0:
297,155,42597,1,0,0:0:0:0:
419,162,43347,1,8,0:0:0:0:
466,177,44097,1,0,0:0:0:0:
467,167,45597,1,8,0:0:0:0:
467,167,46159,1,8,0:0:0:0:
467,167,46722,1,8,0:0:0:0:
243,157,47472,1,0,0:0:0:0:
151,282,47847,1,8,0:0:0:0:
259,252,48222,1,8,0:0:0:0:
349,186,48597,1,4,0:0:0:0:
349,186,50097,1,8,0:0:0:0:
332,173,51597,1,8,0:0:0:0:
332,173,53097,1,8,0:0:0:0:
410,173,54597,1,0,0:0:0:0:
410,173,55159,1,0,0:0:0:0:
410,173,55909,1,8,0:0:0:0:
410,173,56659,1,8,0:0:0:0:
131,201,57597,1,4,0:0:0:0:
296,171,58159,1,4,0:0:0:0:
432,161,58909,1,12,0:0:0:0:
399,161,60597,1,4,0:0:0:0:
287,174,60972,1,0,0:0:0:0:
280,351,61347,1,8,0:0:0:0:
394,158,62097,1,0,0:0:0:0:
183,233,62847,1,0,0:0:0:0:
409,177,63597,1,8,0:0:0:0:
185,191,64347,1,8,0:0:0:0:
296,179,64722,1,8,0:0:0:0:
406,158,65097,1,0,0:0:0:0:
309,164,66597,1,0,0:0:0:0:
86,142,67347,1,0,0:0:0:0:
384,208,68097,1,8,0:0:0:0:
386,182,68847,1,8,0:0:0:0:
401,163,69597,1,0,0:0:0:0:
401,163,71097,1,0,0:0:0:0:
182,115,71847,1,0,0:0:0:0:
399,168,72597,1,12,0:0:0:0:
297,215,72972,1,8,0:0:0:0:
397,190,73347,1,0,0:0:0:0:
397,190,74097,1,8,0:0:0:0:
176,150,74847,1,8,0:0:0:0:
364,206,75597,1,0,0:0:0:0:
455,1,76347,1,0,0:0:0:0:
435,111,76722,1,0,0:0:0:0:
457,224,77097,1,8,0:0:0:0:
337,141,78597,1,0,0:0:0:0:
396,189,79722,1,8,0:0:0:0:
396,189,80847,1,8,0:0:0:0:
396,189,81222,1,8,0:0:0:0:
458,95,81597,1,0,0:0:0:0:
464,185,82722,1,8,0:0:0:0:
145,77,83847,5,0,0:0:0:0:
323,170,84597,5,4,0:0:0:0:
374,174,85347,1,0,0:0:0:0:
406,66,85722,1,0,0:0:0:0:
366,188,86847,1,8,0:0:0:0:
427,160,87597,1,0,0:0:0:0:
325,206,87972,1,0,0:0:0:0:
324,359,88347,1,8,0:0:0:0:
321,135,89097,1,8,0:0:0:0:
153,69,89472,1,0,0:0:0:0:
423,186,89847,1,8,0:0:0:0:
199,206,90597,1,4,0:0:0:0:
421,182,91347,1,0,0:0:0:0:
421,182,91722,1,0,0:0:0:0:
109,306,92847,1,8,0:0:0:0:
290,174,93597,1,0,0:0:0:0:
301,285,93972,1,0,0:0:0:0:
394,180,94347,1,8,0:0:0:0:
178,119,95097,1,0,0:0:0:0:
337,236,95472,1,0,0:0:0:0:
412,191,95847,1,8,0:0:0:0:
412,191,96222,1,8,0:0:0:0:
439,186,96597,1,0,0:0:0:0:
360,218,97347,1,8,0:0:0:0:
372,165,97909,1,8,0:0:0:0:
178,52,98659,1,8,0:0:0:0:
417,228,99597,1,0,0:0:0:0:
381,183,100722,1,0,0:0:0:0:
89,12,100909,1,0,0:0:0:0:
431,203,102222,1,8,0:0:0:0:
343,133,102597,1,0,0:0:0:0:
416,173,103347,1,8,0:0:0:0:
433,184,103909,1,0,0:0:0:0:
441,169,104847,5,8,0:0:0:0:
224,226,105597,1,0,0:0:0:0:
315,161,106347,1,0,0:0:0:0:
203,161,106722,1,0,0:0:0:0:
249,191,106909,1,0,0:0:0:0:
393,163,108222,1,8,0:0:0:0:
281,171,108597,1,4,0:0:0:0:
504,157,109347,1,8,0:0:0:0:
312,272,110097,1,0,0:0:0:0:
284,164,111597,1,0,0:0:0:0:
498,227,112347,1,0,0:0:0:0:
303,116,113097,1,8,0:0:0:0:
297,155,114597,5,0,0:0:0:0:
419,162,115347,1,8,0:0:0:0:
466,177,116097,1,0,0:0:0:0:
467,167,117597,1,8,0:0:0:0:
467,167,118159,1,8,0:0:0:0:
467,167,118722,1,8,0:0:0:0:
243,157,119472,5,0,0:0:0:0:
151,282,119847,1,8,0:0:0:0:
259,252,120222,1,8,0:0:0:0:
349,186,120597,1,4,0:0:0:0:
349,186,122097,1,8,0:0:0:0:
332,173,123597,1,8,0:0:0:0:
332,173,125097,1,8,0:0:0:0:
410,173,126597,1,0,0:0:0:0:
410,173,127909,1,8,0:0:0:0:
131,201,129597,1,0,0:0:0:0:
296,171,130159,1,0,0:0:0:0:
432,161,130909,1,12,0:0:0:0:
399,161,132597,1,4,0:0:0:0:
287,174,132972,1,0,0:0:0:0:
280,351,133347,1,8,0:0:0:0:
394,158,134097,1,0,0:0:0:0:
183,233,134847,1,0,0:0:0:0:
409,177,135597,1,8,0:0:0:0:
185,191,136347,1,8,0:0:0:0:
296,179,136722,1,8,0:0:0:0:
406,158,137097,1,0,0:0:0:0:
309,164,138597,1,0,0:0:0:0:
86,142,139347,1,0,0:0:0:0:
384,208,140097,1,8,0:0:0:0:
386,182,140847,1,8,0:0:0:0:
401,163,141597,1,0,0:0:0:0:
401,163,143097,1,0,0:0:0:0:
182,115,143847,1,0,0:0:0:0:
399,168,144597,1,12,0:0:0:0:
297,215,144972,1,8,0:0:0:0:
397,190,145347,1,0,0:0:0:0:
397,190,146097,1,8,0:0:0:0:
176,150,146847,1,8,0:0:0:0:
364,206,147597,1,0,0:0:0:0:
455,1,148347,1,0,0:0:0:0:
435,111,148722,1,0,0:0:0:0:
457,224,149097,1,8,0:0:0:0:
337,141,150597,1,0,0:0:0:0:
396,189,151722,1,8,0:0:0:0:
396,189,152847,1,8,0:0:0:0:
396,189,153222,1,8,0:0:0:0:
458,95,153597,1,0,0:0:0:0:
464,185,154722,1,8,0:0:0:0:
145,77,155847,1,0,0:0:0:0:
359,142,156597,1,12,0:0:0:0:
378,181,158097,1,8,0:0:0:0:
157,219,158847,1,8,0:0:0:0:
378,181,159597,1,0,0:0:0:0:
403,206,160347,1,0,0:0:0:0:
403,206,160909,1,8,0:0:0:0:
432,178,161847,1,8,0:0:0:0:
432,178,162222,1,8,0:0:0:0:
432,178,162597,1,0,0:0:0:0:
373,179,163909,1,0,0:0:0:0:
449,182,164847,1,0,0:0:0:0:
339,203,165222,1,8,0:0:0:0:
449,182,165597,1,0,0:0:0:0:
449,182,166347,1,8,0:0:0:0:
281,194,166909,1,0,0:0:0:0:
411,180,168222,1,8,0:0:0:0:
493,104,168597,1,4,0:0:0:0:
270,75,169347,1,0,0:0:0:0:
371,121,169722,1,8,0:0:0:0:
467,177,170097,1,0,0:0:0:0:
452,159,170847,1,0,0:0:0:0:
341,177,171222,1,0,0:0:0:0:
445,217,171597,1,0,0:0:0:0:
448,182,172347,1,8,0:0:0:0:
87,56,172909,1,0,0:0:0:0:
460,174,174222,1,8,0:0:0:0:
350,150,174597,1,0,0:0:0:0:
443,170,175722,1,0,0:0:0:0:
443,170,175909,1,0,0:0:0:0:
197,305,176847,1,8,0:0:0:0:
296,253,177222,1,8,0:0:0:0:
107,196,177597,1,0,0:0:0:0:
442,183,178722,1,0,0:0:0:0:
399,219,178909,1,0,0:0:0:0:
410,184,179847,1,8,0:0:0:0:
349,186,180597,5,4,0:0:0:0:
332,173,183597,1,8,0:0:0:0:
332,173,185097,1,0,0:0:0:0:
497,201,186222,1,8,0:0:0:0:
410,173,186597,1,0,0:0:0:0:
250,224,187159,1,0,0:0:0:0:
410,173,187722,1,0,0:0:0:0:
243,191,188284,1,0,0:0:0:0:
243,191,188847,1,0,0:0:0:0:
131,201,189597,1,4,0:0:0:0:
296,171,190159,1,4,0:0:0:0:
432,161,190909,1,12,0:0:0:0:
470,199,192409,1,12,0:0:0:0:
399,161,194847,1,4,0:0:0:0:
280,351,195597,1,0,0:0:0:0:
394,158,196159,1,0,0:0:0:0:
409,177,197847,1,8,0:0:0:0:
185,191,198597,1,8,0:0:0:0:
296,179,198972,1,8,0:0:0:0:
406,158,199347,1,0,0:0:0:0:
309,164,200847,1,0,0:0:0:0:
86,142,201597,1,0,0:0:0:0:
384,208,202347,1,8,0:0:0:0:
386,182,203097,1,8,0:0:0:0:
401,163,203847,1,0,0:0:0:0:
401,163,205347,1,0,0:0:0:0:
182,115,206097,1,0,0:0:0:0:
399,168,206847,1,12,0:0:0:0:
297,215,207222,1,8,0:0:0:0:
397,190,207597,1,0,0:0:0:0:
397,190,208347,1,8,0:0:0:0:
174,164,209097,1,8,0:0:0:0:
364,206,209847,1,0,0:0:0:0:
455,1,210597,1,0,0:0:0:0:
435,111,210972,1,0,0:0:0:0:
457,224,211347,1,8,0:0:0:0:
309,164,212847,1,0,0:0:0:0:
86,142,213597,1,8,0:0:0:0:
384,208,214347,1,0,0:0:0:0:
386,182,215097,1,8,0:0:0:0:
401,163,215847,1,0,0:0:0:0:
401,163,217347,1,0,0:0:0:0:
182,115,218097,1,0,0:0:0:0:
399,168,218847,1,12,0:0:0:0:
297,215,219222,1,8,0:0:0:0:
397,190,219597,1,0,0:0:0:0:
397,190,220347,1,8,0:0:0:0:
173,177,221097,1,8,0:0:0:0:
364,206,221847,1,0,0:0:0:0:
455,1,222597,1,0,0:0:0:0:
435,111,222972,1,0,0:0:0:0:
457,224,223347,1,8,0:0:0:0:
337,141,224847,5,0,0:0:0:0:
396,189,225972,1,8,0:0:0:0:
396,189,227097,1,8,0:0:0:0:
396,189,227472,1,8,0:0:0:0:
458,95,227847,1,0,0:0:0:0:
464,185,228972,1,8,0:0:0:0:
145,77,230097,1,0,0:0:0:0:
323,170,230847,1,4,0:0:0:0:
374,174,231597,1,0,0:0:0:0:
406,66,231972,1,0,0:0:0:0:
366,188,233097,1,8,0:0:0:0:
449,112,233472,1,0,0:0:0:0:
427,160,233847,1,0,0:0:0:0:
324,359,234597,1,8,0:0:0:0:
277,139,235347,1,0,0:0:0:0:
452,48,235722,1,0,0:0:0:0:
423,186,236097,1,8,0:0:0:0:
199,206,236847,1,0,0:0:0:0:
310,208,237222,1,8,0:0:0:0:
421,182,237597,1,0,0:0:0:0:
421,182,237972,1,0,0:0:0:0:
109,306,239097,1,8,0:0:0:0:
194,233,239472,1,0,0:0:0:0:
290,174,239847,1,0,0:0:0:0:
394,180,240597,1,8,0:0:0:0:
283,159,240972,1,8,0:0:0:0:
283,159,241347,1,0,0:0:0:0:
365,163,242097,1,4,0:0:0:0:
365,163,242472,1,4,0:0:0:0:
