osu file format v14

[General]
AudioFilename: audio.mp3
AudioLeadIn: 0
PreviewTime: 60034
Countdown: 0
SampleSet: Normal
StackLeniency: 0.7
Mode: 1
LetterboxInBreaks: 0
WidescreenStoryboard: 1

[Editor]
DistanceSpacing: 1.2
BeatDivisor: 4
GridSize: 32
TimelineZoom: 0.5999998

[Metadata]
Title:SHIJOSHUGI ADTRUCK
TitleUnicode:至上主義アドトラック
Artist:hololive IDOL PROJECT
ArtistUnicode:hololive IDOL PROJECT
Creator:Maimaing
Version:Cdh's Futsuu
Source:
Tags:japanese electronic jpop j-pop pop floral circlet バーチャルyoutuber cover corp 夏色まつり 大神ミオ 不知火フレア Natsuiro Matsuri Ookami Mio Shiranui Flare ホロライブ 如月結愛 はる Kisaragi Yunna Haru original cdh twc twc2021 Cynplytholowazy Bouquet cdhsausageboy
BeatmapID:2986857
BeatmapSetID:1452720

[Difficulty]
HPDrainRate:6
CircleSize:5
OverallDifficulty:4
ApproachRate:5
SliderMultiplier:1.4
SliderTickRate:1

[Events]
//Background and Video events
0,0,"shijoshugi.jpg",0,0
//Break Periods
//Storyboard Layer 0 (Background)
//Storyboard Layer 1 (Fail)
//Storyboard Layer 2 (Pass)
//Storyboard Layer 3 (Foreground)
//Storyboard Layer 4 (Overlay)
//Storyboard Sound Samples

[TimingPoints]
597,375,4,1,0,75,1,0
24597,-100,4,1,0,75,0,0
60597,-100,4,1,0,90,0,1
71097,-100,4,1,0,85,0,0
72597,-100,4,1,0,90,0,1
83847,-100,4,1,0,85,0,0
132597,-100,4,1,0,90,0,1
143097,-100,4,1,0,85,0,0
144597,-100,4,1,0,90,0,1
155847,-100,4,1,0,85,0,0
194847,375,4,1,0,80,1,0
194847,-100,4,1,0,90,0,0
197847,-100,4,1,0,92,0,1
205347,-100,4,1,0,88,0,0
206847,-100,4,1,0,92,0,1
217347,-100,4,1,0,90,0,0
218847,-100,4,1,0,92,0,1
230847,-100,4,1,0,85,0,0
236847,-100,4,1,0,85,0,1
242472,-100,4,1,0,85,0,0

[HitObjects]
218,250,597,5,4,0:0:0:0:
198,154,1347,1,0,0:0:0:0:
198,154,1628,1,0,0:0:0:0:
179,169,2097,1,0,0:0:0:0:
403,224,2847,1,8,0:0:0:0:
319,149,3222,1,8,0:0:0:0:
405,220,3597,1,0,0:0:0:0:
184,182,4347,1,0,0:0:0:0:
187,166,4628,1,0,0:0:0:0:
405,216,5097,1,0,0:0:0:0:
189,155,5847,1,8,0:0:0:0:
297,184,6222,1,8,0:0:0:0:
408,186,6597,1,0,0:0:0:0:
185,156,7347,1,0,0:0:0:0:
187,166,7628,1,0,0:0:0:0:
408,164,8097,1,0,0:0:0:0:
408,195,8847,1,8,0:0:0:0:
474,192,9222,1,8,0:0:0:0:
362,178,9597,1,0,0:0:0:0:
306,176,9784,1,0,0:0:0:0:
362,178,9972,1,0,0:0:0:0:
362,178,10347,1,0,0:0:0:0:
421,152,10909,1,12,0:0:0:0:
276,238,11284,1,8,0:0:0:0:
350,190,11472,1,8,0:0:0:0:
350,190,11659,1,8,0:0:0:0:
350,190,11847,1,8,0:0:0:0:
323,170,12597,1,4,0:0:0:0:
323,170,12972,1,8,0:0:0:0:
374,174,13347,1,0,0:0:0:0:
386,119,13534,1,8,0:0:0:0:
406,66,13722,1,0,0:0:0:0:
387,118,13909,1,8,0:0:0:0:
366,188,14847,1,0,0:0:0:0:
476,167,15222,1,0,0:0:0:0:
364,171,15597,1,8,0:0:0:0:
264,223,15972,1,0,0:0:0:0:
324,359,16347,1,8,0:0:0:0:
292,109,16909,1,8,0:0:0:0:
366,25,17472,1,0,0:0:0:0:
423,186,17847,1,8,0:0:0:0:
199,206,18597,1,4,0:0:0:0:
366,213,18972,1,8,0:0:0:0:
421,182,19347,1,0,0:0:0:0:
421,182,19534,1,8,0:0:0:0:
421,182,19722,1,0,0:0:0:0:
475,195,19909,1,8,0:0:0:0:
109,306,20847,1,0,0:0:0:0:
203,246,21222,1,0,0:0:0:0:
311,219,21597,1,8,0:0:0:0:
226,145,21972,1,0,0:0:0:0:
394,180,22347,1,8,0:0:0:0:
142,168,22909,1,8,0:0:0:0:
394,180,23472,1,0,0:0:0:0:
365,163,23847,1,8,0:0:0:0:
309,167,24034,1,0,0:0:0:0:
365,163,24222,1,8,0:0:0:0:
255,187,24597,1,0,0:0:0:0:
478,181,25347,1,0,0:0:0:0:
289,173,25628,1,0,0:0:0:0:
310,175,25909,1,0,0:0:0:0:
36,255,26847,1,8,0:0:0:0:
170,217,27222,1,8,0:0:0:0:
255,212,27597,1,0,0:0:0:0:
469,145,28347,1,0,0:0:0:0:
155,165,28628,1,0,0:0:0:0:
306,185,28909,1,0,0:0:0:0:
81,370,29847,1,8,0:0:0:0:
172,305,30222,1,0,0:0:0:0:
259,234,30597,1,0,0:0:0:0:
466,143,31347,1,0,0:0:0:0:
155,165,31628,1,0,0:0:0:0:
300,116,31909,1,0,0:0:0:0:
441,169,32659,1,8,0:0:0:0:
329,169,33222,1,8,0:0:0:0:
224,226,33597,1,0,0:0:0:0:
315,161,33972,1,0,0:0:0:0:
370,154,34159,1,0,0:0:0:0:
315,161,34347,1,0,0:0:0:0:
370,154,34534,1,0,0:0:0:0:
203,161,34722,1,8,0:0:0:0:
249,191,34909,1,8,0:0:0:0:
493,178,35847,1,8,0:0:0:0:
240,157,36034,1,0,0:0:0:0:
393,163,36222,1,8,0:0:0:0:
281,171,36597,1,4,0:0:0:0:
351,257,36972,1,0,0:0:0:0:
504,157,37347,1,8,0:0:0:0:
392,155,37722,1,8,0:0:0:0:
312,272,38097,1,0,0:0:0:0:
263,244,38284,1,0,0:0:0:0:
333,162,38472,1,0,0:0:0:0:
395,64,38847,1,8,0:0:0:0:
429,170,39222,1,0,0:0:0:0:
284,164,39972,1,0,0:0:0:0:
498,227,40347,1,8,0:0:0:0:
442,227,40534,1,8,0:0:0:0:
396,179,40722,1,8,0:0:0:0:
303,116,41097,1,8,0:0:0:0:
357,213,41472,1,0,0:0:0:0:
507,208,41847,1,8,0:0:0:0:
395,193,42222,1,0,0:0:0:0:
297,155,42597,1,0,0:0:0:0:
404,161,43347,1,0,0:0:0:0:
404,161,43722,1,0,0:0:0:0:
292,165,44097,1,8,0:0:0:0:
292,165,44472,1,8,0:0:0:0:
350,177,44847,1,0,0:0:0:0:
294,180,45034,1,0,0:0:0:0:
243,147,45222,1,0,0:0:0:0:
467,167,45597,1,8,0:0:0:0:
467,167,46159,1,8,0:0:0:0:
467,167,46722,1,8,0:0:0:0:
299,162,47284,1,0,0:0:0:0:
242,152,47472,1,0,0:0:0:0:
352,166,47847,1,8,0:0:0:0:
259,252,48222,1,8,0:0:0:0:
349,186,48597,1,4,0:0:0:0:
349,186,49722,1,0,0:0:0:0:
315,217,50097,1,0,0:0:0:0:
332,173,51222,1,8,0:0:0:0:
175,197,51597,1,0,0:0:0:0:
266,194,52722,1,0,0:0:0:0:
266,194,53097,1,0,0:0:0:0:
416,209,54222,1,8,0:0:0:0:
410,173,54597,1,0,0:0:0:0:
410,173,55159,1,0,0:0:0:0:
410,173,55909,1,8,0:0:0:0:
410,173,56659,1,8,0:0:0:0:
410,173,57222,5,8,0:0:0:0:
131,201,57597,1,4,0:0:0:0:
296,171,58159,1,4,0:0:0:0:
432,161,58909,1,12,0:0:0:0:
322,182,59284,1,0,0:0:0:0:
274,152,59472,1,0,0:0:0:0:
225,123,59659,1,0,0:0:0:0:
225,123,59847,1,0,0:0:0:0:
399,161,60597,1,4,0:0:0:0:
288,182,60972,1,4,0:0:0:0:
280,351,61347,1,12,0:0:0:0:
296,179,61909,1,0,0:0:0:0:
394,158,62472,1,8,0:0:0:0:
191,176,62847,1,0,0:0:0:0:
302,171,63222,1,0,0:0:0:0:
409,177,63597,1,8,0:0:0:0:
202,185,63784,1,8,0:0:0:0:
304,136,63972,1,8,0:0:0:0:
185,191,64347,1,0,0:0:0:0:
294,167,64722,1,8,0:0:0:0:
347,149,64909,1,0,0:0:0:0:
299,171,66034,1,8,0:0:0:0:
309,164,66597,1,0,0:0:0:0:
399,229,66972,1,0,0:0:0:0:
322,194,67159,1,0,0:0:0:0:
359,174,67347,1,0,0:0:0:0:
384,208,67909,1,8,0:0:0:0:
320,115,68472,1,0,0:0:0:0:
386,182,68847,1,8,0:0:0:0:
274,173,69222,1,8,0:0:0:0:
329,177,69409,1,0,0:0:0:0:
489,162,70534,1,8,0:0:0:0:
401,163,71097,1,0,0:0:0:0:
289,164,71472,1,8,0:0:0:0:
182,115,71847,1,0,0:0:0:0:
291,139,72222,1,0,0:0:0:0:
280,351,72597,1,12,0:0:0:0:
288,182,72972,1,12,0:0:0:0:
399,161,73347,1,4,0:0:0:0:
297,214,73909,1,8,0:0:0:0:
394,158,74472,1,0,0:0:0:0:
191,176,74847,1,8,0:0:0:0:
302,175,75222,1,8,0:0:0:0:
304,136,75597,1,0,0:0:0:0:
249,217,75784,1,0,0:0:0:0:
409,177,75972,1,0,0:0:0:0:
185,191,76347,1,8,0:0:0:0:
294,167,76722,1,8,0:0:0:0:
347,149,76909,1,8,0:0:0:0:
17,362,78034,1,8,0:0:0:0:
115,309,78597,1,0,0:0:0:0:
241,199,79159,1,0,0:0:0:0:
402,153,79722,1,0,0:0:0:0:
431,181,80284,1,0,0:0:0:0:
278,251,80847,1,8,0:0:0:0:
382,209,81222,1,0,0:0:0:0:
298,197,81409,1,0,0:0:0:0:
291,143,81597,1,8,0:0:0:0:
291,143,82159,1,8,0:0:0:0:
291,143,82722,5,8,0:0:0:0:
458,157,83284,1,8,0:0:0:0:
182,115,83847,5,0,0:0:0:0:
323,170,84597,1,4,0:0:0:0:
297,198,84972,1,8,0:0:0:0:
374,174,85347,1,0,0:0:0:0:
386,119,85534,1,8,0:0:0:0:
406,66,85722,1,0,0:0:0:0:
387,118,85909,1,8,0:0:0:0:
437,205,86472,1,0,0:0:0:0:
121,208,86847,1,0,0:0:0:0:
261,215,87034,1,0,0:0:0:0:
476,167,87222,1,0,0:0:0:0:
364,171,87597,1,8,0:0:0:0:
261,215,87972,1,0,0:0:0:0:
324,359,88347,1,8,0:0:0:0:
254,247,88909,1,8,0:0:0:0:
366,25,89472,1,0,0:0:0:0:
423,186,89847,1,8,0:0:0:0:
199,206,90597,1,4,0:0:0:0:
364,211,90972,1,8,0:0:0:0:
421,182,91347,1,0,0:0:0:0:
421,182,91534,1,8,0:0:0:0:
421,182,91722,1,0,0:0:0:0:
475,195,91909,1,8,0:0:0:0:
227,242,92472,1,0,0:0:0:0:
196,227,92847,1,0,0:0:0:0:
266,182,93034,1,0,0:0:0:0:
203,246,93222,1,0,0:0:0:0:
311,219,93597,1,8,0:0:0:0:
199,215,93972,1,0,0:0:0:0:
394,180,94347,1,8,0:0:0:0:
360,249,94909,1,8,0:0:0:0:
394,180,95472,1,0,0:0:0:0:
365,163,95847,1,8,0:0:0:0:
253,176,96034,1,0,0:0:0:0:
365,163,96222,1,8,0:0:0:0:
253,176,96597,1,0,0:0:0:0:
476,156,97347,1,8,0:0:0:0:
308,164,97909,1,8,0:0:0:0:
385,374,98659,1,8,0:0:0:0:
416,208,99222,1,8,0:0:0:0:
323,144,99597,1,0,0:0:0:0:
351,187,100347,1,0,0:0:0:0:
361,171,100722,1,8,0:0:0:0:
412,193,100909,1,0,0:0:0:0:
389,144,101847,1,8,0:0:0:0:
197,129,102222,1,8,0:0:0:0:
272,212,102597,1,0,0:0:0:0:
483,138,103347,1,8,0:0:0:0:
324,192,103909,1,0,0:0:0:0:
443,149,104847,1,0,0:0:0:0:
384,191,105222,1,8,0:0:0:0:
476,128,105597,1,0,0:0:0:0:
315,161,105972,1,0,0:0:0:0:
315,161,106347,1,0,0:0:0:0:
370,154,106534,1,0,0:0:0:0:
203,161,106722,1,8,0:0:0:0:
249,191,106909,1,8,0:0:0:0:
465,369,107847,1,0,0:0:0:0:
240,157,108034,1,0,0:0:0:0:
393,163,108222,1,8,0:0:0:0:
281,171,108597,1,4,0:0:0:0:
304,280,108972,1,0,0:0:0:0:
504,157,109347,1,8,0:0:0:0:
394,181,109722,1,8,0:0:0:0:
312,272,110097,1,0,0:0:0:0:
271,245,110284,1,0,0:0:0:0:
254,176,110472,1,0,0:0:0:0:
395,64,110847,1,8,0:0:0:0:
284,164,111597,1,0,0:0:0:0:
301,274,111972,1,8,0:0:0:0:
396,179,112347,1,8,0:0:0:0:
351,199,112534,1,8,0:0:0:0:
284,164,112722,1,8,0:0:0:0:
197,76,113097,1,0,0:0:0:0:
263,165,113472,1,0,0:0:0:0:
263,165,113847,1,8,0:0:0:0:
297,155,114597,1,0,0:0:0:0:
419,162,115347,1,8,0:0:0:0:
307,175,115722,1,8,0:0:0:0:
466,177,116097,1,0,0:0:0:0:
354,167,116472,1,8,0:0:0:0:
248,204,116847,1,0,0:0:0:0:
296,209,117034,1,0,0:0:0:0:
350,177,117222,1,0,0:0:0:0:
467,167,117597,1,8,0:0:0:0:
467,167,118159,1,8,0:0:0:0:
467,167,118722,1,8,0:0:0:0:
299,162,119284,1,0,0:0:0:0:
242,152,119472,1,0,0:0:0:0:
352,166,119847,1,8,0:0:0:0:
259,252,120222,1,8,0:0:0:0:
349,186,120597,1,4,0:0:0:0:
182,205,121159,1,0,0:0:0:0:
419,159,121347,1,8,0:0:0:0:
377,262,121722,1,8,0:0:0:0:
349,186,122097,1,0,0:0:0:0:
332,173,122659,1,0,0:0:0:0:
199,18,122847,1,8,0:0:0:0:
256,113,123222,1,0,0:0:0:0:
332,173,123597,1,8,0:0:0:0:
332,173,124159,1,0,0:0:0:0:
361,169,124347,1,8,0:0:0:0:
361,169,124722,1,8,0:0:0:0:
332,173,125097,1,0,0:0:0:0:
332,173,125659,1,0,0:0:0:0:
482,338,125847,1,8,0:0:0:0:
410,173,126222,1,0,0:0:0:0:
416,209,126597,1,0,0:0:0:0:
410,173,127159,1,0,0:0:0:0:
410,173,127909,1,8,0:0:0:0:
410,173,128659,1,8,0:0:0:0:
131,201,129597,1,0,0:0:0:0:
296,171,130159,1,0,0:0:0:0:
432,161,130909,1,12,0:0:0:0:
322,182,131284,1,0,0:0:0:0:
274,152,131472,5,0,0:0:0:0:
225,123,131659,1,0,0:0:0:0:
225,123,131847,1,0,0:0:0:0:
399,161,132597,1,4,0:0:0:0:
288,182,132972,1,4,0:0:0:0:
280,351,133347,1,12,0:0:0:0:
394,158,133909,1,0,0:0:0:0:
297,214,134472,1,8,0:0:0:0:
191,176,134847,1,0,0:0:0:0:
301,155,135222,1,8,0:0:0:0:
409,177,135597,1,0,0:0:0:0:
257,202,135784,1,0,0:0:0:0:
304,136,135972,1,0,0:0:0:0:
185,191,136347,1,8,0:0:0:0:
231,159,136534,1,8,0:0:0:0:
294,167,136722,1,0,0:0:0:0:
347,149,136909,1,0,0:0:0:0:
342,173,138034,1,8,0:0:0:0:
309,164,138597,1,0,0:0:0:0:
141,171,138972,1,0,0:0:0:0:
224,167,139159,1,0,0:0:0:0:
359,174,139347,1,0,0:0:0:0:
384,208,139909,1,8,0:0:0:0:
386,182,140472,1,0,0:0:0:0:
304,128,140847,1,8,0:0:0:0:
274,173,141222,1,8,0:0:0:0:
329,177,141409,1,0,0:0:0:0:
489,162,142722,1,8,0:0:0:0:
401,163,143097,1,0,0:0:0:0:
482,240,143472,1,8,0:0:0:0:
182,115,143847,1,0,0:0:0:0:
231,182,144034,1,0,0:0:0:0:
291,139,144222,1,0,0:0:0:0:
280,351,144597,1,12,0:0:0:0:
288,182,144972,1,12,0:0:0:0:
399,161,145347,1,4,0:0:0:0:
297,214,145909,1,8,0:0:0:0:
394,158,146472,1,0,0:0:0:0:
191,176,146847,1,8,0:0:0:0:
302,186,147222,1,8,0:0:0:0:
292,202,147597,1,8,0:0:0:0:
294,200,147784,1,8,0:0:0:0:
409,177,147972,1,8,0:0:0:0:
185,191,148347,1,0,0:0:0:0:
155,143,148534,1,0,0:0:0:0:
294,167,148722,1,8,0:0:0:0:
347,149,148909,1,8,0:0:0:0:
17,362,150034,1,8,0:0:0:0:
115,309,150597,1,0,0:0:0:0:
241,199,151159,1,0,0:0:0:0:
402,153,151722,1,8,0:0:0:0:
431,181,152284,1,8,0:0:0:0:
278,251,152847,1,0,0:0:0:0:
382,209,153222,1,0,0:0:0:0:
298,204,153409,1,0,0:0:0:0:
291,143,153597,1,8,0:0:0:0:
291,143,154159,1,8,0:0:0:0:
291,143,154722,5,0,0:0:0:0:
458,157,155284,1,0,0:0:0:0:
182,115,155847,5,0,0:0:0:0:
359,142,156597,5,12,0:0:0:0:
424,296,157159,1,8,0:0:0:0:
325,159,157722,1,8,0:0:0:0:
378,181,157909,1,0,0:0:0:0:
157,219,158847,1,8,0:0:0:0:
264,186,159222,1,0,0:0:0:0:
378,181,159597,1,0,0:0:0:0:
403,206,160347,1,0,0:0:0:0:
403,206,160909,1,8,0:0:0:0:
253,129,161472,1,8,0:0:0:0:
432,178,161847,1,0,0:0:0:0:
432,178,162597,1,0,0:0:0:0:
376,171,162784,1,0,0:0:0:0:
320,165,162972,1,0,0:0:0:0:
264,160,163347,1,0,0:0:0:0:
373,179,163909,1,0,0:0:0:0:
373,179,164472,1,0,0:0:0:0:
449,182,164847,1,8,0:0:0:0:
339,203,165222,1,8,0:0:0:0:
449,182,165597,1,8,0:0:0:0:
449,182,166347,1,8,0:0:0:0:
281,194,166909,1,0,0:0:0:0:
443,149,167472,1,8,0:0:0:0:
389,164,167659,1,8,0:0:0:0:
389,164,167847,1,8,0:0:0:0:
411,180,168222,1,8,0:0:0:0:
493,104,168597,1,4,0:0:0:0:
270,75,169347,1,0,0:0:0:0:
371,121,169722,1,8,0:0:0:0:
467,177,170097,1,0,0:0:0:0:
373,238,170472,1,0,0:0:0:0:
452,159,170847,1,0,0:0:0:0:
341,177,171222,1,0,0:0:0:0:
445,217,171597,1,0,0:0:0:0:
448,182,172347,1,8,0:0:0:0:
392,186,172534,1,0,0:0:0:0:
497,164,172722,1,8,0:0:0:0:
87,56,172909,1,0,0:0:0:0:
350,150,173472,1,0,0:0:0:0:
398,48,173847,1,0,0:0:0:0:
460,174,174222,1,8,0:0:0:0:
350,150,174597,1,0,0:0:0:0:
350,150,175347,1,8,0:0:0:0:
443,170,175722,1,0,0:0:0:0:
443,170,175909,1,0,0:0:0:0:
280,211,176472,1,0,0:0:0:0:
197,305,176847,1,8,0:0:0:0:
296,253,177222,1,8,0:0:0:0:
107,196,177597,1,0,0:0:0:0:
218,184,177972,1,0,0:0:0:0:
327,160,178347,1,8,0:0:0:0:
442,183,178722,1,0,0:0:0:0:
399,219,178909,1,0,0:0:0:0:
231,199,179284,1,0,0:0:0:0:
399,199,179659,1,0,0:0:0:0:
410,184,179847,1,8,0:0:0:0:
349,186,180597,5,4,0:0:0:0:
332,173,183597,1,8,0:0:0:0:
384,153,184347,1,8,0:0:0:0:
332,173,185097,1,0,0:0:0:0:
372,177,185847,1,8,0:0:0:0:
497,201,186222,1,8,0:0:0:0:
410,173,186597,1,0,0:0:0:0:
327,186,186878,1,0,0:0:0:0:
250,224,187159,1,0,0:0:0:0:
167,210,187440,1,0,0:0:0:0:
410,173,187722,1,0,0:0:0:0:
327,187,188003,1,0,0:0:0:0:
243,191,188284,1,0,0:0:0:0:
201,118,188565,1,0,0:0:0:0:
243,191,188847,1,0,0:0:0:0:
131,201,189597,1,4,0:0:0:0:
296,171,190159,1,4,0:0:0:0:
432,161,190909,1,12,0:0:0:0:
320,168,191284,1,0,0:0:0:0:
263,172,191472,1,0,0:0:0:0:
207,174,191659,1,0,0:0:0:0:
207,174,191847,1,0,0:0:0:0:
470,199,192409,1,12,0:0:0:0:
362,167,192784,1,8,0:0:0:0:
451,100,193065,1,8,0:0:0:0:
407,135,193347,1,8,0:0:0:0:
399,161,194847,1,4,0:0:0:0:
280,351,195597,1,0,0:0:0:0:
286,267,195878,1,0,0:0:0:0:
394,158,196159,1,0,0:0:0:0:
125,237,197097,1,8,0:0:0:0:
364,206,197472,1,8,0:0:0:0:
409,177,197847,1,0,0:0:0:0:
304,136,198222,1,0,0:0:0:0:
185,191,198597,1,8,0:0:0:0:
231,159,198784,1,8,0:0:0:0:
294,167,198972,1,0,0:0:0:0:
347,149,199159,1,0,0:0:0:0:
439,177,200284,1,8,0:0:0:0:
309,164,200847,1,0,0:0:0:0:
266,128,201034,1,0,0:0:0:0:
359,174,201222,1,0,0:0:0:0:
359,174,201597,1,8,0:0:0:0:
359,174,201972,1,0,0:0:0:0:
384,208,202159,1,0,0:0:0:0:
304,128,202722,1,8,0:0:0:0:
386,182,203097,1,0,0:0:0:0:
386,182,203284,1,0,0:0:0:0:
274,173,203472,1,8,0:0:0:0:
329,177,203659,1,0,0:0:0:0:
489,162,204784,1,8,0:0:0:0:
401,163,205347,1,0,0:0:0:0:
289,164,205722,1,8,0:0:0:0:
182,115,206097,1,0,0:0:0:0:
215,159,206284,1,0,0:0:0:0:
291,139,206472,1,0,0:0:0:0:
280,351,206847,1,12,0:0:0:0:
288,182,207222,1,12,0:0:0:0:
399,161,207597,1,4,0:0:0:0:
297,214,208159,1,8,0:0:0:0:
394,158,208722,1,0,0:0:0:0:
191,176,209097,1,8,0:0:0:0:
89,128,209472,1,0,0:0:0:0:
304,136,209847,1,0,0:0:0:0:
409,177,210222,1,8,0:0:0:0:
185,191,210597,1,0,0:0:0:0:
347,149,210784,1,8,0:0:0:0:
294,167,210972,1,8,0:0:0:0:
155,143,211159,1,0,0:0:0:0:
272,161,212284,1,8,0:0:0:0:
309,164,212847,1,0,0:0:0:0:
266,128,213034,1,0,0:0:0:0:
359,174,213222,1,0,0:0:0:0:
384,208,213597,1,8,0:0:0:0:
247,160,213878,1,8,0:0:0:0:
359,174,214159,1,0,0:0:0:0:
304,128,214722,1,8,0:0:0:0:
304,128,215097,1,0,0:0:0:0:
254,154,215284,1,8,0:0:0:0:
274,173,215472,1,8,0:0:0:0:
329,177,215659,1,0,0:0:0:0:
489,162,216972,1,8,0:0:0:0:
401,163,217347,1,0,0:0:0:0:
292,191,217722,1,8,0:0:0:0:
182,115,218097,1,0,0:0:0:0:
219,156,218284,1,0,0:0:0:0:
291,139,218472,1,0,0:0:0:0:
280,351,218847,1,12,0:0:0:0:
399,161,219222,1,4,0:0:0:0:
288,182,219597,1,12,0:0:0:0:
297,214,220159,1,8,0:0:0:0:
191,176,220722,1,8,0:0:0:0:
394,158,221097,1,0,0:0:0:0:
285,185,221472,1,8,0:0:0:0:
304,136,221847,1,8,0:0:0:0:
409,177,222034,1,8,0:0:0:0:
281,193,222222,1,0,0:0:0:0:
185,191,222597,1,0,0:0:0:0:
155,143,222784,1,0,0:0:0:0:
294,167,222972,1,8,0:0:0:0:
347,149,223159,1,8,0:0:0:0:
17,362,224284,5,8,0:0:0:0:
115,309,224847,1,0,0:0:0:0:
402,153,225409,1,8,0:0:0:0:
241,199,225972,1,0,0:0:0:0:
431,181,226534,1,8,0:0:0:0:
278,251,227097,1,0,0:0:0:0:
382,209,227472,1,0,0:0:0:0:
304,176,227659,1,0,0:0:0:0:
291,143,227847,1,8,0:0:0:0:
291,143,228409,1,0,0:0:0:0:
291,143,228972,5,8,0:0:0:0:
458,157,229534,5,0,0:0:0:0:
182,115,230097,5,8,0:0:0:0:
323,170,230847,5,4,0:0:0:0:
327,257,231222,1,8,0:0:0:0:
374,174,231597,1,0,0:0:0:0:
386,119,231784,1,8,0:0:0:0:
406,66,231972,1,0,0:0:0:0:
387,118,232159,1,8,0:0:0:0:
194,280,232722,1,0,0:0:0:0:
196,323,233097,1,0,0:0:0:0:
222,243,233284,1,0,0:0:0:0:
476,167,233472,1,0,0:0:0:0:
400,129,233659,1,0,0:0:0:0:
364,171,233847,1,8,0:0:0:0:
430,260,234222,1,0,0:0:0:0:
324,359,234597,1,8,0:0:0:0:
322,204,235159,1,8,0:0:0:0:
366,25,235722,1,0,0:0:0:0:
423,186,236097,1,8,0:0:0:0:
260,228,236472,1,8,0:0:0:0:
199,206,236847,1,0,0:0:0:0:
235,100,237222,1,8,0:0:0:0:
421,182,237597,1,0,0:0:0:0:
421,182,237784,1,8,0:0:0:0:
421,182,237972,1,0,0:0:0:0:
475,195,238159,1,8,0:0:0:0:
419,202,238347,1,0,0:0:0:0:
307,194,238722,1,8,0:0:0:0:
208,139,239097,1,0,0:0:0:0:
252,172,239284,1,0,0:0:0:0:
307,163,239472,1,8,0:0:0:0:
361,176,239659,1,8,0:0:0:0:
252,172,239847,1,0,0:0:0:0:
234,136,240222,1,0,0:0:0:0:
394,180,240597,1,8,0:0:0:0:
365,163,241159,1,0,0:0:0:0:
248,180,241534,1,0,0:0:0:0:
258,293,241722,1,8,0:0:0:0:
365,163,242097,5,4,0:0:0:0:
365,163,242472,1,4,0:0:0:0:
