osu file format v14

[General]
AudioFilename: audio.mp3
AudioLeadIn: 0
PreviewTime: 63525
Countdown: 0
SampleSet: Soft
StackLeniency: 0.7
Mode: 0
LetterboxInBreaks: 0
WidescreenStoryboard: 1

[Editor]
Bookmarks: 1712,13910,24459,45558,56107,64020,91712,102261,112811,123360,133910,141822,169514,180063,190613,201162,211712,222261,243360,259184,267261,268415,279294,285558
DistanceSpacing: 1.25
BeatDivisor: 4
GridSize: 4
TimelineZoom: 2.9

[Metadata]
Title:Kirameki Rider*
TitleUnicode:キラメキライダー☆
Artist:hololive IDOL PROJECT
ArtistUnicode:hololive IDOL PROJECT
Creator:Amateurre
Version:Meyrink's Insane
Source:
Tags:Meyrink -Aqua Ayucchi ホロライブ Virtual Youtuber VTuber Morning Ohayou おはよう Tokino Sora ときのそら Minato Aqua 湊あくあ Roboco-san ロボ子さん Shirakami Fubuki 白上フブキ Shirogane Noel 白銀ノエル Japanese Pop
BeatmapID:2374383
BeatmapSetID:1125707

[Difficulty]
HPDrainRate:5
CircleSize:4
OverallDifficulty:7
ApproachRate:9
SliderMultiplier:1.7
SliderTickRate:1

[Events]
//Background and Video events
0,0,"Kirameyrink.jpg",0,0
//Break Periods
2,238285,239134
2,265731,266661
//Storyboard Layer 0 (Background)
//Storyboard Layer 1 (Fail)
//Storyboard Layer 2 (Pass)
//Storyboard Layer 3 (Foreground)
//Storyboard Layer 4 (Overlay)
//Storyboard Sound Samples

[TimingPoints]
2042,329.670329670329,4,2,1,50,1,0
2042,-133.333333333333,4,2,1,50,0,0
7234,-133.333333333333,4,2,1,5,0,0
7316,-133.333333333333,4,2,1,50,0,0
8552,-133.333333333333,4,2,1,5,0,0
8635,-133.333333333333,4,2,1,50,0,0
9624,-100,4,2,1,60,0,0
13910,-100,4,2,1,70,0,0
21492,-83.3333333333333,4,2,1,70,0,0
21739,-83.3333333333333,4,2,1,5,0,0
21822,-100,4,2,1,70,0,0
23800,-133.333333333333,4,2,1,60,0,0
24377,-133.333333333333,4,2,1,5,0,0
24459,-111.111111111111,4,2,1,60,0,0
29651,-111.111111111111,4,2,1,5,0,0
29734,-111.111111111111,4,2,1,60,0,0
45558,-133.333333333333,4,2,1,60,0,0
54624,-100,4,2,1,60,0,0
55778,-76.9230769230769,4,2,1,60,0,0
56025,-76.9230769230769,4,2,1,5,0,0
56107,-100,4,2,1,65,0,0
58662,-100,4,2,1,5,0,0
58745,-100,4,2,1,65,0,0
62536,-133.333333333333,4,2,1,70,0,0
63031,-100,4,2,1,70,0,0
64020,-100,4,2,1,70,0,1
79514,-133.333333333333,4,2,1,70,0,1
79761,-133.333333333333,4,2,1,5,0,1
79844,-111.111111111111,4,2,1,65,0,0
85118,-100,4,2,1,70,0,1
88745,-100,4,2,1,70,0,1
90063,-100,4,2,1,70,0,1
91217,-100,4,2,1,70,0,1
91712,-100,4,2,1,70,0,0
99294,-83.3333333333333,4,2,1,70,0,0
99624,-100,4,2,1,70,0,0
101602,-133.333333333333,4,2,1,60,0,0
102179,-133.333333333333,4,2,1,5,0,0
102261,-133.333333333333,4,2,1,60,0,0
112811,-111.111111111111,4,2,1,60,0,0
123360,-133.333333333333,4,2,1,60,0,0
132426,-100,4,2,1,60,0,0
133580,-76.9230769230769,4,2,1,65,0,0
133827,-76.9230769230769,4,2,1,5,0,0
133910,-100,4,2,1,65,0,0
136465,-100,4,2,1,5,0,0
136547,-100,4,2,1,65,0,0
140833,-100,4,2,1,65,0,0
141822,-100,4,2,1,70,0,1
157646,-111.111111111111,4,2,1,65,0,0
162921,-100,4,2,1,70,0,1
168855,-133.333333333333,4,2,1,70,0,1
169514,-133.333333333333,4,2,1,60,0,0
178745,-111.111111111111,4,2,1,60,0,0
180063,-100,4,2,1,65,0,0
190613,-100,4,2,1,70,0,0
193168,-100,4,2,1,5,0,0
193250,-100,4,2,1,70,0,0
198443,-100,4,2,1,5,0,0
198525,-100,4,2,1,70,0,0
206025,-100,4,2,1,5,0,0
206107,-76.9230769230769,4,2,1,70,0,0
206355,-76.9230769230769,4,2,1,5,0,0
206437,-100,4,2,1,70,0,0
208745,-76.9230769230769,4,2,1,70,0,0
208992,-76.9230769230769,4,2,1,5,0,0
209074,-100,4,2,1,70,0,0
211052,-133.333333333333,4,2,1,60,0,0
211547,-133.333333333333,4,2,1,5,0,0
211712,-133.333333333333,4,2,1,50,0,0
222179,-133.333333333333,4,2,1,5,0,0
222261,-111.111111111111,4,2,1,60,0,0
227536,-100,4,2,1,65,0,0
235448,-100,4,2,1,65,0,0
236602,-133.333333333333,4,2,1,65,0,0
237096,-100,4,2,1,70,0,0
239734,-125,4,2,1,70,0,0
239981,-125,4,2,1,5,0,0
240063,-100,4,2,1,70,0,0
240311,-100,4,2,1,5,0,0
240393,-83.3333333333333,4,2,1,70,0,0
240640,-83.3333333333333,4,2,1,5,0,0
240723,-100,4,2,1,70,0,0
241877,-100,4,2,1,70,0,0
243360,-100,4,2,1,70,0,1
253910,-111.111111111111,4,2,1,65,0,0
259184,-100,4,2,1,70,0,1
265778,-100,4,2,1,50,0,0
266767,-100,4,2,1,60,0,0
268415,-100,4,2,1,70,0,0
275998,-83.3333333333333,4,2,1,70,0,0
276245,-83.3333333333333,4,2,1,5,0,0
276327,-100,4,2,1,70,0,0
278305,-133.333333333333,4,2,1,60,0,0
279212,-133.333333333333,4,2,1,5,0,0
279294,-133.333333333333,4,2,1,60,0,0
285558,-100,4,2,1,5,0,0

[Colours]
Combo1 : 244,159,236
Combo2 : 136,221,249
Combo3 : 237,82,155
Combo4 : 129,196,218
Combo5 : 84,118,237

[HitObjects]
129,170,2042,6,0,P|67:157|12:187,1,127.500004863739,2|0,0:0|0:0,0:0:0:0:
30,279,2536,2,0,P|91:291|146:261,1,127.500004863739,2|0,0:0|0:0,0:0:0:0:
224,193,3031,1,2,0:0:0:0:
154,45,3360,2,0,P|138:106|128:169,2,127.500004863739,2|2|2,0:0|0:0|0:0,0:0:0:0:
268,260,4349,1,2,0:0:0:0:
346,67,4679,6,0,B|386:48|386:48|468:65,1,127.500004863739,2|0,0:0|0:0,0:0:0:0:
367,155,5173,2,0,B|326:173|326:173|244:156,1,127.500004863739,2|0,0:0|0:0,0:0:0:0:
80,272,5668,1,0,0:0:0:0:
80,272,5833,2,0,P|142:257|205:252,1,127.500004863739,2|0,0:0|0:0,0:0:0:0:
331,341,6327,1,0,0:0:0:0:
331,341,6492,2,0,P|360:285|354:223,1,127.500004863739,2|0,0:0|0:0,0:0:0:0:
259,37,6987,2,0,P|251:80|246:134,1,95.6250036478044,2|0,0:0|0:0,0:0:0:0:
247,161,7316,6,0,P|310:152|373:145,1,127.500004863739,2|0,0:0|0:0,0:0:0:0:
484,23,7811,2,0,P|420:30|357:39,1,127.500004863739,2|0,0:0|0:0,0:0:0:0:
216,58,8305,2,0,P|167:46|122:41,1,95.6250036478044,2|0,0:0|0:0,0:0:0:0:
86,45,8635,2,0,P|40:87|44:149,1,127.500004863739,2|0,0:0|0:0,0:0:0:0:
51,276,9129,2,0,P|56:212|75:152,1,127.500004863739,2|2,0:0|0:0,0:0:0:0:
164,80,9624,1,8,0:0:0:0:
198,264,9789,6,0,B|239:269|289:242|289:242|270:270|274:314,1,170,4|8,0:0|0:0,0:0:0:0:
158,360,10283,1,8,0:0:0:0:
225,175,10448,1,8,0:0:0:0:
366,297,10613,1,8,0:0:0:0:
198,264,10778,1,8,0:0:0:0:
330,113,10943,2,0,P|325:155|321:197,1,85,8|0,0:0|0:0,0:0:0:0:
250,357,11272,6,0,P|174:346|79:343,1,170,12|0,0:0|0:0,0:0:0:0:
24,198,11767,2,0,P|79:139|156:165,1,170,12|0,0:0|0:0,0:0:0:0:
287,239,12261,2,0,P|315:160|310:76,1,170,12|0,0:0|0:0,0:0:0:0:
195,27,12756,1,2,0:0:0:0:
232,172,12921,1,2,0:0:0:0:
406,118,13085,1,2,0:0:0:0:
328,230,13250,5,8,0:0:0:0:
322,258,13332,1,8,0:0:0:0:
323,288,13414,1,8,0:0:0:0:
330,316,13497,1,8,0:0:0:0:
343,344,13580,2,0,L|395:336,1,42.5,8|8,3:3|3:3,0:0:0:0:
480,256,13745,2,0,L|437:262,1,42.5,8|8,3:3|3:3,0:0:0:0:
320,201,13910,6,0,B|317:161|291:128|291:128|336:138|380:131,1,170,4|8,3:2|0:0,0:0:0:0:
512,164,14404,1,2,3:2:0:0:
476,6,14569,2,0,P|466:47|459:89,1,85,8|0,0:0|3:0,0:0:0:0:
413,294,14899,2,0,P|405:252|396:210,1,85,8|2,0:0|3:2,0:0:0:0:
333,66,15228,6,0,P|291:73|248:75,1,85,8|0,0:0|3:0,0:0:0:0:
122,182,15558,2,0,P|164:183|206:191,1,85,8|2,0:0|3:2,0:0:0:0:
315,295,15888,1,8,0:2:0:0:
285,164,16052,1,2,3:2:0:0:
154,259,16217,1,8,0:2:0:0:
301,312,16382,1,2,3:2:0:0:
190,107,16547,6,0,P|200:148|206:190,1,85,8|0,0:0|3:0,0:0:0:0:
83,343,16877,2,0,P|76:301|66:259,1,85,8|2,0:0|3:2,0:0:0:0:
2,147,17206,2,0,P|40:132|83:132,1,85,8|0,0:0|3:0,0:0:0:0:
181,277,17536,2,0,P|223:277|262:262,1,85,8|2,0:0|3:2,0:0:0:0:
338,155,17866,5,8,0:0:0:0:
338,155,18031,1,0,3:0:0:0:
361,345,18195,2,0,P|367:302|377:261,1,85,8|2,0:0|3:2,0:0:0:0:
283,45,18525,2,0,P|273:86|266:128,1,85,8|2,0:0|3:2,0:0:0:0:
493,174,18855,2,0,P|450:177|409:186,1,85,8|2,0:0|3:2,0:0:0:0:
202,186,19184,6,0,P|220:268|229:353,1,170,4|8,3:2|0:0,0:0:0:0:
315,226,19679,1,2,3:2:0:0:
113,204,19844,2,0,P|116:161|131:122,1,85,8|0,0:0|3:0,0:0:0:0:
207,29,20173,1,8,0:0:0:0:
366,105,20338,6,0,P|322:108|279:116,1,85,2|8,3:2|0:0,0:0:0:0:
28,193,20668,2,0,P|70:196|112:203,1,85,2|8,3:2|0:0,0:0:0:0:
343,296,20998,2,0,P|300:299|258:306,1,85,2|8,3:2|0:0,0:0:0:0:
169,135,21327,1,2,3:2:0:0:
169,135,21410,1,2,3:2:0:0:
169,135,21492,2,0,P|154:210|144:285,1,152.999995330811,8|0,0:0|0:0,0:0:0:0:
134,317,21822,6,0,P|55:336|2:275,1,170,12|0,0:0|3:0,0:0:0:0:
172,51,22316,2,0,P|197:133|203:217,1,170,8|0,0:0|3:0,0:0:0:0:
280,341,22811,2,0,B|322:331|322:331|405:336|405:336|447:328,1,170,12|0,0:0|0:0,0:0:0:0:
434,166,23305,1,8,0:0:0:0:
434,166,23800,6,0,B|373:171|326:140|326:140|352:196|335:246,1,223.125008511544,2|0,0:0|0:0,0:0:0:0:
323,278,24459,6,0,P|283:271|248:269,1,76.4999976654053,4|0,3:2|0:0,0:0:0:0:
88,189,24789,2,0,P|143:141|213:162,1,152.999995330811,10|2,0:0|3:2,0:0:0:0:
375,185,25283,2,0,P|372:146|366:109,1,76.4999976654053,0|10,3:0|0:0,0:0:0:0:
284,9,25613,6,0,P|277:46|275:84,1,76.4999976654053,2|2,0:0|3:2,0:0:0:0:
365,214,25943,2,0,P|403:207|442:205,1,76.4999976654053,2|8,0:0|0:0,0:0:0:0:
474,340,26272,2,0,P|398:330|321:326,1,152.999995330811,2|0,0:0|3:0,0:0:0:0:
203,233,26767,1,8,0:0:0:0:
252,360,26932,1,2,0:0:0:0:
97,287,27096,6,0,P|84:213|120:147,1,152.999995330811,2|10,3:2|0:0,0:0:0:0:
242,52,27591,2,0,P|203:56|166:63,1,76.4999976654053,2|0,0:0|3:0,0:0:0:0:
47,165,27921,1,2,3:2:0:0:
175,231,28085,2,0,P|250:219|326:214,1,152.999995330811,10|2,0:0|3:2,0:0:0:0:
440,153,28580,5,0,0:0:0:0:
364,282,28745,1,10,0:0:0:0:
479,343,28910,2,0,P|480:304|484:266,1,76.4999976654053,2|0,0:0|3:0,0:0:0:0:
361,131,29239,1,2,3:2:0:0:
288,308,29404,2,0,P|235:317|173:289,1,114.749996498108,10|0,0:0|0:0,0:0:0:0:
156,269,29734,5,0,3:0:0:0:
156,269,29899,1,0,0:0:0:0:
221,128,30063,2,0,P|232:165|237:203,1,76.4999976654053,10|0,0:0|0:0,0:0:0:0:
72,332,30393,2,0,P|60:295|55:257,1,76.4999976654053,2|0,3:2|3:0,0:0:0:0:
146,96,30723,1,10,0:0:0:0:
318,233,30888,6,0,P|243:221|177:255,1,152.999995330811,2|2,0:0|3:2,0:0:0:0:
48,180,31382,1,8,0:0:0:0:
147,326,31547,2,0,P|155:250|166:174,1,152.999995330811,2|0,3:2|3:0,0:0:0:0:
225,39,32041,1,8,0:0:0:0:
272,161,32206,1,2,0:0:0:0:
272,161,32288,1,2,0:0:0:0:
272,161,32371,6,0,P|309:154|347:149,1,76.4999976654053,2|0,3:2|0:0,0:0:0:0:
390,44,32701,1,10,0:0:0:0:
477,189,32866,2,0,B|461:221|464:266|464:266|424:251|390:253,1,152.999995330811,2|2,3:2|3:2,0:0:0:0:
248,362,33360,2,0,P|221:292|258:228,1,152.999995330811,14|2,0:0|0:0,0:0:0:0:
354,102,33855,5,0,3:0:0:0:
219,142,34020,2,0,P|180:139|143:132,1,76.4999976654053,10|2,0:0|0:0,0:0:0:0:
0,263,34349,1,8,0:0:0:0:
16,229,34431,1,8,0:0:0:0:
48,209,34513,1,10,0:0:0:0:
86,208,34596,1,8,0:0:0:0:
119,227,34678,1,10,0:0:0:0:
225,341,34844,1,2,3:2:0:0:
225,341,34926,1,2,3:2:0:0:
225,341,35009,6,0,P|232:263|242:182,1,152.999995330811,4|10,0:0|0:0,0:0:0:0:
257,48,35503,1,0,0:0:0:0:
402,163,35668,2,0,P|364:156|326:152,1,76.4999976654053,2|0,3:2|3:0,0:0:0:0:
124,264,35998,2,0,P|161:257|199:253,1,76.4999976654053,10|0,0:0|0:0,0:0:0:0:
443,315,36327,6,0,P|387:267|319:295,1,152.999995330811,2|10,3:2|0:0,0:0:0:0:
158,337,36822,2,0,P|233:328|310:323,1,152.999995330811,2|2,3:2|3:2,0:0:0:0:
411,200,37316,1,8,0:0:0:0:
303,67,37481,1,2,3:2:0:0:
303,67,37563,1,2,3:2:0:0:
303,66,37646,6,0,P|285:141|276:217,1,152.999995330811,4|10,3:2|0:0,0:0:0:0:
373,220,38140,2,0,P|375:184|383:139,1,76.4999976654053,2|0,0:0|3:0,0:0:0:0:
197,19,38470,2,0,P|199:57|205:94,1,76.4999976654053,2|8,3:2|0:0,0:0:0:0:
296,243,38800,6,0,P|219:249|144:262,1,152.999995330811,2|0,3:2|3:0,0:0:0:0:
39,170,39294,2,0,P|77:171|114:177,1,76.4999976654053,8|0,0:0|0:0,0:0:0:0:
97,333,39624,2,0,P|59:326|21:325,1,76.4999976654053,0|0,3:2|3:0,0:0:0:0:
216,221,39954,1,8,0:0:0:0:
216,221,40283,6,0,P|205:145|196:61,2,152.999995330811,0|10|2,3:0|0:0|3:2,0:0:0:0:
334,207,41107,1,0,3:0:0:0:
260,344,41272,2,0,P|221:347|184:353,1,76.4999976654053,10|0,0:0|0:0,0:0:0:0:
334,207,41602,6,0,P|372:210|409:216,1,76.4999976654053,2|0,3:2|0:2,0:0:0:0:
510,292,41932,1,10,0:0:0:0:
481,96,42096,2,0,P|490:133|497:170,1,76.4999976654053,2|0,0:0|3:0,0:0:0:0:
376,363,42426,2,0,P|368:325|359:288,1,76.4999976654053,2|8,3:2|0:0,0:0:0:0:
279,121,42756,1,2,0:0:0:0:
409,216,42921,5,12,0:0:0:0:
231,259,43085,1,2,3:2:0:0:
231,259,43168,1,2,3:2:0:0:
231,259,43250,1,0,3:0:0:0:
331,44,43415,2,0,P|314:119|304:195,1,152.999995330811,12|0,0:0|3:0,0:0:0:0:
278,355,43910,5,12,0:0:0:0:
135,241,44074,1,2,3:2:0:0:
135,241,44157,1,2,3:2:0:0:
135,241,44239,1,0,3:0:0:0:
279,121,44404,1,12,0:0:0:0:
319,271,44569,1,8,0:3:0:0:
168,310,44734,1,8,0:3:0:0:
128,160,44899,1,10,0:0:0:0:
403,334,45228,1,10,0:0:0:0:
417,54,45558,5,6,3:2:0:0:
224,160,45888,1,0,0:0:0:0:
224,160,46052,1,2,3:2:0:0:
224,160,46217,2,0,P|286:147|350:146,1,127.500004863739,0|8,3:0|0:0,0:0:0:0:
497,262,46877,5,2,3:2:0:0:
341,347,47206,1,0,0:0:0:0:
341,347,47370,1,2,3:2:0:0:
341,347,47536,2,0,P|278:334|214:333,1,127.500004863739,0|8,3:0|0:0,0:0:0:0:
57,256,48195,5,2,3:2:0:0:
128,85,48525,1,0,0:0:0:0:
128,85,48690,1,2,3:2:0:0:
128,84,48855,2,0,P|143:145|150:209,1,127.500004863739,0|8,3:0|0:0,0:0:0:0:
305,364,49514,6,0,P|336:310|320:250,1,127.500004863739,2|8,3:2|0:0,0:0:0:0:
240,49,50173,1,4,3:3:0:0:
235,78,50255,1,8,0:3:0:0:
231,107,50337,1,8,0:3:0:0:
225,138,50420,1,8,0:3:0:0:
221,168,50502,1,8,0:0:0:0:
255,297,50668,5,14,0:0:0:0:
139,129,50998,1,10,0:0:0:0:
255,297,51162,1,10,0:0:0:0:
255,69,53305,5,14,0:0:0:0:
139,237,53635,1,10,0:0:0:0:
255,69,53799,1,10,0:0:0:0:
321,328,54294,1,0,3:2:0:0:
321,328,54377,1,8,0:0:0:0:
321,328,54459,1,8,0:0:0:0:
228,184,54624,6,0,P|269:173|311:167,1,85,6|0,3:2|0:2,0:2:0:0:
503,275,54954,2,0,P|460:280|419:291,1,85,6|0,3:2|0:2,0:2:0:0:
420,43,55283,2,0,P|402:126|391:210,1,170,6|0,3:2|3:2,0:2:0:0:
262,346,55778,6,0,B|217:332|178:353|178:353|166:321|173:274,1,165.749992412568,4|0,0:3|0:0,0:0:0:0:
207,199,56107,6,0,L|290:213,1,85,4|0,3:2|0:0,0:0:0:0:
491,230,56437,2,0,B|514:111|514:111|502:95|461:83,1,170,10|2,0:0|3:2,0:0:0:0:
339,84,56932,1,0,3:0:0:0:
386,260,57096,2,0,P|389:217|399:176,1,85,10|0,0:0|0:0,0:0:0:0:
251,6,57426,6,0,P|241:47|237:89,1,85,2|0,3:2|0:0,0:0:0:0:
198,238,57756,2,0,P|240:234|281:224,1,85,10|0,0:0|0:0,0:0:0:0:
420,351,58085,2,0,P|378:341|336:337,1,85,2|0,3:2|3:0,0:0:0:0:
130,186,58415,2,0,P|151:245|163:308,1,127.5,10|0,0:0|0:0,0:0:0:0:
167,344,58745,5,2,3:2:0:0:
185,130,58910,2,0,P|106:109|51:170,1,170,12|0,0:0|3:0,0:0:0:0:
258,279,59404,2,0,B|300:272|300:272|382:284|382:284|425:280,1,170,12|0,0:0|3:0,0:0:0:0:
508,149,59899,2,0,B|516:107|498:74|498:74|456:99|408:93,1,170,12|0,0:0|3:0,0:0:0:0:
105,188,60393,6,0,P|145:174|187:168,1,85,14|0,0:0|3:0,0:0:0:0:
343,261,60723,2,0,P|315:228|284:201,1,85,10|0,0:0|0:0,0:0:0:0:
288,22,61052,2,0,L|266:104,1,85,10|0,0:0|0:0,0:0:0:0:
252,311,61382,5,10,0:0:0:0:
252,311,61547,1,10,0:0:0:0:
0,201,61877,1,10,0:0:0:0:
212,49,62206,1,10,0:0:0:0:
120,355,62536,2,0,P|122:291|133:228,1,127.500004863739,8|0,0:0|3:0,0:0:0:0:
198,152,63031,6,0,B|233:136|274:133|274:133|265:183|286:221,1,170,12|0,0:0|0:0,0:0:0:0:
379,310,63525,2,0,L|368:359,2,42.5,8|8|10,0:3|0:0|0:2,0:0:0:0:
188,313,63855,1,2,3:2:0:0:
188,313,63937,1,0,3:2:0:0:
188,313,64020,6,0,P|229:306|272:303,1,85,6|0,3:2|0:2,0:2:0:0:
445,175,64349,2,0,P|404:168|361:164,1,85,10|2,2:2|2:2,2:2:0:0:
226,95,64679,2,0,P|237:137|243:179,1,85,10|0,0:2|3:2,0:2:0:0:
108,364,65009,2,0,P|103:321|92:280,1,85,10|2,0:2|3:2,0:2:0:0:
0,146,65338,6,0,P|64:95|144:115,1,170,10|10,0:2|0:2,0:2:0:0:
399,127,65833,1,0,3:2:0:0:
399,127,65998,2,0,P|357:134|316:144,1,85,10|0,0:2|3:2,0:2:0:0:
265,303,66327,2,0,P|306:292|347:285,1,85,10|0,0:2|3:2,0:2:0:0:
311,51,66657,6,0,P|285:132|271:215,1,170,10|10,0:2|0:2,0:2:0:0:
373,356,67151,1,2,3:2:0:0:
373,356,67316,1,8,0:2:0:0:
502,240,67481,2,0,P|462:229|420:223,1,85,2|8,3:2|0:2,0:2:0:0:
289,310,67811,1,2,3:2:0:0:
313,78,67976,6,0,L|330:160,1,85,8|0,0:2|3:2,0:2:0:0:
122,252,68305,2,0,P|164:258|204:269,1,85,8|0,0:2|3:2,0:2:0:0:
238,111,68635,2,0,P|197:99|155:93,1,85,8|0,0:2|3:2,0:2:0:0:
22,230,68965,2,0,P|33:270|39:312,1,85,10|2,0:2|3:2,0:2:0:0:
301,299,69294,6,0,P|242:242|163:261,1,170,12|10,0:2|0:2,0:2:0:0:
108,362,69789,1,2,3:2:0:0:
244,220,69954,2,0,P|241:177|233:135,1,85,10|0,0:2|3:2,0:2:0:0:
89,41,70283,2,0,P|97:82|100:125,1,85,10|2,0:2|3:2,0:2:0:0:
163,260,70613,6,0,P|246:242|330:236,1,170,10|10,0:2|0:2,0:2:0:0:
420,155,71107,1,2,3:2:0:0:
273,72,71272,2,0,P|315:74|356:83,1,85,8|2,0:2|3:2,0:2:0:0:
512,248,71602,2,0,P|470:239|428:236,1,85,10|2,0:2|3:2,0:2:0:0:
222,176,71932,6,0,P|241:258|251:343,1,170,8|8,0:2|0:2,0:2:0:0:
317,160,72426,2,0,P|328:200|336:242,1,85,2|8,3:2|0:2,0:2:0:0:
160,352,72756,2,0,P|157:309|150:267,1,85,2|8,3:2|0:2,0:2:0:0:
138,84,73085,6,0,P|178:68|220:62,1,85,2|8,3:2|0:2,0:2:0:0:
398,181,73415,2,0,P|358:165|316:159,1,85,2|12,2:2|0:2,0:2:0:0:
172,190,73745,1,2,3:2:0:0:
270,352,73910,5,8,0:2:0:0:
303,338,73992,1,8,0:2:0:0:
326,311,74074,1,8,0:2:0:0:
336,277,74157,1,8,0:2:0:0:
330,242,74239,1,10,0:2:0:0:
241,106,74404,1,2,3:2:0:0:
107,245,74569,6,0,B|59:239|22:258|22:258|22:214|0:178,1,170,6|10,3:2|0:2,0:2:0:0:
112,81,75063,1,2,3:2:0:0:
272,204,75228,2,0,P|230:193|188:188,1,85,10|0,0:2|3:2,0:2:0:0:
40,344,75558,2,0,P|81:333|123:328,1,85,10|2,0:2|3:2,0:2:0:0:
323,126,75888,6,0,P|307:209|296:293,2,170,10|10|10,0:2|0:2|0:2,0:2:0:0:
378,10,76712,1,0,3:2:0:0:
509,129,76877,2,0,P|466:129|425:139,1,85,10|0,0:2|3:2,0:2:0:0:
276,223,77206,6,0,P|233:222|192:212,1,85,10|0,0:2|3:2,0:2:0:0:
270,35,77536,2,0,P|260:77|255:119,1,85,8|0,0:2|3:2,0:2:0:0:
169,329,77866,2,0,P|252:314|337:307,1,170,10|8,0:2|0:2,0:2:0:0:
144,196,78360,1,2,3:2:0:0:
339,129,78525,6,0,P|297:122|254:118,1,85,8|0,0:2|3:2,0:2:0:0:
61,174,78855,1,12,0:2:0:0:
132,47,79020,2,0,P|129:25|124:5,2,42.5,0|0|0,3:0|3:0|3:0,0:0:0:0:
161,283,79349,1,8,3:3:0:0:
161,283,79432,1,8,3:3:0:0:
161,283,79514,6,0,P|165:235|174:188,1,95.6250036478044,4|0,0:3|0:0,0:0:0:0:
183,161,79844,6,0,P|240:207|313:191,1,152.999995330811,6|0,3:2|3:0,0:0:0:0:
364,83,80338,1,0,0:0:0:0:
440,169,80503,2,0,P|448:206|451:244,1,76.4999976654053,8|2,0:0|0:0,0:0:0:0:
338,354,80833,2,0,P|347:316|350:278,1,76.4999976654053,2|0,3:2|0:0,0:0:0:0:
260,130,81162,5,2,3:2:0:0:
153,232,81327,2,0,B|115:223|76:231|76:231|91:263|88:311,1,152.999995330811,10|2,0:0|3:2,0:0:0:0:
12,353,81822,2,0,P|87:339|163:337,1,152.999995330811,10|2,0:0|3:2,0:0:0:0:
402,156,82481,6,0,P|326:142|250:140,1,152.999995330811,6|2,3:2|3:2,0:0:0:0:
110,76,82976,2,0,P|147:67|185:62,1,76.4999976654053,2|8,0:0|0:0,0:0:0:0:
210,230,83305,2,0,P|172:235|134:243,1,76.4999976654053,2|0,0:0|3:2,0:0:0:0:
336,138,83635,1,2,3:2:0:0:
336,138,83717,1,2,3:2:0:0:
336,138,83800,6,0,P|322:210|313:289,1,152.999995330811,6|8,0:0|0:0,0:0:0:0:
188,348,84294,1,8,3:3:0:0:
59,218,84459,1,8,0:3:0:0:
81,187,84541,1,8,0:3:0:0:
115,170,84623,1,8,0:3:0:0:
153,171,84706,1,8,0:3:0:0:
186,189,84789,1,4,0:3:0:0:
217,210,84871,1,4,0:3:0:0:
255,212,84953,1,4,0:3:0:0:
289,195,85036,1,4,0:3:0:0:
307,162,85118,6,0,B|308:118|287:77|287:77|326:91|371:88,1,170,4|8,3:2|0:0,0:0:0:0:
495,176,85613,1,0,3:2:0:0:
495,176,85695,1,0,3:2:0:0:
495,176,85778,2,0,P|453:178|410:185,1,85,0|2,3:0|0:0,0:0:0:0:
203,69,86107,2,0,P|245:71|287:78,1,85,10|2,0:0|0:0,0:0:0:0:
411,269,86437,6,0,P|327:254|242:249,1,170,2|10,3:2|0:0,0:0:0:0:
136,133,86932,1,2,0:0:0:0:
141,319,87096,2,0,P|145:276|154:235,1,85,0|2,3:0|0:0,0:0:0:0:
206,29,87426,2,0,P|214:70|219:112,1,85,8|2,0:0|0:0,0:0:0:0:
0,208,87756,6,0,P|41:198|83:199,1,85,12|2,0:0|3:2,0:0:0:0:
223,328,88085,2,0,P|265:329|306:318,1,85,8|2,0:0|3:2,0:0:0:0:
407,201,88415,1,8,0:0:0:0:
407,201,88580,1,0,3:0:0:0:
337,58,88745,2,0,P|325:95|319:141,1,85,8|2,0:0|3:2,0:0:0:0:
363,297,89074,6,0,P|282:273|198:265,1,170,12|0,0:0|3:0,0:0:0:0:
204,252,89487,1,0,3:0:0:0:
213,241,89569,2,0,P|291:216|356:265,1,170,4|0,3:2|3:0,0:0:0:0:
108,363,90063,2,0,B|73:358|57:344|57:344|72:230,1,170,12|0,0:0|3:0,0:0:0:0:
94,104,90558,1,2,3:2:0:0:
246,223,90723,1,2,1:2:0:0:
297,50,90888,1,2,0:0:0:0:
151,174,91052,5,8,0:0:0:0:
142,212,91134,1,8,0:0:0:0:
144,252,91216,1,8,0:0:0:0:
158,287,91299,1,8,0:0:0:0:
187,314,91382,2,0,L|231:300,1,42.5,8|0,0:0|3:0,0:0:0:0:
341,199,91547,2,0,L|330:244,1,42.5,8|0,3:0|3:0,0:0:0:0:
422,344,91712,6,0,B|460:333|499:353|499:353|479:304|488:264,1,170,4|8,0:0|0:0,0:0:0:0:
247,230,92206,1,2,3:2:0:0:
247,230,92371,2,0,P|289:231|330:240,1,85,8|0,0:0|3:0,0:0:0:0:
510,142,92701,2,0,P|467:143|426:152,1,85,8|2,0:0|3:2,0:0:0:0:
327,16,93031,6,0,P|315:57|309:99,1,85,8|0,0:0|3:0,0:0:0:0:
143,260,93360,2,0,P|149:218|160:176,1,85,8|2,0:0|3:2,0:0:0:0:
212,54,93690,1,8,0:0:0:0:
247,230,93856,1,2,3:2:0:0:
77,179,94020,1,8,0:0:0:0:
248,147,94184,1,2,3:2:0:0:
182,344,94349,6,0,P|97:331|13:327,1,170,12|8,0:0|0:0,0:0:0:0:
146,149,94844,1,2,3:2:0:0:
308,232,95009,2,0,P|266:239|223:243,1,85,8|0,0:0|3:0,0:0:0:0:
191,61,95338,2,0,P|233:55|275:48,1,85,8|2,0:0|3:2,0:0:0:0:
451,22,95668,6,0,P|443:63|437:111,1,85,8|0,0:0|3:0,0:0:0:0:
309,232,95998,2,0,P|314:189|322:148,1,85,8|2,0:0|3:2,0:0:0:0:
512,231,96327,2,0,P|471:220|427:218,1,85,8|2,0:0|3:2,0:0:0:0:
342,342,96657,2,0,P|299:343|258:354,1,85,8|2,0:0|3:2,0:0:0:0:
70,237,96987,6,0,P|130:181|209:200,1,170,12|8,0:0|0:0,0:0:0:0:
346,265,97481,1,2,3:2:0:0:
346,265,97646,2,0,P|356:223|361:181,1,85,8|0,0:0|3:0,0:0:0:0:
231,16,97976,2,0,P|235:58|246:99,1,85,8|2,0:0|3:2,0:0:0:0:
386,72,98305,5,8,0:0:0:0:
244,224,98470,2,0,P|203:214|161:210,1,85,2|8,3:2|0:0,0:0:0:0:
2,140,98800,2,0,P|43:129|85:125,1,85,2|8,3:2|0:0,0:0:0:0:
303,155,99129,1,2,3:2:0:0:
303,155,99212,1,2,3:2:0:0:
303,155,99294,2,0,P|285:229|278:305,1,152.999995330811,8|0,0:0|0:0,0:0:0:0:
275,336,99624,6,0,B|163:310|163:310|141:329|136:357,1,170,12|0,0:0|3:0,0:0:0:0:
405,325,100118,2,0,L|386:156,1,170,8|0,0:0|0:0,0:0:0:0:
275,4,100613,2,0,P|222:65|245:144,1,170,12|0,0:0|3:0,0:0:0:0:
362,256,101107,1,8,0:0:0:0:
362,256,101602,6,0,B|260:217|260:333|153:281,1,223.125008511544,2|0,0:0|0:0,0:0:0:0:
130,256,102261,6,0,P|68:250|21:292,1,127.500004863739,4|2,3:2|3:2,0:2:0:0:
21,292,102756,1,0,3:2:0:0:
206,204,102921,2,0,P|199:140|188:77,1,127.500004863739,10|0,0:2|0:2,0:2:0:0:
67,64,103415,2,0,P|75:94|81:126,1,63.7500024318696,2|0,3:2|0:2,0:2:0:0:
148,256,103745,2,0,P|210:241|273:234,1,127.500004863739,2|2,3:2|3:2,0:2:0:0:
396,258,104239,2,0,P|413:317|387:374,1,127.500004863739,8|0,0:2|3:2,0:2:0:0:
254,359,104734,1,2,3:2:0:0:
254,359,104816,1,0,3:2:0:0:
254,359,104899,6,0,P|260:295|273:233,1,127.500004863739,2|0,3:2|3:2,0:2:0:0:
327,115,105393,1,2,3:2:0:0:
196,48,105558,2,0,B|112:32|112:32|94:45|86:64,1,127.500004863739,8|2,0:2|0:2,0:2:0:0:
142,155,106052,2,0,B|226:171|226:171|244:158|251:138,1,127.500004863739,2|0,3:2|3:2,0:2:0:0:
402,68,106547,2,0,P|410:98|413:130,1,63.7500024318696,2|2,0:2|3:2,0:2:0:0:
403,253,106877,2,0,P|433:244|465:241,1,63.7500024318696,8|2,0:2|0:2,0:2:0:0:
499,375,107206,1,10,0:2:0:0:
499,375,107536,6,0,P|427:361|368:359,1,127.500004863739,4|2,3:2|3:2,0:2:0:0:
271,267,108031,1,0,3:2:0:0:
173,348,108195,2,0,P|109:351|47:364,1,127.500004863739,10|0,0:2|3:2,0:2:0:0:
30,236,108690,2,0,P|82:202|142:218,1,127.500004863739,2|2,3:2|3:2,0:2:0:0:
307,201,109184,2,0,P|276:192|244:189,1,63.7500024318696,0|2,0:2|3:2,0:2:0:0:
200,14,109514,2,0,P|183:75|172:138,1,127.500004863739,8|2,0:2|0:2,0:2:0:0:
218,292,110009,1,0,3:2:0:0:
218,292,110091,1,0,3:2:0:0:
218,292,110173,6,0,P|279:275|342:274,1,127.500004863739,4|2,3:2|3:2,0:2:0:0:
402,177,110668,1,2,3:2:0:0:
314,80,110833,1,8,0:2:0:0:
314,80,111162,6,0,P|250:80|189:97,1,127.500004863739,4|2,3:2|3:2,0:2:0:0:
35,170,111657,1,0,3:2:0:0:
89,50,111822,2,0,P|108:110|119:173,1,127.500004863739,2|14,3:2|0:2,0:2:0:0:
51,284,112316,1,2,3:2:0:0:
51,284,112399,1,8,0:2:0:0:
51,284,112481,1,10,0:2:0:0:
207,212,112646,1,0,3:2:0:0:
129,365,112811,6,0,P|132:328|141:289,1,76.4999976654053,4|0,3:2|0:0,0:0:0:0:
345,367,113140,2,0,P|287:320|216:339,1,152.999995330811,10|2,0:0|3:2,0:0:0:0:
88,215,113635,1,0,3:0:0:0:
88,214,113800,2,0,P|124:204|163:201,1,76.4999976654053,10|0,0:2|0:0,0:0:0:0:
318,85,114129,6,0,P|306:160|299:236,1,152.999995330811,2|10,3:2|0:0,0:0:0:0:
434,366,114624,2,0,B|463:367|483:358|483:358|476:256,1,152.999995330811,2|2,3:2|3:2,0:0:0:0:
411,114,115118,1,8,0:0:0:0:
256,173,115283,1,2,3:2:0:0:
256,173,115366,1,0,3:2:0:0:
256,173,115448,6,0,B|217:177|217:177|149:156|149:156|107:164,1,152.999995330811,4|10,0:0|0:0,0:0:0:0:
40,82,115943,2,0,P|77:72|114:66,1,76.4999976654053,2|0,3:2|0:0,0:0:0:0:
154,250,116272,2,0,P|116:256|79:265,1,76.4999976654053,2|8,3:2|0:0,0:0:0:0:
237,141,116602,6,0,P|314:149|393:166,1,152.999995330811,2|0,3:2|3:0,0:0:0:0:
503,201,117096,2,0,P|500:162|493:125,1,76.4999976654053,8|0,0:0|0:0,0:0:0:0:
354,243,117426,2,0,P|356:281|363:318,1,76.4999976654053,0|0,3:0|3:0,0:0:0:0:
503,305,117756,1,8,0:0:0:0:
239,189,118085,6,8,P|227:266|221:345,2,152.999995330811,4|10|2,3:2|0:0|3:2,0:0:0:0:
311,45,118910,1,0,3:0:0:0:
121,114,119074,2,0,P|158:106|196:100,1,76.4999976654053,10|0,0:0|0:0,0:0:0:0:
398,147,119404,6,0,P|361:151|323:159,1,76.4999976654053,2|0,3:2|0:0,0:0:0:0:
170,242,119734,1,10,0:0:0:0:
253,358,119899,2,0,P|264:321|269:283,1,76.4999976654053,2|0,0:2|3:0,0:0:0:0:
93,186,120228,2,0,P|81:222|76:260,1,76.4999976654053,2|8,3:2|0:0,0:0:0:0:
223,152,120558,1,0,3:0:0:0:
156,323,120723,5,12,0:0:0:0:
317,225,120888,1,2,3:2:0:0:
317,225,120970,1,2,3:2:0:0:
317,225,121052,1,0,3:0:0:0:
140,110,121217,2,0,P|200:66|273:79,1,152.999995330811,12|0,0:0|3:0,0:0:0:0:
397,168,121712,5,12,0:0:0:0:
369,17,121877,1,2,3:2:0:0:
369,17,121959,1,2,3:2:0:0:
369,17,122041,1,0,3:0:0:0:
308,188,122206,1,12,0:0:0:0:
360,337,122371,1,8,0:3:0:0:
512,283,122536,1,8,0:3:0:0:
459,133,122701,1,8,0:0:0:0:
238,359,123031,1,8,0:0:0:0:
105,86,123360,5,6,3:2:0:0:
252,256,123690,1,0,0:0:0:0:
252,256,123855,1,2,3:2:0:0:
252,256,124020,2,0,P|260:192|275:130,1,127.500004863739,0|8,3:0|0:0,0:0:0:0:
402,19,124679,5,2,3:2:0:0:
472,174,125009,1,0,0:0:0:0:
472,174,125174,1,2,3:2:0:0:
472,174,125339,2,0,P|463:237|448:299,1,127.500004863739,0|8,3:0|0:0,0:0:0:0:
249,354,125998,5,2,3:2:0:0:
68,243,126327,1,0,0:0:0:0:
68,243,126492,1,2,3:2:0:0:
68,243,126657,2,0,P|131:246|193:263,1,127.500004863739,0|8,3:0|0:0,0:0:0:0:
403,128,127316,6,0,P|351:164|289:159,1,127.500004863739,2|8,3:2|0:0,0:0:0:0:
140,19,127976,1,4,0:3:0:0:
107,37,128058,1,8,0:3:0:0:
86,69,128140,1,8,0:3:0:0:
82,107,128223,1,8,0:3:0:0:
97,142,128305,1,8,0:0:0:0:
240,279,128470,5,14,0:0:0:0:
173,98,128800,1,10,0:0:0:0:
240,279,128965,1,10,0:0:0:0:
405,94,131107,5,14,0:0:0:0:
219,170,131437,1,10,0:0:0:0:
405,94,131602,1,10,0:0:0:0:
294,339,132096,1,0,3:2:0:0:
294,339,132179,1,8,0:0:0:0:
294,339,132261,1,8,0:0:0:0:
153,268,132426,6,0,P|144:309|137:351,1,85,6|0,3:2|0:0,0:0:0:0:
325,230,132756,2,0,P|318:188|309:146,1,85,6|0,3:2|0:0,0:0:0:0:
72,226,133085,2,0,P|156:234|239:252,1,170,6|0,3:2|3:0,0:0:0:0:
434,343,133580,6,0,B|456:319|507:314|507:314|484:282|486:232,1,165.749992412568,4|0,0:3|0:0,0:0:0:0:
468,149,133910,6,0,P|425:144|383:137,1,85,4|0,3:2|0:0,0:0:0:0:
189,169,134239,2,0,P|168:89|222:28,1,170,10|2,0:0|3:2,0:0:0:0:
302,187,134734,1,0,3:0:0:0:
158,299,134899,2,0,P|199:292|242:287,1,85,10|0,0:0|0:0,0:0:0:0:
385,268,135228,6,0,P|374:309|367:350,1,85,2|0,3:2|0:0,0:0:0:0:
213,188,135558,2,0,P|220:146|230:105,1,85,10|0,0:0|0:0,0:0:0:0:
59,16,135888,2,0,P|69:57|76:98,1,85,2|0,3:2|3:0,0:0:0:0:
282,227,136217,2,0,P|218:226|156:240,1,127.5,10|0,0:0|0:0,0:0:0:0:
124,257,136547,5,2,3:2:0:0:
318,149,136712,2,0,P|366:215|341:294,1,170,12|0,0:0|3:0,0:0:0:0:
124,257,137206,2,0,B|134:214|134:214|120:128|120:128|132:91,1,170,12|0,0:0|3:0,0:0:0:0:
283,19,137701,2,0,B|405:3|405:3|421:22|428:43,1,170,12|0,0:0|3:0,0:0:0:0:
462,201,138195,6,0,L|379:182,1,85,14|0,0:0|3:0,0:0:0:0:
222,75,138525,2,0,L|247:155,1,85,10|0,0:0|0:0,0:0:0:0:
227,340,138855,2,0,L|284:277,1,85,10|0,0:0|0:0,0:0:0:0:
455,116,139184,5,10,0:0:0:0:
455,116,139349,1,10,0:0:0:0:
184,208,139679,1,10,0:0:0:0:
411,368,140009,1,10,0:0:0:0:
318,84,140338,6,0,P|312:125|309:168,1,85,10|0,0:2|0:0,0:0:0:0:
258,294,140668,2,0,L|262:321,2,28.3333333333333,0|0|0,3:0|3:0|3:0,0:0:0:0:
268,344,140833,2,0,P|183:331|99:324,1,170,12|0,0:0|3:3,0:0:0:0:
40,200,141327,1,0,3:3:0:0:
40,200,141410,1,8,0:0:0:0:
40,200,141492,1,10,0:0:0:0:
197,82,141657,2,0,L|188:123,1,42.5,2|0,3:2|3:0,0:0:0:0:
163,286,141822,6,0,P|155:244|143:203,1,85,14|0,0:2|0:2,0:2:0:0:
271,22,142151,2,0,P|283:62|290:104,1,85,10|2,0:2|3:2,0:2:0:0:
284,232,142481,2,0,P|325:219|366:212,1,85,10|0,0:2|3:2,0:2:0:0:
511,350,142811,2,0,P|470:337|428:331,1,85,10|2,0:2|3:2,0:2:0:0:
144,359,143140,6,0,P|207:307|287:328,1,170,10|10,0:2|0:2,0:2:0:0:
461,250,143635,1,0,3:2:0:0:
461,249,143800,2,0,P|455:207|447:166,1,85,10|0,0:2|3:2,0:2:0:0:
238,186,144129,2,0,P|280:189|324:200,1,85,10|0,0:2|3:2,0:2:0:0:
477,38,144459,6,0,B|435:46|391:25|391:25|402:67|379:104,1,170,10|10,0:2|0:2,0:2:0:0:
338,282,144954,1,2,3:2:0:0:
338,282,145118,1,8,0:2:0:0:
149,203,145283,1,2,3:2:0:0:
299,115,145448,1,8,0:2:0:0:
233,275,145613,1,2,3:2:0:0:
119,112,145778,6,0,P|105:195|95:280,1,170,8|8,0:2|0:2,0:2:0:0:
238,180,146272,1,0,3:2:0:0:
355,353,146437,2,0,P|351:310|343:268,1,85,8|0,0:2|3:2,0:2:0:0:
403,70,146767,2,0,P|399:112|391:154,1,85,10|2,0:2|3:2,0:2:0:0:
260,308,147096,6,0,P|179:286|94:279,1,170,14|10,0:2|0:2,0:2:0:0:
270,167,147591,1,2,3:2:0:0:
425,240,147756,2,0,P|382:241|340:246,1,85,10|0,0:2|3:2,0:2:0:0:
119,120,148085,2,0,P|161:119|203:114,1,85,10|2,0:2|3:2,0:2:0:0:
419,15,148415,6,0,B|384:17|356:34|356:34|371:142,1,170,10|10,0:2|0:2,0:2:0:0:
339,358,148910,1,2,3:2:0:0:
339,358,149074,2,0,P|343:315|352:274,1,85,8|2,0:2|3:2,0:2:0:0:
176,149,149404,2,0,P|167:190|162:232,1,85,10|2,0:2|3:2,0:2:0:0:
432,249,149734,6,0,P|375:190|295:208,1,170,8|8,0:2|0:2,0:2:0:0:
79,248,150228,2,0,P|120:237|162:233,1,85,2|8,3:2|0:2,0:2:0:0:
374,336,150558,2,0,P|332:325|290:321,1,85,2|8,3:2|0:2,0:2:0:0:
223,169,150888,2,0,P|218:126|210:84,1,85,2|8,3:2|0:2,0:2:0:0:
366,32,151217,2,0,P|374:73|379:115,1,85,2|12,3:2|0:2,0:2:0:0:
313,222,151547,1,2,0:2:0:0:
466,203,151712,5,8,0:2:0:0:
493,228,151794,1,8,0:2:0:0:
506,263,151876,1,8,0:2:0:0:
503,300,151959,1,8,0:2:0:0:
483,334,152041,1,10,0:2:0:0:
327,358,152206,1,2,3:2:0:0:
327,358,152289,1,0,3:2:0:0:
327,358,152371,6,0,P|335:273|349:189,1,170,6|10,0:2|0:2,0:2:0:0:
382,45,152866,1,2,3:2:0:0:
253,125,153031,2,0,P|211:116|169:111,1,85,10|0,0:2|3:2,0:2:0:0:
25,60,153360,2,0,P|66:51|108:46,1,85,10|2,0:2|3:2,0:2:0:0:
250,212,153690,6,0,P|165:218|81:233,2,170,10|10|10,0:2|0:2|0:2,0:2:0:0:
333,94,154514,1,0,3:2:0:0:
217,30,154679,2,0,P|207:71|204:113,1,85,10|0,0:2|3:2,0:2:0:0:
339,274,155009,6,0,P|348:232|351:190,1,85,10|0,0:2|3:2,0:2:0:0:
490,346,155338,2,0,P|447:351|406:362,1,85,8|0,0:2|3:2,0:2:0:0:
111,278,155668,2,0,P|173:226|249:254,1,170,10|8,0:2|0:2,0:2:0:0:
414,228,156162,1,2,3:2:0:0:
324,370,156327,6,0,P|326:327|331:285,1,85,8|0,0:2|3:2,0:2:0:0:
356,67,156657,2,0,P|360:109|362:151,1,85,12|0,0:2|0:2,0:2:0:0:
249,254,156987,1,8,3:0:0:0:
217,250,157069,1,0,3:0:0:0:
186,245,157151,1,0,3:0:0:0:
155,241,157234,1,0,3:0:0:0:
124,237,157316,1,8,3:2:0:0:
31,159,157481,1,2,3:2:0:0:
31,159,157563,1,2,3:2:0:0:
31,158,157646,6,0,P|84:109|155:127,1,152.999995330811,6|0,0:0|3:0,0:0:0:0:
333,174,158140,1,2,3:2:0:0:
333,174,158305,2,0,P|291:164|249:161,1,76.4999976654053,8|2,0:0|0:0,0:0:0:0:
110,265,158635,2,0,P|148:269|185:277,1,76.4999976654053,2|0,3:2|0:0,0:0:0:0:
279,360,158965,5,2,3:2:0:0:
376,281,159129,2,0,B|419:275|455:291|455:291|442:251|444:219,1,152.999995330811,10|2,0:0|3:2,0:0:0:0:
408,101,159624,2,0,B|303:85|303:85|283:101|278:123,1,152.999995330811,10|2,0:0|3:2,0:0:0:0:
18,302,160283,6,0,B|123:318|123:318|143:302|147:279,1,152.999995330811,6|2,3:2|3:2,0:0:0:0:
203,182,160778,2,0,P|199:143|191:106,1,76.4999976654053,2|8,3:2|0:0,0:0:0:0:
314,24,161107,2,0,P|305:61|301:99,1,76.4999976654053,2|0,3:2|3:0,0:0:0:0:
274,236,161437,1,2,3:2:0:0:
274,236,161520,1,2,3:2:0:0:
274,236,161602,6,0,P|198:225|121:219,1,152.999995330811,6|0,0:0|3:0,0:0:0:0:
18,134,162096,1,0,3:0:0:0:
110,25,162261,2,0,P|134:19|160:16,2,50.9999984436036,8|8|8,3:0|0:3|0:3,0:0:0:0:
219,117,162591,2,0,P|244:120|268:126,2,50.9999984436036,4|4|4,0:3|0:3|0:3,0:0:0:0:
267,247,162921,6,0,B|273:279|256:339|256:339|282:321|329:322,1,170,4|8,3:2|0:0,0:0:0:0:
473,250,163415,1,2,3:2:0:0:
473,250,163498,1,2,3:2:0:0:
473,249,163580,2,0,P|465:291|461:334,1,85,0|2,3:0|0:0,0:0:0:0:
360,191,163910,2,0,P|364:148|371:106,1,85,10|2,0:0|0:0,0:0:0:0:
235,22,164239,6,0,P|179:82|194:163,1,170,2|10,3:2|0:0,0:0:0:0:
259,328,164734,1,2,0:0:0:0:
369,230,164899,2,0,P|328:218|285:215,1,85,0|2,3:0|0:0,0:0:0:0:
69,345,165228,2,0,P|109:332|152:330,1,85,8|2,0:0|0:0,0:0:0:0:
120,164,165558,6,0,P|78:167|38:180,1,85,8|2,0:0|3:2,0:0:0:0:
235,371,165888,2,0,P|240:329|252:288,1,85,8|2,0:0|3:2,0:0:0:0:
300,97,166217,1,8,0:0:0:0:
177,230,166382,1,2,3:2:0:0:
354,299,166547,1,8,0:0:0:0:
248,186,166712,1,0,3:0:0:0:
248,186,166794,1,0,3:0:0:0:
248,186,166877,6,0,P|289:176|331:171,1,85,12|0,0:0|3:0,0:0:0:0:
464,44,167206,1,0,3:0:0:0:
464,44,167289,1,0,3:0:0:0:
464,44,167371,2,0,P|447:83|435:123,1,85,12|0,0:0|3:0,0:0:0:0:
476,300,167701,1,0,3:0:0:0:
476,300,167783,1,0,3:0:0:0:
476,300,167866,2,0,P|450:265|421:235,1,85,12|0,0:0|3:0,0:0:0:0:
273,93,168195,5,0,3:0:0:0:
273,93,168278,1,0,3:0:0:0:
273,93,168360,2,0,B|224:106|184:99|184:99|199:141|199:178,1,170,12|0,0:0|3:0,0:0:0:0:
203,217,168772,1,0,3:0:0:0:
203,217,168855,6,0,B|108:257|114:178|19:213,1,191.250007295609,12|0,0:0|0:0,0:0:0:0:
57,355,169514,6,0,P|58:323|65:292,1,63.7500024318696,4|0,3:2|0:0,0:0:0:0:
10,150,169844,2,0,P|11:181|18:212,1,63.7500024318696,0|0,3:0|0:0,0:0:0:0:
141,257,170173,2,0,P|204:246|268:242,1,127.500004863739,2|0,3:2|3:0,0:0:0:0:
353,135,170668,1,0,0:0:0:0:
353,135,170833,6,0,P|321:131|289:129,1,63.7500024318696,2|0,3:2|0:0,0:0:0:0:
172,56,171162,2,0,P|168:88|166:120,1,63.7500024318696,0|0,3:0|0:0,0:0:0:0:
141,257,171492,2,0,P|173:253|205:251,1,63.7500024318696,2|0,3:2|0:0,0:0:0:0:
350,226,171822,2,0,P|344:258|340:289,1,63.7500024318696,0|0,3:0|3:0,0:0:0:0:
270,365,172151,6,0,P|208:349|144:342,1,127.500004863739,2|0,3:2|3:0,0:0:0:0:
134,216,172646,1,0,0:0:0:0:
134,216,172811,2,0,P|197:223|259:238,1,127.500004863739,2|0,3:2|3:0,0:0:0:0:
380,330,173305,1,0,0:0:0:0:
379,330,173470,6,0,P|411:323|442:320,1,63.7500024318696,2|0,3:2|0:0,0:0:0:0:
504,205,173800,2,0,P|472:208|441:214,1,63.7500024318696,0|0,3:0|0:0,0:0:0:0:
355,130,174129,2,0,P|323:127|291:120,1,63.7500024318696,2|0,3:2|0:0,0:0:0:0:
193,192,174459,2,0,P|161:189|129:182,1,63.7500024318696,0|0,3:0|0:0,0:0:0:0:
89,322,174789,6,0,P|144:350|206:338,1,127.500004863739,2|0,3:2|3:0,0:0:0:0:
290,279,175283,1,0,0:0:0:0:
290,278,175448,2,0,P|283:246|279:215,1,63.7500024318696,2|0,3:2|0:0,0:0:0:0:
146,202,175778,2,0,P|149:233|156:264,1,63.7500024318696,0|0,3:2|0:0,0:0:0:0:
288,372,176107,6,0,P|350:359|414:354,2,127.500004863739,2|0|0,3:2|3:0|3:0,0:0:0:0:
148,336,176932,1,0,0:0:0:0:
148,336,177096,2,0,P|116:338|85:346,1,63.7500024318696,0|0,3:0|0:0,0:0:0:0:
37,222,177426,6,0,P|89:187|149:203,1,127.500004863739,2|2,3:0|3:0,0:0:0:0:
298,238,177921,1,0,0:0:0:0:
298,238,178085,2,0,P|235:227|172:224,1,127.500004863739,2|2,3:0|3:0,0:0:0:0:
113,78,178580,1,0,0:0:0:0:
281,122,178745,6,0,P|242:123|204:128,1,76.4999976654053,2|0,3:0|0:0,0:0:0:0:
11,245,179074,2,0,P|49:246|87:251,1,76.4999976654053,14|0,0:0|0:0,0:0:0:0:
258,210,179404,1,0,3:0:0:0:
253,240,179486,1,0,3:0:0:0:
249,270,179568,1,0,3:0:0:0:
245,301,179651,1,0,3:0:0:0:
241,331,179733,1,8,3:2:0:0:
134,174,179899,1,0,3:0:0:0:
134,174,179981,1,0,3:0:0:0:
134,174,180063,6,0,B|151:134|152:90|152:90|195:88|234:100,1,170,4|8,3:2|0:0,0:0:0:0:
348,57,180558,1,2,3:2:0:0:
370,224,180723,2,0,P|327:214|285:211,1,85,0|2,0:0|2:0,0:0:0:0:
197,348,181052,2,0,P|238:339|280:335,1,85,10|2,0:0|0:0,0:0:0:0:
452,317,181382,6,0,P|462:232|477:149,1,170,2|10,3:2|0:0,0:0:0:0:
376,22,181877,2,0,B|340:22|317:35|317:35|313:143,1,170,2|2,3:2|3:2,0:0:0:0:
358,361,182371,2,0,P|362:318|372:277,1,85,8|0,0:0|0:0,0:0:0:0:
246,211,182701,6,0,P|167:187|100:234,1,170,4|8,3:2|0:0,0:0:0:0:
193,364,183195,2,0,P|190:321|183:279,1,85,2|0,3:2|0:0,0:0:0:0:
35,104,183525,2,0,P|27:145|25:188,1,85,2|8,3:2|2:0,0:0:0:0:
106,324,183855,1,2,0:0:0:0:
246,234,184020,6,0,P|252:149|263:64,2,170,0|8|0,3:0|0:0|0:0,0:0:0:0:
141,171,184844,1,2,3:2:0:0:
348,119,185009,1,10,0:2:0:0:
299,307,185173,1,2,3:2:0:0:
86,266,185338,6,0,P|129:257|178:252,1,85,12|0,0:0|0:0,0:0:0:0:
419,218,185668,2,0,P|377:209|335:204,1,85,10|2,0:0|3:2,0:0:0:0:
243,36,185998,2,0,P|234:78|229:120,1,85,8|2,0:0|3:2,0:0:0:0:
260,356,186327,2,0,P|265:313|273:272,1,85,8|2,0:0|3:2,0:0:0:0:
355,111,186657,6,0,B|408:117|471:94|471:94|473:121|484:145,1,170,8|10,0:0|0:0,0:0:0:0:
510,267,187151,1,0,3:0:0:0:
425,361,187316,2,0,P|382:354|340:352,1,85,10|0,0:0|3:0,0:0:0:0:
270,195,187646,2,0,P|227:197|185:203,1,85,10|0,0:0|3:0,0:0:0:0:
3,105,187976,6,0,B|13:74|31:58|31:58|144:71,1,170,14|10,0:0|0:0,0:0:0:0:
102,269,188470,1,2,3:2:0:0:
102,269,188635,2,0,P|98:226|90:184,1,85,8|0,0:0|3:0,0:0:0:0:
249,24,188965,2,0,P|256:65|260:108,1,85,8|0,0:0|3:0,0:0:0:0:
298,259,189294,6,0,P|257:250|215:247,1,85,8|0,0:0|3:0,0:0:0:0:
22,301,189624,1,8,0:3:0:0:
38,329,189706,1,0,3:0:0:0:
64,349,189788,1,0,3:0:0:0:
96,357,189871,1,0,3:0:0:0:
129,352,189954,5,8,0:3:0:0:
164,329,190036,1,8,0:3:0:0:
206,321,190118,1,4,0:3:0:0:
247,328,190201,1,4,0:3:0:0:
284,350,190283,2,0,P|276:286|271:223,1,127.5,12|0,0:0|0:0,0:0:0:0:
247,197,190613,6,0,P|251:155|260:114,1,85,4|0,3:2|0:0,0:0:0:0:
453,223,190943,2,0,P|411:214|369:209,1,85,10|0,0:0|3:0,0:0:0:0:
179,251,191272,2,0,P|136:254|95:264,1,85,10|0,0:0|3:0,0:0:0:0:
36,141,191602,2,0,P|77:130|119:127,1,85,10|0,0:0|3:0,0:0:0:0:
276,274,191932,6,0,P|265:315|261:357,1,85,8|0,0:0|3:0,0:0:0:0:
213,143,192261,2,0,P|221:101|235:61,1,85,10|0,0:0|3:0,0:0:0:0:
371,17,192591,1,10,0:0:0:0:
371,17,192756,1,0,3:0:0:0:
492,184,192921,2,0,P|430:168|367:159,1,127.5,10|0,0:0|0:0,0:0:0:0:
358,185,193250,6,0,P|315:185|273:192,1,85,12|0,0:0|0:0,0:0:0:0:
106,118,193580,2,0,P|148:117|190:124,1,85,10|0,0:0|3:0,0:0:0:0:
326,272,193910,1,10,0:0:0:0:
163,201,194074,1,0,3:0:0:0:
210,373,194239,6,0,P|216:330|227:289,1,85,10|0,0:0|3:0,0:0:0:0:
257,33,194569,2,0,P|267:74|273:116,1,85,10|0,0:0|3:0,0:0:0:0:
81,211,194899,2,0,P|122:197|164:201,1,85,10|0,0:0|3:0,0:0:0:0:
329,273,195228,2,0,P|371:276|411:263,1,85,10|2,0:0|3:2,0:0:0:0:
471,159,195558,1,8,0:0:0:0:
512,319,195723,1,2,3:2:0:0:
512,319,195805,1,2,3:2:0:0:
512,319,195888,5,8,0:0:0:0:
360,192,196052,1,2,3:2:0:0:
360,192,196135,1,2,3:2:0:0:
360,192,196217,2,0,P|364:149|375:108,1,85,8|2,0:0|3:2,0:0:0:0:
248,20,196547,1,10,0:0:0:0:
248,20,196629,1,2,0:0:0:0:
248,20,196712,2,0,P|236:61|232:103,1,85,2|2,3:2|1:2,0:0:0:0:
234,262,197041,1,2,3:2:0:0:
81,211,197206,5,8,0:0:0:0:
274,176,197371,1,2,3:2:0:0:
227,354,197536,1,8,0:2:0:0:
42,298,197701,2,0,P|83:290|126:288,1,85,2|8,3:2|0:0,0:0:0:0:
331,312,198031,1,2,0:0:0:0:
231,101,198195,2,0,P|192:150|196:212,1,127.5,8|0,0:0|0:0,0:0:0:0:
216,245,198525,5,14,0:0:0:0:
376,194,198690,1,2,3:2:0:0:
309,370,198855,2,0,P|300:328|295:286,1,85,10|0,0:0|3:2,0:0:0:0:
455,131,199184,2,0,P|463:172|468:214,1,85,10|0,0:0|3:2,0:0:0:0:
253,75,199514,2,0,P|296:74|347:85,1,85,10|2,0:0|3:2,0:0:0:0:
232,217,199844,6,0,P|189:216|147:224,1,85,8|0,0:0|3:0,0:0:0:0:
26,345,200173,2,0,P|68:343|110:351,1,85,12|0,0:0|3:0,0:0:0:0:
284,279,200503,1,4,0:3:0:0:
309,245,200585,1,0,3:0:0:0:
312,203,200667,1,8,0:0:0:0:
293,166,200750,1,10,0:0:0:0:
257,143,200832,1,10,0:0:0:0:
157,22,200998,1,2,3:2:0:0:
157,22,201080,1,2,3:2:0:0:
156,22,201162,6,0,P|144:62|140:106,1,85,12|2,0:0|0:0,0:0:0:0:
79,263,201492,2,0,P|120:254|162:251,1,85,8|2,0:0|3:2,0:0:0:0:
359,355,201822,2,0,P|318:347|276:344,1,85,10|0,0:0|3:0,0:0:0:0:
244,192,202151,6,0,B|258:76|258:76|278:64|309:66,1,170,10|8,0:0|0:0,0:0:0:0:
461,149,202646,1,2,3:2:0:0:
461,149,202811,2,0,P|419:141|376:137,1,85,8|2,0:0|3:2,0:0:0:0:
123,109,203140,2,0,P|164:101|207:97,1,85,10|2,0:0|3:2,0:0:0:0:
337,223,203470,2,0,P|327:264|321:306,1,85,10|0,0:0|3:0,0:0:0:0:
114,354,203800,6,0,B|123:313|93:269|93:269|131:272|170:252,1,170,12|8,0:0|0:0,0:0:0:0:
246,174,204294,1,2,3:2:0:0:
246,174,204377,1,2,3:2:0:0:
246,174,204459,2,0,P|241:128|229:90,1,85,8|0,0:0|3:0,0:0:0:0:
84,30,204789,2,0,P|96:70|100:112,1,85,10|0,0:0|3:0,0:0:0:0:
170,252,205118,6,0,P|129:264|87:268,1,85,8|2,0:0|3:2,0:0:0:0:
313,121,205448,2,0,P|355:125|395:137,1,85,8|0,0:0|3:0,0:0:0:0:
269,335,205778,2,0,P|262:271|256:208,1,127.5,10|0,0:0|0:0,0:0:0:0:
270,195,206107,6,0,P|314:261|292:339,1,165.749992412568,12|0,0:0|0:0,0:0:0:0:
189,368,206437,6,0,P|163:360|135:356,2,56.6666666666667,12|2|2,0:0|3:2|0:0,0:0:0:0:
166,254,206767,2,0,P|139:245|111:241,2,56.6666666666667,8|2|2,0:0|0:0|0:0,0:0:0:0:
70,149,207096,2,0,P|76:107|95:69,1,85,8|0,0:0|3:0,0:0:0:0:
319,103,207426,2,0,P|276:103|235:114,1,85,8|0,0:0|3:0,0:0:0:0:
22,239,207756,6,0,P|24:265|33:301,2,56.6666666666667,8|2|2,0:0|0:0|0:0,0:0:0:0:
147,176,208085,2,0,P|153:148|156:120,2,56.6666666666667,8|2|2,0:0|0:0|0:0,0:0:0:0:
204,295,208415,1,8,0:0:0:0:
332,228,208580,1,2,3:2:0:0:
332,228,208662,1,2,3:2:0:0:
332,228,208745,6,0,B|371:235|416:220|416:220|397:261|404:298,1,165.749992412568,8|0,0:0|0:0,0:0:0:0:
477,350,209074,6,0,P|393:336|308:328,1,170,12|0,0:0|3:0,0:0:0:0:
165,182,209569,2,0,B|157:160|159:131|159:131|276:122,1,170,8|0,0:0|0:0,0:0:0:0:
417,30,210063,2,0,B|406:72|406:72|414:155|414:155|404:197,1,170,12|0,0:0|3:0,0:0:0:0:
256,264,210558,1,8,0:0:0:0:
256,264,211052,6,0,B|191:255|131:280|131:280|128:248|109:220,1,191.250007295609,2|0,0:0|0:0,0:0:0:0:
40,139,211712,5,4,0:0:0:0:
223,64,212041,1,2,0:0:0:0:
223,64,212206,1,2,0:0:0:0:
223,64,212371,2,0,P|191:57|160:55,1,63.7500024318696,2|0,0:0|0:0,0:0:0:0:
128,139,212701,2,0,P|159:141|190:147,1,63.7500024318696,2|2,0:0|0:0,0:0:0:0:
285,202,213031,6,0,P|303:261|271:314,1,127.500004863739,2|2,0:0|0:0,0:0:0:0:
130,374,213525,1,0,0:0:0:0:
129,374,213690,2,0,P|160:367|191:365,1,63.7500024318696,2|0,0:0|0:0,0:0:0:0:
183,274,214020,2,0,P|151:275|120:282,1,63.7500024318696,2|0,0:0|0:0,0:0:0:0:
271,314,214349,6,0,P|277:250|289:187,1,127.500004863739,2|0,0:0|0:0,0:0:0:0:
193,36,214844,2,0,P|181:98|175:162,1,127.500004863739,2|0,0:0|0:0,0:0:0:0:
354,336,215503,6,0,P|414:349|467:316,1,127.500004863739,2|0,0:0|0:0,0:0:0:0:
448,210,215998,1,2,0:0:0:0:
448,210,216162,2,0,P|387:196|334:229,1,127.500004863739,2|0,0:0|0:0,0:0:0:0:
258,307,216657,2,0,L|267:371,1,63.7500024318696,2|0,0:0|0:0,0:0:0:0:
168,359,216987,6,0,P|105:346|41:342,1,127.500004863739,2|2,0:0|0:0,0:0:0:0:
44,244,217481,1,2,0:0:0:0:
44,244,217646,2,0,P|107:247|170:260,1,127.500004863739,2|2,0:0|0:0,0:0:0:0:
253,179,218140,1,2,0:0:0:0:
175,45,218305,6,0,P|139:96|144:158,1,127.500004863739,2|2,0:0|0:0,0:0:0:0:
301,258,218800,2,0,P|336:206|331:144,1,127.500004863739,2|2,0:0|0:0,0:0:0:0:
248,12,219294,2,0,L|256:76,1,63.7500024318696,2|0,0:0|0:0,0:0:0:0:
208,199,219624,6,0,P|145:187|81:185,1,127.500004863739,2|2,0:0|0:0,0:0:0:0:
81,185,220118,1,2,0:3:0:0:
37,347,220448,2,0,P|68:347|100:352,1,63.7500024318696,2|2,0:0|0:3,0:0:0:0:
199,348,220778,6,0,P|252:316|311:336,1,127.500004863739,2|2,0:0|3:3,0:0:0:0:
409,348,221272,2,0,P|441:341|476:339,2,63.7500024318696,2|0|2,3:2|3:0|3:0,0:0:0:0:
353,266,221767,1,8,0:3:0:0:
353,266,221849,1,8,0:3:0:0:
353,266,221932,2,0,P|355:218|364:171,1,95.6250036478044,8|0,0:0|0:0,0:0:0:0:
375,141,222261,6,0,P|435:99|503:126,1,152.999995330811,6|2,3:2|0:0,0:0:0:0:
446,187,222756,1,2,3:2:0:0:
307,80,222921,2,0,B|196:66|196:66|178:77|171:98,1,152.999995330811,10|2,0:0|0:0,0:0:0:0:
145,206,223415,1,2,3:2:0:0:
6,111,223580,6,0,P|43:103|81:100,1,76.4999976654053,2|8,0:0|0:0,0:0:0:0:
324,194,223910,2,0,P|286:186|248:183,1,76.4999976654053,2|0,3:0|0:0,0:0:0:0:
139,356,224239,2,0,B|147:314|147:314|137:247|137:247|145:205,1,152.999995330811,10|2,0:0|3:2,0:0:0:0:
241,86,224734,1,0,3:0:0:0:
343,209,224899,6,0,B|351:251|351:251|341:318|341:318|349:360,1,152.999995330811,6|0,3:2|3:0,0:0:0:0:
239,258,225393,1,0,3:0:0:0:
331,122,225558,2,0,B|371:109|411:117|411:117|392:80|398:47,1,152.999995330811,14|0,0:0|0:0,0:0:0:0:
171,156,226052,6,0,B|130:168|91:161|91:161|109:197|103:230,1,152.999995330811,6|0,3:2|3:0,0:0:0:0:
291,320,226547,1,0,3:0:0:0:
252,199,226712,1,0,3:0:0:0:
193,368,226877,1,0,3:0:0:0:
355,248,227041,1,0,3:2:0:0:
355,248,227124,1,8,3:2:0:0:
355,248,227206,1,8,3:2:0:0:
184,112,227371,5,8,0:3:0:0:
184,112,227454,1,8,0:3:0:0:
184,112,227536,2,0,P|202:194|214:279,1,170,4|10,0:0|0:0,0:0:0:0:
306,136,228031,1,0,3:0:0:0:
31,183,228195,2,0,P|73:186|114:196,1,85,2|0,3:2|0:0,0:0:0:0:
373,231,228525,2,0,P|330:234|289:244,1,85,10|0,0:0|0:0,0:0:0:0:
223,94,228855,6,0,P|289:46|367:71,1,170,2|10,3:2|0:0,0:0:0:0:
512,190,229349,1,0,0:0:0:0:
428,331,229514,2,0,P|423:289|414:248,1,85,2|0,3:2|3:0,0:0:0:0:
468,33,229844,2,0,P|458:74|454:116,1,85,10|0,0:0|0:0,0:0:0:0:
199,158,230173,6,0,P|283:162|367:177,1,170,6|10,3:2|0:0,0:0:0:0:
512,346,230668,1,0,0:0:0:0:
512,346,230833,2,0,P|467:336|418:330,1,85,0|0,3:0|3:0,0:0:0:0:
286,304,231162,1,8,0:0:0:0:
452,223,231327,1,0,0:0:0:0:
316,94,231492,6,0,P|326:135|330:177,1,85,0|0,3:0|0:0,0:0:0:0:
196,363,231822,2,0,P|191:320|181:279,1,85,8|0,0:0|0:0,0:0:0:0:
126,112,232151,1,2,3:2:0:0:
19,230,232316,1,0,3:0:0:0:
19,230,232399,1,0,3:0:0:0:
19,229,232481,2,0,P|59:215|101:212,1,85,14|0,0:2|0:0,0:0:0:0:
373,297,232811,6,0,P|332:283|290:280,1,85,12|0,0:0|0:0,0:0:0:0:
207,125,233140,2,0,P|209:83|223:43,1,85,8|0,0:0|3:0,0:0:0:0:
204,333,233470,2,0,P|201:290|187:250,1,85,8|0,0:0|3:0,0:0:0:0:
308,127,233800,2,0,P|348:113|390:110,1,85,8|0,0:0|3:0,0:0:0:0:
500,216,234129,5,8,0:0:0:0:
500,216,234294,1,0,3:0:0:0:
403,337,234459,2,0,P|362:322|320:320,1,85,12|0,0:0|0:0,0:0:0:0:
217,143,234789,2,0,P|249:170|272:205,1,85,8|0,0:0|0:0,0:0:0:0:
170,373,235118,2,0,P|177:331|196:293,1,85,8|0,0:0|0:0,0:0:0:0:
342,113,235448,5,10,0:0:0:0:
342,113,235613,1,10,0:0:0:0:
69,218,235943,1,10,0:0:0:0:
306,370,236272,1,10,0:0:0:0:
223,82,236602,2,0,P|183:131|192:192,1,127.500004863739,12|0,0:0|3:0,0:0:0:0:
209,225,237014,1,0,3:0:0:0:
209,225,237096,6,0,P|251:215|293:211,1,85,12|0,0:0|0:0,0:0:0:0:
438,236,237426,1,4,0:3:0:0:
464,265,237508,1,8,3:0:0:0:
470,304,237590,1,8,3:0:0:0:
456,342,237673,1,8,0:0:0:0:
424,366,237755,1,10,0:2:0:0:
285,306,237921,1,2,3:2:0:0:
339,79,238085,5,14,0:2:0:0:
338,78,239734,6,0,P|288:81|237:89,1,102,6|0,3:2|0:0,0:0:0:0:
157,106,240063,6,0,P|220:111|283:121,1,127.5,6|0,3:2|0:0,0:0:0:0:
357,176,240393,6,0,B|342:214|342:214|340:287|340:287|325:323,1,152.999995330811,6|0,3:2|0:0,0:0:0:0:
220,371,240723,5,10,3:2:0:0:
258,204,240888,1,0,3:0:0:0:
421,262,241052,1,2,3:2:0:0:
238,298,241217,1,2,3:2:0:0:
224,112,241382,1,0,3:0:0:0:
330,248,241547,1,2,3:2:0:0:
148,325,241712,1,0,3:0:0:0:
282,35,241877,6,0,P|268:118|258:203,1,170,6|0,3:2|3:0,0:0:0:0:
257,203,242289,1,0,3:0:0:0:
257,203,242371,1,8,0:0:0:0:
119,110,242536,1,2,0:0:0:0:
60,277,242701,5,4,0:3:0:0:
81,247,242783,1,0,3:0:0:0:
116,231,242865,1,0,3:0:0:0:
152,230,242948,1,0,3:0:0:0:
184,245,243031,1,8,0:0:0:0:
209,273,243113,1,8,0:3:0:0:
244,287,243195,1,4,0:3:0:0:
282,286,243278,1,4,0:3:0:0:
313,266,243360,6,0,B|327:227|321:187|321:187|356:212|407:203,1,170,4|10,3:2|0:2,0:2:0:0:
512,302,243855,1,2,3:2:0:0:
512,302,244020,2,0,P|469:302|428:312,1,85,10|0,0:2|3:2,0:2:0:0:
393,114,244349,2,0,P|434:103|476:103,1,85,10|2,0:2|3:2,0:2:0:0:
311,229,244679,6,0,B|194:211|194:211|176:227|168:256,1,170,10|10,0:2|0:2,0:2:0:0:
46,335,245173,1,2,3:2:0:0:
46,335,245338,2,0,L|34:250,1,85,8|2,0:2|3:2,0:2:0:0:
120,78,245668,2,0,P|113:117|108:163,1,85,10|2,0:2|3:2,0:2:0:0:
173,342,245998,6,0,B|212:333|212:333|299:349|299:349|339:342,1,170,12|8,0:2|0:2,0:2:0:0:
438,186,246492,2,0,P|398:177|353:175,1,85,2|8,3:2|0:2,0:2:0:0:
240,249,246822,2,0,P|197:247|156:237,1,85,2|8,3:2|0:2,0:2:0:0:
241,36,247151,6,0,P|250:77|254:119,1,85,2|8,3:2|0:2,0:2:0:0:
339,341,247481,2,0,P|348:300|353:258,1,85,2|12,3:2|0:2,0:2:0:0:
346,93,247811,1,2,0:2:0:0:
507,194,247976,5,8,0:2:0:0:
475,189,248058,1,8,0:2:0:0:
444,184,248140,1,8,0:2:0:0:
415,181,248223,1,8,0:2:0:0:
384,177,248305,1,10,0:2:0:0:
238,260,248470,1,2,3:2:0:0:
238,260,248552,1,0,3:2:0:0:
238,259,248635,6,0,P|226:174|211:91,1,170,4|10,0:2|0:2,0:2:0:0:
108,212,249129,1,2,3:2:0:0:
198,358,249294,2,0,P|239:349|281:345,1,85,10|0,0:2|3:2,0:2:0:0:
108,212,249624,2,0,P|65:215|24:224,1,85,10|2,0:2|3:2,0:2:0:0:
238,258,249954,6,0,P|247:174|261:90,2,170,10|10|10,0:2|0:2|0:2,0:2:0:0:
143,119,250778,1,0,3:2:0:0:
413,168,250943,2,0,P|370:173|329:182,1,85,10|0,0:2|3:2,0:2:0:0:
133,231,251272,1,4,3:2:0:0:
137,260,251354,1,8,3:2:0:0:
142,289,251436,1,8,3:2:0:0:
146,317,251519,1,8,3:3:0:0:
150,346,251601,1,8,3:3:0:0:
327,288,251767,5,4,0:3:0:0:
327,288,251849,1,4,0:3:0:0:
327,288,251932,1,4,3:2:0:0:
258,175,252096,1,4,3:0:0:0:
226,359,252261,1,4,3:0:0:0:
470,284,252426,6,0,P|385:271|301:263,1,170,4|0,3:2|3:2,0:2:0:0:
180,148,252921,1,12,0:2:0:0:
330,48,253085,5,8,0:2:0:0:
330,48,253168,1,8,0:2:0:0:
330,48,253250,2,0,L|282:53,1,42.5,0|0,3:2|3:2,0:2:0:0:
294,161,253415,1,0,3:2:0:0:
294,161,253498,1,0,3:2:0:0:
294,161,253580,2,0,L|342:156,1,42.5,0|0,3:2|3:2,0:2:0:0:
449,123,253745,2,0,L|440:165,1,42.5,0|0,3:2|3:2,0:2:0:0:
384,287,253910,6,0,B|342:284|310:268|310:268|312:310|294:341,1,152.999995330811,6|0,3:2|3:2,0:2:0:0:
148,279,254404,1,0,0:0:0:0:
148,279,254569,2,0,P|186:280|223:287,1,76.4999976654053,8|2,0:0|0:0,0:0:0:0:
249,170,254899,2,0,P|211:163|173:161,1,76.4999976654053,2|0,3:2|0:0,0:0:0:0:
64,176,255228,5,2,3:2:0:0:
13,27,255393,2,0,B|14:49|27:69|27:69|133:51,1,152.999995330811,10|2,0:0|3:2,0:0:0:0:
277,87,255888,2,0,B|319:81|319:81|388:107|388:107|424:104,1,152.999995330811,10|2,0:0|3:2,0:0:0:0:
510,331,256547,6,0,B|468:325|468:325|399:351|399:351|363:348,1,152.999995330811,6|2,3:2|0:2,0:0:0:0:
187,346,257041,2,0,P|224:350|262:358,1,76.4999976654053,2|8,3:2|0:0,0:0:0:0:
382,234,257371,2,0,P|343:237|306:246,1,76.4999976654053,2|0,0:0|3:0,0:0:0:0:
173,254,257701,1,2,3:2:0:0:
173,254,257783,1,2,3:2:0:0:
173,254,257866,6,0,P|163:217|163:178,1,76.4999976654053,6|0,3:2|3:0,0:0:0:0:
203,67,258195,1,0,3:0:0:0:
317,33,258360,2,0,L|355:40,2,38.2499988327027,8|8|0,3:2|3:2|3:2,0:0:0:0:
267,152,258690,1,8,0:3:0:0:
267,177,258772,1,8,0:3:0:0:
268,203,258854,1,8,0:3:0:0:
270,230,258937,1,8,0:3:0:0:
273,256,259019,1,4,0:3:0:0:
277,282,259102,1,4,0:3:0:0:
282,306,259184,6,0,P|323:298|366:295,1,85,4|0,3:2|0:0,0:0:0:0:
490,206,259514,2,0,P|448:197|405:194,1,85,8|0,0:0|0:0,0:0:0:0:
184,253,259844,2,0,P|175:294|172:337,1,85,0|2,3:0|0:0,0:0:0:0:
300,210,260173,2,0,P|297:167|288:125,1,85,10|2,0:0|0:0,0:0:0:0:
152,22,260503,6,0,B|122:16|102:27|102:27|91:145,1,170,2|10,3:2|0:0,0:0:0:0:
26,275,260998,1,2,0:0:0:0:
26,275,261162,2,0,P|66:263|109:264,1,85,0|2,3:0|0:0,0:0:0:0:
258,341,261492,2,0,P|300:342|341:330,1,85,8|2,0:0|0:0,0:0:0:0:
239,135,261822,6,0,P|231:176|225:218,1,85,12|0,0:0|3:0,0:0:0:0:
97,348,262151,2,0,P|101:305|109:264,1,85,8|0,0:0|3:0,0:0:0:0:
144,121,262481,1,8,0:0:0:0:
144,121,262646,1,0,3:0:0:0:
221,297,262811,1,10,0:0:0:0:
320,198,262976,1,2,3:2:0:0:
320,198,263058,1,0,3:2:0:0:
320,198,263140,6,0,P|362:200|403:210,1,85,12|0,0:0|0:0,0:0:0:0:
493,101,263470,1,2,3:2:0:0:
493,101,263552,1,0,3:2:0:0:
493,101,263635,2,0,P|451:90|409:88,1,85,12|0,0:0|0:0,0:0:0:0:
251,80,263965,2,0,L|246:37,2,42.5,2|0|10,3:2|3:2|0:2,0:2:0:0:
212,228,264349,2,0,L|218:260,2,28.3333333333333,0|0|8,3:0|3:0|0:3,0:0:0:0:
191,202,264541,6,0,P|149:192|107:189,1,85,8|0,0:0|3:0,0:0:0:0:
31,236,264789,1,8,0:0:0:0:
31,236,264871,2,0,L|38:329,1,85,8|0,3:0|3:0,0:0:0:0:
111,366,265118,1,8,3:0:0:0:
111,366,265201,2,0,P|152:356|194:352,1,85,8|0,0:0|3:0,0:0:0:0:
284,353,265448,1,8,0:0:0:0:
284,353,265531,1,8,0:0:0:0:
284,353,267261,5,0,3:0:0:0:
284,353,267344,1,0,3:0:0:0:
284,353,267426,1,12,0:0:0:0:
257,214,267591,1,2,0:0:0:0:
135,293,267756,5,8,3:0:0:0:
101,310,267838,1,0,3:0:0:0:
63,311,267920,1,8,0:0:0:0:
29,295,268003,1,8,0:0:0:0:
5,265,268085,2,0,L|11:222,1,42.5,8|8,3:3|0:3,0:0:0:0:
107,79,268250,2,0,L|101:120,1,42.5,8|8,3:3|0:3,0:0:0:0:
88,229,268415,6,0,P|172:219|257:214,1,170,4|8,3:2|0:0,0:0:0:0:
358,138,268910,1,2,3:2:0:0:
358,138,269074,2,0,P|316:128|274:127,1,85,8|0,0:0|3:0,0:0:0:0:
253,295,269404,2,0,P|295:296|336:305,1,85,8|2,0:0|3:2,0:0:0:0:
473,159,269734,6,0,P|466:116|455:76,1,85,8|0,0:0|3:0,0:0:0:0:
415,259,270063,2,0,P|426:299|432:341,1,85,8|2,0:0|3:2,0:0:0:0:
311,161,270393,1,8,0:0:0:0:
258,307,270559,1,2,3:2:0:0:
381,194,270723,1,8,0:0:0:0:
215,147,270887,1,2,3:2:0:0:
128,288,271052,6,0,B|124:327|141:362|141:362|90:341|44:348,1,170,12|8,0:0|0:0,0:0:0:0:
27,212,271547,1,2,3:2:0:0:
27,212,271712,2,0,P|31:168|43:128,1,85,8|0,0:0|3:0,0:0:0:0:
285,214,272041,2,0,P|241:218|201:230,1,85,8|2,0:0|3:2,0:0:0:0:
145,75,272371,6,0,P|185:63|227:59,1,85,8|0,0:0|3:0,0:0:0:0:
377,28,272701,2,0,P|368:69|364:111,1,85,8|2,0:0|3:2,0:0:0:0:
297,297,273031,2,0,P|292:254|284:213,1,85,8|2,0:0|3:2,0:0:0:0:
486,217,273360,2,0,P|444:208|402:204,1,85,8|2,0:0|3:2,0:0:0:0:
184,176,273690,6,0,P|196:260|203:344,1,170,12|8,0:0|0:0,0:0:0:0:
284,213,274184,1,2,3:2:0:0:
37,275,274349,2,0,P|79:277|121:285,1,85,8|0,0:0|3:0,0:0:0:0:
317,380,274679,2,0,P|314:337|306:295,1,85,8|2,0:0|3:2,0:0:0:0:
255,108,275008,5,8,0:0:0:0:
173,225,275173,1,2,3:2:0:0:
173,225,275256,1,0,3:0:0:0:
173,225,275338,1,12,0:0:0:0:
355,202,275503,1,2,3:2:0:0:
278,29,275668,1,8,3:0:0:0:
278,29,275750,1,0,3:0:0:0:
278,29,275832,1,2,3:2:0:0:
278,29,275915,1,2,3:2:0:0:
278,29,275998,6,0,P|263:100|253:179,1,152.999995330811,12|0,0:0|0:0,0:0:0:0:
273,312,276327,6,0,B|277:340|298:360|298:360|411:340,1,170,8|0,0:0|3:0,0:0:0:0:
507,192,276822,2,0,B|503:164|482:144|482:144|369:164,1,170,12|0,0:0|3:0,0:0:0:0:
159,323,277316,2,0,B|151:281|151:281|156:198|156:198|146:156,1,170,8|0,0:0|0:0,0:0:0:0:
45,53,277810,1,12,0:0:0:0:
45,53,278305,6,0,B|53:111|23:178|23:178|80:145|145:155|145:155|130:196|135:249,1,350.625013375283,2|0,0:0|0:0,0:0:0:0:
147,285,279294,5,4,3:2:0:0:
256,192,279377,12,0,285558,0:0:0:0:
