osu file format v14

[General]
AudioFilename: audio.mp3
AudioLeadIn: 0
PreviewTime: 187725
Countdown: 0
SampleSet: Soft
StackLeniency: 0.4
Mode: 0
LetterboxInBreaks: 0
WidescreenStoryboard: 1

[Editor]
Bookmarks: 6096,17068,28039,39011,44496,51353,73296,80153,88382,91125,102096,107582,115811,137753,143239,151468,154211,165182,165353,165525,165696,165868,166039,166211,166382,166553,166725,166896,167068,167239,167411,167582,167753,167925,168096,168268,168439,168611,168782,168953,169125,169296,169468,169639,169811,169982,170153,170325,170496,170668,170839,171011,171182,171353,171525,171696,171868,172039,172211,172382,172553,172725,172896,173068,173239,173411,173582,173753,173925,174096,174268,174439,174611,174782,174953,175125,175296,175468,175639,175811,175982,176153,176325,176496,176668,176839,177011,177182,177353,177525,177696,177868,178039,178211,178382,178896,181639,188496,191239,210439
DistanceSpacing: 1.5
BeatDivisor: 8
GridSize: 32
TimelineZoom: 1.3

[Metadata]
Title:Hyakka Ryouran Hanafubuki
TitleUnicode:百花繚乱花吹雪
Artist:hololive IDOL PROJECT
ArtistUnicode:hololive IDOL PROJECT
Creator:Hojo Karen
Version:Iceluin's Hard
Source:
Tags:Mimilie Suzuhara Lulu Hitsukuya -[Shady]- Shady Iceluin virtual youtuber vtuber 大神ミオ ookami mio 白上フブキ shirakami fubuki 百鬼あやめ nakiri ayame pop japanese j-pop jpop rock jrock j-rock ホロライブ
BeatmapID:2770393
BeatmapSetID:1337388

[Difficulty]
HPDrainRate:4
CircleSize:3.6
OverallDifficulty:6.5
ApproachRate:8
SliderMultiplier:1.4
SliderTickRate:1

[Events]
//Background and Video events
0,0,"Konachan.com - 314417 sample.jpg",0,0
//Break Periods
2,165382,177803
//Storyboard Layer 0 (Background)
//Storyboard Layer 1 (Fail)
//Storyboard Layer 2 (Pass)
//Storyboard Layer 3 (Foreground)
//Storyboard Layer 4 (Overlay)
//Storyboard Sound Samples

[TimingPoints]
611,342.857142857143,4,2,1,50,1,0
611,-117.647058823529,4,2,1,50,0,0
3868,-117.647058823529,4,2,1,60,0,0
4125,-117.647058823529,4,2,1,5,0,0
4211,-117.647058823529,4,2,1,60,0,0
4468,-117.647058823529,4,2,1,5,0,0
4553,-117.647058823529,4,2,1,60,0,0
4811,-117.647058823529,4,2,1,5,0,0
4896,-117.647058823529,4,2,1,60,0,0
5582,-117.647058823529,4,2,1,70,0,0
5668,-117.647058823529,4,2,1,5,0,0
5753,-117.647058823529,4,2,1,70,0,0
5839,-117.647058823529,4,2,1,5,0,0
5925,-117.647058823529,4,2,1,70,0,0
6011,-117.647058823529,4,2,1,5,0,0
6096,-100,4,2,1,70,0,0
7896,-100,4,2,1,5,0,0
7981,-100,4,2,1,70,0,0
8753,-100,4,2,1,5,0,0
8839,-100,4,2,1,70,0,0
10296,-100,4,2,1,5,0,0
10382,-100,4,2,1,70,0,0
11325,-100,4,2,1,5,0,0
11411,-100,4,2,1,70,0,0
11496,-100,4,2,1,5,0,0
11582,-100,4,2,1,70,0,0
13382,-100,4,2,1,5,0,0
13468,-100,4,2,1,70,0,0
17068,-117.647058823529,4,2,1,50,0,0
18525,-117.647058823529,4,2,1,5,0,0
18611,-117.647058823529,4,2,1,50,0,0
20411,-117.647058823529,4,2,1,5,0,0
20496,-117.647058823529,4,2,1,50,0,0
20753,-117.647058823529,4,2,1,5,0,0
20838,-117.647058823529,4,2,1,50,0,0
21096,-117.647058823529,4,2,1,5,0,0
21181,-117.647058823529,4,2,1,50,0,0
23839,-117.647058823529,4,2,1,5,0,0
23925,-117.647058823529,4,2,1,50,0,0
27953,-117.647058823529,4,2,1,50,0,0
28039,-100,4,2,1,60,0,0
29496,-100,4,2,1,5,0,0
29582,-100,4,2,1,60,0,0
38668,-100,4,2,1,70,0,0
38925,-100,4,2,1,5,0,0
39011,-133.333333333333,4,2,1,40,0,0
43296,-133.333333333333,4,2,1,5,0,0
43382,-133.333333333333,4,2,1,40,0,0
43553,-133.333333333333,4,2,1,5,0,0
43639,-133.333333333333,4,2,1,40,0,0
44496,-100,4,2,1,60,0,0
44753,-100,4,2,1,5,0,0
44839,-100,4,2,1,60,0,0
45439,-100,4,2,1,5,0,0
45525,-100,4,2,1,60,0,0
47239,-100,4,2,1,70,0,0
51353,-90.9090909090909,4,2,1,70,0,1
54353,-90.9090909090909,4,2,1,5,0,1
54439,-90.9090909090909,4,2,1,70,0,1
56753,-90.9090909090909,4,2,1,5,0,1
56839,-90.9090909090909,4,2,1,70,0,1
57096,-90.9090909090909,4,2,1,5,0,1
57182,-90.9090909090909,4,2,1,70,0,1
58468,-90.9090909090909,4,2,1,5,0,1
58553,-90.9090909090909,4,2,1,70,0,1
60011,-90.9090909090909,4,2,1,5,0,1
60096,-90.9090909090909,4,2,1,70,0,1
60353,-90.9090909090909,4,2,1,5,0,1
60438,-90.9090909090909,4,2,1,70,0,1
60696,-90.9090909090909,4,2,1,5,0,1
60781,-90.9090909090909,4,2,1,70,0,1
61039,-90.9090909090909,4,2,1,5,0,1
61124,-90.9090909090909,4,2,1,70,0,1
62239,-90.9090909090909,4,2,1,70,0,1
62325,-90.9090909090909,4,2,1,80,0,1
65325,-90.9090909090909,4,2,1,5,0,1
65411,-90.9090909090909,4,2,1,80,0,1
69953,-90.9090909090909,4,2,1,5,0,1
70039,-90.9090909090909,4,2,1,80,0,1
73296,-117.647058823529,4,2,1,60,0,0
76811,-117.647058823529,4,2,1,5,0,0
76896,-117.647058823529,4,2,1,60,0,0
77153,-117.647058823529,4,2,1,5,0,0
77239,-117.647058823529,4,2,1,60,0,0
77496,-117.647058823529,4,2,1,5,0,0
77582,-117.647058823529,4,2,1,60,0,0
78696,-117.647058823529,4,2,1,5,0,0
78782,-117.647058823529,4,2,1,60,0,0
78868,-117.647058823529,4,2,1,5,0,0
78953,-117.647058823529,4,2,1,55,0,0
79039,-117.647058823529,4,2,1,5,0,0
79125,-117.647058823529,4,2,1,50,0,0
79211,-117.647058823529,4,2,1,5,0,0
79296,-117.647058823529,4,2,1,45,0,0
79382,-117.647058823529,4,2,1,5,0,0
79468,-117.647058823529,4,2,1,40,0,0
79553,-117.647058823529,4,2,1,5,0,0
79639,-117.647058823529,4,2,1,35,0,0
79725,-117.647058823529,4,2,1,5,0,0
79811,-117.647058823529,4,2,1,30,0,0
79896,-117.647058823529,4,2,1,5,0,0
79982,-117.647058823529,4,2,1,25,0,0
80068,-117.647058823529,4,2,1,5,0,0
80153,-166.666666666667,4,2,1,40,0,0
88296,-166.666666666667,4,2,1,5,0,0
88382,-117.647058823529,4,2,1,50,0,0
89753,-117.647058823529,4,2,1,60,0,0
90525,-117.647058823529,4,2,1,5,0,0
90611,-117.647058823529,4,2,1,60,0,0
91039,-117.647058823529,4,2,1,5,0,0
91125,-100,4,2,1,60,0,0
92582,-100,4,2,1,5,0,0
92668,-100,4,2,1,60,0,0
101753,-100,4,2,1,70,0,0
102011,-100,4,2,1,5,0,0
102096,-133.333333333333,4,2,1,40,0,0
107496,-133.333333333333,4,2,1,5,0,0
107582,-100,4,2,1,60,0,0
108525,-100,4,2,1,5,0,0
108611,-100,4,2,1,60,0,0
109553,-100,4,2,1,5,0,0
109639,-100,4,2,1,60,0,0
110325,-100,4,2,1,70,0,0
113068,-133.333333333333,4,2,1,60,0,0
114439,-100,4,2,1,70,0,0
115725,-100,4,2,1,5,0,0
115811,-90.9090909090909,4,2,1,80,0,1
118811,-90.9090909090909,4,2,1,5,0,1
118896,-90.9090909090909,4,2,1,80,0,1
121211,-90.9090909090909,4,2,1,5,0,1
121296,-90.9090909090909,4,2,1,80,0,1
121553,-90.9090909090909,4,2,1,5,0,1
121639,-90.9090909090909,4,2,1,80,0,1
122925,-90.9090909090909,4,2,1,5,0,1
123011,-90.9090909090909,4,2,1,80,0,1
124039,-90.9090909090909,4,2,1,70,0,1
124468,-90.9090909090909,4,2,1,5,0,1
124553,-90.9090909090909,4,2,1,80,0,1
124811,-90.9090909090909,4,2,1,5,0,1
124896,-90.9090909090909,4,2,1,80,0,1
125153,-90.9090909090909,4,2,1,5,0,1
125238,-90.9090909090909,4,2,1,80,0,1
125496,-90.9090909090909,4,2,1,5,0,1
125581,-90.9090909090909,4,2,1,80,0,1
129782,-90.9090909090909,4,2,1,5,0,1
129868,-90.9090909090909,4,2,1,80,0,1
134411,-90.9090909090909,4,2,1,5,0,1
134496,-90.9090909090909,4,2,1,80,0,1
137753,-117.647058823529,4,2,1,60,0,0
141011,-117.647058823529,4,2,1,60,0,0
141268,-117.647058823529,4,2,1,5,0,0
141353,-117.647058823529,4,2,1,60,0,0
141611,-117.647058823529,4,2,1,5,0,0
141696,-117.647058823529,4,2,1,60,0,0
141953,-117.647058823529,4,2,1,5,0,0
142039,-117.647058823529,4,2,1,60,0,0
143153,-117.647058823529,4,2,1,5,0,0
143239,-133.333333333333,4,2,1,60,0,0
145896,-133.333333333333,4,2,1,5,0,0
145982,-133.333333333333,4,2,1,60,0,0
151382,-133.333333333333,4,2,1,5,0,0
151468,-117.647058823529,4,2,1,60,0,0
151725,-117.647058823529,4,2,1,5,0,0
151811,-117.647058823529,4,2,1,70,0,0
152925,-117.647058823529,4,2,1,5,0,0
153011,-117.647058823529,4,2,1,70,0,0
154211,-100,4,2,1,80,0,0
154468,-100,4,2,1,5,0,0
154553,-100,4,2,1,80,0,0
155668,-100,4,2,1,5,0,0
155753,-100,4,2,1,80,0,0
157039,-100,4,2,1,5,0,0
157125,-100,4,2,1,80,0,0
159953,-100,4,2,1,5,0,0
160039,-100,4,2,1,80,0,0
165182,-166.666666666667,4,2,1,40,0,0
178553,-166.666666666667,4,2,1,50,0,0
178811,-166.666666666667,4,2,1,5,0,0
178896,-117.647058823529,4,2,1,60,0,0
181639,-100,4,2,1,60,0,0
181896,-100,4,2,1,5,0,0
181982,-100,4,2,1,60,0,0
182582,-100,4,2,1,5,0,0
182668,-100,4,2,1,60,0,0
188496,-166.666666666667,4,2,1,60,0,0
190382,-166.666666666667,4,2,1,70,0,0
191153,-166.666666666667,4,2,1,5,0,0
191239,-90.9090909090909,4,2,1,80,0,1
191496,-90.9090909090909,4,2,1,5,0,1
191582,-90.9090909090909,4,2,1,80,0,1
193896,-90.9090909090909,4,2,1,5,0,1
193982,-90.9090909090909,4,2,1,80,0,1
194239,-90.9090909090909,4,2,1,5,0,1
194325,-90.9090909090909,4,2,1,80,0,1
195611,-90.9090909090909,4,2,1,5,0,1
195696,-90.9090909090909,4,2,1,80,0,1
197153,-90.9090909090909,4,2,1,5,0,1
197238,-90.9090909090909,4,2,1,80,0,1
197496,-90.9090909090909,4,2,1,5,0,1
197581,-90.9090909090909,4,2,1,80,0,1
197839,-90.9090909090909,4,2,1,5,0,1
197924,-90.9090909090909,4,2,1,80,0,1
198182,-90.9090909090909,4,2,1,5,0,1
198267,-90.9090909090909,4,2,1,80,0,1
202468,-90.9090909090909,4,2,1,5,0,1
202553,-90.9090909090909,4,2,1,80,0,1
207096,-90.9090909090909,4,2,1,5,0,1
207182,-90.9090909090909,4,2,1,80,0,1
210439,-117.647058823529,4,2,1,60,0,0
213696,-117.647058823529,4,2,1,60,0,0
213953,-117.647058823529,4,2,1,5,0,0
214039,-117.647058823529,4,2,1,60,0,0
214296,-117.647058823529,4,2,1,5,0,0
214382,-117.647058823529,4,2,1,60,0,0
214639,-117.647058823529,4,2,1,5,0,0
214725,-117.647058823529,4,2,1,60,0,0
216011,-117.647058823529,4,2,1,5,0,0
216097,-117.647058823529,4,2,1,60,0,0
217382,-117.647058823529,4,2,1,5,0,0
217468,-117.647058823529,4,2,1,60,0,0

[Colours]
Combo1 : 218,171,250
Combo2 : 211,211,211
Combo3 : 254,165,165
Combo4 : 251,185,125

[HitObjects]
96,96,611,5,6,1:1:0:0:
96,96,2496,5,10,0:1:0:0:
224,224,2839,1,10,0:1:0:0:
165,294,3011,1,2,1:0:0:0:
165,294,3182,1,0,1:0:0:0:
224,362,3353,6,0,L|287:362,1,59.5000011348725,6|2,1:1|1:2,0:0:0:0:
335,362,3611,1,2,1:2:0:0:
335,362,3696,1,2,1:2:0:0:
394,294,3868,1,2,1:0:0:0:
283,154,4211,1,10,0:1:0:0:
283,154,4553,6,0,B|229:154|229:154|211:140|211:140|160:140,1,119.000002269745,6|10,0:1|0:1,0:0:0:0:
168,49,5068,2,0,B|231:49,1,59.5000011348725,10|2,1:0|1:0,0:0:0:0:
304,2,5411,1,10,0:1:0:0:
379,49,5582,1,10,0:3:0:0:
468,49,5753,2,0,B|491:79|491:79|491:136,1,89.2500017023087,10|0,0:3|0:0,0:0:0:0:
478,174,6096,6,0,L|408:174,1,70,6|10,0:1|0:3,0:0:0:0:
362,174,6353,1,2,0:2:0:0:
362,174,6439,1,10,0:1:0:0:
294,236,6611,2,0,P|321:173|294:111,1,140,10|10,1:3|1:3,0:0:0:0:
227,49,7125,1,10,0:1:0:0:
161,111,7296,6,0,B|55:111|55:111|29:134,1,140,10|10,1:3|1:3,0:0:0:0:
0,169,7725,1,2,1:2:0:0:
0,169,7811,1,10,0:1:0:0:
65,232,7982,1,10,1:3:0:0:
32,316,8153,2,0,P|65:324|99:316,1,70,2|8,1:1|1:3,0:0:0:0:
181,275,8496,1,8,0:1:0:0:
181,275,8839,6,0,L|256:275,1,70,2|10,1:0|0:3,0:0:0:0:
335,310,9182,2,0,P|345:274|335:238,1,70,10|10,0:1|0:3,0:0:0:0:
311,205,9439,1,2,1:1:0:0:
311,205,9525,2,0,P|301:169|311:133,1,70,2|10,1:1|1:3,0:0:0:0:
382,84,9868,1,10,0:1:0:0:
455,137,10039,6,0,B|477:172|465:217|443:203|431:246|456:279,1,140,14|10,1:3|1:3,0:0:0:0:
512,338,10553,1,10,0:1:0:0:
512,338,10725,1,10,1:3:0:0:
450,269,10896,2,0,B|431:269|431:269|415:277|415:277|400:269|400:269|383:269,1,70,10|8,1:0|1:3,0:0:0:0:
325,338,11239,2,0,B|306:338|306:338|290:330|290:330|275:338|275:338|258:338,1,70,10|10,0:1|0:3,0:0:0:0:
174,374,11582,6,0,B|159:341|159:341|171:309,1,70,6|10,1:1|0:3,0:0:0:0:
196,271,11839,1,2,0:1:0:0:
196,271,11925,1,10,0:1:0:0:
133,205,12096,2,0,B|148:172|148:172|136:140,2,70,10|2|10,0:3|1:1|1:3,0:0:0:0:
65,268,12611,1,10,0:1:0:0:
0,205,12782,6,0,B|0:95|0:95|17:65,1,140,10|10,1:3|1:3,0:0:0:0:
45,34,13211,1,2,1:1:0:0:
45,34,13296,1,10,1:1:0:0:
119,86,13468,1,10,1:3:0:0:
193,34,13639,2,0,L|263:34,1,70,2|10,1:0|1:3,0:0:0:0:
338,86,13982,2,0,L|408:86,1,70,10|8,0:1|0:1,0:0:0:0:
483,34,14325,5,10,0:1:0:0:
483,34,14839,1,10,0:0:0:0:
483,34,15182,1,10,0:1:0:0:
408,86,15353,1,2,1:1:0:0:
483,137,15525,6,0,B|497:172|497:172|481:205|481:205|497:238|497:238|481:274,1,140,6|0,1:1|1:0,0:0:0:0:
408,313,16039,2,0,B|374:329|374:329|341:314,1,70,8|0,0:1|1:0,0:0:0:0:
268,264,16382,1,2,1:0:0:0:
193,315,16553,1,8,0:3:0:0:
193,315,16725,1,8,0:3:0:0:
101,189,17068,5,6,1:1:0:0:
176,138,17239,1,0,1:0:0:0:
176,138,18268,5,6,1:0:0:0:
176,138,18611,1,6,1:1:0:0:
101,87,18782,1,0,1:0:0:0:
101,87,19639,5,6,1:0:0:0:
176,39,19811,2,0,L|295:39,1,119.000002269745,0|6,1:0|1:1,0:0:0:0:
295,217,20496,2,0,L|176:217,1,119.000002269745,4|6,1:0|1:0,0:0:0:0:
176,217,21182,5,4,1:0:0:0:
105,162,21353,1,2,1:0:0:0:
105,162,21696,2,0,P|82:215|104:269,1,119.000002269745,6|0,1:0|1:0,0:0:0:0:
130,306,22125,1,0,1:0:0:0:
130,306,22211,2,0,L|194:306,1,59.5000011348725,10|0,0:1|1:3,0:0:0:0:
258,361,22553,5,6,1:2:0:0:
258,361,23068,1,6,1:0:0:0:
391,242,23411,1,0,1:0:0:0:
469,284,23582,2,0,B|488:240|488:240|468:197,1,89.2500017023087,6|0,1:1|0:0,0:0:0:0:
446,164,23925,5,2,1:0:0:0:
446,164,24439,1,10,0:1:0:0:
305,273,24782,2,0,B|294:236|294:236|317:191|317:191|303:156,1,119.000002269745,12|2,1:0|1:0,0:0:0:0:
277,128,25211,1,0,1:0:0:0:
277,128,25296,6,0,L|213:128,1,59.5000011348725,2|0,1:0|1:0,0:0:0:0:
217,38,25639,2,0,L|281:38,1,59.5000011348725,8|2,0:1|1:0,0:0:0:0:
354,82,25982,1,2,1:0:0:0:
354,82,26153,1,2,1:0:0:0:
431,37,26325,1,10,0:1:0:0:
431,37,26496,1,2,1:0:0:0:
508,82,26668,6,0,P|526:125|508:168,2,89.2500017023087,4|8|8,1:0|1:0|1:0,0:0:0:0:
354,171,27525,1,8,1:3:0:0:
354,260,27696,2,0,L|259:260,1,89.2500017023087,8|0,1:3|0:0,0:0:0:0:
219,260,28039,6,0,P|229:292|221:326,1,70,6|2,1:0|0:0,0:0:0:0:
187,357,28296,1,2,0:0:0:0:
187,357,28382,2,0,L|117:357,1,70,10|2,0:2|0:1,0:0:0:0:
50,294,28725,2,0,L|50:224,1,70,2|2,1:0|0:1,0:0:0:0:
111,156,29068,1,10,0:1:0:0:
50,88,29239,6,0,P|110:117|172:88,1,140,2|2,0:1|0:1,0:0:0:0:
240,27,29753,1,8,0:1:0:0:
240,27,29925,2,0,P|210:87|239:149,1,140,2|2,1:1|0:1,0:0:0:0:
268,235,30439,2,0,B|268:270,3,35,10|2|2|2,0:1|0:0|0:1|0:0,0:0:0:0:
309,290,30782,6,0,L|384:290,1,70,2|2,1:2|0:1,0:0:0:0:
437,220,31125,1,10,0:1:0:0:
379,149,31296,2,0,L|239:149,1,140,2|2,0:1|0:1,0:0:0:0:
167,91,31811,1,10,0:1:0:0:
167,91,31982,1,2,0:1:0:0:
69,244,32325,5,2,0:1:0:0:
69,244,32496,1,10,0:1:0:0:
7,311,32668,2,0,P|69:283|131:311,1,140,2|2,1:1|0:0,0:0:0:0:
198,371,33182,1,10,0:1:0:0:
265,310,33353,1,2,1:1:0:0:
265,310,33439,1,0,1:0:0:0:
265,310,33525,6,0,L|405:310,1,140,6|8,1:1|0:1,0:0:0:0:
470,372,34039,2,0,P|498:310|470:248,1,140,2|0,0:1|1:0,0:0:0:0:
404,184,34553,1,10,0:1:0:0:
404,184,34896,6,0,L|404:114,1,70,6|2,1:1|0:1,0:0:0:0:
312,114,35239,2,0,L|312:184,1,70,10|2,0:1|0:1,0:0:0:0:
236,235,35582,1,2,1:1:0:0:
160,184,35753,1,10,1:2:0:0:
160,184,35925,1,10,0:0:0:0:
93,245,36096,1,2,1:1:0:0:
93,245,36182,1,0,1:0:0:0:
93,245,36268,6,0,B|59:184|59:184|93:124,1,140,2|8,1:0|0:0,0:0:0:0:
165,66,36782,1,2,0:1:0:0:
235,122,36953,2,0,L|235:157,2,35,2|0|2,1:1|1:0|1:1,0:0:0:0:
307,66,37296,2,0,L|377:66,1,70,8|2,0:0|1:1,0:0:0:0:
458,106,37639,5,10,0:1:0:0:
390,166,37811,1,8,0:0:0:0:
390,166,38153,1,8,0:0:0:0:
390,166,38496,1,8,0:0:0:0:
441,241,38668,2,0,P|392:259|343:243,1,105,14|0,0:0|0:0,0:0:0:0:
306,217,39011,6,0,B|306:322,1,105.000004005432,4|2,1:0|1:1,0:0:0:0:
234,375,39525,1,0,1:0:0:0:
234,375,39696,1,2,1:0:0:0:
86,273,40039,1,10,0:1:0:0:
86,273,40382,2,0,B|48:289|48:289|14:271,2,78.7500030040742,2|0|2,1:1|1:0|1:1,0:0:0:0:
156,217,41068,1,2,1:1:0:0:
156,217,41153,1,0,1:0:0:0:
156,217,41239,1,2,1:1:0:0:
86,160,41411,2,0,L|86:107,1,52.5000020027161,2|8,1:1|1:0,0:0:0:0:
156,53,41753,5,10,1:0:0:0:
156,53,42268,1,8,0:1:0:0:
306,217,42782,1,14,0:1:0:0:
306,217,43125,2,0,B|289:255|289:255|306:294,2,78.7500030040742,10|8|8,1:2|0:1|0:1,0:0:0:0:
368,152,43811,2,0,L|425:152,1,52.5000020027161,0|0,1:0|1:0,0:0:0:0:
465,152,44068,1,0,1:0:0:0:
465,152,44153,2,0,L|465:95,1,52.5000020027161,0|0,1:0|1:0,0:0:0:0:
403,31,44496,6,0,P|368:21|333:32,1,70,6|0,1:1|0:0,0:0:0:0:
277,99,44839,1,10,0:1:0:0:
277,99,45011,1,2,0:1:0:0:
218,29,45182,2,0,P|183:19|148:30,1,70,2|0,1:1|0:0,0:0:0:0:
94,99,45525,1,10,0:1:0:0:
151,168,45696,6,0,B|173:203|161:248|139:234|127:277|152:310,1,140,2|2,0:1|0:1,0:0:0:0:
218,357,46211,2,0,L|293:357,1,70,8|0,1:0|0:0,0:0:0:0:
354,295,46553,2,0,P|364:262|353:229,2,70,0|0|8,1:0|1:0|0:0,0:0:0:0:
420,357,47068,1,0,1:0:0:0:
487,295,47239,5,10,0:1:0:0:
487,203,47411,1,10,0:1:0:0:
487,203,47753,1,10,0:1:0:0:
487,203,48096,1,10,0:1:0:0:
487,203,48439,6,0,B|474:162|474:162|500:112|500:112|484:74,1,140,6|8,1:0|0:0,0:0:0:0:
423,7,48953,1,8,0:0:0:0:
423,7,49125,1,8,0:0:0:0:
362,74,49296,2,0,L|292:74,1,70,8|8,0:0|1:0,0:0:0:0:
246,74,49553,1,0,1:0:0:0:
246,74,49639,1,8,1:0:0:0:
183,7,49811,1,8,0:0:0:0:
352,288,51353,6,0,L|434:288,1,77.0000023498536,6|2,1:0|0:1,0:0:0:0:
429,195,51696,2,0,L|346:195,1,77.0000023498536,10|2,0:1|1:0,0:0:0:0:
318,163,51953,1,0,1:0:0:0:
318,163,52039,2,0,P|281:152|244:163,1,77.0000023498536,2|2,1:1|1:0,0:0:0:0:
182,230,52382,1,8,0:0:0:0:
244,297,52553,1,2,1:1:0:0:
182,366,52725,6,0,P|145:376|108:365,1,77.0000023498536,2|2,1:0|1:0,0:0:0:0:
37,306,53068,1,8,0:0:0:0:
90,230,53239,1,2,1:0:0:0:
90,230,53411,2,0,L|90:153,1,77.0000023498536,2|2,1:0|1:0,0:0:0:0:
182,153,53753,2,0,L|182:230,1,77.0000023498536,10|2,0:1|1:1,0:0:0:0:
244,297,54096,6,0,B|287:311|331:285|310:266|352:241|394:258,1,154.000004699707,2|10,1:0|0:1,0:0:0:0:
448,321,54611,2,0,L|448:359,2,38.5000011749268,2|0|0,1:1|1:0|1:0,0:0:0:0:
512,254,54953,1,2,1:1:0:0:
448,186,55125,2,0,L|448:109,1,77.0000023498536,8|2,0:0|1:1,0:0:0:0:
448,62,55382,1,0,1:0:0:0:
448,62,55468,5,4,1:0:0:0:
374,6,55639,1,8,0:3:0:0:
300,62,55811,2,0,B|300:163,1,77.0000023498536,8|0,0:3|1:0,0:0:0:0:
300,185,56068,1,0,1:0:0:0:
300,185,56153,1,10,1:1:0:0:
190,36,56496,1,14,0:1:0:0:
106,75,56668,1,0,0:0:0:0:
22,36,56839,6,0,P|11:74|21:113,1,77.0000023498536,6|0,1:1|0:0,0:0:0:0:
92,166,57182,1,10,0:1:0:0:
92,166,57353,1,10,0:3:0:0:
19,223,57525,2,0,P|8:261|18:300,1,77.0000023498536,2|8,1:0|0:3,0:0:0:0:
92,349,57868,1,10,0:1:0:0:
92,349,58039,1,10,0:3:0:0:
168,296,58211,6,0,P|206:285|245:295,1,77.0000023498536,2|8,1:0|0:3,0:0:0:0:
314,349,58553,1,10,0:1:0:0:
314,349,58725,1,10,0:3:0:0:
387,293,58896,2,0,L|464:293,1,77.0000023498536,2|10,1:0|0:3,0:0:0:0:
464,200,59239,2,0,L|387:200,1,77.0000023498536,10|10,0:1|0:3,0:0:0:0:
314,142,59582,5,10,1:0:0:0:
242,200,59753,1,8,0:0:0:0:
242,200,60096,1,8,0:0:0:0:
242,200,60439,1,8,0:0:0:0:
242,200,60782,1,8,0:0:0:0:
116,64,61125,5,8,0:0:0:0:
188,6,61296,1,8,0:0:0:0:
314,142,61639,1,6,1:1:0:0:
314,142,61982,2,0,B|367:120|367:120|420:143,1,115.50000352478,10|0,0:3|0:0,0:0:0:0:
459,167,62325,6,0,L|459:249,1,77.0000023498536,6|2,1:1|1:0,0:0:0:0:
407,321,62668,2,0,L|324:321,1,77.0000023498536,10|2,0:1|1:0,0:0:0:0:
294,291,62925,1,0,1:0:0:0:
294,291,63011,2,0,P|257:280|220:291,1,77.0000023498536,2|2,1:1|1:0,0:0:0:0:
153,353,63354,1,8,0:0:0:0:
85,290,63525,1,2,1:1:0:0:
153,227,63697,6,0,L|153:150,1,77.0000023498536,2|2,1:1|1:0,0:0:0:0:
155,57,64040,1,8,0:0:0:0:
76,102,64211,1,2,1:0:0:0:
76,102,64382,2,0,L|-1:102,1,77.0000023498536,2|2,1:0|1:1,0:0:0:0:
0,9,64725,2,0,L|77:9,1,77.0000023498536,10|2,0:1|1:1,0:0:0:0:
155,57,65068,6,0,B|220:57|220:57|241:40|241:40|303:40,1,154.000004699707,6|10,0:1|0:1,0:0:0:0:
364,110,65583,2,0,L|364:148,2,38.5000011749268,2|0|0,1:1|1:0|1:0,0:0:0:0:
424,40,65925,1,2,1:0:0:0:
483,110,66097,2,0,L|483:187,1,77.0000023498536,8|2,0:0|1:0,0:0:0:0:
483,233,66354,1,0,1:0:0:0:
483,233,66440,5,4,1:0:0:0:
424,304,66611,1,8,0:3:0:0:
364,233,66782,2,0,B|282:233,1,77.0000023498536,8|8,0:3|0:0,0:0:0:0:
240,233,67039,1,8,0:0:0:0:
240,233,67125,2,0,B|231:253|231:253|238:270,2,38.5000011749268,8|8|8,0:0|0:0|0:0,0:0:0:0:
178,164,67468,1,10,0:1:0:0:
117,233,67639,1,2,1:1:0:0:
54,164,67811,6,0,P|31:112|54:60,2,115.50000352478,6|8|10,1:0|1:0|1:1,0:0:0:0:
117,233,68496,2,0,L|116:276,2,38.5000011749268,2|0|0,1:1|1:0|1:0,0:0:0:0:
178,164,68839,1,14,0:1:0:0:
178,164,69182,6,0,P|200:112|177:60,2,115.50000352478,10|10|14,0:1|0:1|0:1,0:0:0:0:
178,164,70039,2,0,L|221:165,2,38.5000011749268,2|0|2,1:1|1:0|1:1,0:0:0:0:
117,233,70382,1,0,1:0:0:0:
178,301,70553,6,0,L|274:301,1,77.0000023498536,14|0,0:1|1:0,0:0:0:0:
338,341,70896,2,0,L|338:264,1,77.0000023498536,10|10,0:1|0:1,0:0:0:0:
409,204,71238,1,10,0:1:0:0:
409,204,71411,1,10,0:1:0:0:
338,146,71581,1,10,0:1:0:0:
266,204,71753,1,2,1:1:0:0:
266,204,71839,1,0,1:0:0:0:
266,204,71925,6,0,L|183:204,1,77.0000023498536,6|0,1:1|1:0,0:0:0:0:
116,146,72268,2,0,L|116:63,1,77.0000023498536,8|0,0:0|1:0,0:0:0:0:
189,12,72611,2,0,L|271:12,1,77.0000023498536,0|0,1:0|0:0,0:0:0:0:
338,69,72953,1,14,0:1:0:0:
411,12,73125,1,2,1:1:0:0:
483,69,73296,5,6,1:1:0:0:
483,69,75182,5,14,0:1:0:0:
411,232,75525,1,10,0:1:0:0:
338,179,75697,1,2,1:0:0:0:
338,179,75868,1,0,1:0:0:0:
266,232,76039,6,0,L|203:232,1,59.5000011348725,14|0,1:0|1:0,0:0:0:0:
161,232,76297,1,0,1:0:0:0:
161,232,76382,1,2,1:1:0:0:
89,285,76554,1,2,1:1:0:0:
0,130,76897,1,10,0:1:0:0:
0,130,77239,6,0,B|31:120|63:138|47:152|78:170|108:158,1,119.000002269745,14|10,0:1|0:1,0:0:0:0:
161,86,77753,2,0,L|161:56,3,29.7500005674362,10|0|2|0,0:1|1:0|1:1|1:0,0:0:0:0:
197,28,78097,1,10,1:1:0:0:
273,73,78268,1,8,0:3:0:0:
362,73,78439,2,0,B|385:103|385:103|385:160,1,89.2500017023087,8|0,0:3|0:0,0:0:0:0:
385,199,78782,6,0,P|413:191|442:199,2,59.5000011348725,2|2|2,1:2|0:0|0:0,0:0:0:0:
322,263,79296,1,2,0:0:0:0:
385,326,79468,2,0,P|413:333|442:325,2,59.5000011348725,2|2|2,0:0|0:0|0:0,0:0:0:0:
322,263,79982,1,2,0:0:0:0:
259,326,80153,6,0,B|223:337|187:315|204:300|170:279|136:293,1,125.999996154785,2|2,0:0|0:0,0:0:0:0:
70,337,80839,2,0,P|49:344|28:338,2,41.9999987182618,2|2|2,0:0|0:0|0:0,0:0:0:0:
144,290,81353,2,0,L|144:200,1,83.9999974365235,2|2,0:0|0:0,0:0:0:0:
385,115,82211,1,8,0:3:0:0:
385,115,82296,1,2,0:0:0:0:
385,115,82382,2,0,L|385:199,1,83.9999974365235,2|2,0:0|0:0,0:0:0:0:
322,263,82896,5,0,0:0:0:0:
260,199,83068,2,0,L|260:154,2,41.9999987182618,2|2|2,0:0|0:0|0:0,0:0:0:0:
322,263,83582,1,0,0:0:0:0:
424,22,84096,1,2,0:0:0:0:
424,22,84182,1,0,0:0:0:0:
424,22,84268,2,0,P|384:9|344:21,1,83.9999974365235,0|8,0:0|0:3,0:0:0:0:
260,68,84782,1,2,0:0:0:0:
185,21,84953,2,0,L|164:21,2,20.9999993591309,8|2|2,0:3|0:0|0:0,0:0:0:0:
260,68,85296,2,0,L|260:116,1,41.9999987182618,2|2,0:0|0:0,0:0:0:0:
185,157,85639,6,0,L|122:157,2,62.9999980773926,2|2|2,0:0|0:0|0:0,0:0:0:0:
185,157,86668,1,2,0:0:0:0:
260,110,86839,1,2,0:0:0:0:
334,157,87011,2,0,L|334:202,1,41.9999987182618,2|2,0:0|0:0,0:0:0:0:
277,266,87353,2,0,B|269:287|269:287|277:308,2,41.9999987182618,2|2|2,0:0|0:0|0:0,0:0:0:0:
364,283,87868,1,2,0:0:0:0:
364,283,87953,1,2,0:0:0:0:
364,283,88039,2,0,L|431:283,1,62.9999980773926,2|0,0:0|0:0,0:0:0:0:
471,283,88382,5,6,1:2:0:0:
471,283,88725,1,0,1:0:0:0:
471,283,89068,1,2,1:2:0:0:
471,104,89411,1,10,0:0:0:0:
393,157,89582,1,0,1:0:0:0:
393,157,89668,1,0,1:0:0:0:
393,157,89753,6,0,L|319:157,1,59.5000011348725,10|0,0:1|0:0,0:0:0:0:
288,157,90011,2,0,L|288:94,1,59.5000011348725,10|0,0:1|0:0,0:0:0:0:
288,52,90268,1,10,0:1:0:0:
108,52,90611,1,8,0:3:0:0:
198,52,90782,2,0,L|198:141,1,89.2500017023087,8|0,0:3|0:0,0:0:0:0:
198,186,91125,6,0,P|166:176|132:184,1,70,6|0,0:1|1:0,0:0:0:0:
96,214,91382,1,0,1:0:0:0:
96,214,91468,2,0,L|96:284,1,70,8|2,1:0|0:1,0:0:0:0:
169,338,91811,2,0,L|239:338,1,70,2|2,1:1|1:1,0:0:0:0:
305,275,92154,1,10,0:1:0:0:
370,338,92325,6,0,B|339:275|339:275|371:213,1,140,2|2,1:1|0:1,0:0:0:0:
433,146,92839,1,8,0:0:0:0:
433,146,93011,2,0,B|370:177|370:177|308:144,1,140,0|2,1:0|1:1,0:0:0:0:
236,87,93525,1,10,0:1:0:0:
236,87,93696,1,2,1:1:0:0:
165,144,93868,6,0,L|95:144,1,70,0|2,1:0|0:1,0:0:0:0:
24,201,94211,1,10,0:1:0:0:
95,256,94382,2,0,L|235:256,1,140,2|2,0:0|0:1,0:0:0:0:
308,201,94897,1,10,0:0:0:0:
308,201,95068,1,2,0:1:0:0:
308,18,95411,5,2,0:0:0:0:
308,18,95582,1,10,0:0:0:0:
246,85,95754,2,0,P|308:113|370:85,1,140,2|0,1:1|1:0,0:0:0:0:
441,28,96268,1,10,0:1:0:0:
512,85,96439,1,2,1:1:0:0:
512,85,96525,1,0,1:0:0:0:
512,85,96611,6,0,L|513:251,1,140,6|8,1:1|0:0,0:0:0:0:
441,281,97125,2,0,B|404:292|367:270|384:254|349:233|313:247,1,140,6|2,0:1|1:2,0:0:0:0:
228,281,97639,1,10,1:1:0:0:
228,281,97982,6,0,P|219:247|228:213,1,70,6|2,1:0|0:1,0:0:0:0:
313,247,98325,2,0,P|321:280|313:314,1,70,10|6,0:1|0:1,0:0:0:0:
243,372,98668,1,2,1:1:0:0:
160,334,98839,1,8,0:1:0:0:
160,334,99011,1,8,0:0:0:0:
77,372,99182,1,2,1:1:0:0:
77,372,99268,1,0,1:0:0:0:
77,372,99354,6,0,B|42:337|42:337|42:241,1,140,2|8,1:1|0:0,0:0:0:0:
112,188,99868,1,2,0:1:0:0:
42,129,100039,2,0,L|7:129,2,35,2|0|2,1:0|1:0|1:0,0:0:0:0:
112,188,100382,2,0,L|182:188,1,70,8|2,0:0|1:0,0:0:0:0:
252,129,100725,5,10,0:0:0:0:
252,37,100896,1,8,1:2:0:0:
252,37,101239,1,8,0:0:0:0:
252,37,101582,1,12,0:0:0:0:
332,83,101753,2,0,B|379:105|379:105|426:82,1,105,6|0,0:0|0:0,0:0:0:0:
460,52,102096,6,0,B|460:157,1,105.000004005432,4|2,1:0|0:1,0:0:0:0:
460,246,102610,1,0,1:0:0:0:
460,246,102781,1,2,1:1:0:0:
318,363,103124,1,10,0:1:0:0:
318,363,103467,2,0,B|225:363,2,78.7500030040742,2|0|2,1:0|1:0|1:1,0:0:0:0:
386,305,104153,1,2,1:1:0:0:
386,305,104238,1,2,1:0:0:0:
386,305,104325,1,2,1:1:0:0:
318,246,104496,2,0,L|265:246,1,52.5000020027161,2|8,1:0|0:0,0:0:0:0:
197,187,104838,5,14,0:1:0:0:
197,187,105353,1,8,0:1:0:0:
386,305,105867,1,14,0:1:0:0:
386,305,106210,2,0,B|466:305,2,78.7500030040742,10|8|8,0:1|0:1|0:1,0:0:0:0:
318,246,106896,2,0,L|318:219,3,26.2500010013581,2|2|2|2,1:2|1:2|1:2|1:2,0:0:0:0:
318,174,107239,2,0,L|396:174,1,78.7500030040742,6|2,1:2|1:2,0:0:0:0:
428,141,107582,6,0,P|438:106|427:71,1,70,6|2,1:0|0:1,0:0:0:0:
363,11,107925,1,10,0:1:0:0:
363,11,108097,1,2,0:1:0:0:
298,74,108268,2,0,P|263:84|228:73,1,70,2|0,1:0|0:0,0:0:0:0:
165,11,108611,1,10,0:1:0:0:
100,75,108782,6,0,B|75:103|75:103|75:205,1,140,2|2,0:1|0:1,0:0:0:0:
45,292,109297,2,0,B|78:304|78:304|110:290,1,70,8|0,0:0|0:0,0:0:0:0:
172,222,109639,2,0,L|171:152,2,70,0|0|12,1:0|1:0|0:0,0:0:0:0:
237,290,110153,1,0,0:0:0:0:
329,290,110325,5,10,0:1:0:0:
351,198,110497,1,10,0:1:0:0:
351,198,110839,1,10,0:1:0:0:
351,198,111182,1,10,0:1:0:0:
351,198,111525,6,0,B|373:163|361:118|339:132|327:89|352:56,1,140,14|8,0:1|0:1,0:0:0:0:
415,5,112039,1,8,0:1:0:0:
415,5,112211,1,8,0:1:0:0:
482,65,112382,2,0,P|492:98|482:131,1,70,8|0,0:1|1:0,0:0:0:0:
453,166,112639,1,0,1:0:0:0:
453,166,112725,1,8,1:0:0:0:
512,236,112897,1,8,0:0:0:0:
453,306,113068,6,0,L|453:358,2,52.5000020027161,2|2|2,0:0|0:0|0:0,0:0:0:0:
392,236,113582,1,2,0:0:0:0:
333,306,113753,2,0,L|333:359,2,52.5000020027161,2|2|2,0:0|0:0|0:0,0:0:0:0:
274,236,114268,1,2,0:0:0:0:
215,306,114439,6,0,L|215:341,2,35,2|0|0,1:1|1:0|1:0,0:0:0:0:
274,236,114782,2,0,B|280:219|280:219|271:201,3,35,0|0|0|0,1:0|1:0|1:0|1:0,0:0:0:0:
232,175,115125,2,0,B|215:169|215:169|197:178,3,35,0|0|0|0,1:0|1:0|1:0|1:0,0:0:0:0:
159,203,115468,2,0,L|54:203,1,105,14|0,0:0|0:0,0:0:0:0:
15,176,115811,6,0,P|4:139|14:102,1,77.0000023498536,6|2,1:1|0:1,0:0:0:0:
79,36,116153,2,0,P|115:25|152:35,1,77.0000023498536,10|2,0:1|1:1,0:0:0:0:
189,65,116411,1,0,1:1:0:0:
189,65,116497,2,0,L|266:65,1,77.0000023498536,2|2,1:1|1:0,0:0:0:0:
336,5,116840,1,8,0:0:0:0:
405,65,117011,1,2,1:0:0:0:
336,127,117183,6,0,P|326:164|337:201,1,77.0000023498536,2|2,1:0|0:1,0:0:0:0:
405,262,117526,1,8,0:0:0:0:
336,324,117697,1,2,1:0:0:0:
336,324,117869,2,0,L|259:324,1,77.0000023498536,2|2,1:0|1:0,0:0:0:0:
187,265,118211,2,0,L|110:265,1,77.0000023498536,10|2,0:1|1:1,0:0:0:0:
46,331,118553,6,0,P|12:264|45:198,1,154.000004699707,2|10,1:0|0:1,0:0:0:0:
115,136,119069,2,0,L|153:136,2,38.5000011749268,2|0|0,1:1|1:0|1:0,0:0:0:0:
45,76,119411,1,2,1:0:0:0:
115,15,119583,2,0,L|192:15,1,77.0000023498536,8|2,0:0|1:0,0:0:0:0:
238,15,119840,1,0,1:0:0:0:
238,15,119926,5,6,1:1:0:0:
307,76,120097,1,8,0:3:0:0:
238,136,120269,2,0,B|161:136,1,77.0000023498536,8|0,0:3|0:0,0:0:0:0:
115,136,120526,1,0,1:0:0:0:
115,136,120611,1,2,1:0:0:0:
254,261,120954,1,14,0:1:0:0:
316,195,121126,1,2,0:1:0:0:
378,261,121297,6,0,B|413:277|413:277|448:263,1,77.0000023498536,6|0,0:1|0:0,0:0:0:0:
512,195,121640,1,10,0:1:0:0:
512,195,121811,1,10,0:3:0:0:
448,127,121982,2,0,B|413:111|413:111|378:125,1,77.0000023498536,2|8,1:1|0:3,0:0:0:0:
316,195,122325,1,10,0:1:0:0:
316,195,122496,1,10,0:3:0:0:
254,125,122668,6,0,B|219:109|219:109|184:123,1,77.0000023498536,2|8,1:0|0:3,0:0:0:0:
125,195,123011,1,10,0:1:0:0:
125,195,123182,1,10,0:3:0:0:
172,274,123354,2,0,L|172:351,1,77.0000023498536,2|10,1:0|0:3,0:0:0:0:
79,351,123697,2,0,L|79:274,1,77.0000023498536,10|10,0:1|0:3,0:0:0:0:
125,195,124040,5,2,1:0:0:0:
79,114,124211,1,10,1:2:0:0:
79,114,124554,1,10,0:0:0:0:
79,114,124897,1,10,0:0:0:0:
79,114,125240,1,10,0:0:0:0:
235,14,125583,5,10,0:0:0:0:
281,95,125754,1,8,0:0:0:0:
125,195,126097,1,6,1:0:0:0:
171,276,126268,1,0,1:0:0:0:
171,276,126353,1,0,1:0:0:0:
171,276,126439,2,0,L|171:322,3,38.5000011749268,0|0|0|0,1:0|1:0|1:0|1:0,0:0:0:0:
206,345,126783,6,0,B|242:358|242:358|277:342,1,77.0000023498536,6|2,1:0|1:0,0:0:0:0:
353,289,127125,2,0,B|388:273|388:273|424:286,1,77.0000023498536,10|2,0:1|1:0,0:0:0:0:
469,301,127383,1,0,1:0:0:0:
469,301,127468,2,0,L|469:224,1,77.0000023498536,2|2,1:1|1:0,0:0:0:0:
404,157,127812,1,8,0:0:0:0:
469,92,127983,1,2,1:1:0:0:
404,25,128153,6,0,L|327:25,1,77.0000023498536,2|2,1:1|1:1,0:0:0:0:
263,92,128496,1,8,0:0:0:0:
183,45,128668,1,2,1:0:0:0:
183,45,128839,2,0,B|146:32|146:32|110:44,1,77.0000023498536,2|2,1:0|1:0,0:0:0:0:
110,136,129182,2,0,B|145:148|145:148|182:135,1,77.0000023498536,10|2,0:1|1:1,0:0:0:0:
263,92,129525,6,0,B|291:136|264:180|264:180|264:240,1,154.000004699707,2|10,1:0|0:1,0:0:0:0:
332,304,130039,2,0,L|374:304,2,38.5000011749268,2|0|0,1:1|1:0|1:0,0:0:0:0:
264,366,130383,1,2,1:0:0:0:
194,304,130553,2,0,L|117:304,1,77.0000023498536,8|2,0:0|1:1,0:0:0:0:
71,304,130811,1,0,1:0:0:0:
71,304,130896,5,4,1:2:0:0:
11,233,131068,1,8,0:3:0:0:
71,163,131239,2,0,B|109:149|109:149|142:163,1,77.0000023498536,8|0,0:3|1:0,0:0:0:0:
184,184,131497,1,0,1:0:0:0:
184,184,131582,2,0,L|184:222,2,38.5000011749268,8|8|8,1:3|0:3|0:3,0:0:0:0:
249,118,131926,1,10,0:1:0:0:
312,184,132097,1,2,1:1:0:0:
378,118,132268,6,0,L|493:118,2,115.50000352478,10|8|10,1:1|0:1|0:1,0:0:0:0:
312,184,132954,2,0,L|312:222,2,38.5000011749268,2|0|0,1:1|1:0|1:0,0:0:0:0:
249,118,133297,1,14,0:1:0:0:
249,118,133639,6,0,L|133:118,2,115.50000352478,10|10|14,0:1|0:1|0:1,0:0:0:0:
249,118,134497,2,0,L|249:72,2,38.5000011749268,2|0|2,1:1|1:0|1:1,0:0:0:0:
312,184,134840,1,0,1:0:0:0:
378,118,135011,6,0,L|474:118,1,77.0000023498536,6|0,1:0|1:0,0:0:0:0:
512,191,135354,2,0,L|512:268,1,77.0000023498536,10|10,0:1|1:1,0:0:0:0:
455,341,135696,1,10,0:1:0:0:
455,341,135868,1,10,0:1:0:0:
395,268,136039,1,10,0:1:0:0:
339,341,136211,1,2,1:1:0:0:
339,341,136297,1,0,1:0:0:0:
339,341,136383,6,0,P|302:351|265:340,1,77.0000023498536,6|0,1:1|1:0,0:0:0:0:
208,268,136725,2,0,P|197:231|208:194,1,77.0000023498536,8|0,0:0|1:0,0:0:0:0:
265,123,137068,2,0,P|301:112|338:123,1,77.0000023498536,0|0,1:0|1:0,0:0:0:0:
413,176,137411,1,14,0:0:0:0:
487,122,137582,1,2,1:2:0:0:
411,68,137753,5,6,1:0:0:0:
411,68,139638,5,14,0:1:0:0:
299,207,139981,1,10,0:1:0:0:
235,143,140153,1,2,1:1:0:0:
235,143,140324,1,0,1:0:0:0:
173,207,140496,6,0,L|113:207,1,59.5000011348725,14|0,1:1|1:0,0:0:0:0:
68,207,140753,1,0,1:0:0:0:
68,207,140839,1,0,1:0:0:0:
5,143,141010,1,10,0:1:0:0:
147,35,141353,1,10,0:1:0:0:
147,35,141696,6,0,B|266:35,1,119.000002269745,14|10,0:1|0:1,0:0:0:0:
326,101,142211,2,0,B|389:101,1,59.5000011348725,10|2,1:0|1:1,0:0:0:0:
446,35,142553,1,10,1:0:0:0:
505,101,142724,1,8,0:3:0:0:
505,190,142895,2,0,B|415:190,1,89.2500017023087,8|0,0:3|0:0,0:0:0:0:
370,190,143239,5,8,0:0:0:0:
314,260,143411,1,8,0:0:0:0:
314,260,144611,6,0,B|252:284|252:284|195:256|195:256|137:284|137:284|75:256,1,262.500010013581,8|0,1:2|1:0,0:0:0:0:
7,197,145639,2,0,L|7:118,1,78.7500030040742,14|0,0:1|0:0,0:0:0:0:
7,73,145982,5,10,0:0:0:0:
76,17,146153,1,10,0:0:0:0:
145,73,146325,1,2,0:0:0:0:
234,73,146496,1,2,0:1:0:0:
234,73,146839,1,2,0:2:0:0:
234,73,147182,1,2,0:0:0:0:
189,150,147353,6,0,L|189:202,1,52.5000020027161,2|8,0:0|0:0,0:0:0:0:
131,270,147696,1,8,0:2:0:0:
215,298,147868,1,0,1:0:0:0:
215,298,147953,1,0,1:0:0:0:
215,298,148039,2,0,B|239:308|239:308|263:297,1,52.5000020027161,0|8,1:0|1:3,0:0:0:0:
332,239,148382,2,0,B|356:229|356:229|380:239,1,52.5000020027161,8|0,1:3|1:0,0:0:0:0:
447,298,148725,5,8,1:0:0:0:
512,239,148896,2,0,L|512:178,2,52.5000020027161,8|2|2,0:0|0:0|0:0,0:0:0:0:
447,298,149411,2,0,L|447:359,2,52.5000020027161,2|2|2,0:0|0:0|0:0,0:0:0:0:
380,239,149925,1,2,0:0:0:0:
380,149,150096,5,2,1:2:0:0:
429,74,150268,1,12,0:2:0:0:
429,74,150439,2,0,P|380:56|332:74,1,105.000004005432,12|0,0:0|1:0,0:0:0:0:
269,137,150953,1,0,1:0:0:0:
206,73,151125,2,0,L|127:73,1,78.7500030040742,12|0,0:0|0:0,0:0:0:0:
82,73,151468,6,0,L|82:192,1,119.000002269745,6|8,1:1|0:0,0:0:0:0:
52,276,151982,1,0,1:0:0:0:
52,276,152153,2,0,L|111:276,1,59.5000011348725,0|0,1:0|1:0,0:0:0:0:
175,338,152496,1,8,0:0:0:0:
240,276,152668,6,0,B|222:248|232:213|249:224|258:190|239:164,1,119.000002269745,6|2,1:1|1:0,0:0:0:0:
164,114,153182,2,0,P|156:85|163:56,1,59.5000011348725,10|2,0:1|1:1,0:0:0:0:
239,8,153525,1,2,1:0:0:0:
313,56,153696,1,2,1:1:0:0:
313,56,153782,1,0,1:0:0:0:
313,56,153868,2,0,L|342:56,3,29.7500005674362,10|0|2|0,1:0|1:0|1:0|1:0,0:0:0:0:
388,56,154211,6,0,L|388:126,1,70,6|0,0:0|0:0,0:0:0:0:
453,188,154553,2,0,L|453:259,1,70,8|8,0:0|1:3,0:0:0:0:
388,322,154896,1,2,1:1:0:0:
388,322,155068,1,10,1:3:0:0:
323,258,155239,1,10,0:1:0:0:
258,322,155411,6,0,L|118:322,1,140,10|8,0:3|1:3,0:0:0:0:
52,258,155925,2,0,P|41:224|52:192,1,70,10|10,1:2|1:3,0:0:0:0:
118,129,156268,1,2,0:1:0:0:
118,129,156439,1,10,1:3:0:0:
183,192,156611,1,10,0:1:0:0:
248,129,156782,6,0,B|307:129|307:129|327:118|327:118|385:118,1,140,10|10,0:3|0:3,0:0:0:0:
476,118,157296,2,0,P|468:151|476:185,1,70,10|8,0:1|1:3,0:0:0:0:
512,270,157639,1,2,1:1:0:0:
512,270,157811,1,10,0:3:0:0:
446,332,157982,2,0,B|413:344|413:344|380:331,1,70,10|10,0:1|0:3,0:0:0:0:
313,270,158325,6,0,B|281:221|299:159|329:178|346:118|311:72,1,210,2|2,0:1|1:1,0:0:0:0:
232,26,159011,2,0,B|214:26|214:26|198:18|198:18|183:26|183:26|165:26,1,70,2|2,1:1|1:0,0:0:0:0:
166,116,159353,2,0,B|184:116|184:116|199:124|199:124|215:116|215:116|232:116,1,70,14|2,0:1|0:1,0:0:0:0:
311,72,159696,6,0,L|381:72,1,70,6|0,1:1|0:0,0:0:0:0:
459,117,160039,2,0,L|459:188,1,70,8|8,0:0|1:3,0:0:0:0:
381,235,160381,1,0,0:0:0:0:
381,235,160553,1,10,1:3:0:0:
303,187,160724,1,10,1:2:0:0:
225,235,160896,6,0,B|190:221|190:221|157:237|157:237|124:221|124:221|88:237,1,140,10|10,1:3|1:3,0:0:0:0:
12,200,161410,2,0,P|1:233|12:266,1,70,8|10,0:0|1:3,0:0:0:0:
97,232,161753,2,0,P|108:199|98:167,1,70,2|10,1:2|1:3,0:0:0:0:
49,88,162096,1,8,0:0:0:0:
49,88,162439,6,0,L|50:4,1,70,6|2,1:1|0:1,0:0:0:0:
141,18,162782,2,0,L|141:88,1,70,10|2,0:1|1:2,0:0:0:0:
202,154,163124,1,2,1:2:0:0:
202,154,163296,1,2,1:1:0:0:
265,88,163467,1,10,0:1:0:0:
327,154,163639,6,0,B|339:194|339:194|313:244|313:244|329:282,1,140,6|8,1:1|0:0,0:0:0:0:
404,335,164153,1,8,0:0:0:0:
404,335,164325,1,8,0:0:0:0:
478,283,164496,2,0,B|484:265|484:265|477:246,3,35,8|0|8|0,0:0|1:0|0:0|1:0,0:0:0:0:
448,215,164839,2,0,B|442:199|442:199|448:181,3,35,8|0|8|0,1:3|1:0|1:3|1:0,0:0:0:0:
478,146,165182,5,6,0:2:0:0:
128,288,178553,6,0,L|128:225,1,62.9999980773926,2|0,1:2|0:0,0:0:0:0:
128,180,178896,5,10,0:1:0:0:
128,180,179411,1,8,0:0:0:0:
256,12,179925,1,14,0:1:0:0:
256,12,180268,2,0,L|345:12,2,89.2500017023087,8|8|8,0:1|0:0|0:0,0:0:0:0:
191,73,180953,1,0,1:0:0:0:
124,12,181125,1,0,1:0:0:0:
124,12,181211,1,0,1:0:0:0:
124,12,181296,1,0,1:0:0:0:
58,73,181468,1,0,1:0:0:0:
124,134,181639,6,0,P|134:169|123:204,1,70,6|0,1:1|0:0,0:0:0:0:
58,263,181982,1,10,0:1:0:0:
58,263,182154,1,2,1:1:0:0:
125,323,182325,2,0,L|195:323,1,70,2|0,1:1|0:0,0:0:0:0:
264,263,182668,1,10,0:1:0:0:
331,323,182839,6,0,B|390:323|390:323|409:308|409:308|465:308,1,140,2|2,0:0|0:1,0:0:0:0:
465,216,183354,2,0,B|395:216,1,70,8|0,0:0|0:0,0:0:0:0:
334,148,183696,2,0,B|264:148,2,70,0|0|8,1:0|1:0|0:0,0:0:0:0:
395,79,184211,1,0,1:0:0:0:
334,11,184382,5,10,0:1:0:0:
242,11,184554,1,10,0:1:0:0:
242,11,184896,1,10,0:1:0:0:
242,11,185239,1,10,0:1:0:0:
242,11,185582,6,0,B|182:11|182:11|163:26|163:26|107:26,1,140,14|8,0:1|0:0,0:0:0:0:
38,86,186096,1,8,0:0:0:0:
38,86,186268,1,8,0:0:0:0:
107,144,186439,2,0,B|120:177|120:177|107:210,1,70,8|8,0:0|1:0,0:0:0:0:
85,249,186696,1,0,1:0:0:0:
85,249,186782,1,8,1:0:0:0:
154,307,186954,1,8,0:0:0:0:
256,32,188496,5,2,0:0:0:0:
256,32,190553,6,0,B|264:48|264:48|255:65|255:65|263:81|263:81|255:97|255:97|264:113|264:113|255:129|255:129|263:147|263:147|256:163,1,146.999995513916,2|0,1:1|0:0,0:1:0:0:
255,209,191239,6,0,B|298:195|342:221|321:240|363:265|405:248,1,154.000004699707,6|10,1:1|0:1,0:0:0:0:
467,192,191754,2,0,L|518:193,2,38.5000011749268,2|0|0,1:1|1:0|1:0,0:0:0:0:
394,134,192096,1,2,1:1:0:0:
430,48,192268,2,0,P|393:36|356:46,1,77.0000023498536,8|2,0:0|1:1,0:0:0:0:
319,74,192525,1,0,1:0:0:0:
319,74,192611,5,0,1:0:0:0:
253,9,192782,1,8,0:3:0:0:
187,74,192954,2,0,B|187:151,1,77.0000023498536,8|0,0:3|1:0,0:0:0:0:
187,197,193211,1,0,1:0:0:0:
187,197,193296,1,2,1:1:0:0:
121,9,193639,1,14,0:1:0:0:
55,74,193811,1,0,0:0:0:0:
78,165,193982,6,0,L|77:242,1,77.0000023498536,6|0,1:1|0:0,0:0:0:0:
8,304,194325,1,10,0:1:0:0:
8,304,194496,1,10,0:3:0:0:
77,364,194668,2,0,L|154:364,1,77.0000023498536,2|8,1:1|0:3,0:0:0:0:
224,304,195011,1,10,0:1:0:0:
224,304,195182,1,10,0:3:0:0:
294,364,195354,6,0,L|371:364,1,77.0000023498536,2|8,1:1|0:3,0:0:0:0:
441,304,195696,1,10,0:1:0:0:
441,304,195868,1,10,0:3:0:0:
371,243,196039,2,0,P|360:206|371:167,1,77.0000023498536,2|2,1:1|1:1,0:0:0:0:
408,85,196382,2,0,P|371:74|335:84,1,77.0000023498536,10|2,1:1|0:1,0:0:0:0:
271,152,196725,5,10,0:1:0:0:
208,84,196896,1,8,0:1:0:0:
208,84,197239,1,8,0:1:0:0:
208,84,197582,1,8,0:0:0:0:
208,84,197925,1,8,0:0:0:0:
62,198,198268,5,8,0:0:0:0:
125,266,198439,1,8,0:0:0:0:
271,152,198782,1,6,1:1:0:0:
334,220,198953,1,0,1:0:0:0:
334,220,199039,1,0,1:0:0:0:
334,220,199125,2,0,L|372:220,3,38.5000011749268,0|0|0|0,1:0|1:0|1:0|1:0,0:0:0:0:
418,220,199468,6,0,L|418:302,1,77.0000023498536,6|2,1:1|0:1,0:0:0:0:
353,363,199811,2,0,L|270:363,1,77.0000023498536,10|2,0:1|1:1,0:0:0:0:
229,363,200068,1,0,1:0:0:0:
229,363,200154,2,0,P|240:326|229:289,1,77.0000023498536,2|2,1:1|1:1,0:0:0:0:
154,236,200497,1,8,0:0:0:0:
79,290,200668,1,2,1:1:0:0:
3,236,200840,6,0,L|3:159,1,77.0000023498536,2|2,1:1|1:1,0:0:0:0:
79,107,201183,1,8,0:0:0:0:
41,22,201354,1,2,1:1:0:0:
41,22,201526,2,0,B|78:10|78:10|118:22,1,77.0000023498536,2|2,1:1|0:1,0:0:0:0:
191,71,201868,2,0,B|228:83|228:83|268:71,1,77.0000023498536,10|2,0:1|0:1,0:0:0:0:
329,5,202211,6,0,P|295:71|329:137,1,154.000004699707,2|10,1:1|0:1,0:0:0:0:
395,72,202726,2,0,L|446:72,2,38.5000011749268,2|0|0,1:1|1:0|1:0,0:0:0:0:
329,137,203068,1,2,1:1:0:0:
395,201,203240,2,0,L|395:278,1,77.0000023498536,8|2,0:0|1:1,0:0:0:0:
395,324,203497,1,0,1:0:0:0:
395,324,203583,5,0,1:0:0:0:
321,379,203754,1,8,0:3:0:0:
246,324,203925,2,0,B|246:242,1,77.0000023498536,8|0,0:3|1:0,0:0:0:0:
265,204,204182,1,0,1:0:0:0:
265,204,204268,2,0,B|226:204,2,38.5000011749268,0|0|0,1:0|1:0|0:0,0:0:0:0:
329,137,204611,1,10,0:1:0:0:
265,70,204782,1,2,1:1:0:0:
329,3,204954,6,0,B|379:28|379:28|433:3,2,115.50000352478,10|8|10,1:1|0:0|0:1,0:0:0:0:
265,70,205639,2,0,L|226:70,2,38.5000011749268,2|0|0,1:0|1:0|1:0,0:0:0:0:
329,137,205982,1,14,1:0:0:0:
329,137,206325,6,0,B|379:112|379:112|433:137,2,115.50000352478,10|10|10,0:1|0:1|0:1,0:0:0:0:
329,137,207182,2,0,L|329:184,2,38.5000011749268,2|0|2,1:1|1:0|1:0,0:0:0:0:
266,70,207525,1,0,1:0:0:0:
203,137,207696,6,0,L|203:214,1,77.0000023498536,14|0,0:1|1:0,0:0:0:0:
140,282,208039,2,0,L|63:282,1,77.0000023498536,10|10,0:1|0:1,0:0:0:0:
0,214,208381,1,10,0:1:0:0:
0,214,208554,1,10,0:1:0:0:
63,147,208724,1,10,0:1:0:0:
29,60,208896,1,2,1:1:0:0:
29,60,208982,1,0,1:0:0:0:
29,60,209068,6,0,L|108:60,1,77.0000023498536,6|0,1:1|1:0,0:0:0:0:
182,7,209411,2,0,L|259:7,1,77.0000023498536,8|0,0:0|1:0,0:0:0:0:
334,60,209754,2,0,L|411:60,1,77.0000023498536,0|0,1:0|1:0,0:0:0:0:
482,118,210096,1,8,0:0:0:0:
411,178,210268,1,0,1:0:0:0:
482,238,210439,5,6,1:0:0:0:
482,238,212324,5,14,0:1:0:0:
352,360,212667,1,10,0:1:0:0:
284,301,212839,1,2,1:1:0:0:
284,301,213010,1,0,1:0:0:0:
217,360,213181,6,0,B|186:370|186:370|157:359,1,59.5000011348725,14|0,0:1|1:0,0:0:0:0:
123,335,213439,1,0,1:0:0:0:
123,335,213524,1,2,1:1:0:0:
42,373,213696,1,2,1:1:0:0:
42,194,214039,1,10,0:1:0:0:
42,194,214382,6,0,B|74:216|74:216|154:216,1,119.000002269745,14|10,0:1|0:1,0:0:0:0:
225,160,214896,2,0,B|288:160,1,59.5000011348725,10|2,0:1|1:1,0:0:0:0:
354,104,215239,1,2,1:1:0:0:
423,160,215410,1,8,0:3:0:0:
423,250,215582,1,8,0:3:0:0:
512,250,215753,6,0,L|512:131,1,119.000002269745,6|10,0:1|0:1,0:0:0:0:
512,40,216268,2,0,L|453:40,1,59.5000011348725,10|2,0:1|1:1,0:0:0:0:
371,2,216611,1,10,1:0:0:0:
290,40,216782,1,8,1:3:0:0:
200,40,216953,1,8,1:3:0:0:
200,40,217039,1,0,1:0:0:0:
200,40,217125,6,0,L|200:159,1,119.000002269745,6|10,1:1|0:1,0:0:0:0:
130,215,217639,2,0,L|70:215,1,59.5000011348725,10|2,0:1|1:1,0:0:0:0:
0,159,217982,2,0,L|0:129,3,29.7500005674362,2|0|0|0,1:1|1:0|1:0|0:0,0:0:0:0:
0,85,218325,1,2,1:0:0:0:
81,40,218496,6,0,L|201:40,1,119.000002269745,6|10,1:0|0:1,0:0:0:0:
278,84,219011,1,10,0:1:0:0:
278,173,219182,1,10,1:1:0:0:
278,262,219353,2,0,P|319:275|361:262,1,89.2500017023087,10|0,1:1|1:0,0:0:0:0:
401,241,219696,5,14,1:3:0:0:
