osu file format v14

[General]
AudioFilename: audio.mp3
AudioLeadIn: 0
PreviewTime: 187725
Countdown: 0
SampleSet: Soft
StackLeniency: 0.5
Mode: 0
LetterboxInBreaks: 0
WidescreenStoryboard: 0

[Editor]
Bookmarks: 6096,17068,28039,48782,51353,80153,102096,111868,115811,154211,162439,163982,165182
DistanceSpacing: 1.5
BeatDivisor: 8
GridSize: 4
TimelineZoom: 3.299999

[Metadata]
Title:Hyakka Ryouran Hanafubuki
TitleUnicode:百花繚乱花吹雪
Artist:hololive IDOL PROJECT
ArtistUnicode:hololive IDOL PROJECT
Creator:Hojo Karen
Version:Flower Storm
Source:
Tags:Mimilie Suzuhara Lulu Hitsukuya -[Shady]- Shady Iceluin virtual youtuber vtuber 大神ミオ ookami mio 白上フブキ shirakami fubuki 百鬼あやめ nakiri ayame pop japanese j-pop jpop rock jrock j-rock ホロライブ
BeatmapID:2770392
BeatmapSetID:1337388

[Difficulty]
HPDrainRate:6
CircleSize:4
OverallDifficulty:9
ApproachRate:9.4
SliderMultiplier:1.92
SliderTickRate:1

[Events]
//Background and Video events
0,0,"84199837_p0.jpg",0,0
//Break Periods
//Storyboard Layer 0 (Background)
//Storyboard Layer 1 (Fail)
//Storyboard Layer 2 (Pass)
//Storyboard Layer 3 (Foreground)
//Storyboard Layer 4 (Overlay)
//Storyboard Sound Samples

[TimingPoints]
611,342.857142857143,4,2,1,50,1,0
611,-125,4,2,1,50,0,0
3868,-100,4,2,1,60,0,0
4125,-100,4,2,1,5,0,0
4211,-90.9090909090909,4,2,1,60,0,0
4468,-90.9090909090909,4,2,1,5,0,0
4553,-83.3333333333333,4,2,1,60,0,0
4811,-83.3333333333333,4,2,1,5,0,0
4896,-83.3333333333333,4,2,1,60,0,0
5582,-76.9230769230769,4,2,1,70,0,0
5668,-76.9230769230769,4,2,1,5,0,0
5753,-76.9230769230769,4,2,1,70,0,0
5839,-76.9230769230769,4,2,1,5,0,0
5925,-76.9230769230769,4,2,1,70,0,0
6011,-76.9230769230769,4,2,1,5,0,0
6096,-100,4,2,1,70,0,0
7896,-100,4,2,1,5,0,0
7981,-100,4,2,1,70,0,0
8753,-100,4,2,1,5,0,0
8839,-100,4,2,1,70,0,0
10296,-100,4,2,1,5,0,0
10382,-100,4,2,1,70,0,0
10725,-76.9230769230769,4,2,1,70,0,0
11325,-76.9230769230769,4,2,1,5,0,0
11411,-76.9230769230769,4,2,1,70,0,0
11496,-76.9230769230769,4,2,1,5,0,0
11582,-90.9090909090909,4,2,1,70,0,0
13382,-90.9090909090909,4,2,1,5,0,0
13468,-90.9090909090909,4,2,1,70,0,0
17068,-111.111111111111,4,2,1,50,0,0
18525,-111.111111111111,4,2,1,5,0,0
18611,-111.111111111111,4,2,1,50,0,0
20411,-111.111111111111,4,2,1,5,0,0
20496,-111.111111111111,4,2,1,50,0,0
20753,-111.111111111111,4,2,1,5,0,0
20838,-111.111111111111,4,2,1,50,0,0
21096,-111.111111111111,4,2,1,5,0,0
21181,-111.111111111111,4,2,1,50,0,0
23839,-111.111111111111,4,2,1,5,0,0
23925,-111.111111111111,4,2,1,50,0,0
26668,-83.3333333333333,4,2,1,50,0,0
26925,-76.9230769230769,4,2,1,50,0,0
27182,-83.3333333333333,4,2,1,50,0,0
27525,-90.9090909090909,4,2,1,50,0,0
28039,-111.111111111111,4,2,1,60,0,0
29496,-111.111111111111,4,2,1,5,0,0
29582,-111.111111111111,4,2,1,60,0,0
37811,-83.3333333333333,4,2,1,60,0,0
38668,-83.3333333333333,4,2,1,70,0,0
38925,-83.3333333333333,4,2,1,5,0,0
39011,-125,4,2,1,40,0,0
43296,-111.111111111111,4,2,1,5,0,0
43382,-111.111111111111,4,2,1,40,0,0
43553,-111.111111111111,4,2,1,5,0,0
43639,-111.111111111111,4,2,1,40,0,0
43982,-125,4,2,1,40,0,0
44496,-100,4,2,1,60,0,0
44753,-100,4,2,1,5,0,0
44839,-100,4,2,1,60,0,0
45439,-100,4,2,1,5,0,0
45525,-100,4,2,1,60,0,0
47239,-100,4,2,1,70,0,0
50325,-200,4,2,1,70,0,0
51353,-76.9230769230769,4,2,1,70,0,1
52211,-90.9090909090909,4,2,1,70,0,1
52725,-76.9230769230769,4,2,1,70,0,1
53068,-83.3333333333333,4,2,1,70,0,1
54096,-90.9090909090909,4,2,1,70,0,1
54353,-90.9090909090909,4,2,1,5,0,1
54439,-90.9090909090909,4,2,1,70,0,1
55468,-76.9230769230769,4,2,1,70,0,1
56496,-71.4285714285714,4,2,1,70,0,1
56753,-71.4285714285714,4,2,1,5,0,1
56839,-100,4,2,1,70,0,1
57096,-100,4,2,1,5,0,1
57182,-100,4,2,1,70,0,1
58468,-100,4,2,1,5,0,1
58553,-100,4,2,1,70,0,1
59582,-83.3333333333333,4,2,1,70,0,0
60011,-83.3333333333333,4,2,1,5,0,0
60096,-83.3333333333333,4,2,1,70,0,0
60353,-83.3333333333333,4,2,1,5,0,0
60438,-83.3333333333333,4,2,1,70,0,0
60696,-83.3333333333333,4,2,1,5,0,0
60781,-83.3333333333333,4,2,1,70,0,0
61039,-83.3333333333333,4,2,1,5,0,0
61124,-83.3333333333333,4,2,1,70,0,0
62325,-76.9230769230769,4,2,1,80,0,1
63182,-90.9090909090909,4,2,1,80,0,1
63696,-76.9230769230769,4,2,1,80,0,1
64040,-83.3333333333333,4,2,1,80,0,1
65068,-90.9090909090909,4,2,1,80,0,1
65325,-90.9090909090909,4,2,1,5,0,1
65411,-90.9090909090909,4,2,1,80,0,1
66439,-76.9230769230769,4,2,1,80,0,1
67468,-71.4285714285714,4,2,1,80,0,1
67811,-100,4,2,1,80,0,1
69182,-76.9230769230769,4,2,1,80,0,1
69439,-71.4285714285714,4,2,1,80,0,1
69696,-66.6666666666667,4,2,1,80,0,1
69953,-66.6666666666667,4,2,1,5,0,1
70039,-76.9230769230769,4,2,1,80,0,1
70553,-83.3333333333333,4,2,1,80,0,1
73296,-125,4,2,1,60,0,0
76553,-100,4,2,1,60,0,0
76811,-100,4,2,1,5,0,0
76896,-90.9090909090909,4,2,1,60,0,0
77153,-90.9090909090909,4,2,1,5,0,0
77239,-83.3333333333333,4,2,1,60,0,0
77496,-83.3333333333333,4,2,1,5,0,0
77582,-83.3333333333333,4,2,1,60,0,0
78782,-76.9230769230769,4,2,1,60,0,0
78868,-76.9230769230769,4,2,1,5,0,0
78953,-83.3333333333333,4,2,1,55,0,0
79039,-83.3333333333333,4,2,1,5,0,0
79125,-90.9090909090909,4,2,1,50,0,0
79211,-90.9090909090909,4,2,1,5,0,0
79296,-100,4,2,1,45,0,0
79382,-100,4,2,1,5,0,0
79468,-111.111111111111,4,2,1,40,0,0
79553,-111.111111111111,4,2,1,5,0,0
79639,-125,4,2,1,35,0,0
79725,-125,4,2,1,5,0,0
79811,-142.857142857143,4,2,1,30,0,0
79896,-142.857142857143,4,2,1,5,0,0
79982,-166.666666666667,4,2,1,25,0,0
80068,-166.666666666667,4,2,1,5,0,0
80153,-166.666666666667,4,2,1,40,0,0
87525,-153.846153846154,4,2,1,40,0,0
88382,-142.857142857143,4,2,1,50,0,0
89411,-142.857142857143,4,2,1,50,0,0
89753,-83.3333333333334,4,2,1,60,0,0
90011,-76.9230769230769,4,2,1,60,0,0
90268,-83.3333333333333,4,2,1,60,0,0
90525,-83.3333333333333,4,2,1,5,0,0
90611,-83.3333333333333,4,2,1,60,0,0
91125,-111.111111111111,4,2,1,60,0,0
92582,-111.111111111111,4,2,1,5,0,0
92668,-111.111111111111,4,2,1,60,0,0
101753,-83.3333333333333,4,2,1,70,0,0
102011,-83.3333333333333,4,2,1,5,0,0
102096,-125,4,2,1,40,0,0
107582,-100,4,2,1,60,0,0
108525,-100,4,2,1,5,0,0
108611,-100,4,2,1,60,0,0
109553,-100,4,2,1,5,0,0
109639,-100,4,2,1,60,0,0
110325,-100,4,2,1,70,0,0
113068,-142.857142857143,4,2,1,60,0,0
114439,-100,4,2,1,70,0,0
115468,-125,4,2,1,70,0,0
115811,-76.9230769230769,4,2,1,80,0,1
116668,-90.9090909090909,4,2,1,80,0,1
117182,-76.9230769230769,4,2,1,80,0,1
117525,-83.3333333333333,4,2,1,80,0,1
118553,-90.9090909090909,4,2,1,80,0,1
118811,-90.9090909090909,4,2,1,5,0,1
118896,-90.9090909090909,4,2,1,80,0,1
119925,-76.9230769230769,4,2,1,80,0,1
120953,-71.4285714285714,4,2,1,80,0,1
121211,-71.4285714285714,4,2,1,5,0,1
121296,-100,4,2,1,80,0,1
121553,-100,4,2,1,5,0,1
121639,-100,4,2,1,80,0,1
122925,-100,4,2,1,5,0,1
123011,-100,4,2,1,80,0,1
124039,-83.3333333333333,4,2,1,70,0,0
124468,-83.3333333333333,4,2,1,5,0,0
124553,-83.3333333333333,4,2,1,80,0,0
124811,-83.3333333333333,4,2,1,5,0,0
124896,-83.3333333333333,4,2,1,80,0,0
125153,-83.3333333333333,4,2,1,5,0,0
125238,-83.3333333333333,4,2,1,80,0,0
125496,-83.3333333333333,4,2,1,5,0,0
125581,-83.3333333333333,4,2,1,80,0,0
126782,-76.9230769230769,4,2,1,80,0,1
127639,-90.9090909090909,4,2,1,80,0,1
128153,-76.9230769230769,4,2,1,80,0,1
128496,-83.3333333333333,4,2,1,80,0,1
129525,-90.9090909090909,4,2,1,80,0,1
129782,-90.9090909090909,4,2,1,5,0,1
129868,-90.9090909090909,4,2,1,80,0,1
130896,-76.9230769230769,4,2,1,80,0,1
131925,-71.4285714285714,4,2,1,80,0,1
132268,-100,4,2,1,80,0,1
133639,-76.9230769230769,4,2,1,80,0,1
133896,-71.4285714285714,4,2,1,80,0,1
134153,-66.6666666666667,4,2,1,80,0,1
134411,-66.6666666666667,4,2,1,5,0,1
134496,-76.9230769230769,4,2,1,80,0,1
135011,-83.3333333333333,4,2,1,80,0,1
137753,-125,4,2,1,60,0,0
141011,-100,4,2,1,60,0,0
141268,-100,4,2,1,5,0,0
141353,-90.9090909090909,4,2,1,60,0,0
141611,-90.9090909090909,4,2,1,5,0,0
141696,-83.3333333333333,4,2,1,60,0,0
141953,-83.3333333333333,4,2,1,5,0,0
142039,-83.3333333333333,4,2,1,60,0,0
144611,-90.9090909090909,4,2,1,60,0,0
145982,-90.9090909090909,4,2,1,60,0,0
146496,-83.3333333333333,4,2,1,60,0,0
151725,-83.3333333333333,4,2,1,5,0,0
151811,-83.3333333333333,4,2,1,70,0,0
152925,-83.3333333333333,4,2,1,5,0,0
153011,-83.3333333333333,4,2,1,70,0,0
154211,-76.9230769230769,4,2,1,80,0,1
154468,-76.9230769230769,4,2,1,5,0,1
154553,-76.9230769230769,4,2,1,80,0,1
155411,-83.3333333333333,4,2,1,80,0,1
155668,-83.3333333333333,4,2,1,5,0,1
155753,-83.3333333333333,4,2,1,80,0,1
157039,-83.3333333333333,4,2,1,5,0,1
157125,-83.3333333333333,4,2,1,80,0,1
158325,-76.9230769230769,4,2,1,80,0,1
159696,-83.3333333333333,4,2,1,80,0,1
159953,-83.3333333333333,4,2,1,5,0,1
160039,-83.3333333333333,4,2,1,80,0,1
165182,-250.000000000001,4,2,1,40,0,0
167925,-333.333333333336,4,2,1,40,0,0
170668,-250.000000000001,4,2,1,40,0,0
173411,-156.25,4,2,1,40,0,0
176496,-166.666666666667,4,2,1,40,0,0
178553,-125,4,2,1,50,0,0
178896,-125,4,2,1,60,0,0
180268,-111.111111111111,4,2,1,60,0,0
181125,-125,4,2,1,60,0,0
181639,-100,4,2,1,60,0,0
181896,-100,4,2,1,5,0,0
181982,-100,4,2,1,60,0,0
182582,-100,4,2,1,5,0,0
182668,-100,4,2,1,60,0,0
184382,-100,4,2,1,60,0,0
188496,-166.666666666667,4,2,1,60,0,0
190382,-166.666666666667,4,2,1,70,0,0
190553,-66.6666666666667,4,2,1,70,0,0
191153,-66.6666666666667,4,2,1,5,0,0
191239,-90.9090909090909,4,2,1,80,0,1
191496,-90.9090909090909,4,2,1,5,0,1
191582,-90.9090909090909,4,2,1,80,0,1
192611,-76.9230769230769,4,2,1,80,0,1
193639,-71.4285714285714,4,2,1,80,0,1
193896,-71.4285714285714,4,2,1,5,0,1
193982,-100,4,2,1,80,0,1
194239,-100,4,2,1,5,0,1
194325,-100,4,2,1,80,0,1
195611,-100,4,2,1,5,0,1
195696,-100,4,2,1,80,0,1
196725,-83.3333333333333,4,2,1,80,0,0
197153,-83.3333333333333,4,2,1,5,0,0
197238,-83.3333333333333,4,2,1,80,0,0
197496,-83.3333333333333,4,2,1,5,0,0
197581,-83.3333333333333,4,2,1,80,0,0
197839,-83.3333333333333,4,2,1,5,0,0
197924,-83.3333333333333,4,2,1,80,0,0
198182,-83.3333333333333,4,2,1,5,0,0
198267,-83.3333333333333,4,2,1,80,0,0
199468,-76.9230769230769,4,2,1,80,0,1
200325,-90.9090909090909,4,2,1,80,0,1
200839,-76.9230769230769,4,2,1,80,0,1
201182,-83.3333333333333,4,2,1,80,0,1
202211,-90.9090909090909,4,2,1,80,0,1
202468,-90.9090909090909,4,2,1,5,0,1
202553,-90.9090909090909,4,2,1,80,0,1
203582,-76.9230769230769,4,2,1,80,0,1
204611,-71.4285714285714,4,2,1,80,0,1
204953,-100,4,2,1,80,0,1
206325,-76.9230769230769,4,2,1,80,0,1
206582,-71.4285714285714,4,2,1,80,0,1
206839,-66.6666666666667,4,2,1,80,0,1
207096,-66.6666666666667,4,2,1,5,0,1
207182,-76.9230769230769,4,2,1,80,0,1
207696,-83.3333333333333,4,2,1,80,0,1
210439,-125,4,2,1,60,0,0
213696,-100,4,2,1,60,0,0
213953,-100,4,2,1,5,0,0
214039,-90.9090909090909,4,2,1,60,0,0
214296,-90.9090909090909,4,2,1,5,0,0
214382,-83.3333333333333,4,2,1,60,0,0
214639,-83.3333333333333,4,2,1,5,0,0
214725,-83.3333333333333,4,2,1,60,0,0
216011,-83.3333333333333,4,2,1,5,0,0
216097,-83.3333333333333,4,2,1,60,0,0
217382,-83.3333333333333,4,2,1,5,0,0
217468,-83.3333333333333,4,2,1,60,0,0

[Colours]
Combo1 : 222,152,152
Combo2 : 255,130,176
Combo3 : 158,150,150
Combo4 : 255,209,168

[HitObjects]
17,67,611,5,6,1:1:0:0:
39,68,2496,2,0,P|78:59|123:74,1,76.8,10|0,0:1|1:0,0:0:0:0:
222,161,2839,5,10,0:1:0:0:
311,26,3011,1,2,1:0:0:0:
210,174,3182,1,0,1:0:0:0:
433,118,3353,6,0,L|343:127,1,76.8,6|2,1:1|1:2,0:0:0:0:
348,131,3611,1,2,1:2:0:0:
348,131,3696,1,2,1:2:0:0:
198,266,3868,6,0,B|233:279|233:279|210:174,1,144,2|0,1:0|0:0,0:0:0:0:
347,243,4211,6,0,B|258:211|266:289|187:262,1,158.400004833985,10|0,0:1|0:0,0:0:0:0:
15,233,4553,6,0,B|55:208|97:204|130:220|130:220|115:244|120:276,1,172.799994726563,6|0,0:1|0:0,0:0:0:0:
163,337,4896,5,10,0:1:0:0:
308,97,5068,1,10,1:0:0:0:
312,337,5239,5,2,1:0:0:0:
159,97,5411,1,10,0:1:0:0:
119,270,5582,6,0,P|153:258|203:268,1,62.3999971435548,10|0,0:3|0:0,0:0:0:0:
275,197,5753,2,0,P|308:209|340:249,1,62.3999971435548,10|0,0:3|0:0,0:0:0:0:
438,245,5925,2,0,P|455:276|454:327,1,62.3999971435548,2|0,0:1|0:0,0:0:0:0:
312,337,6096,5,6,0:1:0:0:
232,129,6268,1,10,0:3:0:0:
206,147,6353,1,2,0:2:0:0:
195,177,6439,1,10,0:1:0:0:
369,182,6611,2,0,L|274:196,1,96,10|0,1:3|1:0,0:0:0:0:
183,41,6953,5,10,1:3:0:0:
217,260,7125,1,10,0:1:0:0:
20,114,7296,2,0,B|90:126|90:126|135:166|135:166|195:177,1,192,10|10,1:3|1:3,0:0:0:0:
41,251,7725,5,2,1:2:0:0:
41,251,7811,2,0,B|43:223|43:223|59:185,1,48,10|0,0:1|0:0,0:0:0:0:
183,41,7982,2,0,B|180:68|180:68|164:106,1,48,10|0,1:3|1:0,0:0:0:0:
122,241,8153,6,0,L|216:259,1,96,2|8,1:1|1:3,0:0:0:0:
341,139,8496,2,0,B|301:147|254:127|254:127|273:153|267:185,1,144,8|0,0:1|0:0,0:0:0:0:
194,176,8839,1,2,1:0:0:0:
378,226,9011,5,10,0:3:0:0:
431,53,9182,1,10,0:1:0:0:
508,234,9353,2,0,L|495:287,2,48,10|2|2,0:3|1:1|1:1,0:0:0:0:
265,113,9696,5,10,1:3:0:0:
256,145,9782,1,2,1:1:0:0:
267,178,9867,1,10,0:1:0:0:
478,161,10039,2,0,L|336:141,1,144,14|0,1:3|0:0,0:0:0:0:
336,141,10382,5,10,1:3:0:0:
174,269,10553,1,10,0:1:0:0:
355,371,10725,2,0,B|362:341|362:341|356:309,1,62.3999971435548,10|0,1:3|1:0,0:0:0:0:
155,360,10896,5,10,1:0:0:0:
346,232,11068,1,8,1:3:0:0:
142,134,11239,6,0,B|136:169|136:169|148:212,1,62.3999971435548,10|0,0:1|0:0,0:0:0:0:
231,384,11411,2,0,B|237:349|237:349|225:306,1,62.3999971435548,10|0,0:3|0:0,0:0:0:0:
17,320,11582,5,6,1:1:0:0:
214,164,11753,2,0,L|267:177,2,52.8000016113282,10|2|10,0:3|0:1|0:1,0:0:0:0:
174,269,12096,5,10,0:3:0:0:
41,131,12268,1,2,1:1:0:0:
200,83,12439,1,10,1:3:0:0:
76,260,12611,1,10,0:1:0:0:
0,53,12782,2,0,B|113:27|90:121|217:79,1,211.200006445313,10|10,1:3|1:3,0:0:0:0:
34,183,13210,5,2,1:1:0:0:
34,183,13296,2,8,L|42:116,1,52.8000016113282,10|0,1:1|0:0,0:0:0:0:
157,10,13468,2,0,L|218:4,1,52.8000016113282,10|0,1:3|1:1,0:0:0:0:
377,120,13639,5,2,1:0:0:0:
211,194,13811,1,10,1:3:0:0:
293,86,13982,5,10,0:1:0:0:
283,124,14067,1,8,0:1:0:0:
296,161,14153,1,8,0:1:0:0:
303,199,14239,1,8,0:1:0:0:
293,237,14324,1,10,0:1:0:0:
68,335,14839,5,10,0:0:0:0:
296,337,15182,6,0,B|311:290|311:290|291:231,1,105.600003222656,10|2,0:1|0:1,0:0:0:0:
98,118,15525,6,0,B|135:117|156:97|156:97|195:124|195:124|234:100|234:100|253:120|284:124,1,211.200006445313,6|0,1:1|1:0,0:0:0:0:
395,41,15953,1,0,1:0:0:0:
395,41,16039,2,0,P|344:28|296:47,1,105.600003222656,8|0,0:1|1:0,0:0:0:0:
436,202,16382,1,2,1:0:0:0:
292,236,16553,6,0,L|227:223,1,52.8000016113282,8|0,0:3|0:0,0:0:0:0:
417,121,16725,2,0,L|482:108,1,52.8000016113282,8|0,0:3|0:0,0:0:0:0:
292,236,17068,5,6,1:1:0:0:
462,350,17239,1,0,1:0:0:0:
462,350,18268,6,0,P|405:311|333:332,1,129.599996044922,6|0,1:0|0:0,0:0:0:0:
330,332,18611,5,6,1:1:0:0:
463,171,18782,1,0,1:0:0:0:
463,171,19639,5,6,1:0:0:0:
251,78,19811,1,0,1:0:0:0:
329,252,20153,6,0,P|287:283|345:326,1,129.599996044922,6|0,1:1|0:0,0:0:0:0:
329,252,20496,6,0,B|286:262|286:262|261:289|261:289|200:306,1,129.599996044922,4|0,1:0|0:0,0:0:0:0:
150,205,20839,6,0,B|241:194|241:194|214:231,1,129.599996044922,6|0,1:0|0:0,0:0:0:0:
218,224,21182,5,4,1:0:0:0:
82,79,21353,1,2,1:0:0:0:
82,79,21696,6,0,L|59:257,1,172.799994726563,6|0,1:0|1:0,0:0:0:0:
60,275,22125,1,0,1:0:0:0:
60,275,22211,1,10,0:1:0:0:
150,205,22382,1,0,1:3:0:0:
301,356,22553,5,6,1:2:0:0:
301,356,23068,1,6,1:0:0:0:
456,207,23411,5,0,1:0:0:0:
456,207,23496,1,0,1:0:0:0:
456,207,23582,2,0,B|386:183|387:245|316:214,1,129.599996044922,6|0,1:1|0:0,0:0:0:0:
314,205,23925,5,2,1:0:0:0:
314,205,24439,2,0,L|216:221,1,86.3999973632813,10|2,0:1|1:0,0:0:0:0:
141,368,24782,2,0,P|161:284|79:244,1,172.799994726563,12|2,1:0|1:0,0:0:0:0:
76,231,25211,5,0,1:0:0:0:
76,231,25296,2,0,L|70:162,1,43.1999986816407,2|0,1:0|0:0,0:0:0:0:
74,36,25468,1,0,1:0:0:0:
256,151,25639,2,0,B|216:129|216:129|171:135,1,86.3999973632813,8|2,0:1|1:0,0:0:0:0:
159,138,25896,1,0,1:0:0:0:
159,138,25982,1,2,1:0:0:0:
220,46,26153,1,2,1:0:0:0:
190,217,26325,1,10,0:1:0:0:
216,58,26496,1,2,1:0:0:0:
76,231,26668,6,0,L|199:216,1,115.199996484375,4|0,1:0|0:0,0:0:0:0:
298,261,26925,6,0,B|254:269|254:269|230:291|230:291|158:300,1,124.79999428711,8|0,1:0|0:0,0:0:0:0:
259,368,27182,6,0,B|290:342|290:342|383:322,1,115.199996484375,8|0,1:0|0:0,0:0:0:0:
494,330,27525,6,0,P|501:300|496:270,1,52.8000016113282,8|0,1:3|0:0,0:0:0:0:
477,152,27696,2,0,P|463:124|439:104,1,52.8000016113282,8|0,1:3|0:0,0:0:0:0:
21,27,28039,6,0,L|33:127,1,86.3999973632813,6|2,1:0|0:0,0:0:0:0:
31,112,28296,1,2,0:0:0:0:
31,112,28382,1,10,0:2:0:0:
207,27,28553,1,2,0:1:0:0:
196,112,28725,2,0,L|208:12,1,86.3999973632813,2|2,1:0|0:1,0:0:0:0:
113,65,29068,1,10,0:1:0:0:
294,185,29239,6,0,B|226:168|230:216|163:191,1,129.599996044922,2|0,0:1|0:0,0:0:0:0:
168,192,29582,2,0,B|178:238|178:238|161:291,1,86.3999973632813,2|8,0:1|0:1,0:0:0:0:
64,338,29925,2,0,L|11:323,2,43.1999986816407,2|0|0,1:1|1:0|1:0,0:0:0:0:
100,235,30268,1,2,0:1:0:0:
173,354,30439,1,10,0:1:0:0:
266,260,30611,5,2,1:2:0:0:
266,260,30696,1,2,1:2:0:0:
266,260,30782,2,0,B|304:270|304:270|356:263,1,86.3999973632813,2|2,1:2|0:1,0:0:0:0:
269,102,31125,1,10,0:1:0:0:
353,103,31296,2,0,B|310:93|310:93|261:103,1,86.3999973632813,2|0,0:1|1:0,0:0:0:0:
308,180,31639,1,2,0:1:0:0:
428,143,31811,1,10,0:1:0:0:
415,305,31982,2,0,P|428:264|414:223,1,86.3999973632813,2|0,0:1|1:0,0:0:0:0:
286,340,32325,5,2,0:1:0:0:
465,373,32496,1,10,0:1:0:0:
263,336,32668,2,0,L|220:345,2,43.1999986816407,2|0|0,1:1|1:0|1:0,0:0:0:0:
350,263,33011,1,2,0:0:0:0:
222,230,33182,1,10,0:1:0:0:
324,88,33353,5,2,1:1:0:0:
333,112,33439,1,0,1:0:0:0:
333,137,33525,2,0,L|195:150,1,129.599996044922,6|2,1:1|0:1,0:0:0:0:
184,139,33868,1,8,0:1:0:0:
87,56,34039,2,0,B|102:101|102:101|87:154,1,86.3999973632813,2|0,0:1|1:0,0:0:0:0:
85,161,34296,1,0,1:0:0:0:
85,161,34382,1,0,1:0:0:0:
44,297,34553,5,10,0:1:0:0:
233,270,34725,1,2,0:1:0:0:
36,383,34896,6,0,L|45:297,1,86.3999973632813,6|2,1:1|0:1,0:0:0:0:
184,139,35239,1,10,0:1:0:0:
287,341,35411,2,0,B|248:362|248:362|192:353,1,86.3999973632813,2|2,0:1|1:1,0:0:0:0:
78,121,35753,5,10,1:2:0:0:
318,146,35925,1,10,0:0:0:0:
179,20,36096,6,0,L|193:86,1,43.1999986816407,2|0,1:1|1:0,0:0:0:0:
326,63,36268,6,0,B|269:77|269:77|237:127|237:127|182:139,1,172.799994726563,2|8,1:0|0:0,0:0:0:0:
78,121,36782,1,2,0:1:0:0:
104,285,36953,1,2,1:1:0:0:
104,285,37039,1,0,1:0:0:0:
104,285,37125,2,0,L|117:186,1,86.3999973632813,2|8,1:1|0:0,0:0:0:0:
4,244,37468,1,2,1:1:0:0:
242,247,37639,5,10,0:1:0:0:
6,377,37811,1,8,0:0:0:0:
6,377,38153,1,8,0:0:0:0:
6,377,38496,1,8,0:0:0:0:
205,164,38668,6,0,B|255:133|255:133|241:249,1,172.799994726563,14|0,0:0|0:0,0:0:0:0:
241,246,39011,5,4,1:0:0:0:
415,332,39353,6,0,P|341:303|276:350,2,153.6,2|2|10,1:1|1:0|0:1,0:0:0:0:
481,138,40382,5,2,1:1:0:0:
479,126,40639,5,0,1:0:0:0:
477,114,40896,5,2,1:1:0:0:
379,212,41068,2,0,L|332:202,2,38.4,2|0|2,1:1|1:0|1:1,0:0:0:0:
359,55,41411,2,0,B|374:92|374:92|362:138,1,76.8,2|8,1:1|1:0,0:0:0:0:
270,246,41753,5,10,1:0:0:0:
270,246,42268,1,8,0:1:0:0:
270,246,42782,1,14,0:1:0:0:
35,145,43125,6,0,P|72:125|111:134,1,76.8,10|0,1:2|0:0,0:0:0:0:
118,52,43382,6,0,P|158:67|185:100,1,86.3999973632813,8|0,0:1|0:0,0:0:0:0:
236,42,43639,6,0,P|259:78|258:121,1,86.3999973632813,8|0,0:1|1:0,0:0:0:0:
180,262,43982,5,0,1:0:0:0:
180,262,44068,1,0,1:0:0:0:
180,262,44153,2,0,L|192:166,1,76.8,0|0,1:0|1:0,0:0:0:0:
62,304,44496,6,0,B|137:291|118:357|205:336,1,144,6|0,1:1|0:0,0:0:0:0:
275,288,44839,2,0,L|281:386,1,96,10|2,0:1|0:1,0:0:0:0:
189,185,45182,2,0,B|291:173|291:173|257:219,1,144,2|0,1:1|0:0,0:0:0:0:
266,206,45525,1,10,0:1:0:0:
115,141,45696,2,0,B|101:192|101:192|120:237,1,96,2|0,0:1|1:0,0:0:0:0:
269,105,46039,1,2,0:1:0:0:
93,51,46211,6,0,B|150:57|150:57|192:95|192:95|277:106,1,192,8|0,1:0|1:0,0:0:0:0:
391,46,46725,1,0,1:0:0:0:
391,46,46811,1,0,1:0:0:0:
391,46,46896,2,0,L|401:151,1,96,8|0,0:0|1:0,0:0:0:0:
278,188,47239,5,10,0:1:0:0:
465,323,47411,1,10,0:1:0:0:
465,323,47753,1,10,0:1:0:0:
465,323,48096,1,10,0:1:0:0:
465,323,48439,6,0,P|430:352|377:356,1,96,6|0,1:0|0:0,0:1:0:0:
387,55,48782,1,8,0:0:0:0:
306,325,48954,21,8,0:0:0:0:
300,86,49125,1,8,0:0:0:0:
220,320,49297,21,8,0:0:0:0:
207,86,49468,2,0,L|219:142,1,48,8|0,1:0|1:0,0:0:0:0:
138,350,49640,21,8,1:0:0:0:
117,49,49811,1,8,0:0:0:0:
270,69,51353,6,0,B|238:61|238:61|191:68,1,62.3999971435548,6|0,1:0|0:0,0:0:0:0:
2,154,51525,2,0,B|34:162|34:162|81:155,1,62.3999971435548,2|0,0:1|0:0,0:0:0:0:
124,41,51696,6,0,L|147:196,1,124.79999428711,10|2,0:1|1:0,0:0:0:0:
148,186,51953,1,0,1:0:0:0:
148,186,52039,1,2,1:1:0:0:
262,340,52211,2,0,B|243:288|243:288|266:220,1,105.600003222656,2|8,1:0|0:0,0:0:0:0:
373,125,52553,5,2,1:1:0:0:
373,125,52639,1,0,1:0:0:0:
373,125,52725,2,0,L|286:109,1,62.3999971435548,2|0,1:0|0:0,0:0:0:0:
331,286,52896,2,0,L|473:260,1,124.79999428711,2|8,1:0|0:0,0:0:0:0:
224,147,53239,5,2,1:0:0:0:
224,147,53325,1,0,1:0:0:0:
224,147,53411,1,2,1:0:0:0:
470,257,53582,1,2,1:0:0:0:
221,264,53753,5,10,0:1:0:0:
460,121,53925,1,2,1:1:0:0:
192,23,54096,6,0,B|239:40|295:22|295:22|278:49|281:82,1,158.400004833985,2|0,1:0|0:0,0:0:0:0:
358,67,54439,1,10,0:1:0:0:
224,147,54611,2,0,L|157:132,2,52.8000016113282,2|0|0,1:1|1:0|1:0,0:0:0:0:
435,238,54953,2,0,B|383:225|383:225|316:239,1,105.600003222656,2|8,1:1|0:0,0:0:0:0:
201,313,55296,1,2,1:1:0:0:
201,313,55382,1,0,1:0:0:0:
201,313,55468,1,4,1:0:0:0:
194,51,55639,5,8,1:3:0:0:
382,307,55811,1,8,1:3:0:0:
384,55,55982,5,0,1:0:0:0:
384,55,56068,1,0,1:0:0:0:
384,55,56153,1,10,1:1:0:0:
201,313,56325,1,0,1:0:0:0:
402,140,56496,6,0,B|438:126|438:126|426:247|426:247|391:223,1,201.599993847656,14|0,0:1|0:0,0:0:0:0:
315,292,56839,6,0,B|383:282|374:339|454:327,1,144,6|0,1:1|0:0,0:0:0:0:
472,318,57182,1,10,0:1:0:0:
391,223,57353,1,10,0:3:0:0:
327,372,57525,6,0,L|217:387,1,96,2|8,1:0|0:3,0:0:0:0:
112,207,57868,1,10,0:1:0:0:
212,384,58039,1,10,0:3:0:0:
97,285,58211,6,0,B|125:288|125:288|151:281|151:281|182:307|182:307|208:302|208:302|247:308,1,144,2|0,1:0|0:0,0:0:0:0:
253,308,58553,1,10,0:1:0:0:
340,179,58725,1,10,0:3:0:0:
167,95,58896,5,2,1:0:0:0:
311,252,59068,1,10,0:3:0:0:
167,81,59239,1,10,0:1:0:0:
310,265,59411,1,10,0:3:0:0:
41,177,59582,5,10,1:0:0:0:
207,9,59753,2,0,B|246:40|246:40|247:120|247:120|211:161,1,172.799994726563,8|0,0:0|0:0,0:0:0:0:
167,232,60096,6,0,B|225:258|276:222|276:222|283:251|310:265,1,172.799994726563,8|0,0:0|0:0,0:0:0:0:
433,179,60439,6,0,P|377:130|350:199,1,172.799994726563,8|0,0:0|0:0,0:0:0:0:
433,179,60782,6,0,B|434:149|447:121|447:121|423:69|423:69|438:45|441:6,1,172.799994726563,8|0,0:0|0:0,0:0:0:0:
440,16,61125,5,8,0:0:0:0:
504,256,61296,1,8,0:0:0:0:
504,256,61639,1,6,1:1:0:0:
504,256,61982,6,0,L|386:270,1,115.199996484375,10|2,0:3|0:1,0:0:0:0:
215,334,62325,6,0,P|205:304|211:264,1,62.3999971435548,6|0,1:1|0:0,0:0:0:0:
237,64,62496,2,0,P|247:94|241:134,1,62.3999971435548,2|0,1:0|0:0,0:0:0:0:
287,287,62668,5,10,0:1:0:0:
172,105,62839,2,0,L|101:119,2,62.3999971435548,2|0|2,1:0|1:0|1:1,0:0:0:0:
346,190,63182,6,0,B|290:210|290:210|240:201,1,105.600003222656,2|8,1:0|0:0,0:0:0:0:
384,44,63525,1,2,1:1:0:0:
384,44,63611,1,0,1:0:0:0:
384,44,63696,2,0,L|447:58,1,62.3999971435548,2|0,1:1|0:0,0:0:0:0:
356,297,63868,6,0,P|324:232|360:181,1,124.79999428711,2|8,1:0|0:0,0:0:0:0:
469,168,64211,5,2,1:0:0:0:
469,168,64296,1,0,1:0:0:0:
469,168,64382,1,2,1:0:0:0:
218,76,64553,1,2,1:1:0:0:
229,285,64725,1,10,0:1:0:0:
361,114,64896,1,2,1:1:0:0:
508,285,65068,6,0,B|417:253|433:324|339:292,1,158.400004833985,6|0,0:1|0:0,0:0:0:0:
327,281,65411,1,10,0:1:0:0:
191,167,65582,2,0,L|126:180,2,52.8000016113282,2|0|0,1:1|1:0|1:0,0:0:0:0:
68,330,65925,2,0,B|80:281|80:281|53:214,1,105.600003222656,2|8,1:0|0:0,0:0:0:0:
178,348,66268,1,2,1:0:0:0:
178,348,66353,1,0,1:0:0:0:
178,348,66439,1,4,1:0:0:0:
134,81,66611,5,8,1:3:0:0:
379,238,66782,1,8,1:3:0:0:
203,35,66953,5,8,0:0:0:0:
216,77,67038,1,8,0:0:0:0:
205,122,67124,1,8,0:0:0:0:
191,167,67210,1,8,0:0:0:0:
194,214,67295,1,8,0:0:0:0:
403,153,67468,6,0,B|335:136|339:193|268:172,1,134.399995898438,10|2,0:1|1:1,0:0:0:0:
287,13,67725,5,0,1:0:0:0:
287,13,67811,2,0,B|307:62|307:62|291:102,1,96,6|0,1:0|0:0,0:0:0:0:
275,175,68068,2,0,L|288:292,1,96,8|0,1:0|0:0,0:0:0:0:
290,293,68325,1,10,1:1:0:0:
477,327,68496,5,2,1:1:0:0:
449,303,68581,1,0,1:0:0:0:
434,271,68667,1,0,1:0:0:0:
433,235,68753,1,0,1:0:0:0:
446,202,68839,2,0,L|456:93,1,96,14|0,0:1|0:0,0:0:0:0:
229,113,69182,6,0,B|253:92|253:92|349:81,1,124.79999428711,10|0,0:1|0:0,0:0:0:0:
270,17,69439,6,0,B|220:23|220:23|188:52|188:52|139:58,1,134.399995898438,10|0,0:1|0:0,0:0:0:0:
109,173,69696,6,0,B|155:212|155:212|147:57,1,216.000008239746,14|0,0:1|0:0,0:0:0:0:
76,23,70039,6,0,L|11:12,2,62.3999971435548,2|0|2,1:1|1:0|1:1,0:0:0:0:
229,113,70382,1,0,1:0:0:0:
40,234,70553,5,14,0:1:0:0:
166,165,70725,2,0,L|98:173,1,57.5999982421876,0|0,1:0|1:0,0:0:0:0:
274,302,70896,5,10,0:1:0:0:
60,106,71068,1,10,0:1:0:0:
384,102,71239,5,10,0:1:0:0:
177,261,71411,1,10,0:1:0:0:
471,278,71582,5,10,0:1:0:0:
275,103,71753,1,2,1:1:0:0:
275,103,71839,1,0,1:0:0:0:
275,103,71925,2,0,B|298:157|298:157|276:225,1,115.199996484375,6|0,1:1|1:0,0:0:0:0:
402,83,72268,1,8,0:0:0:0:
206,242,72439,5,0,1:0:0:0:
239,216,72524,1,0,1:0:0:0:
281,211,72610,1,0,1:0:0:0:
321,230,72696,1,0,1:0:0:0:
345,263,72781,1,0,1:0:0:0:
98,366,72953,2,0,L|110:248,1,115.199996484375,14|2,0:1|1:1,0:0:0:0:
265,378,73296,5,6,1:1:0:0:
265,378,75182,2,0,L|341:370,1,76.8,14|0,0:1|0:0,0:0:0:0:
504,366,75525,5,10,0:1:0:0:
322,279,75696,1,2,1:0:0:0:
475,214,75868,5,0,1:0:0:0:
475,214,75953,1,0,1:0:0:0:
475,214,76039,2,0,L|457:300,1,76.8,14|0,1:0|1:0,0:0:0:0:
446,303,76296,1,0,1:0:0:0:
446,303,76382,1,2,1:1:0:0:
253,100,76553,6,0,B|358:87|358:87|323:144,1,144,2|0,1:1|0:0,0:0:0:0:
467,126,76896,6,0,B|421:140|421:140|390:186|390:186|325:210,1,158.400004833985,10|0,0:1|0:0,0:0:0:0:
242,208,77239,6,0,B|252:261|252:261|318:302|318:302|369:291,1,172.799994726563,14|0,0:1|0:0,0:0:0:0:
436,258,77582,5,10,0:1:0:0:
177,149,77753,1,10,0:1:0:0:
394,60,77925,5,2,1:1:0:0:
394,60,78011,1,0,1:0:0:0:
394,60,78096,1,10,1:1:0:0:
154,290,78268,6,0,L|164:222,1,57.5999982421876,8|0,0:3|0:0,0:0:0:0:
193,68,78439,2,0,L|203:0,1,57.5999982421876,8|0,0:3|0:0,0:0:0:0:
405,153,78782,6,0,P|409:189|391:230,1,62.3999971435548,2|0,1:2|0:0,0:0:0:0:
420,297,78953,6,0,P|387:310|345:307,1,57.5999982421876,2|0,0:0|0:0,0:0:0:0:
287,355,79125,6,0,P|268:336|256:312,1,52.8000016113282,2|0,0:0|0:0,0:0:0:0:
190,245,79296,6,0,P|200:224|217:207,1,48,2|0,0:0|0:0,0:0:0:0:
263,120,79468,6,0,P|284:123|304:131,1,43.1999986816407,2|0,0:0|0:0,0:0:0:0:
404,153,79639,6,0,P|408:174|407:191,1,38.4,2|0,0:0|0:0,0:0:0:0:
420,297,79811,6,0,P|400:307|384:310,1,33.5999989746094,2|0,0:0|0:0,0:0:0:0:
287,355,79982,6,0,P|271:339|266:327,1,28.7999991210938,2|0,0:0|0:0,0:0:0:0:
315,239,80153,5,2,0:0:0:0:
315,239,80668,2,0,L|247:246,2,57.5999982421876,2|2|2,0:0|0:0|0:0,0:0:0:0:
400,150,81182,1,2,0:0:0:0:
400,150,81353,2,0,B|450:133|450:181|518:164,1,115.199996484375,2|2,0:0|0:0,0:0:0:0:
413,227,81868,2,0,L|430:343,1,115.199996484375,8|8,0:3|0:3,0:0:0:0:
434,359,82296,1,2,0:0:0:0:
434,359,82382,1,2,0:0:0:0:
511,303,82553,5,2,0:0:0:0:
511,303,82725,2,0,P|507:267|494:237,1,57.5999982421876,2|0,0:0|0:0,0:0:0:0:
331,269,83068,1,2,0:0:0:0:
331,269,83239,1,2,0:0:0:0:
331,269,83411,2,0,P|334:304|347:334,1,57.5999982421876,2|0,0:0|0:0,0:0:0:0:
413,227,83753,2,0,L|404:161,1,57.5999982421876,2|2,0:0|0:0,0:0:0:0:
338,72,84096,6,0,P|275:56|215:91,1,115.199996484375,2|2,0:0|0:0,0:0:0:0:
156,161,84611,2,0,L|88:152,1,57.5999982421876,8|2,0:3|0:0,0:0:0:0:
40,81,84953,2,0,L|4:88,2,28.7999991210938,8|2|2,0:3|0:0|0:0,0:0:0:0:
98,153,85296,2,0,P|110:195|106:215,1,57.5999982421876,2|2,0:0|0:0,0:0:0:0:
19,295,85639,6,0,L|124:313,2,86.3999973632813,2|2|2,0:0|0:0|0:0,0:0:0:0:
18,295,86668,2,0,P|15:328|23:351,1,57.5999982421876,2|2,0:0|0:0,0:0:0:0:
104,309,87011,5,2,0:0:0:0:
104,309,87182,2,0,P|107:276|99:253,1,57.5999982421876,2|2,0:0|0:0,0:0:0:0:
33,174,87525,2,0,L|109:164,1,62.3999971435548,2|2,0:0|0:0,0:0:0:0:
172,204,87868,2,0,L|207:212,2,31.1999985717774,2|2|2,0:0|0:0|0:0,0:0:0:0:
275,135,88211,1,2,0:0:0:0:
268,262,88382,6,0,B|290:227|290:227|272:113,1,134.399995898438,6|0,1:2|0:0,0:0:0:0:
203,55,88896,1,2,1:2:0:0:
203,55,89068,2,0,L|193:133,1,67.1999979492188,2|2,1:2|0:2,0:0:0:0:
324,50,89411,5,10,0:0:0:0:
420,175,89582,1,0,1:0:0:0:
420,175,89668,1,0,1:0:0:0:
420,175,89753,6,0,P|366:155|299:171,1,115.199996484375,10|0,0:1|0:0,0:0:0:0:
272,263,90011,6,0,B|306:237|355:233|355:233|344:254|345:284,1,124.79999428711,10|0,0:1|0:0,0:0:0:0:
445,323,90268,6,0,P|434:256|492:309,1,172.799994726563,10|0,0:1|0:0,0:0:0:0:
499,287,90611,6,0,L|492:205,1,57.5999982421876,8|0,0:3|0:0,0:0:0:0:
420,175,90782,2,0,L|427:92,1,57.5999982421876,8|0,0:3|0:0,0:0:0:0:
84,0,91125,5,6,0:1:0:0:
42,123,91296,2,0,L|53:170,2,43.1999986816407,0|0|8,1:0|1:0|1:0,0:0:0:0:
220,97,91639,1,2,0:1:0:0:
137,91,91811,2,0,B|178:82|178:82|220:97,1,86.3999973632813,2|2,1:1|1:1,0:0:0:0:
290,205,92153,5,10,0:1:0:0:
192,253,92325,2,0,B|176:163|176:163|210:179,1,129.599996044922,2|0,1:1|0:0,0:0:0:0:
210,179,92668,2,0,L|118:201,1,86.3999973632813,2|8,0:1|0:0,0:0:0:0:
0,233,93011,1,0,1:0:0:0:
0,233,93096,1,0,1:0:0:0:
0,233,93182,1,0,1:0:0:0:
120,288,93353,1,2,1:1:0:0:
0,339,93525,1,10,0:1:0:0:
126,376,93696,5,2,1:1:0:0:
126,376,93782,1,0,1:0:0:0:
126,376,93868,2,0,B|239:365,1,86.3999973632813,0|2,1:0|0:1,0:0:0:0:
126,199,94211,1,10,0:1:0:0:
211,207,94382,2,0,L|98:196,1,86.3999973632813,2|0,0:0|1:0,0:0:0:0:
213,287,94725,2,0,L|318:286,1,86.3999973632813,2|10,0:1|0:0,0:0:0:0:
400,218,95068,6,0,B|389:260|389:260|402:314,1,86.3999973632813,2|0,0:1|1:0,0:0:0:0:
507,356,95411,1,2,0:0:0:0:
319,374,95582,1,10,0:0:0:0:
469,260,95753,2,0,L|525:268,2,43.1999986816407,2|0|0,1:1|1:0|1:0,0:0:0:0:
301,378,96096,1,0,1:0:0:0:
399,301,96268,1,10,0:1:0:0:
206,159,96439,5,2,1:1:0:0:
192,186,96525,1,0,1:0:0:0:
199,215,96611,2,0,B|254:223|254:223|269:242|269:242|336:255,1,129.599996044922,6|2,1:1|0:1,0:0:0:0:
345,240,96953,1,8,0:0:0:0:
477,81,97125,2,0,B|490:123|490:123|482:172,1,86.3999973632813,6|0,0:1|0:0,0:0:0:0:
469,187,97382,1,2,1:2:0:0:
461,211,97468,1,2,1:2:0:0:
461,236,97553,1,2,1:2:0:0:
469,260,97639,1,10,1:1:0:0:
404,128,97811,1,2,1:0:0:0:
343,323,97982,6,0,B|354:280|354:280|344:239,1,86.3999973632813,6|2,1:0|0:1,0:0:0:0:
280,85,98325,1,10,0:1:0:0:
181,271,98496,2,0,L|283:281,1,86.3999973632813,6|2,0:1|1:1,0:0:0:0:
128,47,98839,5,8,0:1:0:0:
277,193,99011,1,8,0:0:0:0:
118,175,99182,6,0,L|132:123,1,43.1999986816407,2|0,1:1|1:0,0:0:0:0:
212,26,99353,6,0,B|197:88|197:88|209:128|209:128|190:204,1,172.799994726563,2|8,1:1|0:0,0:0:0:0:
51,305,99868,2,0,B|93:294|93:294|148:311,1,86.3999973632813,2|2,0:1|1:0,0:0:0:0:
162,318,100125,1,0,1:0:0:0:
162,318,100211,1,2,1:0:0:0:
118,175,100382,1,8,0:0:0:0:
86,377,100553,1,2,1:0:0:0:
294,247,100725,5,10,0:0:0:0:
17,186,100896,1,8,1:2:0:0:
17,186,101239,1,8,0:0:0:0:
17,186,101582,1,12,0:0:0:0:
172,83,101753,6,0,B|113:67|113:67|84:124|129:193,1,172.799994726563,6|0,0:0|0:0,0:0:0:0:
117,174,102096,1,4,1:0:0:0:
263,69,102439,6,0,B|340:47|323:113|418:97,1,153.6,2|2,0:1|1:1,0:0:0:0:
511,226,103125,1,10,0:1:0:0:
291,333,103468,5,2,1:0:0:0:
289,310,103725,5,0,1:0:0:0:
287,286,103982,5,2,1:1:0:0:
377,327,104153,5,2,1:1:0:0:
215,371,104325,1,2,1:1:0:0:
384,333,104496,5,2,1:0:0:0:
207,364,104668,1,8,0:0:0:0:
285,262,104839,5,14,0:1:0:0:
285,262,105353,1,8,0:1:0:0:
285,262,105868,1,14,0:1:0:0:
123,127,106211,6,0,P|162:118|203:131,1,76.8,10|0,0:1|0:0,0:0:0:0:
197,274,106468,2,0,P|158:283|117:270,1,76.8,8|0,0:1|0:0,0:0:0:0:
159,199,106725,1,8,0:1:0:0:
380,81,106896,5,2,1:2:0:0:
349,105,106981,1,2,1:2:0:0:
339,143,107067,1,2,1:2:0:0:
343,180,107153,1,2,1:2:0:0:
360,215,107239,5,6,1:2:0:0:
369,233,107324,1,2,1:2:0:0:
369,251,107410,1,2,1:2:0:0:
366,269,107496,1,2,1:2:0:0:
360,287,107582,6,0,B|459:305,1,96,6|2,1:0|0:1,0:0:0:0:
434,129,107925,2,0,B|334:142,1,96,10|2,0:1|0:1,0:0:0:0:
148,217,108268,6,0,B|222:198|203:267|299:249,1,144,2|0,1:0|0:0,0:0:0:0:
281,251,108611,1,10,0:1:0:0:
153,384,108782,2,0,B|144:343|144:343|161:291,1,96,2|0,0:1|1:0,0:0:0:0:
268,171,109125,1,2,0:1:0:0:
79,133,109296,6,0,B|182:125|182:125|141:171,1,144,8|0,0:0|0:0,0:0:0:0:
154,155,109639,1,0,1:0:0:0:
5,99,109811,1,0,1:0:0:0:
13,187,109982,2,0,P|-7:138|15:86,1,96,12|0,1:0|0:0,0:0:0:0:
172,50,110325,5,10,0:1:0:0:
35,285,110496,1,10,0:1:0:0:
35,285,110839,1,10,0:1:0:0:
35,285,111182,1,10,0:1:0:0:
34,284,111525,6,0,P|81:278|127:293,1,96,14|0,0:1|0:0,0:0:0:0:
364,352,111868,1,8,0:1:0:0:
115,208,112039,5,8,0:1:0:0:
389,277,112211,1,8,0:1:0:0:
104,123,112382,5,8,0:1:0:0:
415,202,112553,2,8,L|345:207,1,48,0|0,1:0|1:0,0:0:0:0:
92,38,112725,5,8,1:0:0:0:
441,128,112896,1,8,0:0:0:0:
210,321,113068,6,0,P|203:305|201:289,1,33.5999989746094,2|0,0:0|0:0,0:0:0:0:
173,208,113239,6,0,P|185:196|200:189,1,33.5999989746094,2|0,0:0|0:0,0:0:0:0:
269,136,113411,6,0,P|283:144|295:156,1,33.5999989746094,2|0,0:0|0:0,0:0:0:0:
367,205,113582,6,0,P|363:221|355:236,1,33.5999989746094,2|0,0:0|0:0,0:0:0:0:
331,319,113753,6,0,P|314:320|297:317,1,33.5999989746094,2|0,0:0|0:0,0:0:0:0:
210,321,113925,6,0,P|203:305|201:289,1,33.5999989746094,2|0,0:0|0:0,0:0:0:0:
173,208,114096,6,0,P|185:196|200:189,1,33.5999989746094,2|0,0:0|0:0,0:0:0:0:
269,136,114268,6,0,P|283:144|295:156,1,33.5999989746094,2|0,0:0|0:0,0:0:0:0:
272,239,114439,5,2,1:1:0:0:
272,239,114525,1,0,1:0:0:0:
272,239,114611,1,0,1:0:0:0:
190,80,114782,5,0,1:0:0:0:
226,49,114867,1,0,1:0:0:0:
273,40,114953,1,0,1:0:0:0:
318,55,115039,1,0,1:0:0:0:
350,90,115125,1,0,1:0:0:0:
376,129,115210,1,0,1:0:0:0:
420,147,115296,1,0,1:0:0:0:
466,139,115382,1,0,1:0:0:0:
501,107,115468,2,0,L|487:22,1,76.8,14|0,0:0|0:0,0:0:0:0:
210,244,115811,6,0,P|245:237|292:244,1,62.3999971435548,6|0,1:1|0:0,0:0:0:0:
497,308,115982,2,0,P|462:315|415:308,1,62.3999971435548,2|0,0:1|0:0,0:0:0:0:
360,205,116153,6,0,L|348:331,1,124.79999428711,10|2,0:1|1:1,0:0:0:0:
350,351,116411,1,0,1:1:0:0:
350,351,116496,1,2,1:1:0:0:
460,209,116668,2,0,B|406:190|406:190|337:212,1,105.600003222656,2|8,1:0|0:0,0:0:0:0:
131,341,117011,5,2,1:0:0:0:
131,341,117096,1,0,1:0:0:0:
131,341,117182,2,0,L|122:275,1,62.3999971435548,2|0,1:0|0:0,0:0:0:0:
197,130,117353,2,0,P|225:184|209:243,1,124.79999428711,2|8,1:0|0:0,0:0:0:0:
52,112,117696,6,0,L|133:124,1,57.5999982421876,2|0,1:0|1:0,0:0:0:0:
314,58,117868,1,2,1:0:0:0:
143,194,118039,5,2,1:1:0:0:
53,11,118211,1,10,0:1:0:0:
154,193,118382,1,2,1:1:0:0:
314,58,118553,6,0,B|200:42|200:42|234:81,1,158.400004833985,2|0,1:0|0:0,0:0:0:0:
228,74,118896,1,10,0:1:0:0:
337,232,119068,1,2,1:1:0:0:
345,207,119153,1,0,1:0:0:0:
339,181,119239,1,0,1:0:0:0:
154,193,119411,2,0,L|272:211,1,105.600003222656,2|8,1:0|0:0,0:0:0:0:
385,316,119753,1,2,1:0:0:0:
385,316,119839,1,0,1:0:0:0:
385,316,119925,1,6,1:1:0:0:
381,61,120096,5,8,1:3:0:0:
151,319,120268,1,8,1:3:0:0:
168,72,120439,5,0,1:0:0:0:
168,72,120525,1,0,1:0:0:0:
168,72,120611,1,2,1:0:0:0:
385,316,120782,1,0,1:0:0:0:
140,154,120953,6,0,B|204:168|247:116|247:116|241:163|279:197,1,201.599993847656,14|0,0:1|0:0,0:0:0:0:
396,232,121296,6,0,B|327:216|331:291|245:261,1,144,6|0,0:1|0:0,0:0:0:0:
243,261,121639,1,10,0:1:0:0:
330,127,121811,1,10,0:3:0:0:
386,327,121982,6,0,L|397:220,1,96,2|8,1:1|0:3,0:0:0:0:
303,369,122325,1,10,0:1:0:0:
465,345,122496,1,10,0:3:0:0:
242,262,122668,6,0,B|187:272|187:272|159:299|159:299|100:310,1,144,2|0,1:0|0:0,0:0:0:0:
91,302,123011,1,10,0:1:0:0:
109,131,123182,1,10,0:3:0:0:
220,341,123353,1,2,1:0:0:0:
49,207,123525,2,0,L|115:215,1,48,10|0,0:3|0:0,0:0:0:0:
203,119,123696,2,0,L|108:130,1,96,10|10,0:1|0:3,0:0:0:0:
308,207,124039,5,2,1:0:0:0:
451,28,124211,2,0,P|511:74|457:129,1,172.799994726563,10|0,1:2|0:0,0:0:0:0:
447,203,124553,6,0,B|408:199|386:162|386:162|362:215|298:206,1,172.799994726563,10|0,0:0|0:0,0:0:0:0:
203,119,124896,6,0,B|244:83|279:79|324:90|324:90|309:156,1,172.799994726563,10|0,0:0|0:0,0:0:0:0:
184,211,125239,6,0,B|234:233|234:233|201:112,1,172.799994726563,10|0,0:0|0:0,0:0:0:0:
195,96,125582,5,10,0:0:0:0:
34,291,125753,1,8,0:0:0:0:
34,291,126096,2,0,L|45:223,1,57.5999982421876,6|0,1:0|0:0,0:0:0:0:
14,145,126268,5,0,1:0:0:0:
52,141,126353,1,0,1:0:0:0:
87,154,126439,1,0,1:0:0:0:
116,180,126525,1,0,1:0:0:0:
147,202,126610,1,0,1:0:0:0:
184,211,126696,1,0,1:0:0:0:
223,208,126782,6,0,P|252:201|303:212,1,62.3999971435548,6|0,1:0|0:0,0:0:0:0:
496,257,126953,2,0,P|466:263|416:253,1,62.3999971435548,2|0,0:1|0:0,0:0:0:0:
255,285,127125,5,10,0:1:0:0:
458,183,127296,2,0,L|444:120,2,62.3999971435548,2|0|2,1:0|1:0|1:1,0:0:0:0:
346,340,127639,6,0,L|360:216,1,105.600003222656,2|8,0:1|0:0,0:0:0:0:
235,91,127982,1,2,1:1:0:0:
235,91,128068,1,0,1:0:0:0:
235,91,128153,2,0,P|265:86|296:91,1,62.3999971435548,2|0,1:1|0:0,0:0:0:0:
255,285,128325,6,0,B|191:298|191:298|137:271,1,124.79999428711,2|8,1:1|0:0,0:0:0:0:
86,92,128668,6,0,L|102:167,1,57.5999982421876,2|0,1:0|1:0,0:0:0:0:
18,295,128839,1,2,1:0:0:0:
77,76,129011,5,2,1:0:0:0:
137,271,129182,1,10,0:1:0:0:
69,62,129353,1,2,1:1:0:0:
240,207,129525,6,0,B|322:185|306:261|404:233,1,158.400004833985,2|0,1:0|0:0,0:0:0:0:
389,237,129868,2,0,L|381:161,1,52.8000016113282,10|0,0:1|0:0,0:0:0:0:
268,296,130039,1,2,1:1:0:0:
268,296,130125,1,0,1:0:0:0:
268,296,130211,1,0,1:0:0:0:
468,362,130382,6,0,B|416:353|416:353|357:375,1,105.600003222656,2|8,1:0|0:0,0:0:0:0:
489,196,130725,1,2,1:1:0:0:
489,196,130811,1,0,1:0:0:0:
489,196,130896,1,4,1:0:0:0:
261,99,131068,5,8,1:3:0:0:
477,280,131239,1,8,1:3:0:0:
392,73,131411,6,0,L|397:147,1,62.3999971435548,0|0,1:3|1:3,0:0:0:0:
324,271,131582,1,8,1:3:0:0:
324,271,131668,1,8,1:3:0:0:
324,271,131753,1,8,1:3:0:0:
148,136,131925,6,0,B|196:146|196:146|224:172|224:172|282:183,1,134.399995898438,10|2,0:1|1:1,0:0:0:0:
269,9,132182,5,0,1:0:0:0:
269,9,132268,2,0,B|281:63|281:63|253:112,1,96,10|0,1:1|0:0,0:0:0:0:
158,216,132525,2,0,L|31:191,1,96,8|0,0:1|0:0,0:0:0:0:
44,193,132782,1,10,0:1:0:0:
225,313,132953,5,2,1:1:0:0:
225,313,133039,1,0,1:0:0:0:
225,313,133125,2,0,L|239:246,1,48,0|0,1:0|0:0,0:0:0:0:
166,125,133296,2,0,B|146:169|146:169|163:238,1,96,14|0,0:1|0:0,0:0:0:0:
399,142,133639,6,0,P|342:112|283:145,1,124.79999428711,10|0,0:1|0:0,0:0:0:0:
343,283,133896,6,0,B|317:236|342:191|342:191|360:218|387:219,1,134.399995898438,10|0,0:1|0:0,0:0:0:0:
459,210,134153,6,0,B|502:195|502:195|408:104|408:104|398:149,1,216.000008239746,14|0,0:1|0:0,0:0:0:0:
452,292,134496,6,0,L|515:278,2,62.3999971435548,2|0|2,1:1|1:0|1:1,0:0:0:0:
262,207,134839,1,0,1:0:0:0:
399,142,135011,5,6,1:0:0:0:
371,376,135182,2,0,L|361:315,1,57.5999982421876,0|0,1:0|1:0,0:0:0:0:
320,117,135353,5,10,0:1:0:0:
202,346,135524,1,10,0:1:0:0:
257,65,135696,5,10,0:1:0:0:
56,264,135867,1,10,0:1:0:0:
214,0,136039,5,10,0:1:0:0:
248,258,136211,1,2,1:1:0:0:
248,258,136296,1,0,1:0:0:0:
248,258,136382,2,0,B|266:202|266:202|248:147,1,115.199996484375,6|0,1:1|1:0,0:0:0:0:
143,230,136725,1,8,0:0:0:0:
347,59,136896,5,0,1:0:0:0:
304,52,136981,1,0,1:0:0:0:
264,68,137067,1,0,1:0:0:0:
223,79,137153,1,0,1:0:0:0:
180,72,137238,1,0,1:0:0:0:
21,258,137411,2,0,L|39:128,1,115.199996484375,14|2,0:0|1:2,0:0:0:0:
184,348,137753,5,6,1:0:0:0:
184,348,139639,2,0,L|193:254,1,76.8,14|0,0:1|0:0,0:0:0:0:
126,153,139982,5,10,0:1:0:0:
280,264,140153,1,2,1:1:0:0:
21,303,140325,5,0,1:0:0:0:
21,303,140411,1,0,1:0:0:0:
21,303,140496,2,0,B|62:294|62:294|120:306,1,76.8,14|0,1:1|1:0,0:0:0:0:
114,310,140753,1,0,1:0:0:0:
114,310,140839,1,0,1:0:0:0:
273,184,141011,6,0,B|321:193|321:193|352:230|352:230|398:239,1,144,10|0,0:1|0:0,0:0:0:0:
467,184,141353,6,0,B|487:219|487:219|473:296|473:296|437:312,1,158.400004833985,10|0,0:1|0:0,0:0:0:0:
282,363,141696,6,0,B|257:373|257:373|280:260|280:260|304:290,1,172.799994726563,14|0,0:1|0:0,0:0:0:0:
360,339,142039,5,10,0:1:0:0:
198,202,142211,1,10,1:0:0:0:
389,155,142382,6,0,L|316:164,1,57.5999982421876,2|0,1:1|1:0,0:0:0:0:
179,296,142553,1,10,1:0:0:0:
257,42,142725,6,0,P|244:77|250:113,1,57.5999982421876,8|0,0:3|0:0,0:0:0:0:
273,234,142896,2,0,P|285:269|313:292,1,57.5999982421876,8|0,0:3|0:0,0:0:0:0:
440,63,143239,5,8,0:0:0:0:
207,180,143411,1,8,0:0:0:0:
192,241,144611,6,0,L|130:240,3,35.2000010742188,4|0|0|0,1:2|1:0|1:0|1:0,0:0:0:0:
132,230,144839,2,0,L|83:236,1,35.2000010742188,0|0,1:0|1:0,0:0:0:0:
27,257,144953,6,0,B|21:229|21:229|28:199,1,52.8000016113282,0|0,1:0|1:0,0:0:0:0:
100,11,145125,1,0,1:0:0:0:
100,11,145211,1,0,1:0:0:0:
100,11,145296,2,0,B|105:38|105:38|99:69,1,52.8000016113282,0|0,1:0|1:0,0:0:0:0:
55,131,145468,1,0,1:0:0:0:
243,125,145639,6,0,L|126:141,1,105.600003222656,14|2,0:1|0:1,0:0:0:0:
266,22,145982,5,10,0:0:0:0:
380,241,146153,2,0,B|392:192|392:192|372:131,1,105.600003222656,10|2,0:0|0:0,0:0:0:0:
170,238,146496,6,2,B|214:220|214:220|250:243|250:243|304:226|304:226|336:248|336:248|388:238,1,230.39999296875,2|2,0:1|0:2,0:1:0:0:
471,245,146925,1,2,0:0:0:0:
471,245,147011,2,0,L|465:187,1,57.5999982421876,2|2,0:0|0:0,0:0:0:0:
265,328,147182,1,2,0:0:0:0:
265,328,147268,1,2,0:0:0:0:
265,328,147353,1,2,0:0:0:0:
512,335,147525,5,8,0:0:0:0:
355,126,147696,1,8,0:2:0:0:
362,364,147868,6,0,L|356:299,1,57.5999982421876,0|0,1:0|1:0,0:0:0:0:
456,151,148039,1,0,1:0:0:0:
295,235,148211,5,8,1:3:0:0:
327,216,148296,1,0,1:0:0:0:
365,210,148382,1,8,1:3:0:0:
400,225,148468,1,0,1:0:0:0:
435,241,148553,1,0,1:0:0:0:
473,242,148639,1,0,1:0:0:0:
509,231,148725,5,8,1:0:0:0:
269,108,148896,1,8,0:0:0:0:
476,54,149068,6,0,P|447:39|394:32,1,57.5999982421876,2|0,0:0|0:0,0:0:0:0:
289,19,149239,2,0,P|256:21|207:41,1,57.5999982421876,2|0,0:0|0:0,0:0:0:0:
126,238,149411,5,2,0:0:0:0:
121,209,149496,1,2,0:0:0:0:
117,181,149582,1,2,0:0:0:0:
113,152,149668,1,2,0:0:0:0:
142,124,149753,5,2,0:0:0:0:
138,95,149838,1,2,0:0:0:0:
134,67,149924,1,2,0:0:0:0:
129,38,150010,1,2,0:0:0:0:
158,10,150096,5,2,1:2:0:0:
17,168,150268,1,12,0:0:0:0:
223,194,150439,1,12,0:0:0:0:
50,69,150611,5,0,1:0:0:0:
50,69,150696,1,0,1:0:0:0:
50,69,150782,1,0,1:0:0:0:
126,238,150953,2,0,L|117:176,1,57.5999982421876,0|0,1:0|1:0,0:0:0:0:
247,92,151125,2,0,B|187:76|187:76|127:98,1,115.199996484375,12|0,0:0|1:0,0:0:0:0:
223,194,151468,6,0,B|277:208|323:180|323:180|307:216|316:253,1,172.799994726563,6|0,1:1|0:1,0:1:0:0:
392,223,151811,1,8,0:0:0:0:
458,79,151982,2,0,L|443:15,2,57.5999982421876,0|0|0,1:0|1:0|1:0,0:0:0:0:
247,92,152325,1,0,1:0:0:0:
426,153,152496,1,8,0:0:0:0:
202,322,152668,6,0,B|257:309|257:309|309:330|309:330|372:317,1,172.799994726563,6|0,1:1|0:0,0:0:0:0:
324,191,153011,6,0,L|316:248,1,57.5999982421876,2|0,1:0|0:0,0:0:0:0:
175,190,153182,2,0,L|182:247,1,57.5999982421876,10|0,0:1|0:0,0:0:0:0:
330,133,153353,6,0,L|322:190,1,57.5999982421876,2|0,1:1|0:0,0:0:0:0:
167,133,153525,2,0,L|174:190,1,57.5999982421876,2|0,1:0|0:0,0:0:0:0:
279,53,153696,6,0,B|251:45|251:45|218:52,1,57.5999982421876,2|0,1:1|0:0,0:0:0:0:
56,193,153868,5,10,1:0:0:0:
42,167,153953,1,0,1:0:0:0:
57,128,154039,5,2,1:0:0:0:
44,102,154124,1,0,1:0:0:0:
56,59,154211,6,0,B|92:34|92:34|138:51|138:51|181:30|181:30|222:50,1,187.199991430664,6|0,0:0|0:0,0:0:0:0:
253,128,154553,2,0,L|252:195,1,62.3999971435548,8|0,0:0|0:0,0:0:0:0:
80,325,154725,5,8,1:3:0:0:
80,325,154811,1,0,1:0:0:0:
80,325,154896,1,2,1:1:0:0:
285,266,155068,2,0,B|255:273|255:273|211:263,1,62.3999971435548,10|0,1:3|0:0,0:0:0:0:
56,193,155239,1,10,0:1:0:0:
418,108,155411,6,0,B|331:85|341:162|242:124,1,172.799994726563,10|0,0:3|0:0,0:0:0:0:
387,243,155753,2,0,B|396:215|396:215|386:171,1,57.5999982421876,8|0,1:3|0:0,0:0:0:0:
290,57,155925,1,10,1:2:0:0:
290,57,156011,1,2,1:3:0:0:
290,57,156096,1,10,1:3:0:0:
224,265,156268,5,2,0:1:0:0:
418,108,156439,1,10,1:3:0:0:
202,67,156611,1,10,0:1:0:0:
267,334,156782,6,0,B|306:313|306:313|315:230|315:230|275:192,1,172.799994726563,10|0,0:3|0:0,0:0:0:0:
224,265,157125,2,0,L|144:256,1,57.5999982421876,10|0,0:3|0:0,0:0:0:0:
12,205,157296,5,10,0:1:0:0:
219,143,157468,1,8,1:3:0:0:
219,143,157553,1,0,1:0:0:0:
219,143,157639,1,2,1:1:0:0:
35,73,157811,1,10,0:3:0:0:
80,253,157982,2,0,B|99:195|99:195|75:134,1,115.199996484375,10|10,0:1|0:3,0:0:0:0:
191,1,158325,6,0,B|182:37|182:37|191:85,1,62.3999971435548,2|0,0:1|0:0,0:0:0:0:
231,287,158496,2,0,B|240:251|240:251|231:203,1,62.3999971435548,2|0,1:0|0:0,0:0:0:0:
79,144,158668,1,10,0:0:0:0:
324,123,158839,5,2,1:1:0:0:
324,123,158925,1,0,1:0:0:0:
324,123,159011,1,2,1:1:0:0:
80,253,159182,1,2,1:0:0:0:
324,245,159353,5,14,0:1:0:0:
79,144,159525,1,2,0:1:0:0:
343,34,159696,6,0,B|276:45|276:45|245:80|245:80|165:89,1,172.799994726563,6|0,1:1|0:0,0:0:0:0:
154,76,160039,1,8,0:0:0:0:
324,123,160211,2,0,L|398:113,2,57.5999982421876,8|0|0,1:3|1:0|1:0,0:0:0:0:
184,293,160553,5,10,1:3:0:0:
175,259,160639,1,2,1:2:0:0:
185,226,160725,1,10,1:2:0:0:
364,266,160896,2,0,B|310:247|310:247|237:268,1,115.199996484375,10|0,1:3|0:0,0:0:0:0:
432,179,161239,1,10,1:3:0:0:
443,359,161411,1,8,0:0:0:0:
249,120,161582,5,10,1:3:0:0:
280,149,161667,1,2,1:2:0:0:
292,190,161753,1,2,1:2:0:0:
282,231,161839,1,2,1:2:0:0:
254,263,161924,1,10,1:3:0:0:
58,345,162096,2,0,B|115:328|115:328|190:352,1,115.199996484375,8|8,0:0|0:3,0:0:0:0:
12,255,162439,5,6,1:1:0:0:
209,193,162611,1,2,0:1:0:0:
70,74,162782,1,10,0:1:0:0:
110,259,162953,5,2,1:2:0:0:
110,259,163039,1,2,1:2:0:0:
110,259,163125,1,2,1:2:0:0:
191,62,163296,1,2,1:1:0:0:
314,236,163468,1,10,0:1:0:0:
22,162,163639,6,0,B|68:155|68:155|93:167|93:167|133:160,1,115.199996484375,6|0,1:1|0:0,0:0:0:0:
401,87,163982,5,8,0:0:0:0:
110,259,164153,1,8,0:0:0:0:
405,263,164325,5,8,0:0:0:0:
405,263,164411,1,8,0:0:0:0:
405,263,164496,1,8,0:0:0:0:
108,87,164668,1,8,0:0:0:0:
418,76,164839,5,8,0:3:0:0:
97,267,165011,1,8,0:3:0:0:
262,78,165182,6,0,P|311:141|279:202,1,153.6,6|2,0:2|0:0,0:0:0:0:
176,164,166211,2,0,L|94:178,2,76.8,2|2|2,0:0|0:0|0:0,0:0:0:0:
202,274,167068,1,2,0:0:0:0:
202,274,167239,2,0,B|257:253|251:309|317:286,1,115.2,2|0,0:0|0:0,0:0:0:0:
392,221,167925,6,0,L|403:344,1,115.199996484375,2|2,0:0|0:0,0:0:0:0:
402,335,168953,1,2,0:0:0:0:
311,287,169296,6,0,L|307:253,1,28.7999991210938,2|2,0:0|0:0,0:0:0:0:
298,167,169639,1,2,0:0:0:0:
298,167,169811,2,0,L|302:133,1,28.7999991210938,2|0,0:0|0:0,0:0:0:0:
311,50,170153,2,0,L|307:16,1,28.7999991210938,2|0,0:0|0:0,0:0:0:0:
86,88,170668,6,0,P|116:78|164:175,1,153.6,2|2,0:0|0:0,0:0:0:0:
89,252,171696,2,0,P|79:288|89:329,2,76.8,2|2|2,0:0|0:0|0:0,0:0:0:0:
170,293,172553,1,2,0:0:0:0:
170,293,172725,2,0,L|250:286,1,76.8,2|0,0:0|0:0,0:0:0:0:
246,286,173239,1,0,0:0:0:0:
319,140,173411,6,0,B|318:109|341:77|374:70|374:70|403:93|408:132|390:160|390:160|422:145|460:157|477:186|477:186|465:220|429:238|396:228|396:228|420:254|420:294|397:319|397:319|361:318|334:288|332:256|332:256|315:287|278:299|246:285|246:285|236:252|255:217|286:204|286:204|253:196|229:165|233:131|233:131|266:111|291:116|316:140,1,983.04,2|2,0:0|0:0,0:0:0:0:
315,139,176496,6,0,P|325:86|286:33,2,115.199996484375,2|2|2,0:0|0:0|0:0,0:0:0:0:
212,219,177525,2,0,B|119:193|132:273|46:251,1,172.799994726563,2|0,0:0|0:0,0:0:0:0:
66,111,178211,2,0,L|72:184,1,57.5999982421876,2|2,0:0|0:0,0:0:0:0:
182,365,178553,2,0,B|193:326|193:326|170:273,1,76.8,2|0,1:2|0:0,0:0:0:0:
0,352,178896,5,10,0:1:0:0:
0,352,179411,1,8,0:0:0:0:
0,352,179925,1,14,0:1:0:0:
230,230,180268,6,0,P|192:209|151:218,1,86.3999973632813,8|0,0:1|0:0,0:0:0:0:
147,136,180525,6,0,P|107:151|80:184,1,86.3999973632813,8|0,0:0|0:0,0:0:0:0:
29,127,180782,6,0,P|6:162|7:205,1,86.3999973632813,8|0,0:0|1:0,0:0:0:0:
102,310,181125,5,0,1:0:0:0:
102,310,181211,1,0,1:0:0:0:
102,310,181296,2,0,L|190:299,1,76.8,0|0,1:0|1:0,0:0:0:0:
301,166,181639,6,0,B|256:155|256:155|272:250,1,144,6|0,1:1|0:0,0:0:0:0:
276,282,181982,1,10,0:1:0:0:
165,180,182153,1,2,1:1:0:0:
301,87,182325,6,0,B|350:98|350:98|380:135|380:135|431:144,1,144,2|0,1:1|0:0,0:0:0:0:
450,128,182668,1,10,0:1:0:0:
403,308,182839,2,0,B|388:261|388:261|402:205,1,96,2|0,0:0|1:0,0:0:0:0:
479,260,183182,1,2,0:1:0:0:
277,357,183353,6,0,P|301:290|410:324,1,192,8|0,0:0|1:0,0:0:0:0:
315,178,183868,1,0,1:0:0:0:
315,178,183953,1,0,1:0:0:0:
315,178,184039,2,0,L|201:193,1,96,8|0,0:0|1:0,0:0:0:0:
75,310,184382,5,10,0:1:0:0:
23,61,184553,1,10,0:1:0:0:
23,61,184896,1,10,0:1:0:0:
23,61,185239,1,10,0:1:0:0:
23,61,185582,6,0,P|64:37|120:48,1,96,14|0,0:1|0:0,0:0:0:0:
72,321,185925,1,8,0:0:0:0:
199,77,186096,5,8,0:0:0:0:
161,356,186268,1,8,0:0:0:0:
285,35,186439,5,8,0:0:0:0:
247,314,186611,2,0,L|239:262,1,48,8|0,1:0|1:0,0:0:0:0:
374,70,186782,5,8,1:0:0:0:
336,349,186954,1,8,0:0:0:0:
335,352,188496,6,0,P|349:295|309:238,1,115.199996484375,2|2,0:0|0:0,0:0:0:0:
323,247,189868,1,2,0:0:0:0:
323,247,190211,1,2,0:0:0:0:
449,157,190382,5,2,1:1:0:0:
449,157,190468,1,0,1:0:0:0:
449,157,190553,2,0,B|410:157|410:157|384:173|384:173|355:158|355:158|300:157,1,144.000005493164,2|2,1:1|1:1,0:0:0:0:
263,52,190811,1,0,1:0:0:0:
263,52,190896,2,0,B|331:18|331:18|311:168,1,216.000008239746,2|0,1:1|0:0,0:0:0:0:
323,247,191239,6,0,B|271:216|222:232|222:232|239:253|239:288,1,158.400004833985,6|0,1:1|0:0,0:0:0:0:
161,282,191582,1,10,0:1:0:0:
52,203,191753,2,0,L|-18:214,2,52.8000016113282,2|0|0,1:1|1:0|1:0,0:0:0:0:
238,133,192096,2,0,B|188:148|188:148|126:127,1,105.600003222656,2|8,1:1|0:0,0:0:0:0:
10,48,192439,1,2,1:1:0:0:
10,48,192525,1,0,1:0:0:0:
10,48,192611,1,0,1:0:0:0:
263,45,192782,5,8,1:3:0:0:
0,211,192953,1,8,1:3:0:0:
259,222,193125,5,0,1:0:0:0:
259,222,193211,1,0,1:0:0:0:
259,222,193296,1,2,1:1:0:0:
10,48,193468,1,0,1:1:0:0:
287,144,193639,6,0,B|243:180|182:183|182:183|239:193|258:221,1,201.599993847656,14|0,0:1|0:0,0:0:0:0:
144,263,193982,6,0,B|209:245|202:315|283:295,1,144,6|0,1:1|0:0,0:0:0:0:
306,279,194325,5,10,0:1:0:0:
365,142,194496,1,10,0:3:0:0:
478,312,194668,2,0,B|486:264|486:264|462:212,1,96,2|8,1:1|0:3,0:0:0:0:
258,221,195011,5,10,0:1:0:0:
451,206,195182,1,10,0:3:0:0:
227,138,195353,6,0,B|274:129|274:129|317:150|317:150|370:141,1,144,2|0,1:1|0:0,0:0:0:0:
386,131,195696,1,10,0:1:0:0:
233,48,195868,1,10,0:3:0:0:
481,46,196039,5,2,1:1:0:0:
369,228,196211,1,2,1:1:0:0:
369,228,196296,1,0,1:0:0:0:
369,228,196382,1,10,1:1:0:0:
325,34,196553,1,2,0:1:0:0:
451,206,196725,5,10,0:1:0:0:
267,126,196896,2,0,B|147:136|147:136|198:176,1,172.799994726563,8|0,0:1|0:0,0:0:0:0:
53,220,197239,6,0,B|114:209|114:209|168:243|168:243|237:235,1,172.799994726563,8|0,0:1|0:0,0:0:0:0:
92,289,197582,6,0,P|125:224|52:219,1,172.799994726563,8|0,0:0|0:0,0:0:0:0:
59,364,197925,6,0,B|114:381|164:345|164:345|183:378|209:384,1,172.799994726563,8|0,0:0|0:0,0:0:0:0:
236,315,198268,5,8,0:0:0:0:
489,367,198439,1,8,0:0:0:0:
489,367,198782,2,0,B|496:340|496:340|486:301,1,57.5999982421876,6|0,1:1|0:0,0:0:0:0:
440,124,198953,5,0,1:0:0:0:
440,124,199039,1,0,1:0:0:0:
440,124,199125,1,0,1:0:0:0:
464,159,199210,1,0,1:0:0:0:
469,201,199296,1,0,1:0:0:0:
454,242,199382,1,0,1:0:0:0:
423,271,199468,6,0,B|391:279|391:279|354:273,1,62.3999971435548,6|0,1:1|0:0,0:0:0:0:
135,184,199639,2,0,B|167:176|167:176|204:182,1,62.3999971435548,2|0,0:1|0:0,0:0:0:0:
272,296,199811,6,0,L|283:151,1,124.79999428711,10|2,0:1|1:1,0:0:0:0:
287,143,200068,1,0,1:0:0:0:
287,143,200153,1,2,1:1:0:0:
407,46,200325,2,0,B|357:65|357:65|306:48,1,105.600003222656,2|8,1:1|0:0,0:0:0:0:
464,159,200668,5,2,1:1:0:0:
464,159,200753,1,0,1:0:0:0:
464,159,200839,2,0,L|476:236,1,62.3999971435548,2|0,1:1|0:0,0:0:0:0:
385,352,201011,2,0,P|354:286|385:231,1,124.79999428711,2|8,1:1|0:0,0:0:0:0:
493,352,201353,5,2,1:1:0:0:
493,352,201439,1,0,1:0:0:0:
493,352,201525,1,2,1:1:0:0:
265,215,201696,1,2,1:1:0:0:
473,220,201868,5,10,0:1:0:0:
275,362,202039,1,2,0:1:0:0:
496,125,202211,6,0,B|448:140|399:117|399:117|419:154|398:191,1,158.400004833985,2|0,1:1|0:0,0:0:0:0:
334,156,202553,1,10,0:1:0:0:
256,24,202725,2,0,L|186:41,2,52.8000016113282,2|0|0,1:1|1:0|1:0,0:0:0:0:
183,252,203068,2,0,B|168:198|168:198|195:145,1,105.600003222656,2|8,1:1|0:0,0:0:0:0:
309,314,203411,1,2,1:1:0:0:
309,314,203496,1,0,1:0:0:0:
309,314,203582,1,0,1:0:0:0:
5,257,203753,6,0,L|79:269,1,62.3999971435548,8|0,1:3|0:0,0:0:0:0:
267,99,203925,1,8,1:3:0:0:
195,368,204096,5,0,1:0:0:0:
220,330,204181,1,0,1:0:0:0:
216,284,204267,1,0,1:0:0:0:
183,252,204353,1,0,1:0:0:0:
138,247,204438,1,0,1:0:0:0:
1,139,204611,6,0,B|70:122|57:183|137:167,1,134.399995898438,10|2,0:1|1:1,0:0:0:0:
126,0,204868,5,0,1:0:0:0:
126,0,204953,2,0,L|112:115,1,96,10|0,1:1|0:0,0:0:0:0:
17,215,205211,2,0,L|31:330,1,96,8|0,0:0|0:0,0:0:0:0:
34,333,205468,1,10,0:1:0:0:
253,188,205639,5,2,1:0:0:0:
227,162,205724,1,0,1:0:0:0:
194,150,205810,1,0,1:0:0:0:
158,151,205896,1,0,1:0:0:0:
126,168,205981,1,14,1:0:0:0:
180,313,206153,1,2,0:1:0:0:
376,136,206325,6,0,B|405:193|405:193|390:270,1,124.79999428711,10|0,0:1|0:0,0:0:0:0:
506,309,206582,6,0,B|437:288|438:359|362:322,1,134.399995898438,10|0,0:1|0:0,0:0:0:0:
180,313,206839,6,0,B|213:268|275:262|316:278|316:278|293:301|301:359,1,216.000008239746,10|0,0:1|0:0,0:0:0:0:
393,252,207182,6,0,L|407:182,2,62.3999971435548,2|0|2,1:1|1:0|1:0,0:0:0:0:
287,65,207525,1,0,1:0:0:0:
463,52,207696,5,14,0:1:0:0:
143,126,207868,2,0,L|212:138,1,57.5999982421876,0|0,1:0|1:0,0:0:0:0:
471,142,208039,5,10,0:1:0:0:
123,215,208211,1,10,0:1:0:0:
478,230,208382,5,10,0:1:0:0:
104,305,208553,1,10,0:1:0:0:
485,318,208725,5,10,0:1:0:0:
284,157,208896,1,2,1:1:0:0:
284,157,208982,1,0,1:0:0:0:
284,157,209068,2,0,B|262:211|262:211|276:275,1,115.199996484375,6|0,1:1|1:0,0:0:0:0:
377,66,209411,1,8,0:0:0:0:
414,280,209582,5,0,1:0:0:0:
388,246,209667,1,0,1:0:0:0:
348,230,209753,1,0,1:0:0:0:
306,238,209839,1,0,1:0:0:0:
274,266,209924,1,0,1:0:0:0:
248,300,210011,1,0,1:0:0:0:
208,316,210097,1,8,0:0:0:0:
166,308,210183,1,0,1:0:0:0:
134,280,210268,2,0,L|144:215,1,57.5999982421876,0|0,1:0|1:0,0:0:0:0:
173,42,210439,5,6,1:0:0:0:
167,30,212325,2,0,L|261:47,1,76.8,14|0,0:1|0:0,0:0:0:0:
379,119,212668,5,10,0:1:0:0:
140,155,212839,1,2,1:1:0:0:
256,234,213011,5,0,1:0:0:0:
256,234,213096,1,0,1:0:0:0:
256,234,213182,2,0,B|268:194|268:194|258:141,1,76.8,14|0,0:1|1:0,0:0:0:0:
255,133,213439,1,0,1:0:0:0:
255,133,213525,1,2,1:1:0:0:
61,297,213696,6,0,P|110:279|54:221,1,144,2|0,1:1|0:0,0:0:0:0:
61,297,214039,6,0,B|123:292|123:292|161:317|161:317|228:312,1,158.400004833985,10|0,0:1|0:0,0:0:0:0:
256,234,214382,6,0,B|291:261|291:261|298:345|298:345|267:377,1,172.799994726563,14|0,0:1|0:0,0:0:0:0:
211,313,214725,5,10,0:1:0:0:
416,169,214896,1,10,0:1:0:0:
189,123,215068,1,2,1:1:0:0:
189,123,215153,1,0,1:0:0:0:
189,123,215239,1,2,1:1:0:0:
367,313,215411,6,0,L|361:243,1,57.5999982421876,8|0,0:3|0:0,0:0:0:0:
355,106,215582,2,0,L|349:36,1,57.5999982421876,8|0,0:3|0:0,0:0:0:0:
61,194,215753,6,0,B|138:158|137:239|239:204,1,172.799994726563,6|0,0:1|0:0,0:0:0:0:
255,189,216096,1,10,0:1:0:0:
97,275,216268,5,10,0:1:0:0:
189,123,216439,1,2,1:1:0:0:
92,287,216611,1,10,1:0:0:0:
87,297,216696,1,0,1:0:0:0:
82,307,216782,2,0,L|158:321,1,57.5999982421876,8|0,1:3|1:0,0:0:0:0:
249,355,216953,2,0,L|325:341,1,57.5999982421876,8|0,1:3|1:0,0:0:0:0:
473,193,217125,6,0,P|418:140|341:193,1,172.799994726563,6|0,1:1|0:0,0:0:0:0:
335,209,217468,1,10,0:1:0:0:
249,355,217639,1,10,0:1:0:0:
221,139,217811,1,2,1:1:0:0:
433,277,217982,2,0,L|424:340,2,57.5999982421876,2|0|0,1:1|1:0|1:0,0:0:0:0:
113,207,218325,5,2,1:0:0:0:
113,207,218411,1,0,1:0:0:0:
113,207,218496,2,0,B|170:184|167:240|230:226,1,115.199996484375,6|0,1:0|0:0,0:0:0:0:
387,54,218839,5,10,0:1:0:0:
153,357,219011,1,10,0:1:0:0:
170,55,219182,6,0,L|156:133,1,57.5999982421876,10|8,1:1|1:0,0:0:0:0:
387,358,219353,1,10,0:1:0:0:
221,227,219611,5,0,1:0:0:0:
221,227,219696,2,0,P|256:224|298:236,1,57.5999982421876,14|0,1:3|0:0,0:0:0:0:
