osu file format v14

[General]
AudioFilename: audio.mp3
AudioLeadIn: 0
PreviewTime: 72773
Countdown: 0
SampleSet: Normal
StackLeniency: 0.7
Mode: 3
LetterboxInBreaks: 0
SpecialStyle: 0
WidescreenStoryboard: 0

[Editor]
DistanceSpacing: 1.1
BeatDivisor: 4
GridSize: 32
TimelineZoom: 1

[Metadata]
Title:Halloween Night, Tonight!
TitleUnicode:今宵はHalloween Night!
Artist:hololive IDOL PROJECT
ArtistUnicode:hololive IDOL PROJECT
Creator:yhsh
Version:Easy!
Source:
Tags:koyoi wa 山本恭平 河合泰志 Arte Refact D4DJ Groovy Mix ホロライブ vtuber virtual youtuber japanese pop jpop j-pop electronic 紫咲シオン murasaki shion 夜空メル yozora mel 癒月ちょこ yuzuki choco 潤羽るしあ uruha rushia ch. floral circlet bloom, bouquet cut short ver
BeatmapID:3232494
BeatmapSetID:1582703

[Difficulty]
HPDrainRate:7
CircleSize:4
OverallDifficulty:7
ApproachRate:5
SliderMultiplier:1.4
SliderTickRate:1

[Events]
//Background and Video events
0,0,"bg.jpg",0,0
Video,1402,"video.avi"
//Break Periods
//Storyboard Layer 0 (Background)
//Storyboard Layer 1 (Fail)
//Storyboard Layer 2 (Pass)
//Storyboard Layer 3 (Foreground)
//Storyboard Layer 4 (Overlay)
//Storyboard Sound Samples

[TimingPoints]
0,468.75,4,1,1,60,1,0
73125,-100,4,1,1,60,0,1
87187,-100,4,1,1,60,0,0
88593,-100,4,1,1,60,0,1
103125,-100,4,1,1,60,0,0

[HitObjects]
320,192,5625,1,2,0:0:0:0:
448,192,5625,1,0,0:0:0:0:
64,192,5859,1,0,0:0:0:0:
192,192,6093,1,0,0:0:0:0:
448,192,6328,1,0,0:0:0:0:
320,192,6562,1,0,0:0:0:0:
64,192,7265,1,0,0:0:0:0:
320,192,7500,1,0,0:0:0:0:
192,192,7734,1,0,0:0:0:0:
448,192,7968,1,0,0:0:0:0:
64,192,8437,1,2,0:0:0:0:
192,192,8437,1,4,0:0:0:0:
448,192,8671,1,6,0:0:0:0:
64,192,8906,1,2,0:0:0:0:
192,192,8906,1,4,0:0:0:0:
320,192,9375,1,2,0:0:0:0:
64,192,9609,1,0,0:0:0:0:
448,192,9843,1,10,0:0:0:0:
192,192,10078,1,0,0:0:0:0:
64,192,10312,1,2,0:0:0:0:
448,192,11015,1,0,0:0:0:0:
64,192,11250,1,2,0:0:0:0:
320,192,11718,1,10,0:0:0:0:
192,192,11953,1,0,0:0:0:0:
320,192,12187,1,2,0:0:0:0:
448,192,12187,1,0,0:0:0:0:
64,192,12656,1,2,0:0:0:0:
192,192,12656,1,8,0:0:0:0:
320,192,13125,1,2,0:0:0:0:
64,192,13359,1,0,0:0:0:0:
448,192,13593,1,10,0:0:0:0:
192,192,13828,1,0,0:0:0:0:
64,192,14062,1,2,0:0:0:0:
448,192,14765,1,0,0:0:0:0:
320,192,15000,1,2,0:0:0:0:
64,192,15234,1,0,0:0:0:0:
192,192,15468,1,10,0:0:0:0:
320,192,15937,1,2,0:0:0:0:
448,192,15937,1,0,0:0:0:0:
64,192,16171,1,0,0:0:0:0:
320,192,16406,1,2,0:0:0:0:
448,192,16406,1,8,0:0:0:0:
64,192,16875,1,4,0:0:0:0:
192,192,16875,1,2,0:0:0:0:
320,192,17109,1,0,0:0:0:0:
64,192,17343,1,10,0:0:0:0:
448,192,17578,1,0,0:0:0:0:
192,192,17812,1,2,0:0:0:0:
320,192,18515,1,0,0:0:0:0:
64,192,18750,1,2,0:0:0:0:
192,192,19218,1,10,0:0:0:0:
448,192,19453,1,0,0:0:0:0:
64,192,19687,1,2,0:0:0:0:
192,192,19687,1,0,0:0:0:0:
320,192,20156,1,8,0:0:0:0:
448,192,20156,1,2,0:0:0:0:
192,192,20625,1,2,0:0:0:0:
320,192,20859,1,0,0:0:0:0:
64,192,21093,1,10,0:0:0:0:
448,192,21328,1,0,0:0:0:0:
192,192,21562,1,2,0:0:0:0:
64,192,22265,1,0,0:0:0:0:
448,192,22500,1,2,0:0:0:0:
192,192,22734,1,0,0:0:0:0:
320,192,22968,1,10,0:0:0:0:
64,192,23437,1,4,0:0:0:0:
192,192,23437,1,2,0:0:0:0:
448,192,23671,1,4,0:0:0:0:
64,192,23906,1,4,0:0:0:0:
192,192,23906,1,2,0:0:0:0:
320,192,24375,1,2,0:0:0:0:
448,192,24375,1,4,0:0:0:0:
192,192,24843,1,10,0:0:0:0:
64,192,25312,1,2,0:0:0:0:
320,192,25781,1,10,0:0:0:0:
64,192,26250,1,2,0:0:0:0:
448,192,26718,1,10,0:0:0:0:
192,192,27187,1,2,0:0:0:0:
64,192,27421,1,0,0:0:0:0:
448,192,27656,1,10,0:0:0:0:
320,192,27890,1,0,0:0:0:0:
192,192,28125,1,2,0:0:0:0:
448,192,28593,1,10,0:0:0:0:
64,192,29062,1,2,0:0:0:0:
320,192,29531,1,10,0:0:0:0:
192,192,30000,1,2,0:0:0:0:
320,192,30234,1,0,0:0:0:0:
448,192,30468,1,10,0:0:0:0:
64,192,30703,1,0,0:0:0:0:
192,192,30937,1,2,0:0:0:0:
448,192,31406,1,10,0:0:0:0:
64,192,31875,1,2,0:0:0:0:
192,192,31875,1,4,0:0:0:0:
320,192,32343,1,10,0:0:0:0:
64,192,32812,1,2,0:0:0:0:
448,192,33281,1,10,0:0:0:0:
192,192,33750,1,2,0:0:0:0:
320,192,34218,1,10,0:0:0:0:
64,192,34687,1,2,0:0:0:0:
192,192,34921,1,0,0:0:0:0:
320,192,35156,1,10,0:0:0:0:
448,192,35390,1,0,0:0:0:0:
192,192,35625,1,2,0:0:0:0:
448,192,36093,1,10,0:0:0:0:
64,192,36562,1,2,0:0:0:0:
320,192,37031,1,10,0:0:0:0:
192,192,37500,1,2,0:0:0:0:
64,192,37734,1,0,0:0:0:0:
448,192,37968,1,10,0:0:0:0:
64,192,38437,1,2,0:0:0:0:
192,192,38437,1,4,0:0:0:0:
448,192,38671,1,12,0:0:0:0:
64,192,38906,1,2,0:0:0:0:
192,192,38906,1,4,0:0:0:0:
320,192,39375,1,2,0:0:0:0:
448,192,39375,1,4,0:0:0:0:
64,192,39609,1,0,0:0:0:0:
448,192,39843,1,10,0:0:0:0:
64,192,40078,1,0,0:0:0:0:
448,192,40312,1,2,0:0:0:0:
192,192,40781,1,10,0:0:0:0:
448,192,41250,1,2,0:0:0:0:
320,192,41484,1,0,0:0:0:0:
192,192,41718,1,10,0:0:0:0:
64,192,41953,1,0,0:0:0:0:
448,192,42187,1,2,0:0:0:0:
320,192,42656,1,10,0:0:0:0:
192,192,43125,1,2,0:0:0:0:
448,192,43359,1,0,0:0:0:0:
64,192,43593,1,10,0:0:0:0:
448,192,43828,1,0,0:0:0:0:
64,192,44062,1,2,0:0:0:0:
320,192,44531,1,10,0:0:0:0:
64,192,45000,1,2,0:0:0:0:
320,192,45234,1,0,0:0:0:0:
192,192,45468,1,10,0:0:0:0:
448,192,45703,1,0,0:0:0:0:
64,192,45937,1,2,0:0:0:0:
320,192,46406,1,10,0:0:0:0:
64,192,46875,1,2,0:0:0:0:
192,192,46875,1,4,0:0:0:0:
448,192,47109,1,0,0:0:0:0:
192,192,47343,1,10,0:0:0:0:
448,192,47578,1,0,0:0:0:0:
192,192,47812,1,2,0:0:0:0:
64,192,48281,1,10,0:0:0:0:
320,192,48750,1,2,0:0:0:0:
448,192,48984,1,0,0:0:0:0:
192,192,49218,1,10,0:0:0:0:
64,192,49453,1,0,0:0:0:0:
320,192,49687,1,2,0:0:0:0:
192,192,50156,1,10,0:0:0:0:
448,192,50625,1,2,0:0:0:0:
64,192,50859,1,0,0:0:0:0:
320,192,51093,1,10,0:0:0:0:
64,192,51328,1,0,0:0:0:0:
320,192,51562,1,2,0:0:0:0:
192,192,52031,1,10,0:0:0:0:
320,192,52500,1,2,0:0:0:0:
448,192,52734,1,0,0:0:0:0:
64,192,52968,1,10,0:0:0:0:
320,192,53437,1,4,0:0:0:0:
448,192,53437,1,2,0:0:0:0:
192,192,53671,1,6,0:0:0:0:
320,192,53906,1,4,0:0:0:0:
448,192,53906,1,2,0:0:0:0:
64,192,54375,128,2,55312:0:0:0:0:
192,192,54375,1,4,0:0:0:0:
448,192,55312,128,0,56250:0:0:0:0:
64,192,56250,1,2,0:0:0:0:
192,192,56250,128,4,57187:0:0:0:0:
320,192,57187,128,0,57656:0:0:0:0:
448,192,57656,128,0,58125:0:0:0:0:
64,192,58125,1,2,0:0:0:0:
192,192,58125,128,4,59062:0:0:0:0:
320,192,59062,128,0,60000:0:0:0:0:
64,192,60000,1,2,0:0:0:0:
192,192,60000,1,4,0:0:0:0:
448,192,60234,1,0,0:0:0:0:
320,192,60468,1,0,0:0:0:0:
64,192,60937,1,2,0:0:0:0:
192,192,61171,1,2,0:0:0:0:
320,192,61406,1,2,0:0:0:0:
448,192,61640,1,2,0:0:0:0:
64,192,61875,1,2,0:0:0:0:
192,192,61875,1,4,0:0:0:0:
320,192,62343,1,10,0:0:0:0:
64,192,62812,1,2,0:0:0:0:
448,192,63281,1,10,0:0:0:0:
192,192,63750,1,2,0:0:0:0:
320,192,63750,1,4,0:0:0:0:
448,192,64218,1,10,0:0:0:0:
64,192,64687,1,2,0:0:0:0:
320,192,65156,1,10,0:0:0:0:
64,192,65625,1,2,0:0:0:0:
192,192,65625,1,4,0:0:0:0:
448,192,65859,1,2,0:0:0:0:
320,192,66093,128,2,66562:0:0:0:0:
64,192,66562,1,2,0:0:0:0:
192,192,66796,1,2,0:0:0:0:
448,192,67031,128,2,67500:0:0:0:0:
64,192,67500,1,2,0:0:0:0:
192,192,67500,1,4,0:0:0:0:
320,192,67734,1,2,0:0:0:0:
64,192,67968,1,2,0:0:0:0:
448,192,68203,1,2,0:0:0:0:
64,192,68437,128,2,69375:0:0:0:0:
192,192,68437,128,0,69375:0:0:0:0:
320,192,69375,128,2,72187:0:0:0:0:
448,192,69375,1,4,0:0:0:0:
192,192,72187,1,0,0:0:0:0:
448,192,72578,1,0,0:0:0:0:
64,192,72812,1,0,0:0:0:0:
320,192,73125,1,2,0:0:0:0:
448,192,73125,1,4,0:0:0:0:
192,192,73593,1,10,0:0:0:0:
448,192,74062,1,2,0:0:0:0:
64,192,74296,1,0,0:0:0:0:
320,192,74531,1,2,0:0:0:0:
448,192,74531,1,8,0:0:0:0:
64,192,75000,1,2,0:0:0:0:
320,192,75468,1,10,0:0:0:0:
192,192,75937,1,2,0:0:0:0:
448,192,76171,1,0,0:0:0:0:
64,192,76406,1,2,0:0:0:0:
192,192,76406,1,8,0:0:0:0:
320,192,76875,1,2,0:0:0:0:
64,192,77109,1,0,0:0:0:0:
320,192,77343,1,2,0:0:0:0:
448,192,77343,1,8,0:0:0:0:
192,192,77812,1,2,0:0:0:0:
448,192,78281,1,10,0:0:0:0:
64,192,78750,1,2,0:0:0:0:
192,192,78750,1,0,0:0:0:0:
320,192,79218,1,8,0:0:0:0:
448,192,79218,1,2,0:0:0:0:
64,192,79687,1,2,0:0:0:0:
192,192,79687,1,0,0:0:0:0:
320,192,80156,1,8,0:0:0:0:
448,192,80156,1,2,0:0:0:0:
64,192,80625,1,2,0:0:0:0:
448,192,80625,1,4,0:0:0:0:
320,192,81093,1,10,0:0:0:0:
64,192,81562,1,2,0:0:0:0:
448,192,81796,1,0,0:0:0:0:
64,192,82031,1,2,0:0:0:0:
192,192,82031,1,8,0:0:0:0:
320,192,82500,1,2,0:0:0:0:
64,192,82968,1,10,0:0:0:0:
448,192,83437,1,2,0:0:0:0:
192,192,83671,1,0,0:0:0:0:
320,192,83906,1,2,0:0:0:0:
448,192,83906,1,8,0:0:0:0:
64,192,84375,1,2,0:0:0:0:
320,192,84843,1,10,0:0:0:0:
448,192,85312,1,2,0:0:0:0:
192,192,85781,1,10,0:0:0:0:
64,192,86250,1,2,0:0:0:0:
448,192,86718,1,8,0:0:0:0:
192,192,87187,1,0,0:0:0:0:
64,192,87421,1,2,0:0:0:0:
448,192,87656,1,0,0:0:0:0:
320,192,87890,1,0,0:0:0:0:
192,192,88125,1,0,0:0:0:0:
320,192,88593,1,10,0:0:0:0:
448,192,88593,1,4,0:0:0:0:
64,192,89062,1,2,0:0:0:0:
320,192,89296,1,0,0:0:0:0:
64,192,89531,1,8,0:0:0:0:
192,192,89531,1,2,0:0:0:0:
448,192,90000,1,2,0:0:0:0:
192,192,90468,1,10,0:0:0:0:
448,192,90937,1,2,0:0:0:0:
64,192,91171,1,0,0:0:0:0:
320,192,91406,1,2,0:0:0:0:
448,192,91406,1,8,0:0:0:0:
192,192,91875,1,2,0:0:0:0:
320,192,92109,1,0,0:0:0:0:
64,192,92343,1,8,0:0:0:0:
192,192,92343,1,2,0:0:0:0:
448,192,92812,1,2,0:0:0:0:
64,192,93281,1,10,0:0:0:0:
320,192,93750,1,2,0:0:0:0:
448,192,93750,1,0,0:0:0:0:
64,192,94218,1,2,0:0:0:0:
192,192,94218,1,8,0:0:0:0:
320,192,94687,1,2,0:0:0:0:
448,192,94687,1,0,0:0:0:0:
64,192,95156,1,8,0:0:0:0:
192,192,95156,1,2,0:0:0:0:
192,192,95625,1,2,0:0:0:0:
320,192,95625,1,4,0:0:0:0:
64,192,96093,1,10,0:0:0:0:
320,192,96562,1,2,0:0:0:0:
192,192,96796,1,0,0:0:0:0:
64,192,97031,1,2,0:0:0:0:
448,192,97031,1,8,0:0:0:0:
192,192,97500,1,2,0:0:0:0:
320,192,97968,1,10,0:0:0:0:
64,192,98437,1,2,0:0:0:0:
448,192,98671,1,0,0:0:0:0:
192,192,98906,1,8,0:0:0:0:
320,192,98906,1,2,0:0:0:0:
64,192,99375,128,2,100312:0:0:0:0:
448,192,99375,1,4,0:0:0:0:
192,192,100312,1,2,0:0:0:0:
448,192,100312,128,4,101250:0:0:0:0:
64,192,101250,1,2,0:0:0:0:
320,192,101250,128,4,101718:0:0:0:0:
192,192,101953,1,0,0:0:0:0:
64,192,102187,1,6,0:0:0:0:
320,192,102421,1,0,0:0:0:0:
448,192,102656,128,0,103125:0:0:0:40:LR_Tom Hit 2.wav
64,192,103125,1,2,0:0:0:0:
192,192,103125,1,4,0:0:0:0:
320,192,103359,1,0,0:0:0:0:
192,192,103593,1,10,0:0:0:0:
448,192,103828,1,0,0:0:0:0:
64,192,104062,1,2,0:0:0:0:
192,192,104765,1,0,0:0:0:0:
448,192,105000,1,2,0:0:0:0:
192,192,105468,1,10,0:0:0:0:
64,192,105703,1,0,0:0:0:0:
320,192,105937,1,2,0:0:0:0:
448,192,105937,1,0,0:0:0:0:
64,192,106406,1,8,0:0:0:0:
192,192,106406,1,2,0:0:0:0:
64,192,106875,1,2,0:0:0:0:
448,192,106875,1,4,0:0:0:0:
320,192,107109,1,0,0:0:0:0:
192,192,107343,1,10,0:0:0:0:
448,192,107578,1,0,0:0:0:0:
64,192,107812,1,2,0:0:0:0:
320,192,108515,1,0,0:0:0:0:
448,192,108750,1,2,0:0:0:0:
64,192,108984,1,0,0:0:0:0:
320,192,109218,1,10,0:0:0:0:
64,192,109687,1,2,0:0:0:0:
192,192,109687,1,0,0:0:0:0:
448,192,109921,1,0,0:0:0:0:
64,192,110156,1,2,0:0:0:0:
192,192,110156,1,8,0:0:0:0:
320,192,110625,1,2,0:0:0:0:
448,192,110625,1,4,0:0:0:0:
64,192,110859,1,0,0:0:0:0:
192,192,111093,1,10,0:0:0:0:
448,192,111328,1,0,0:0:0:0:
64,192,111562,1,2,0:0:0:0:
448,192,112265,1,0,0:0:0:0:
192,192,112500,1,2,0:0:0:0:
320,192,112968,1,10,0:0:0:0:
64,192,113203,1,0,0:0:0:0:
320,192,113437,1,2,0:0:0:0:
448,192,113437,1,0,0:0:0:0:
64,192,113906,1,8,0:0:0:0:
192,192,113906,1,2,0:0:0:0:
320,192,114375,1,2,0:0:0:0:
64,192,114609,1,0,0:0:0:0:
192,192,114843,1,10,0:0:0:0:
448,192,115078,1,0,0:0:0:0:
64,192,115312,1,2,0:0:0:0:
192,192,116015,1,0,0:0:0:0:
448,192,116250,1,2,0:0:0:0:
64,192,116484,1,0,0:0:0:0:
320,192,116718,1,10,0:0:0:0:
64,192,117187,1,2,0:0:0:0:
192,192,117187,1,4,0:0:0:0:
448,192,117421,1,4,0:0:0:0:
64,192,117656,1,2,0:0:0:0:
192,192,117656,1,4,0:0:0:0:
320,192,118125,1,2,0:0:0:0:
192,192,118359,1,0,0:0:0:0:
64,192,118593,1,0,0:0:0:0:
448,192,119062,1,2,0:0:0:0:
192,192,119296,1,2,0:0:0:0:
64,192,119531,1,2,0:0:0:0:
448,192,119531,1,0,0:0:0:0:
