osu file format v14

[General]
AudioFilename: audio.mp3
AudioLeadIn: 0
PreviewTime: 49796
Countdown: 0
SampleSet: Soft
StackLeniency: 0.4
Mode: 0
LetterboxInBreaks: 0
WidescreenStoryboard: 0

[Editor]
Bookmarks: 555,11983,23412,34840,50555,76269,87697,99126,110555,127697,153412,164840,176269,190555,201983,216269,227697,238055,240912
DistanceSpacing: 0.9
BeatDivisor: 4
GridSize: 4
TimelineZoom: 2.1

[Metadata]
Title:Dreaming Days
TitleUnicode:Dreaming Days
Artist:hololive IDOL PROJECT
ArtistUnicode:hololive IDOL PROJECT
Creator:Amateurre
Version:Shining Stars
Source:
Tags:ホロライブ vtuber virtual youtuber japanese pop jpop j-pop floral circlet bloom bloom, bouquet 夏色まつり natsuiro matsuri 紫咲シオン murasaki shion 大空スバル oozora subaru 兎田ぺこら usada pekora 白上フブキ shirakami fubuki 癒月ちょこ yuzuki choco 百鬼あやめ nakiri ayame 宝鐘マリン houshou marine 天音かなた amane kanata ch ch. wanpachi cycopton nagaraia -aqua yogurtt
BeatmapID:2838736
BeatmapSetID:1373114

[Difficulty]
HPDrainRate:5
CircleSize:4
OverallDifficulty:9
ApproachRate:9.2
SliderMultiplier:1.8
SliderTickRate:1

[Events]
//Background and Video events
0,0,"dreaming days.jpg",0,0
//Break Periods
2,153627,158199
//Storyboard Layer 0 (Background)
//Storyboard Layer 1 (Fail)
//Storyboard Layer 2 (Pass)
//Storyboard Layer 3 (Foreground)
//Storyboard Layer 4 (Overlay)
//Storyboard Sound Samples

[TimingPoints]
-5159,357.142857142857,4,2,1,50,1,0
555,-250,4,2,1,50,0,0
5733,-250,4,2,1,60,0,0
5912,-100,4,2,2,70,0,0
6090,-100,4,2,1,70,0,0
6269,-125,4,2,1,70,0,0
6626,-125,4,2,1,60,0,0
8769,-125,4,2,1,65,0,0
9126,-100,4,2,1,60,0,0
11269,-100,4,2,1,50,0,0
11626,-100,4,2,1,60,0,0
11805,-100,4,2,1,65,0,0
11983,-111.111111111111,4,2,2,60,0,0
12519,-111.111111111111,4,2,1,60,0,0
12697,-142.857142857143,4,2,1,60,0,0
14840,-111.111111111111,4,2,1,60,0,0
15555,-142.857142857143,4,2,1,60,0,0
17697,-111.111111111111,4,2,1,60,0,0
18412,-142.857142857143,4,2,1,60,0,0
21269,-142.857142857143,4,2,1,65,0,0
21626,-142.857142857143,4,2,1,70,0,0
21983,-142.857142857143,4,2,1,60,0,0
22697,-142.857142857143,4,2,1,65,0,0
23055,-200,4,2,1,65,0,0
23412,-111.111111111111,4,2,2,60,0,0
23769,-111.111111111111,4,2,1,60,0,0
29840,-83.3333333333333,4,2,1,60,0,0
30555,-111.111111111111,4,2,1,60,0,0
31269,-83.3333333333333,4,2,1,60,0,0
31983,-100,4,2,1,60,0,0
32519,-111.111111111111,4,2,1,60,0,0
34840,-111.111111111111,4,2,1,65,0,0
36090,-90.9090909090908,4,2,1,65,0,0
36626,-111.111111111111,4,2,1,65,0,0
38947,-90.9090909090908,4,2,1,65,0,0
39483,-111.111111111111,4,2,1,65,0,0
40555,-142.857142857143,4,2,1,65,0,0
42519,-111.111111111111,4,2,1,65,0,0
43412,-90.9090909090909,4,2,1,70,0,0
46269,-90.9090909090909,4,2,1,60,0,0
46358,-90.9090909090909,4,2,1,40,0,0
46447,-142.857142857143,4,2,1,40,0,0
46626,-142.857142857143,4,2,1,30,0,0
46983,-142.857142857143,4,2,1,60,0,0
47072,-142.857142857143,4,2,1,40,0,0
47519,-142.857142857143,4,2,1,50,0,0
47697,-83.3333333333333,4,2,1,65,0,0
48412,-83.3333333333333,4,2,1,70,0,0
49126,-83.3333333333333,4,2,1,50,0,0
49840,-83.3333333333333,4,2,1,60,0,0
50197,-111.111111111111,4,2,1,65,0,0
50555,-83.3333333333333,4,2,2,75,0,1
50733,-83.3333333333333,4,2,1,75,0,1
60555,-83.3333333333333,4,2,1,80,0,1
61983,-83.3333333333333,4,2,2,85,0,1
62162,-83.3333333333333,4,2,1,85,0,1
64840,-83.3333333333333,4,2,1,75,0,1
70555,-83.3333333333333,4,2,1,80,0,1
74840,-83.3333333333333,4,2,1,70,0,1
75376,-166.666666666667,4,2,1,50,0,0
76269,-166.666666666667,4,2,3,60,0,0
76983,-166.666666666667,4,2,1,50,0,0
77697,-250.000000000001,4,2,1,50,0,0
81447,-250.000000000001,4,2,1,60,0,0
81626,-100,4,2,2,70,0,0
81805,-100,4,2,1,55,0,0
81983,-125,4,2,2,60,0,0
82340,-125,4,2,1,60,0,0
84126,-100,4,2,1,60,0,0
84483,-100,4,2,1,65,0,0
84840,-100,4,2,1,60,0,0
86983,-100,4,2,1,50,0,0
87340,-100,4,2,1,55,0,0
87519,-100,4,2,1,60,0,0
87697,-125,4,2,1,55,0,0
89126,-142.857142857143,4,2,1,55,0,0
89840,-125,4,2,1,55,0,0
91983,-142.857142857143,4,2,1,55,0,0
92697,-125,4,2,1,55,0,0
94840,-142.857142857143,4,2,1,55,0,0
95555,-125,4,2,1,55,0,0
96983,-125,4,2,1,60,0,0
97340,-125,4,2,1,65,0,0
97697,-125,4,2,1,60,0,0
98412,-125,4,2,1,65,0,0
98769,-200,4,2,1,65,0,0
99126,-111.111111111111,4,2,2,60,0,0
99483,-111.111111111111,4,2,1,60,0,0
105555,-83.3333333333333,4,2,1,60,0,0
106269,-111.111111111111,4,2,1,60,0,0
106983,-83.3333333333333,4,2,1,60,0,0
107698,-111.111111111111,4,2,1,60,0,0
110555,-111.111111111111,4,2,1,65,0,0
111805,-90.9090909090908,4,2,1,65,0,0
112340,-111.111111111111,4,2,1,65,0,0
114662,-90.9090909090908,4,2,1,65,0,0
115197,-111.111111111111,4,2,1,65,0,0
116269,-142.857142857143,4,2,1,65,0,0
118233,-111.111111111111,4,2,1,65,0,0
119126,-90.9090909090908,4,2,1,70,0,0
124840,-90.9090909090908,4,2,1,65,0,0
126447,-90.9090909090908,4,2,1,70,0,0
127340,-90.9090909090908,4,2,1,60,0,0
127698,-83.3333333333333,4,2,2,75,0,1
127876,-83.3333333333333,4,2,1,75,0,1
137697,-83.3333333333333,4,2,1,80,0,1
139126,-83.3333333333333,4,2,2,85,0,1
139305,-83.3333333333333,4,2,1,85,0,1
141983,-83.3333333333333,4,2,1,75,0,1
147697,-83.3333333333333,4,2,1,80,0,1
151983,-83.3333333333333,4,2,1,70,0,1
152519,-83.3333333333333,4,2,1,50,0,1
152697,-83.3333333333333,4,2,1,60,0,1
153055,-83.3333333333333,4,2,2,70,0,1
153412,-83.3333333333333,4,2,3,60,0,0
158769,-125,4,2,2,50,0,0
159126,-125,4,2,1,50,0,0
163412,-125,4,2,1,55,0,0
163947,-100,4,2,1,60,0,0
164840,-111.111111111111,4,2,2,65,0,0
165197,-111.111111111111,4,2,1,65,0,0
175912,-111.111111111111,4,2,1,60,0,0
176090,-111.111111111111,4,2,1,55,0,0
176269,-111.111111111111,4,2,1,65,0,0
181983,-90.9090909090908,4,2,1,70,0,0
184840,-90.9090909090908,4,2,1,60,0,0
184930,-90.9090909090908,4,2,1,40,0,0
185019,-142.857142857143,4,2,1,40,0,0
185197,-142.857142857143,4,2,1,30,0,0
185555,-142.857142857143,4,2,1,60,0,0
185644,-142.857142857143,4,2,1,40,0,0
186090,-142.857142857143,4,2,1,50,0,0
186269,-83.3333333333334,4,2,1,65,0,0
186983,-83.3333333333334,4,2,1,70,0,0
187697,-83.3333333333334,4,2,1,55,0,0
189840,-83.3333333333334,4,2,1,50,0,0
190197,-83.3333333333334,4,2,1,65,0,0
190555,-83.3333333333334,4,2,4,70,0,0
190733,-83.3333333333334,4,2,1,70,0,0
191447,-111.111111111111,4,2,1,70,0,0
191983,-83.3333333333333,4,2,1,70,0,0
192519,-111.111111111111,4,2,1,70,0,0
196269,-166.666666666666,4,2,1,60,0,0
196626,-83.3333333333332,4,2,1,65,0,0
197697,-83.3333333333333,4,2,1,65,0,0
199126,-83.3333333333333,4,2,1,70,0,0
200555,-83.3333333333333,4,2,1,80,0,0
201983,-83.3333333333333,4,2,2,85,0,1
202162,-83.3333333333333,4,2,1,85,0,1
204840,-83.3333333333333,4,2,1,75,0,1
210555,-83.3333333333333,4,2,1,80,0,1
214840,-83.3333333333333,4,2,1,70,0,1
215376,-83.3333333333333,4,2,1,60,0,1
216269,-125,4,2,3,65,0,0
216805,-125,4,2,1,60,0,0
218769,-125,4,2,2,70,0,0
219126,-125,4,2,1,60,0,0
221983,-125,4,2,1,65,0,0
224483,-125,4,2,2,70,0,0
224840,-125,4,2,1,65,0,0
227340,-125,4,2,1,70,0,0
227519,-125,4,2,1,75,0,0
227697,-90.9090909090909,4,2,4,80,0,0
228055,-90.9090909090909,4,2,1,80,0,0
232519,-90.9090909090909,4,2,1,75,0,0
233055,-90.9090909090909,4,2,2,80,0,0
233412,-90.9090909090909,4,2,4,85,0,0
233590,-90.9090909090909,4,2,1,85,0,0
236269,-90.9090909090909,4,2,1,75,0,0
237519,-125,4,2,1,75,0,0
238055,-125,4,2,2,75,0,0
240912,-125,4,2,2,5,0,0

[Colours]
Combo1 : 251,187,117
Combo2 : 91,209,249
Combo3 : 244,83,123
Combo4 : 162,235,95
Combo5 : 219,146,250
Combo6 : 255,224,100

[HitObjects]
46,324,376,5,0,0:0:0:0:
46,324,465,1,0,0:0:0:0:
46,324,555,2,0,B|124:328|88:263|189:283,1,144,2|2,2:0|2:0,0:0:0:0:
177,281,1626,1,0,0:0:0:0:
288,384,1983,2,0,L|275:266,1,108,2|0,2:0|0:0,0:0:0:0:
354,239,2697,2,0,L|363:186,2,54,2|2|2,2:0|2:0|2:0,0:0:0:0:
430,361,3412,6,0,P|391:324|327:333,1,108,2|0,2:0|0:0,0:0:0:0:
270,365,4126,2,0,L|261:306,2,54,2|2|2,2:0|2:0|2:0,0:0:0:0:
196,242,4840,2,0,L|209:112,1,126,2|0,2:0|0:0,0:0:0:0:
208,116,5555,5,2,2:0:0:0:
9,296,5733,1,0,1:2:0:0:
9,296,5822,1,0,1:2:0:0:
9,296,5912,2,0,B|42:285|59:255|59:255|86:285|129:282,1,135,8|2,2:1|2:0,0:0:0:0:
284,312,6269,6,0,P|280:236|186:255,1,180,6|0,1:2|0:0,0:0:0:0:
195,241,6805,1,0,1:2:0:0:
373,291,6983,2,0,L|444:285,1,72,10|2,2:0|2:0,0:0:0:0:
500,151,7340,5,2,2:0:0:0:
500,151,7430,1,2,2:0:0:0:
500,151,7519,1,2,2:0:0:0:
500,151,7608,1,2,2:0:0:0:
500,151,7697,2,0,P|475:140|422:152,1,72,0|0,1:2|0:0,0:0:0:0:
393,202,7965,2,0,P|415:185|431:133,1,72,0|0,1:2|0:0,0:0:0:0:
386,83,8233,5,0,1:2:0:0:
208,100,8412,2,0,L|172:102,1,36,8|2,2:0|2:0,0:0:0:0:
312,13,8590,5,2,2:0:0:0:
307,35,8680,1,2,2:0:0:0:
304,59,8769,1,2,2:0:0:0:
300,83,8858,1,2,2:0:0:0:
297,106,8947,1,2,2:0:0:0:
293,130,9037,1,2,2:0:0:0:
289,154,9126,2,0,L|299:218,1,45,6|0,3:2|3:2,0:0:0:0:
222,337,9305,2,0,L|232:401,1,45,2|0,3:2|3:2,0:0:0:0:
414,276,9483,6,0,L|424:340,1,45,2|0,3:2|3:2,0:0:0:0:
99,223,9662,2,0,L|109:287,3,45,2|0|0|0,3:2|3:2|3:2|3:2,0:0:0:0:
252,21,10019,2,0,L|259:66,3,45,2|0|0|0,3:2|3:2|3:2|3:2,0:0:0:0:
385,125,10376,6,0,L|416:132,2,22.5,2|0|0,3:2|3:2|3:2,0:0:0:0:
295,198,10555,1,0,3:2:0:0:
267,193,10644,1,0,3:2:0:0:
239,189,10733,1,0,3:2:0:0:
211,185,10822,1,0,3:2:0:0:
182,180,10912,2,0,L|161:176,6,22.5,0|0|0|0|0|0|0,3:2|3:2|3:2|3:2|3:2|3:2|3:2,0:0:0:0:
85,163,11269,5,2,2:0:0:0:
122,361,11626,2,0,L|113:301,3,45,2|2|2|2,2:0|2:0|2:0|2:0,0:0:0:0:
193,320,11983,6,0,B|135:325|135:325|106:355|106:355|31:361,1,162,6|0,1:2|1:2,0:0:0:0:
143,239,12519,1,2,2:0:0:0:
181,171,12697,2,0,L|191:95,1,62.9999999999999,2|0,1:2|0:0,0:0:0:0:
62,252,13055,2,0,L|-14:262,1,62.9999999999999,0|0,1:2|0:0,0:0:0:0:
195,310,13412,5,0,1:2:0:0:
277,299,13590,1,0,0:0:0:0:
326,359,13769,1,2,1:2:0:0:
277,299,13947,1,0,0:0:0:0:
310,228,14126,2,0,P|341:207|384:212,1,62.9999999999999,2|0,1:2|0:0,0:0:0:0:
497,262,14483,2,0,P|466:258|441:239,1,62.9999999999999,2|0,1:2|0:0,0:0:0:0:
415,141,14840,6,0,L|395:302,1,162,2|0,1:2|1:2,0:0:0:0:
307,227,15376,1,2,2:0:0:0:
230,247,15555,2,0,L|152:261,1,62.9999999999999,2|0,1:2|0:0,0:0:0:0:
284,373,15912,2,0,L|295:310,1,62.9999999999999,0|0,1:2|0:0,0:0:0:0:
167,258,16269,5,0,1:2:0:0:
110,312,16447,1,0,0:0:0:0:
128,384,16626,1,2,1:2:0:0:
110,312,16805,1,0,0:0:0:0:
36,284,16983,2,0,P|25:254|33:224,1,62.9999999999999,2|0,1:2|0:0,0:0:0:0:
91,77,17340,2,0,P|101:106|94:137,1,62.9999999999999,2|0,1:2|0:0,0:0:0:0:
6,152,17697,6,0,B|93:131|79:202|162:182,1,162,2|0,1:2|1:2,0:0:0:0:
259,116,18233,1,0,0:0:0:0:
243,274,18412,2,0,L|251:188,1,62.9999999999999,2|0,1:2|0:0,0:0:0:0:
352,121,18769,2,0,L|346:183,1,62.9999999999999,2|0,1:2|0:0,0:0:0:0:
469,329,19126,6,0,P|414:292|342:312,1,126,2|0,1:2|1:2,0:0:0:0:
291,348,19662,1,2,2:0:0:0:
180,268,19840,2,0,L|243:274,1,62.9999999999999,2|0,1:2|0:0,0:0:0:0:
171,356,20197,2,0,L|85:348,1,62.9999999999999,0|2,1:2|2:0,0:0:0:0:
38,377,20465,1,2,2:0:0:0:
38,377,20555,1,2,1:2:0:0:
42,156,20912,6,0,P|90:170|106:199,1,62.9999999999999,2|0,1:2|0:0,0:0:0:0:
208,92,21269,2,0,P|189:118|160:129,1,62.9999999999999,2|0,1:2|0:0,0:0:0:0:
180,268,21626,2,0,P|167:239|171:208,1,62.9999999999999,2|0,1:2|0:0,0:0:0:0:
279,33,21983,5,2,1:3:0:0:
272,127,22519,5,0,1:0:0:0:
279,33,22697,1,10,2:0:0:0:
171,208,22876,1,2,1:2:0:0:
463,138,23055,2,0,P|437:124|388:129,1,67.5,10|0,2:0|0:0,0:0:0:0:
357,61,23412,6,0,L|379:232,1,162,6|8,1:2|2:0,0:0:0:0:
195,291,23947,1,2,2:0:0:0:
296,384,24126,2,0,L|306:285,1,81.0000000000001,2|0,1:2|1:2,0:0:0:0:
89,325,24483,2,0,L|-2:331,1,81.0000000000001,8|0,2:0|0:0,0:0:0:0:
164,144,24840,5,2,1:2:0:0:
196,291,25019,1,0,0:0:0:0:
45,248,25197,1,8,2:0:0:0:
134,224,25376,1,0,0:0:0:0:
296,384,25555,5,2,1:2:0:0:
374,224,25733,1,2,1:2:0:0:
465,374,25912,2,0,P|420:334|356:340,1,121.5,10|0,2:0|0:0,0:0:0:0:
296,384,26269,6,0,B|323:348|323:348|286:209,1,162,2|8,1:2|2:0,0:0:0:0:
143,121,26805,1,2,2:0:0:0:
260,34,26983,2,0,L|243:134,1,81.0000000000001,2|0,1:2|1:2,0:0:0:0:
374,224,27340,2,0,L|465:209,1,81.0000000000001,8|0,2:0|0:0,0:0:0:0:
194,241,27697,5,2,1:2:0:0:
366,316,27876,1,0,0:0:0:0:
374,224,28055,2,0,L|383:131,1,81.0000000000001,8|0,2:0|0:0,0:0:0:0:
265,325,28412,2,0,L|168:339,1,81.0000000000001,2|2,1:2|1:2,0:0:0:0:
122,376,28680,1,2,2:0:0:0:
122,376,28769,1,10,2:0:0:0:
220,189,28947,5,2,2:0:0:0:
6,244,29126,2,0,B|42:226|94:238|71:266|121:279|162:259,1,162,6|0,1:2|1:2,0:0:0:0:
158,260,29572,1,0,1:2:0:0:
158,260,29662,1,0,1:2:0:0:
348,384,29840,6,0,P|312:333|328:283,1,107.999996704102,10|0,2:0|0:0,0:0:0:0:
391,224,30108,2,0,P|364:278|312:290,1,107.999996704102,10|0,2:0|0:0,0:0:0:0:
259,234,30376,5,10,2:0:0:0:
488,304,30555,2,0,L|468:109,1,162,6|0,1:2|0:0,0:0:0:0:
372,106,31090,5,0,1:2:0:0:
372,106,31180,1,0,1:2:0:0:
372,106,31269,2,0,P|311:96|267:140,1,107.999996704102,10|0,2:0|0:0,0:0:0:0:
249,215,31537,2,0,P|283:166|270:114,1,107.999996704102,10|0,2:0|0:0,0:0:0:0:
211,62,31805,5,10,2:0:0:0:
366,247,31983,2,0,P|310:205|235:227,1,135,6|0,1:2|0:0,0:0:0:0:
189,265,32340,1,10,2:0:0:0:
23,148,32519,2,0,L|29:67,1,81.0000000000001,2|0,1:2|0:0,0:0:0:0:
112,216,32876,5,2,1:2:0:0:
28,67,33055,1,8,2:0:0:0:
295,45,33233,2,0,P|270:88|203:89,1,121.5,6|0,1:2|0:0,0:0:0:0:
148,39,33590,5,0,1:2:0:0:
337,155,33769,2,0,L|427:148,1,80.9999975280763,8|0,2:0|1:0,0:0:0:0:
499,144,34037,1,8,2:0:0:0:
499,144,34126,1,0,1:2:0:0:
295,45,34305,5,2,1:2:0:0:
512,317,34483,1,10,2:0:0:0:
486,285,34572,1,10,2:0:0:0:
450,268,34662,1,10,2:0:0:0:
410,266,34751,1,10,2:0:0:0:
373,281,34840,1,6,1:2:0:0:
373,281,35197,6,0,L|361:202,1,81.0000000000001,10|2,2:0|1:2,0:0:0:0:
345,128,35465,1,8,2:0:0:0:
345,128,35555,1,0,1:2:0:0:
283,238,35733,1,2,1:2:0:0:
499,178,35912,1,8,2:0:0:0:
283,238,36090,6,0,B|252:252|213:235|226:209|190:193|145:206,1,148.5,2|0,1:2|0:0,0:0:0:0:
77,240,36447,1,0,1:2:0:0:
200,42,36626,2,0,L|210:146,1,81.0000000000001,8|0,2:0|1:2,0:0:0:0:
129,122,36894,1,8,2:0:0:0:
129,122,36983,2,0,L|71:113,1,40.5,2|0,1:2|0:0,0:0:0:0:
285,74,37162,1,2,1:2:0:0:
395,300,37340,1,10,2:0:0:0:
450,229,37519,5,2,1:2:0:0:
156,378,37697,1,2,1:2:0:0:
156,378,38055,6,0,L|168:299,1,81.0000000000001,10|2,2:0|1:2,0:0:0:0:
186,225,38322,1,8,2:0:0:0:
186,225,38412,1,2,1:2:0:0:
247,314,38590,1,2,1:2:0:0:
39,267,38769,1,8,2:0:0:0:
247,314,38947,6,0,B|309:308|309:308|334:327|334:327|418:314,1,148.5,2|0,1:2|0:0,0:0:0:0:
456,357,39305,1,0,1:2:0:0:
403,173,39483,2,0,P|379:193|378:246,1,81.0000000000001,8|0,2:0|1:2,0:0:0:0:
452,268,39751,1,8,2:0:0:0:
452,268,39840,2,0,L|509:276,1,40.5,2|0,1:2|0:0,0:0:0:0:
317,350,40019,1,0,1:2:0:0:
213,162,40197,2,0,L|219:125,2,20.25,10|2|2,2:0|0:0|2:0,0:0:0:0:
260,236,40376,2,0,L|256:255,1,20.25,10|2,2:0|0:0,0:0:0:0:
248,239,40465,2,0,L|244:258,1,20.25,10|2,2:0|0:0,0:0:0:0:
238,241,40555,6,0,B|192:261|143:238|167:215|113:187|61:209,1,189,6|0,1:2|1:2,0:0:0:0:
0,168,41180,1,0,1:2:0:0:
0,168,41269,2,0,L|5:262,2,94.4999999999999,10|2|2,2:0|1:2|1:2,0:0:0:0:
179,256,41983,6,0,P|211:240|255:247,1,62.9999999999999,2|0,1:2|0:0,0:0:0:0:
297,190,42251,2,0,P|332:192|367:220,1,62.9999999999999,0|0,1:2|0:0,0:0:0:0:
410,258,42519,2,0,L|391:107,1,121.5,8|0,2:0|0:0,0:0:0:0:
460,92,42876,5,0,1:2:0:0:
135,58,43055,2,0,B|165:71|177:98|177:98|205:76|235:80,1,121.5,8|0,2:0|0:0,0:0:0:0:
394,137,43412,6,0,P|342:118|312:190,1,148.5,14|0,2:0|0:0,0:0:0:0:
384,320,43769,2,0,L|390:202,1,99,10|0,2:0|0:0,0:0:0:0:
230,248,44126,6,0,L|49:272,1,148.5,10|0,2:0|0:0,0:0:0:0:
3,196,44483,2,0,L|101:184,1,99,10|0,2:0|0:0,0:0:0:0:
301,152,44840,5,10,2:0:0:0:
259,323,45019,1,8,2:0:0:0:
275,41,45197,5,10,2:0:0:0:
374,245,45376,1,8,2:0:0:0:
101,183,45555,5,10,2:0:0:0:
420,121,45733,1,8,2:0:0:0:
207,170,45912,5,10,2:0:0:0:
490,275,46090,1,8,2:0:0:0:
255,354,46269,5,2,1:2:0:0:
255,354,46358,1,8,2:0:0:0:
255,354,46447,2,0,L|260:305,3,31.5,8|8|8|8,2:0|2:0|2:0|2:0,0:0:0:0:
374,245,46805,1,8,2:0:0:0:
374,245,46894,1,8,2:0:0:0:
374,245,46983,2,0,L|329:265,1,31.5,2|8,1:2|2:0,0:0:0:0:
216,193,47162,1,8,2:0:0:0:
216,193,47251,1,8,2:0:0:0:
216,193,47340,2,0,L|255:221,1,31.5,8|8,2:0|2:0,0:0:0:0:
439,384,47519,5,8,2:0:0:0:
439,384,47608,1,8,2:0:0:0:
439,384,47697,2,0,L|451:263,1,108,2|0,1:2|0:0,0:0:0:0:
374,245,47965,2,0,L|386:124,1,108,2|0,1:2|0:0,0:0:0:0:
469,87,48233,2,0,L|464:140,1,54,2|0,1:2|0:0,0:0:0:0:
241,211,48412,6,0,P|204:176|114:204,1,108,10|0,1:2|0:0,0:0:0:0:
9,270,48680,2,0,P|61:270|100:234,1,108,10|0,1:2|0:0,0:0:0:0:
25,142,48947,2,0,L|34:213,1,54,10|0,1:2|0:0,0:0:0:0:
80,357,49126,5,8,2:0:0:0:
274,324,49305,1,0,1:2:0:0:
149,175,49483,1,0,1:2:0:0:
167,283,49662,5,8,2:0:0:0:
408,216,49840,1,2,2:0:0:0:
230,46,50019,1,2,2:0:0:0:
230,46,50108,1,2,2:0:0:0:
230,46,50197,6,0,B|246:187,1,121.499996292114,8|0,2:3|0:0,0:0:0:0:
311,242,50555,6,0,P|354:212|420:222,1,107.999996704102,14|2,1:2|1:2,0:2:0:0:
474,260,50822,1,2,2:0:0:0:
474,260,50912,1,10,2:0:0:0:
320,108,51090,1,2,2:0:0:0:
258,308,51269,5,2,1:2:0:0:
407,215,51447,1,2,1:2:0:0:
118,132,51626,1,10,2:0:0:0:
156,260,51805,5,2,2:0:0:0:
391,87,51983,2,0,B|347:79|318:111|318:111|304:68|263:54,1,162,2|0,1:2|0:0,0:0:0:0:
194,21,52340,5,10,2:0:0:0:
382,170,52519,1,2,2:0:0:0:
238,254,52697,2,0,L|231:127,1,108,2|0,1:2|1:2,0:0:0:0:
466,14,53055,2,0,L|472:122,1,108,10|10,2:0|2:0,0:0:0:0:
480,199,53322,1,10,2:0:0:0:
480,199,53412,5,6,1:2:0:0:
240,153,53590,1,2,2:0:0:0:
240,153,53680,1,2,2:0:0:0:
240,153,53769,1,10,2:0:0:0:
378,97,53947,1,2,2:0:0:0:
349,227,54126,5,2,1:2:0:0:
190,64,54305,1,2,1:2:0:0:
173,300,54483,1,10,2:0:0:0:
18,218,54662,5,2,2:0:0:0:
238,254,54840,2,0,B|304:263|304:263|325:293|325:293|419:306,1,162,2|0,1:2|0:0,0:0:0:0:
381,220,55197,5,8,2:0:0:0:
121,352,55376,1,2,2:0:0:0:
121,352,55465,1,2,2:0:0:0:
121,352,55555,2,0,P|103:262|132:239,1,108,2|0,1:2|1:2,0:0:0:0:
250,146,55912,2,0,L|235:280,1,108,10|10,2:0|2:0,0:0:0:0:
306,364,56180,1,10,2:0:0:0:
306,364,56269,6,0,L|328:156,1,162,6|0,1:2|0:0,0:0:0:0:
387,157,56626,1,8,2:0:0:0:
449,346,56805,5,2,2:0:0:0:
237,253,56983,1,2,1:2:0:0:
323,202,57162,1,2,1:2:0:0:
323,202,57251,1,2,1:2:0:0:
323,202,57340,1,10,2:0:0:0:
196,376,57519,1,2,2:0:0:0:
12,190,57697,6,0,B|56:173|101:198|75:220|118:250|163:227,1,162,2|0,1:2|0:0,0:0:0:0:
237,253,58055,2,0,L|226:138,1,108,8|2,2:0|2:0,0:0:0:0:
232,69,58322,1,2,2:0:0:0:
232,69,58412,1,2,1:2:0:0:
156,229,58590,1,0,1:2:0:0:
473,193,58769,2,0,P|383:161|363:193,1,108,10|10,2:0|2:0,0:0:0:0:
323,202,59037,1,10,2:0:0:0:
323,202,59126,5,6,1:2:0:0:
503,90,59305,1,2,2:0:0:0:
416,295,59483,1,10,2:0:0:0:
237,253,59662,2,0,L|130:271,1,108,2|2,2:0|1:2,0:0:0:0:
323,356,60019,5,2,1:2:0:0:
512,254,60197,1,10,2:0:0:0:
308,1,60376,5,8,2:0:0:0:
308,1,60465,1,8,2:0:0:0:
308,1,60555,1,14,2:0:0:0:
395,260,60733,1,2,1:2:0:0:
221,34,60912,5,10,2:0:0:0:
178,342,61090,1,2,1:2:0:0:
88,88,61269,5,10,2:0:0:0:
307,220,61447,1,2,1:2:0:0:
91,325,61626,1,10,2:0:0:0:
171,209,61805,1,2,1:2:0:0:
433,384,61983,6,0,P|424:330|452:285,1,108,6|10,1:2|2:0,0:0:0:0:
504,351,62251,1,2,2:0:0:0:
504,351,62340,1,2,1:2:0:0:
188,384,62519,1,10,2:0:0:0:
437,166,62697,5,2,1:2:0:0:
323,328,62876,1,10,2:0:0:0:
247,11,63055,1,2,1:2:0:0:
166,280,63233,5,10,2:0:0:0:
503,220,63412,1,2,1:2:0:0:
368,13,63590,2,0,L|356:120,1,108,8|0,2:0|1:2,0:0:0:0:
348,197,63858,1,2,2:0:0:0:
348,197,63947,1,10,2:0:0:0:
512,384,64126,5,2,1:2:0:0:
488,351,64215,1,2,2:0:0:0:
453,330,64305,1,10,2:0:0:0:
414,325,64394,1,2,2:0:0:0:
375,335,64483,1,2,1:2:0:0:
297,275,64662,1,10,2:0:0:0:
510,261,64840,5,6,1:2:0:0:
283,367,65019,1,10,2:0:0:0:
283,367,65108,1,10,2:0:0:0:
283,367,65197,1,2,1:2:0:0:
4,100,65376,6,0,P|94:140|49:181,1,162,14|0,2:0|0:0,0:0:0:0:
6,192,65733,1,8,2:3:0:0:
220,133,65912,1,4,2:3:0:0:
145,384,66090,2,0,L|133:187,1,161.999995056153,14|0,2:0|0:0,0:0:0:0:
82,163,66447,5,2,1:2:0:0:
304,88,66626,1,10,2:0:0:0:
233,291,66805,1,6,1:2:0:0:
134,68,66983,1,10,2:0:0:0:
220,133,67162,1,0,1:2:0:0:
5,325,67340,5,14,2:0:0:0:
29,292,67430,1,10,2:0:0:0:
64,271,67519,1,10,2:0:0:0:
103,266,67608,1,10,2:0:0:0:
142,276,67697,1,14,2:0:0:0:
293,364,67876,2,0,L|348:355,2,54,2|2|10,1:2|1:2|2:0,0:0:0:0:
195,32,68233,6,0,L|178:214,1,161.999995056153,6|0,1:2|0:0,0:0:0:0:
142,276,68590,1,2,1:2:0:0:
309,154,68769,5,10,2:0:0:0:
45,81,68947,1,2,1:2:0:0:
45,81,69037,1,2,1:2:0:0:
45,81,69126,2,0,P|107:106|147:90,1,108,14|2,2:0|1:2,0:0:0:0:
277,0,69483,1,2,1:2:0:0:
359,251,69662,6,0,P|410:234|496:313,1,162,14|0,2:0|0:0,0:0:0:0:
412,318,70019,1,0,1:2:0:0:
487,72,70197,1,8,2:0:0:0:
336,145,70376,1,10,2:0:0:0:
336,145,70465,1,10,2:0:0:0:
336,145,70555,2,0,L|228:157,1,108,14|0,2:0|1:2,0:0:0:0:
437,205,70912,5,10,2:0:0:0:
249,27,71090,1,2,1:2:0:0:
173,347,71269,1,8,2:0:0:0:
256,262,71447,1,2,1:2:0:0:
256,262,71537,1,2,1:2:0:0:
256,262,71626,1,8,2:0:0:0:
54,341,71805,5,2,1:2:0:0:
333,323,71983,2,0,L|463:311,1,108,8|0,2:0|1:2,0:0:0:0:
147,170,72340,5,8,2:0:0:0:
356,76,72519,1,0,1:2:0:0:
356,76,72608,1,0,1:2:0:0:
356,76,72697,2,0,P|397:117|392:165,1,108,10|0,2:0|0:0,0:0:0:0:
250,258,72965,2,0,P|265:201|309:182,1,108,10|0,2:0|0:0,0:0:0:0:
423,245,73233,2,0,P|392:250|352:232,1,54,10|0,2:0|0:0,0:0:0:0:
91,77,73412,5,10,2:0:0:0:
250,258,73590,1,0,1:2:0:0:
417,2,73769,1,8,2:0:0:0:
267,103,73947,5,2,1:2:0:0:
267,103,74037,1,2,1:2:0:0:
267,103,74126,1,10,2:0:0:0:
512,213,74305,1,0,1:2:0:0:
348,384,74483,5,8,2:0:0:0:
353,343,74572,1,8,2:0:0:0:
359,303,74662,1,8,2:0:0:0:
365,263,74751,1,8,2:0:0:0:
370,223,74840,1,14,1:2:0:0:
370,223,75376,6,0,L|361:152,2,53.9999999999999,2|2|0,2:0|2:0|0:0,0:0:0:0:
281,215,75912,2,0,L|185:202,1,80.9999999999998,2|0,2:0|0:0,0:0:0:0:
132,236,76269,1,6,1:2:0:0:
132,236,77697,6,0,P|166:193|226:202,1,108,2|0,2:0|0:0,0:0:0:0:
295,239,78412,2,0,L|417:254,1,108,2|0,2:0|0:0,0:0:0:0:
477,227,79126,5,2,2:0:0:0:
470,151,79483,1,2,2:0:0:0:
408,101,79840,1,2,2:0:0:0:
415,25,80197,1,2,2:0:0:0:
335,139,80555,5,2,2:0:0:0:
257,150,80912,1,2,2:0:0:0:
179,161,81269,1,2,2:0:0:0:
14,319,81447,5,0,1:2:0:0:
14,319,81537,1,0,1:2:0:0:
14,319,81626,2,0,P|48:280|129:296,1,135,8|2,2:1|2:0,0:0:0:0:
297,350,81983,6,0,B|257:366|203:341|231:307|179:275|121:311,1,180,6|0,1:2|0:0,0:0:0:0:
136,302,82519,1,0,1:2:0:0:
297,350,82697,2,0,L|303:279,1,72,10|2,2:0|2:0,0:0:0:0:
226,88,83055,5,2,2:0:0:0:
226,88,83144,1,2,2:0:0:0:
226,88,83233,1,2,2:0:0:0:
226,88,83322,1,2,2:0:0:0:
226,88,83412,2,0,P|215:113|227:166,1,72,0|0,1:2|0:0,0:0:0:0:
277,195,83680,2,0,P|260:173|208:157,1,72,0|0,1:2|0:0,0:0:0:0:
158,202,83947,5,0,1:2:0:0:
366,178,84126,2,0,L|434:166,1,45,8|2,2:0|2:0,0:0:0:0:
512,45,84305,5,2,2:0:0:0:
490,41,84394,1,2,2:0:0:0:
465,38,84483,1,2,2:0:0:0:
441,34,84572,1,2,2:0:0:0:
418,31,84662,1,2,2:0:0:0:
394,27,84751,1,2,2:0:0:0:
370,23,84840,2,0,L|358:87,1,45,6|0,3:2|3:2,0:0:0:0:
495,194,85019,2,0,L|483:258,1,45,2|0,3:2|3:2,0:0:0:0:
238,317,85197,6,0,L|226:381,1,45,2|0,3:2|3:2,0:0:0:0:
363,315,85376,2,0,L|432:307,3,45,2|0|0|0,3:2|3:2|3:2|3:2,0:0:0:0:
150,216,85733,2,0,L|105:221,3,45,2|0|0|0,3:2|3:2|3:2|3:2,0:0:0:0:
227,171,86090,6,0,L|258:178,2,22.5,2|0|0,3:2|3:2|3:2,0:0:0:0:
8,308,86269,1,0,3:2:0:0:
13,280,86358,1,0,3:2:0:0:
17,252,86447,1,0,3:2:0:0:
21,224,86537,1,0,3:2:0:0:
26,195,86626,2,0,L|30:174,6,22.5,0|0|0|0|0|0|0,3:2|3:2|3:2|3:2|3:2|3:2|3:2,0:0:0:0:
45,98,86983,5,2,2:0:0:0:
227,171,87340,2,0,L|218:111,3,45,2|2|2|2,2:0|2:0|2:0|2:0,0:0:0:0:
150,216,87697,6,0,P|216:199|262:270,1,144,6|0,1:2|0:0,0:0:0:0:
261,250,88233,1,2,1:2:0:0:
347,243,88412,2,0,L|435:234,1,72,2|0,2:0|0:0,0:0:0:0:
491,280,88769,1,0,1:2:0:0:
512,65,89126,6,0,B|460:44|409:74|446:97|398:128|341:104,1,189,8|0,2:1|0:0,0:0:0:0:
251,26,89840,2,0,L|261:116,1,72,2|0,2:0|0:0,0:0:0:0:
188,184,90197,2,0,L|180:112,1,72,2|0,2:0|0:0,0:0:0:0:
30,28,90555,6,0,L|48:190,1,144,2|0,1:2|0:0,0:0:0:0:
45,171,91090,1,2,1:2:0:0:
0,278,91269,2,0,P|37:255|77:260,1,72,2|0,2:0|0:0,0:0:0:0:
136,289,91626,1,0,1:2:0:0:
414,227,91983,6,0,P|325:202|295:284,1,189,8|0,2:1|0:0,0:0:0:0:
207,295,92697,2,0,L|123:287,1,72,2|0,2:0|0:0,0:0:0:0:
41,242,93055,2,0,L|47:313,1,72,2|0,2:0|0:0,0:0:0:0:
262,354,93412,6,0,L|251:201,1,144,6|0,1:2|0:0,0:0:0:0:
251,210,93947,1,0,1:2:0:0:
360,228,94126,2,0,L|444:241,1,72,2|0,2:0|0:0,0:0:0:0:
512,156,94483,2,0,L|440:144,1,72,2|0,1:2|0:0,0:0:0:0:
343,40,94840,6,0,B|350:125|350:125|353:132|353:132|360:240,1,189,8|2,2:1|2:0,0:0:0:0:
418,336,95555,2,0,B|376:346|341:327|360:294|310:290|265:310,1,144,2|0,2:0|0:0,0:0:0:0:
201,337,96090,1,0,0:0:0:0:
114,366,96269,6,0,L|127:205,1,144,2|2,1:2|2:0,0:0:0:0:
125,222,96805,1,0,1:2:0:0:
186,99,96983,2,0,L|201:180,1,72,2|0,2:0|0:0,0:0:0:0:
44,201,97340,2,0,L|30:130,1,72,2|0,1:2|0:0,0:0:0:0:
269,213,97697,5,2,1:3:0:0:
345,243,98233,5,0,1:0:0:0:
269,213,98412,1,10,2:0:0:0:
473,143,98590,1,2,1:2:0:0:
398,380,98769,2,0,L|391:305,1,67.5,10|0,2:0|0:0,0:0:0:0:
458,263,99126,6,0,B|402:273|402:273|379:305|379:305|302:315,1,162,6|8,1:2|2:0,0:0:0:0:
166,234,99662,1,2,2:0:0:0:
277,132,99840,2,0,L|269:213,1,81.0000000000001,2|0,1:2|1:2,0:0:0:0:
48,293,100197,2,0,L|53:212,1,81.0000000000001,8|0,2:0|0:0,0:0:0:0:
179,13,100555,5,2,1:2:0:0:
277,132,100733,1,0,0:0:0:0:
121,163,100912,1,8,2:0:0:0:
191,99,101090,1,0,0:0:0:0:
407,211,101269,5,2,1:2:0:0:
313,313,101447,1,2,1:2:0:0:
506,388,101626,2,0,P|502:325|454:290,1,121.5,10|0,2:0|0:0,0:0:0:0:
388,342,101983,6,0,B|311:333|311:333|305:337|305:337|214:327,1,162,2|8,1:2|2:0,0:0:0:0:
44,284,102519,1,2,2:0:0:0:
44,284,102608,1,0,0:0:0:0:
44,284,102697,2,0,L|61:384,1,81.0000000000001,2|0,1:2|1:2,0:0:0:0:
228,328,103055,2,0,L|214:248,1,81.0000000000001,8|0,2:0|0:0,0:0:0:0:
351,89,103412,5,2,1:2:0:0:
480,242,103590,1,0,0:0:0:0:
394,235,103769,2,0,L|301:226,1,81.0000000000001,8|0,2:0|0:0,0:0:0:0:
168,74,104126,6,0,L|75:83,1,81.0000000000001,2|2,1:2|1:2,0:0:0:0:
15,92,104394,1,2,2:0:0:0:
15,92,104483,1,10,2:0:0:0:
234,21,104662,5,2,2:0:0:0:
69,215,104840,2,0,P|137:161|208:198,1,162,6|0,1:2|1:2,0:0:0:0:
199,186,105287,1,0,1:2:0:0:
199,186,105376,1,0,1:2:0:0:
318,95,105555,6,0,P|294:143|324:195,1,107.999996704102,10|0,2:0|0:0,0:0:0:0:
397,239,105822,2,0,P|354:189|304:195,1,107.999996704102,10|0,2:0|0:0,0:0:0:0:
263,252,106090,5,10,2:0:0:0:
465,315,106269,2,0,P|398:287|315:359,1,162,6|0,1:2|0:0,0:0:0:0:
237,326,106805,5,0,1:2:0:0:
237,326,106894,1,0,1:2:0:0:
237,326,106983,2,0,P|187:356|133:335,1,107.999996704102,10|0,2:0|0:0,0:0:0:0:
83,268,107251,2,0,P|131:293|139:352,1,107.999996704102,10|0,2:0|0:0,0:0:0:0:
75,384,107519,5,10,2:0:0:0:
223,190,107698,2,0,L|240:52,1,121.5,6|0,1:2|0:0,0:0:0:0:
190,8,108055,1,10,2:0:0:0:
326,75,108233,2,0,L|416:64,1,81.0000000000001,2|0,1:2|0:0,0:0:0:0:
209,205,108590,1,2,1:2:0:0:
113,114,108769,5,8,2:0:0:0:
282,273,108947,2,0,P|325:248|326:181,1,121.5,6|0,1:2|0:0,0:0:0:0:
258,139,109305,5,0,1:2:0:0:
427,220,109483,2,0,L|416:315,1,80.9999975280763,8|0,2:0|1:0,0:0:0:0:
369,361,109751,1,8,2:0:0:0:
369,361,109840,1,0,1:2:0:0:
458,139,110019,5,2,1:2:0:0:
216,219,110197,1,10,2:0:0:0:
175,215,110287,1,10,2:0:0:0:
135,211,110376,1,10,2:0:0:0:
94,208,110465,1,10,2:0:0:0:
54,204,110555,1,6,1:2:0:0:
54,204,110912,6,0,L|66:284,1,81.0000000000001,10|2,2:0|1:2,0:0:0:0:
83,361,111180,1,8,2:0:0:0:
83,361,111269,1,0,1:2:0:0:
257,322,111447,1,2,1:2:0:0:
158,138,111626,1,8,2:0:0:0:
257,322,111805,6,0,P|343:305|394:353,1,148.5,2|0,1:2|0:0,0:0:0:0:
315,384,112162,1,0,1:2:0:0:
478,217,112340,2,0,L|488:321,1,81.0000000000001,8|0,2:0|1:2,0:0:0:0:
426,345,112608,1,8,2:0:0:0:
426,345,112697,2,0,L|368:336,1,40.5,2|0,1:2|0:0,0:0:0:0:
257,322,112876,1,2,1:2:0:0:
360,217,113055,1,10,2:0:0:0:
485,297,113233,5,2,1:2:0:0:
186,200,113412,1,2,1:2:0:0:
186,200,113769,6,0,L|174:279,1,81.0000000000001,10|2,2:0|1:2,0:0:0:0:
163,359,114037,1,8,2:0:0:0:
163,359,114126,1,2,1:2:0:0:
267,182,114305,1,2,1:2:0:0:
62,233,114483,1,8,2:0:0:0:
267,182,114662,6,0,B|298:196|337:179|324:153|360:137|405:150,1,148.5,2|0,1:2|0:0,0:0:0:0:
471,187,115019,1,0,1:2:0:0:
308,38,115197,2,0,P|284:58|283:111,1,81.0000000000001,8|0,2:0|1:2,0:0:0:0:
267,182,115465,1,8,2:0:0:0:
267,182,115555,2,0,L|210:174,1,40.5,2|0,1:2|0:0,0:0:0:0:
474,107,115733,1,0,1:2:0:0:
388,315,115912,2,0,L|394:278,2,20.25,10|2|2,2:0|0:0|2:0,0:0:0:0:
471,276,116090,5,10,2:0:0:0:
471,276,116180,1,10,2:0:0:0:
471,276,116269,2,0,B|394:265|394:265|365:288|365:288|280:273,1,189,6|0,1:2|1:2,0:0:0:0:
224,310,116894,1,0,1:2:0:0:
224,310,116983,2,0,P|180:293|130:315,2,94.4999999999999,10|2|2,2:0|1:2|1:2,0:0:0:0:
42,377,117697,6,0,L|54:305,1,62.9999999999999,2|0,1:2|0:0,0:0:0:0:
0,258,117965,2,0,L|12:186,1,62.9999999999999,0|0,1:2|0:0,0:0:0:0:
0,112,118233,2,0,P|38:156|97:157,1,121.5,8|0,2:0|0:0,0:0:0:0:
159,114,118590,5,0,1:2:0:0:
400,280,118769,2,0,P|355:242|297:254,1,121.5,8|0,2:0|0:0,0:0:0:0:
200,353,119126,6,0,L|222:164,1,148.5,14|0,2:0|0:0,0:0:0:0:
309,155,119483,2,0,L|297:253,1,99.0000000000001,10|0,2:0|0:0,0:0:0:0:
511,330,119840,6,0,P|462:269|389:289,1,148.5,10|0,2:0|0:0,0:0:0:0:
284,374,120197,2,0,P|352:367|362:340,1,99.0000000000001,10|0,2:0|0:0,0:0:0:0:
217,205,120555,6,0,B|182:173|136:193|136:193|111:231|58:222,1,148.5,10|0,2:0|0:0,0:0:0:0:
0,106,120912,2,0,P|55:111|72:156,1,99.0000000000001,10|0,2:0|0:0,0:0:0:0:
304,239,121269,6,0,B|346:239|372:264|372:264|389:230|437:219,1,148.5,10|0,2:0|0:0,0:0:0:0:
369,64,121626,2,0,L|361:180,1,99.0000000000001,10|0,2:0|0:0,0:0:0:0:
230,328,121983,5,10,2:0:0:0:
500,263,122162,1,8,2:0:0:0:
267,143,122340,1,8,2:0:0:0:
374,384,122519,1,10,2:0:0:0:
477,160,122697,5,10,2:0:0:0:
212,241,122876,1,8,2:0:0:0:
500,263,123055,5,8,2:0:0:0:
191,119,123233,1,8,2:0:0:0:
110,356,123412,5,8,2:0:0:0:
333,301,123590,1,8,2:0:0:0:
158,41,123769,1,8,2:0:0:0:
212,241,123947,6,0,L|220:179,1,49.5000000000001,10|0,2:0|0:0,0:0:0:0:
18,90,124126,5,10,1:2:0:0:
30,105,124215,2,0,L|94:117,1,49.5000015106202,8|8,2:0|2:0,2:0:0:0:
218,191,124394,1,10,1:2:0:0:
210,177,124483,2,0,L|146:189,1,49.5000015106202,8|8,2:0|2:0,2:0:0:0:
45,236,124662,1,10,1:2:0:0:
42,262,124751,1,8,2:0:0:0:
38,288,124840,6,0,P|81:266|132:279,1,99.0000000000001,6|0,1:2|0:0,0:0:0:0:
212,241,125108,2,0,P|258:251|289:293,1,99.0000000000001,2|0,1:2|0:0,0:0:0:0:
364,382,125376,2,0,L|384:196,1,148.5,10|0,2:0|0:0,0:0:0:0:
395,158,125733,5,2,1:2:0:0:
512,384,125912,1,10,2:0:0:0:
193,223,126090,1,2,1:2:0:0:
193,223,126447,6,0,P|127:215|87:262,1,99.0000000000001,10|0,1:2|0:0,0:0:0:0:
0,366,126715,2,0,P|39:312|19:254,1,99.0000000000001,10|0,1:2|0:0,0:0:0:0:
29,199,126983,5,10,1:2:0:0:
288,290,127162,1,2,2:0:0:0:
204,42,127340,2,0,L|199:66,6,24.75,2|2|2|2|2|2|2,1:2|2:0|2:0|2:0|2:0|2:0|2:0,0:0:0:0:
148,125,127698,6,0,L|274:115,1,107.999996704102,14|2,1:2|0:0,0:0:0:0:
335,109,127965,1,2,2:0:0:0:
335,109,128055,1,10,2:0:0:0:
118,10,128233,1,2,2:0:0:0:
29,199,128412,5,2,1:2:0:0:
148,125,128590,1,2,1:2:0:0:
256,342,128769,1,10,2:0:0:0:
255,116,128947,5,2,2:0:0:0:
102,228,129126,2,0,B|142:205|185:227|172:241|221:271|259:246,1,162,2|0,1:2|0:0,0:0:0:0:
312,197,129483,5,10,2:0:0:0:
84,110,129662,1,2,2:0:0:0:
212,32,129840,2,0,P|252:60|247:127,1,108,2|0,1:2|1:2,0:0:0:0:
44,194,130197,2,0,P|44:141|86:110,1,108,10|10,2:0|2:0,0:0:0:0:
164,107,130465,1,10,2:0:0:0:
164,107,130555,5,6,1:2:0:0:
105,364,130733,1,2,2:0:0:0:
105,364,130822,1,2,2:0:0:0:
105,364,130912,1,10,2:0:0:0:
44,194,131090,1,2,2:0:0:0:
228,381,131269,5,2,1:2:0:0:
282,265,131447,1,2,1:2:0:0:
0,384,131626,1,10,2:0:0:0:
157,187,131805,5,2,2:0:0:0:
324,358,131983,2,0,B|367:324|420:345|420:345|446:387|503:383,1,162,2|0,1:2|0:0,0:0:0:0:
491,308,132340,5,8,2:0:0:0:
286,159,132519,1,2,2:0:0:0:
286,159,132608,1,2,2:0:0:0:
286,159,132697,2,0,L|272:266,1,108,2|0,1:2|1:2,0:0:0:0:
324,358,133055,2,0,P|362:320|346:254,1,108,10|10,2:0|2:0,0:0:0:0:
203,237,133322,1,10,2:0:0:0:
203,237,133412,6,0,B|144:244|144:244|125:274|125:274|46:282,1,162,6|0,1:2|0:0,0:0:0:0:
0,229,133769,1,8,2:0:0:0:
272,266,133947,5,2,2:0:0:0:
217,35,134126,1,2,1:2:0:0:
140,135,134305,1,2,1:2:0:0:
140,135,134394,1,2,1:2:0:0:
140,135,134483,1,10,2:0:0:0:
420,61,134662,5,2,2:0:0:0:
272,266,134840,2,0,P|273:192|358:165,1,162,2|0,1:2|0:0,0:0:0:0:
454,249,135197,2,0,L|339:238,1,108,8|2,2:0|2:0,0:0:0:0:
272,266,135465,1,2,2:0:0:0:
272,266,135555,1,2,1:2:0:0:
84,182,135733,1,0,1:2:0:0:
153,384,135912,2,0,L|165:250,1,108,10|10,2:0|2:0,0:0:0:0:
173,203,136180,1,10,2:0:0:0:
173,203,136269,5,6,1:2:0:0:
350,240,136447,1,2,2:0:0:0:
0,380,136626,1,10,2:0:0:0:
66,75,136805,2,0,L|84:182,1,108,2|2,2:0|1:2,0:0:0:0:
272,266,137162,5,2,1:2:0:0:
0,220,137340,1,10,2:0:0:0:
223,75,137519,5,8,2:0:0:0:
223,75,137608,1,8,2:0:0:0:
223,75,137697,1,14,2:0:0:0:
150,378,137876,1,2,1:2:0:0:
336,29,138055,5,10,2:0:0:0:
403,321,138233,1,2,1:2:0:0:
481,47,138412,5,10,2:0:0:0:
276,201,138590,1,2,1:2:0:0:
502,283,138769,1,10,2:0:0:0:
411,176,138947,1,2,1:2:0:0:
211,310,139126,6,0,L|101:289,1,108,6|10,1:2|2:0,0:0:0:0:
26,317,139394,1,2,2:0:0:0:
26,317,139483,1,2,1:2:0:0:
311,285,139662,1,10,2:0:0:0:
40,159,139840,5,2,1:2:0:0:
139,375,140019,1,10,2:0:0:0:
225,46,140197,1,2,1:2:0:0:
464,353,140376,5,10,2:0:0:0:
97,283,140555,1,2,1:2:0:0:
282,109,140733,2,0,P|315:152|294:216,1,108,8|0,2:0|1:2,0:0:0:0:
225,171,141001,1,2,2:0:0:0:
225,171,141090,1,10,2:0:0:0:
401,169,141269,5,2,1:2:0:0:
401,169,141358,1,2,2:0:0:0:
401,169,141447,2,0,L|454:164,1,54,10|2,2:0|2:0,0:0:0:0:
253,24,141626,2,0,L|306:19,1,54,2|2,1:2|2:0,0:0:0:0:
192,275,141805,2,0,L|245:270,1,54,10|10,2:0|2:0,0:0:0:0:
0,82,141983,5,6,1:2:0:0:
224,185,142162,1,10,2:0:0:0:
224,185,142251,1,10,2:0:0:0:
224,185,142340,1,2,1:2:0:0:
37,384,142519,6,0,B|53:303|53:303|52:296|52:296|70:202,1,162,14|0,2:0|0:0,0:0:0:0:
67,149,142876,1,8,2:3:0:0:
276,264,143055,1,4,2:3:0:0:
238,7,143233,2,0,P|164:65|180:141,1,161.999995056153,14|0,2:0|0:0,0:0:0:0:
224,185,143590,5,2,1:2:0:0:
0,384,143769,1,10,2:0:0:0:
242,343,143947,1,6,1:2:0:0:
67,149,144126,1,10,2:0:0:0:
108,292,144305,1,0,1:2:0:0:
374,146,144483,5,14,2:0:0:0:
398,179,144572,1,10,2:0:0:0:
433,200,144661,1,10,2:0:0:0:
472,205,144751,1,10,2:0:0:0:
511,195,144840,1,14,2:0:0:0:
463,110,145019,2,0,L|472:55,2,54,2|2|10,1:2|1:2|2:0,0:0:0:0:
300,200,145376,6,0,P|277:152|292:101,1,108,6|0,1:2|0:0,0:0:0:0:
511,195,145733,1,2,1:2:0:0:
226,305,145912,5,10,2:0:0:0:
460,383,146090,1,2,1:2:0:0:
460,383,146180,1,2,1:2:0:0:
460,383,146269,2,0,L|445:256,1,108,14|2,2:0|1:2,0:0:0:0:
430,125,146626,1,2,1:2:0:0:
226,305,146805,6,0,B|138:315|183:238|54:257,1,162,14|0,2:0|0:0,0:0:0:0:
5,296,147162,1,0,1:2:0:0:
299,262,147340,1,8,2:0:0:0:
148,83,147519,1,10,2:0:0:0:
148,83,147608,1,10,2:0:0:0:
148,83,147697,2,0,L|160:191,1,108,14|0,2:0|1:2,0:0:0:0:
59,378,148055,5,10,2:0:0:0:
366,299,148233,1,2,1:2:0:0:
159,190,148412,1,8,2:0:0:0:
221,287,148590,1,2,1:2:0:0:
221,287,148680,1,2,1:2:0:0:
221,287,148769,1,8,2:0:0:0:
487,103,148947,5,2,1:2:0:0:
366,299,149126,2,0,P|331:260|353:197,1,108,8|0,2:0|1:2,0:0:0:0:
512,188,149483,5,8,2:0:0:0:
239,63,149662,1,0,1:2:0:0:
239,63,149751,1,0,1:2:0:0:
239,63,149840,2,0,P|198:104|150:99,1,108,10|0,2:0|0:0,0:0:0:0:
14,0,150108,2,0,P|70:15|89:59,1,108,10|0,2:0|0:0,0:0:0:0:
79,187,150376,2,0,P|74:156|92:116,1,54,10|0,2:0|0:0,0:0:0:0:
165,16,150555,5,10,2:0:0:0:
14,251,150733,1,0,1:2:0:0:
317,136,150912,1,8,2:0:0:0:
160,107,151090,5,2,1:2:0:0:
160,107,151180,1,2,1:2:0:0:
160,107,151269,1,10,2:0:0:0:
458,327,151447,1,0,1:2:0:0:
462,117,151626,5,8,2:0:0:0:
431,144,151715,1,8,2:0:0:0:
393,157,151805,1,8,2:0:0:0:
353,154,151894,1,8,2:0:0:0:
317,136,151983,1,14,1:2:0:0:
141,267,152162,6,0,L|163:73,1,162,10|0,1:2|0:0,0:0:0:0:
171,32,152519,1,2,2:0:0:0:
317,136,152697,1,10,2:0:0:0:
330,134,152787,1,8,2:0:0:0:
343,132,152876,1,8,2:0:0:0:
357,130,152965,1,8,2:0:0:0:
370,128,153055,2,0,P|333:59|253:104,1,162,8|0,2:1|0:0,0:0:0:0:
207,129,153412,5,6,1:2:0:0:
367,368,158769,6,0,P|384:323|449:345,1,108,8|0,2:1|0:0,0:0:0:0:
512,314,159126,6,0,B|460:344|403:306|430:268|356:239|311:272,2,216,6|0|0,1:2|1:2|0:0,0:0:0:0:
286,343,160376,1,2,2:0:0:0:
286,343,160465,1,2,2:0:0:0:
286,343,160555,2,0,P|253:331|207:335,1,72,2|0,1:2|0:0,0:0:0:0:
164,277,160822,2,0,P|129:283|91:309,1,72,2|0,1:2|0:0,0:0:0:0:
63,380,161090,2,0,L|37:178,1,180,2|0,1:2|0:0,0:0:0:0:
40,201,161626,1,2,2:0:0:0:
192,39,161983,6,0,P|248:41|240:129,1,144,2|0,1:2|0:0,0:0:0:0:
185,151,162519,2,0,B|252:158|252:158|256:162|256:162|329:171,1,144,2|2,1:2|2:0,0:0:0:0:
408,198,163055,2,0,L|397:122,1,72,2|2,2:0|2:0,0:0:0:0:
441,62,163412,5,10,1:2:0:0:
363,261,163590,1,10,1:2:0:0:
363,261,163947,2,0,P|416:220|489:263,1,135,10|0,2:0|0:0,0:0:0:0:
512,309,164305,5,2,1:2:0:0:
283,290,164483,2,0,L|165:278,1,90,10|8,2:0|2:3,0:0:0:0:
124,310,164751,1,4,2:3:0:0:
124,310,164840,6,0,P|167:273|133:177,1,162,6|8,1:2|2:0,0:0:0:0:
53,98,165376,1,2,1:2:0:0:
53,98,165465,1,2,1:2:0:0:
53,98,165555,2,0,L|43:195,1,81.0000000000001,2|0,2:0|1:2,0:0:0:0:
186,114,165912,2,0,L|283:104,1,81.0000000000001,10|2,2:0|1:2,0:0:0:0:
336,134,166180,1,10,2:0:0:0:
336,134,166269,5,0,1:2:0:0:
503,108,166447,2,0,L|510:44,2,40.5,2|2|8,2:0|2:0|2:0,0:0:0:0:
434,8,166805,2,0,L|418:176,1,162,2|2,1:2|1:2,0:0:0:0:
490,279,167340,2,0,P|457:255|416:259,1,81.0000000000001,10|2,2:0|2:0,0:0:0:0:
353,296,167608,1,2,2:0:0:0:
353,296,167697,6,0,B|271:307|295:234|208:246,1,162,2|8,1:2|2:0,0:0:0:0:
39,160,168233,2,0,P|125:153|109:238,1,162,2|2,1:2|1:2,0:0:0:0:
216,326,168769,2,0,L|206:227,1,81.0000000000001,10|2,2:0|2:0,0:0:0:0:
200,61,169126,5,2,1:2:0:0:
131,118,169305,1,0,1:2:0:0:
131,118,169394,1,0,1:2:0:0:
131,118,169483,1,10,2:0:0:0:
284,134,169662,2,0,B|349:140|349:140|354:144|354:144|441:153,1,121.5,2|0,1:2|0:0,0:0:0:0:
465,108,170019,5,2,1:2:0:0:
403,328,170197,2,0,L|393:230,1,81.0000000000001,14|0,2:0|1:2,0:0:0:0:
324,220,170465,1,8,2:0:0:0:
324,220,170555,6,0,B|263:225|263:225|238:254|238:254|164:260,1,162,6|8,1:2|2:0,0:0:0:0:
51,289,171090,1,2,1:2:0:0:
51,289,171180,1,2,1:2:0:0:
51,289,171269,2,0,L|61:192,1,81.0000000000001,2|0,2:0|1:2,0:0:0:0:
144,355,171626,2,0,L|241:345,1,81.0000000000001,10|2,2:0|1:2,0:0:0:0:
294,377,171894,1,10,2:0:0:0:
294,377,171983,5,2,1:2:0:0:
394,235,172162,2,0,L|401:171,2,40.5,2|2|10,2:0|2:0|2:0,0:0:0:0:
502,384,172519,2,0,P|458:325|365:351,1,162,2|2,1:2|1:2,0:0:0:0:
301,257,173055,2,0,L|312:153,1,81.0000000000001,10|2,2:0|1:2,0:0:0:0:
320,102,173322,1,10,2:0:0:0:
320,102,173412,5,2,1:2:0:0:
398,194,173590,1,0,1:2:0:0:
218,212,173769,2,0,L|88:230,1,121.5,10|0,2:0|0:0,0:0:0:0:
21,239,174126,1,10,2:0:0:0:
189,293,174305,1,2,1:2:0:0:
144,132,174483,1,10,2:0:0:0:
6,356,174662,5,2,1:2:0:0:
6,356,174751,1,10,2:0:0:0:
6,356,174840,1,10,2:0:0:0:
91,306,175019,1,2,1:2:0:0:
252,371,175197,2,0,L|351:358,1,81.0000000000001,10|0,2:0|1:2,0:0:0:0:
405,380,175465,1,8,2:0:0:0:
405,380,175555,1,2,1:2:0:0:
507,227,175733,5,8,2:0:0:0:
472,207,175822,1,8,2:0:0:0:
431,204,175912,1,8,2:3:0:0:
394,219,176001,1,8,2:3:0:0:
367,248,176090,2,0,L|324:242,1,40.5,4|4,2:3|2:3,0:0:0:0:
155,97,176269,6,0,L|165:214,1,81.0000000000001,6|0,1:2|1:2,0:0:0:0:
166,254,176537,1,0,1:2:0:0:
166,254,176626,1,10,2:0:0:0:
56,350,176805,2,0,P|53:295|85:266,1,81.0000000000001,2|2,1:2|2:0,0:0:0:0:
236,308,177162,1,0,1:2:0:0:
369,115,177340,1,10,2:0:0:0:
377,212,177519,5,10,2:0:0:0:
377,212,177608,1,10,2:0:0:0:
377,212,177697,2,0,L|384:316,2,81.0000000000001,2|0|10,1:2|1:2|2:0,0:0:0:0:
175,110,178233,2,0,L|88:120,1,81.0000000000001,0|2,1:2|2:0,0:0:0:0:
302,47,178590,1,0,1:2:0:0:
216,265,178769,1,10,2:0:0:0:
154,198,178947,5,10,2:0:0:0:
154,198,179037,1,10,2:0:0:0:
154,198,179126,1,2,1:2:0:0:
313,250,179305,1,0,1:2:0:0:
493,126,179483,2,0,P|461:101|396:111,1,81.0000000000001,8|10,2:0|2:0,0:0:0:0:
356,142,179751,1,10,2:0:0:0:
356,142,179840,5,2,1:2:0:0:
494,41,180019,1,0,1:2:0:0:
411,276,180197,1,10,2:0:0:0:
155,113,180376,6,0,P|216:110|215:172,1,121.5,6|0,1:2|0:0,0:0:0:0:
154,198,180733,1,2,1:2:0:0:
313,147,180912,1,10,2:0:0:0:
59,21,181090,2,0,L|74:132,1,81.0000000000001,6|0,1:2|0:0,0:0:0:0:
11,237,181447,5,2,1:2:0:0:
195,179,181626,1,10,2:0:0:0:
85,346,181805,5,8,2:0:0:0:
85,346,181894,1,8,2:0:0:0:
84,346,181983,2,0,P|125:277|191:321,1,148.5,14|0,2:0|0:0,0:0:0:0:
280,384,182340,2,0,L|148:371,1,99.0000000000001,10|0,2:0|0:0,0:0:0:0:
195,179,182697,6,0,B|231:160|283:190|250:208|300:227|345:208,1,148.5,10|0,2:0|0:0,0:0:0:0:
435,108,183055,2,0,P|363:115|357:131,1,99.0000000000001,10|0,2:0|0:0,0:0:0:0:
377,275,183412,5,10,2:0:0:0:
512,181,183590,1,8,2:0:0:0:
510,381,183769,5,10,2:0:0:0:
423,194,183947,1,8,2:0:0:0:
303,384,184126,5,10,2:0:0:0:
512,276,184305,1,8,2:0:0:0:
137,241,184483,5,10,2:0:0:0:
411,381,184662,1,8,2:0:0:0:
257,173,184840,5,2,1:2:0:0:
257,173,184930,1,8,2:0:0:0:
257,173,185019,2,0,L|262:222,3,31.5,8|8|8|8,2:0|2:0|2:0|2:0,0:0:0:0:
376,282,185376,1,8,2:0:0:0:
376,282,185465,1,8,2:0:0:0:
376,282,185555,2,0,L|331:262,1,31.5,2|8,1:2|2:0,0:0:0:0:
218,334,185733,1,8,2:0:0:0:
218,334,185822,1,8,2:0:0:0:
218,334,185912,2,0,L|257:306,1,31.5,8|8,2:0|2:0,0:0:0:0:
488,184,186090,5,8,2:0:0:0:
488,184,186180,1,8,2:0:0:0:
488,184,186269,2,0,L|369:172,1,108,2|0,1:2|0:0,0:0:0:0:
330,112,186537,2,0,L|222:101,1,108,2|0,1:2|0:0,0:0:0:0:
140,75,186805,2,0,L|146:143,1,54,2|0,1:2|0:0,0:0:0:0:
76,350,186983,6,0,P|45:303|58:251,1,108,10|0,1:2|0:0,0:0:0:0:
184,230,187251,2,0,P|214:276|201:328,1,108,10|0,1:2|0:0,0:0:0:0:
132,289,187519,1,10,1:2:0:0:
401,334,187697,5,8,2:0:0:0:
401,334,187787,1,8,2:0:0:0:
401,334,187876,1,8,2:0:0:0:
271,384,188055,1,0,1:2:0:0:
512,288,188233,5,8,2:0:0:0:
512,288,188322,1,8,2:0:0:0:
512,288,188412,1,0,1:2:0:0:
312,241,188590,1,0,1:2:0:0:
432,60,188769,5,8,2:0:0:0:
427,100,188858,1,8,2:0:0:0:
423,140,188947,1,8,2:0:0:0:
419,180,189037,1,8,2:0:0:0:
415,221,189126,1,2,1:2:0:0:
415,221,189840,5,2,2:0:0:0:
512,150,190019,1,2,2:0:0:0:
492,362,190197,2,0,B|450:380|411:350|431:328|377:299|336:323,1,162,8|0,2:3|0:0,0:0:0:0:
269,353,190555,6,0,L|278:282,1,54,14|0,1:2|0:0,0:0:0:0:
137,105,190733,2,0,L|146:34,1,54,10|0,2:0|0:0,0:0:0:0:
137,105,191447,6,0,L|283:86,1,121.5,10|0,1:2|0:0,0:0:0:0:
257,89,191805,1,2,2:0:0:0:
83,313,191983,6,0,L|155:322,1,54,10|0,1:2|0:0,0:0:0:0:
369,259,192162,2,0,L|441:268,1,54,10|0,1:2|0:0,0:0:0:0:
369,258,192519,6,0,L|353:113,1,121.5,10|0,1:2|0:0,0:0:0:0:
355,137,192876,1,2,1:2:0:0:
288,379,193055,1,10,2:0:0:0:
202,276,193233,1,2,1:2:0:0:
439,368,193412,6,0,L|448:312,1,40.5,10|0,1:2|0:0,0:0:0:0:
281,116,193590,2,0,L|290:60,1,40.5,10|0,1:2|0:0,0:0:0:0:
202,276,194126,6,0,L|211:220,1,40.5,10|0,1:2|0:0,0:0:0:0:
484,63,194305,2,0,L|493:7,1,40.5,10|0,1:2|0:0,0:0:0:0:
484,63,194840,6,0,P|427:54|400:104,1,121.5,10|0,1:2|0:0,0:0:0:0:
485,227,195197,2,0,L|472:131,1,81.0000000000001,14|2,1:2|2:0,0:0:0:0:
302,109,195555,5,10,2:0:0:0:
484,63,195733,1,8,2:0:0:0:
302,109,195912,1,8,2:0:0:0:
261,103,196001,1,8,2:0:0:0:
221,98,196090,1,8,2:0:0:0:
181,93,196180,1,8,2:0:0:0:
141,88,196269,2,0,L|151:162,1,53.9999983520508,2|0,1:2|1:2,0:0:0:0:
195,218,196537,5,0,1:2:0:0:
195,218,196626,2,0,L|305:203,1,107.999996704102,14|2,2:0|2:0,2:0:0:0:
395,188,196894,1,2,2:0:0:0:
395,188,196983,1,2,1:2:0:0:
302,203,197162,5,2,2:0:0:0:
444,3,197340,1,10,2:0:0:0:
506,123,197519,1,2,2:0:0:0:
263,100,197697,2,0,L|151:89,1,108,2|0,1:2|0:0,0:0:0:0:
6,263,198055,5,8,2:0:0:0:
203,176,198233,1,2,2:0:0:0:
203,176,198322,1,0,0:0:0:0:
203,176,198412,1,2,1:2:0:0:
105,151,198590,1,0,0:0:0:0:
290,378,198769,5,10,2:0:0:0:
429,297,198947,1,2,2:0:0:0:
132,341,199126,2,0,L|78:348,1,54,10|0,1:2|0:0,0:0:0:0:
261,297,199840,6,0,L|268:243,1,54,10|0,1:2|0:0,0:0:0:0:
429,297,200376,5,2,1:2:0:0:
429,297,200465,1,2,1:2:0:0:
429,297,200555,1,14,2:0:0:0:
176,172,200733,1,2,1:2:0:0:
510,137,200912,1,10,2:0:0:0:
321,371,201090,1,2,1:2:0:0:
223,35,201269,5,10,2:0:0:0:
36,198,201447,1,2,1:2:0:0:
261,271,201626,1,10,2:0:0:0:
176,172,201805,1,2,1:2:0:0:
13,381,201983,6,0,L|26:267,1,108,6|10,1:2|2:0,0:0:0:0:
36,198,202251,1,2,2:0:0:0:
36,198,202340,1,2,1:2:0:0:
317,151,202519,1,10,2:0:0:0:
156,258,202697,5,2,1:2:0:0:
273,78,202876,1,10,2:0:0:0:
354,345,203055,1,2,1:2:0:0:
467,197,203233,5,10,2:0:0:0:
150,149,203412,1,2,1:2:0:0:
354,345,203590,2,0,P|372:296|346:250,1,108,8|0,2:0|1:2,0:0:0:0:
291,305,203858,1,2,2:0:0:0:
291,305,203947,1,10,2:0:0:0:
477,283,204126,5,2,1:2:0:0:
220,357,204305,1,10,2:0:0:0:
503,380,204483,5,2,1:2:0:0:
176,256,204662,1,10,2:0:0:0:
387,41,204840,5,6,1:2:0:0:
345,323,205019,1,10,2:0:0:0:
345,323,205108,1,10,2:0:0:0:
345,323,205197,1,2,1:2:0:0:
69,145,205376,6,0,B|111:143|144:175|144:175|154:137|194:118,1,162,14|0,2:0|0:0,0:0:0:0:
118,76,205733,1,8,2:3:0:0:
8,205,205912,1,4,2:3:0:0:
324,143,206090,2,0,L|313:-10,1,108,14|0,2:0|0:0,0:0:0:0:
407,216,206447,5,2,1:2:0:0:
194,117,206626,1,10,2:0:0:0:
264,384,206805,1,6,1:2:0:0:
302,222,206983,1,10,2:0:0:0:
201,291,207162,1,0,1:2:0:0:
512,384,207340,5,14,2:0:0:0:
488,351,207430,1,10,2:0:0:0:
453,330,207519,1,10,2:0:0:0:
414,325,207608,1,10,2:0:0:0:
375,335,207697,1,14,2:0:0:0:
201,291,207876,2,0,L|147:299,2,54,2|2|10,1:2|1:2|2:0,0:0:0:0:
397,79,208233,6,0,P|431:112|426:182,1,108,6|0,1:2|0:0,0:0:0:0:
297,284,208590,1,2,1:2:0:0:
461,250,208769,5,10,2:0:0:0:
176,202,208947,1,2,1:2:0:0:
176,202,209037,1,2,1:2:0:0:
176,202,209126,2,0,L|30:186,1,108,14|2,2:0|1:2,0:0:0:0:
0,264,209483,1,2,1:2:0:0:
208,67,209662,6,0,B|298:47|281:125|370:100,1,162,14|0,2:0|0:0,0:0:0:0:
423,52,210019,1,0,1:2:0:0:
262,293,210197,1,8,2:0:0:0:
405,280,210376,1,10,2:0:0:0:
405,280,210465,1,10,2:0:0:0:
405,280,210555,2,0,L|513:268,1,108,14|0,2:0|1:2,0:0:0:0:
164,384,210912,5,10,2:0:0:0:
191,180,211090,1,2,1:2:0:0:
512,360,211269,1,8,2:0:0:0:
405,280,211447,5,2,1:2:0:0:
405,280,211537,1,2,1:2:0:0:
405,280,211626,1,8,2:0:0:0:
280,374,211805,1,2,1:2:0:0:
260,131,211983,2,0,L|248:1,1,108,8|0,2:0|1:2,0:0:0:0:
381,194,212340,5,8,2:0:0:0:
69,166,212519,1,0,1:2:0:0:
69,166,212608,1,0,1:2:0:0:
69,166,212697,2,0,P|100:117|148:112,1,108,10|0,2:0|0:0,0:0:0:0:
275,216,212965,2,0,P|217:212|188:173,1,108,10|0,2:0|0:0,0:0:0:0:
225,50,213233,2,0,P|230:81|212:121,1,54,10|0,2:0|0:0,0:0:0:0:
152,289,213412,5,10,2:0:0:0:
310,94,213590,1,0,1:2:0:0:
406,384,213769,1,8,2:0:0:0:
189,175,213947,5,2,1:2:0:0:
189,175,214037,1,2,1:2:0:0:
189,175,214126,1,10,2:0:0:0:
512,124,214305,1,0,1:2:0:0:
320,384,214483,5,8,2:0:0:0:
325,343,214572,1,8,2:0:0:0:
331,303,214662,1,8,2:0:0:0:
337,263,214751,1,8,2:0:0:0:
342,223,214840,2,0,L|424:212,1,54,14|0,1:2|0:0,0:0:0:0:
240,330,215019,6,0,L|61:349,1,162,10|0,1:2|0:0,0:0:0:0:
9,377,215376,1,2,2:0:0:0:
112,138,215555,1,0,1:2:0:0:
112,138,215644,1,0,1:2:0:0:
112,138,215733,1,0,1:2:0:0:
30,192,215912,2,0,L|-5:186,2,27,10|2|2,2:0|2:0|2:0,0:0:0:0:
119,226,216090,5,2,2:0:0:0:
119,226,216180,1,2,2:0:0:0:
119,226,216269,2,0,B|158:237|189:216|177:193|216:174|258:195,1,144,6|0,1:2|0:0,0:0:0:0:
398,249,216805,2,0,P|311:242|304:284,1,144,2|0,1:2|0:0,0:0:0:0:
302,278,217340,1,2,2:0:0:0:
478,168,217519,6,0,L|489:325,1,144,2|0,1:2|0:0,0:0:0:0:
488,311,218055,1,2,2:0:0:0:
371,309,218233,2,0,L|270:296,1,72,2|0,1:2|0:0,0:0:0:0:
129,304,218590,1,0,1:2:0:0:
129,304,218680,1,0,1:2:0:0:
129,304,218769,2,0,P|176:289|214:326,1,108,8|0,2:1|0:0,0:0:0:0:
263,384,219126,6,0,L|247:218,1,144,6|0,1:2|0:0,0:0:0:0:
177,167,219662,2,0,B|142:153|103:168|115:191|84:212|45:201,1,144,2|0,1:2|0:0,0:0:0:0:
45,201,220197,1,2,2:0:0:0:
193,23,220376,6,0,L|176:168,1,144,6|2,1:2|1:2,0:0:0:0:
176,166,220822,1,2,1:2:0:0:
176,166,220912,1,10,2:0:0:0:
372,161,221090,2,0,L|473:150,1,72,6|0,1:2|0:0,0:0:0:0:
280,213,221447,5,2,1:2:0:0:
280,213,221537,1,2,1:2:0:0:
280,213,221626,1,10,2:0:0:0:
336,74,221805,1,10,2:0:0:0:
512,293,221983,6,0,P|462:244|393:256,1,144,6|2,1:2|1:2,0:0:0:0:
344,340,222519,1,2,2:0:0:0:
247,326,222697,2,0,L|173:317,1,72,10|0,2:0|0:0,0:0:0:0:
290,185,223055,6,0,L|299:259,1,72,2|2,2:0|2:0,0:0:0:0:
148,384,223412,2,0,L|130:241,1,144,2|0,1:2|0:0,0:0:0:0:
9,111,223947,1,2,1:2:0:0:
195,167,224126,1,10,2:0:0:0:
125,80,224305,5,2,1:2:0:0:
6,357,224483,2,0,P|35:324|99:331,1,108,8|0,2:1|0:0,0:0:0:0:
148,384,224840,1,6,1:2:0:0:
230,322,225019,1,2,1:2:0:0:
380,382,225197,2,0,L|389:282,1,72,2|2,1:2|1:2,0:0:0:0:
397,232,225465,1,2,1:2:0:0:
397,232,225555,5,10,2:0:0:0:
455,170,225733,1,0,0:0:0:0:
308,263,225912,1,2,2:0:0:0:
465,348,226090,1,2,1:2:0:0:
408,60,226269,5,10,2:0:0:0:
408,60,227162,1,8,2:0:0:0:
383,86,227251,1,8,2:0:0:0:
351,100,227340,1,8,2:0:0:0:
315,99,227430,1,8,2:0:0:0:
282,84,227519,2,0,L|223:90,1,36,8|8,2:0|2:0,0:0:0:0:
118,140,227697,6,0,L|134:-3,1,99,14|0,2:0|1:2,0:0:0:0:
0,223,228055,1,10,2:0:0:0:
142,288,228233,2,0,L|256:271,1,99,2|8,1:2|2:0,0:0:0:0:
479,270,228590,5,2,1:2:0:0:
237,154,228769,1,10,2:0:0:0:
344,338,228947,2,0,L|353:240,1,99,2|8,1:2|2:0,0:0:0:0:
491,151,229305,5,2,1:2:0:0:
244,253,229483,1,10,2:0:0:0:
349,46,229662,2,0,L|358:144,1,99,2|8,1:2|2:0,0:0:0:0:
479,270,230019,1,2,1:2:0:0:
169,345,230197,5,10,2:0:0:0:
144,346,230287,1,2,1:2:0:0:
119,347,230376,1,2,1:2:0:0:
94,349,230465,1,2,1:2:0:0:
68,348,230555,2,0,P|39:310|50:260,1,99,10|0,2:0|1:2,0:0:0:0:
247,164,230912,1,10,2:0:0:0:
114,26,231090,2,0,L|131:140,1,99,2|8,1:2|2:0,0:0:0:0:
221,251,231447,5,2,1:2:0:0:
5,195,231626,1,10,2:0:0:0:
221,251,231805,2,0,L|336:235,1,99,2|8,1:2|2:0,0:0:0:0:
114,341,232162,5,2,1:2:0:0:
255,146,232340,1,10,2:0:0:0:
401,245,232519,1,2,1:2:0:0:
401,245,232608,1,0,3:2:0:0:
401,245,232697,2,0,L|404:206,2,24.75,8|0|0,3:2|3:2|3:2,0:0:0:0:
474,333,232876,2,0,L|498:331,1,24.75,0|0,1:2|3:2,0:0:0:0:
473,322,232965,2,0,L|497:320,1,24.75,0|0,1:2|3:2,0:0:0:0:
473,310,233055,6,0,B|480:236|480:236|479:231|479:231|485:155,1,148.5,8|0,2:1|0:0,0:0:0:0:
512,87,233412,1,14,2:0:0:0:
268,282,233590,1,2,1:2:0:0:
511,237,233769,5,10,2:0:0:0:
188,111,233948,1,2,1:2:0:0:
188,111,234037,1,0,1:2:0:0:
188,111,234126,1,8,0:2:0:0:
509,323,234305,5,2,1:2:0:0:
426,70,234483,1,10,2:0:0:0:
182,199,234662,2,0,L|64:185,1,99,2|8,1:2|2:0,0:0:0:0:
320,214,235019,5,2,1:2:0:0:
25,101,235197,1,10,2:0:0:0:
126,363,235376,1,2,1:2:0:0:
126,363,235465,1,2,1:2:0:0:
126,363,235555,1,8,2:0:0:0:
254,151,235733,1,2,1:2:0:0:
465,351,235912,5,10,2:0:0:0:
441,318,236001,1,2,1:2:0:0:
406,296,236090,1,2,1:2:0:0:
367,292,236180,1,2,1:2:0:0:
328,302,236269,1,10,2:0:0:0:
512,239,236447,1,2,1:2:0:0:
376,384,236626,1,2,1:2:0:0:
168,208,236805,6,0,P|181:146|266:194,1,148.5,10|0,2:0|0:0,0:0:0:0:
317,194,237162,1,2,1:2:0:0:
37,118,237340,1,8,2:0:0:0:
317,194,237519,2,0,B|360:213|405:184|388:155|436:138|486:165,1,180,6|0,1:2|0:0,0:0:0:0:
481,162,238055,5,6,1:2:0:0:
256,192,238144,12,0,240912,2:0:0:0:
