osu file format v14

[General]
AudioFilename: audio.mp3
AudioLeadIn: 0
PreviewTime: 56058
Countdown: 0
SampleSet: Soft
StackLeniency: 0.7
Mode: 3
LetterboxInBreaks: 0
SpecialStyle: 0
WidescreenStoryboard: 0

[Editor]
Bookmarks: 5869,19822,30985,42148,56101,72846
DistanceSpacing: 1
BeatDivisor: 4
GridSize: 32
TimelineZoom: 2.4

[Metadata]
Title:Daily~Diary~! (Short Ver.)
TitleUnicode:でいり~だいあり~! (Short Ver.)
Artist:hololive IDOL PROJECT
ArtistUnicode:hololive IDOL PROJECT
Creator:RiP46
Version:Insane
Source:
Tags:Kanon Matsubara Paran Rhezie Faputa ホロライブ バーチャルユーチューバー vtuber virtual youtuber カバー株式会社 cover corporation floral circlet D4DJ Groovy Mix 夏色まつり natsuiro matsuri 大空スバル oozora subaru さくらみこ sakura miko 宝鐘マリン houshou marine 白銀ノエル shirogane noel japanese pop jpop j-pop
BeatmapID:2807999
BeatmapSetID:1356841

[Difficulty]
HPDrainRate:8
CircleSize:4
OverallDifficulty:8
ApproachRate:5
SliderMultiplier:1.4
SliderTickRate:2

[Events]
//Background and Video events
0,0,"daily diary.jpg",0,0
//Break Periods
//Storyboard Layer 0 (Background)
//Storyboard Layer 1 (Fail)
//Storyboard Layer 2 (Pass)
//Storyboard Layer 3 (Foreground)
//Storyboard Layer 4 (Overlay)
//Storyboard Sound Samples
Sample,25055,0,"Hat open.wav",75
Sample,41974,0,"Crash 2.wav",80

[TimingPoints]
288,348.837209302326,4,2,1,60,1,0
5869,-100,4,2,1,65,0,0
19822,-100,4,2,1,50,0,0
25404,-100,4,2,1,60,0,0
42148,-100,4,2,1,55,0,0
56101,-100,4,2,1,70,0,1
67264,-100,4,2,1,60,0,0
72846,-100,4,2,1,65,0,0

[HitObjects]
64,192,288,5,8,0:0:0:0:
320,192,288,1,0,0:0:0:60:Tom2.wav
448,192,288,1,0,0:0:0:0:
64,192,462,1,8,0:0:0:0:
320,192,462,1,0,0:0:0:60:Tom2.wav
448,192,462,1,0,0:0:0:0:
192,192,636,128,0,898:0:0:0:0:
64,192,985,1,8,0:0:0:0:
192,192,985,1,0,0:0:0:60:Tom2.wav
448,192,985,1,0,0:0:0:0:
64,192,1160,128,8,1334:0:0:0:0:
192,192,1160,1,0,0:0:0:60:Tom2.wav
448,192,1160,1,0,0:0:0:0:
320,192,1334,128,0,1421:0:0:0:0:
192,192,1508,128,0,1596:0:0:0:0:
64,192,1683,1,8,0:0:0:0:
192,192,1683,1,0,0:0:0:60:Tom2.wav
448,192,1683,1,0,0:0:0:0:
64,192,1857,1,8,0:0:0:0:
192,192,1857,1,0,0:0:0:60:Tom2.wav
448,192,1857,128,0,2032:0:0:0:0:
192,192,2032,128,0,2119:0:0:0:0:
320,192,2206,128,0,2293:0:0:0:0:
64,192,2381,1,8,0:0:0:0:
320,192,2381,1,0,0:0:0:60:Tom2.wav
448,192,2381,1,0,0:0:0:0:
320,192,2555,1,2,0:0:0:0:
192,192,2555,1,0,0:0:0:0:
64,192,2729,1,8,0:0:0:0:
192,192,2729,1,4,0:0:0:0:
448,192,2729,1,0,0:0:0:0:
192,192,2904,1,0,0:0:0:0:
64,192,3078,1,8,0:0:0:0:
320,192,3078,1,0,0:0:0:60:Tom2.wav
448,192,3078,1,0,0:0:0:0:
64,192,3253,1,8,0:0:0:0:
320,192,3253,1,0,0:0:0:60:Tom2.wav
448,192,3253,1,0,0:0:0:0:
192,192,3427,128,0,3689:0:0:0:0:
64,192,3776,1,8,0:0:0:0:
192,192,3776,1,0,0:0:0:60:Tom2.wav
448,192,3776,1,0,0:0:0:0:
64,192,3950,1,8,0:0:0:0:
192,192,3950,1,0,0:0:0:60:Tom2.wav
448,192,3950,128,0,4125:0:0:0:0:
192,192,4125,128,0,4212:0:0:0:0:
320,192,4299,128,0,4386:0:0:0:0:
64,192,4474,1,8,0:0:0:0:
320,192,4474,1,0,0:0:0:60:Tom2.wav
448,192,4474,1,0,0:0:0:0:
64,192,4648,128,8,4822:0:0:0:0:
320,192,4648,1,0,0:0:0:60:Tom2.wav
448,192,4648,1,0,0:0:0:0:
320,192,4822,128,0,4910:0:0:0:0:
192,192,4997,128,2,5084:0:0:0:0:
64,192,5171,1,8,0:0:0:0:
192,192,5171,1,4,0:0:0:0:
448,192,5171,1,0,0:0:0:0:
192,192,5346,1,2,0:0:0:0:
320,192,5346,1,0,0:0:0:0:
64,192,5520,1,8,0:0:0:0:
320,192,5520,1,0,0:0:0:0:
448,192,5520,1,0,0:0:0:0:
192,192,5607,1,8,0:0:0:0:
64,192,5694,1,8,0:0:0:0:
448,192,5694,1,0,0:0:0:0:
320,192,5782,1,8,0:0:0:0:
64,192,5869,1,2,0:0:0:0:
192,192,5869,1,4,0:0:0:0:
448,192,5869,1,0,0:0:0:0:
320,192,6043,1,0,0:0:0:0:
64,192,6218,128,8,6392:0:0:0:0:
320,192,6218,1,2,0:0:0:0:
448,192,6218,1,0,0:0:0:75:Hat open.wav
192,192,6392,1,0,0:0:0:0:
320,192,6479,1,0,0:0:0:0:
64,192,6567,1,2,0:0:0:0:
448,192,6567,128,0,6741:0:0:0:75:Hat open.wav
192,192,6741,128,0,6915:0:0:0:0:
64,192,6915,1,8,0:0:0:0:
320,192,6915,1,2,0:0:0:0:
448,192,6915,1,0,0:0:0:75:Hat open.wav
320,192,7090,128,0,7264:0:0:0:0:
64,192,7264,1,2,0:0:0:0:
192,192,7264,1,0,0:0:0:75:Hat open.wav
448,192,7439,128,0,7613:0:0:0:0:
64,192,7613,1,8,0:0:0:0:
192,192,7613,1,2,0:0:0:0:
320,192,7613,1,0,0:0:0:75:Hat open.wav
192,192,7788,1,0,0:0:0:0:
320,192,7875,1,8,0:0:0:0:
64,192,7962,1,2,0:0:0:0:
448,192,7962,1,0,0:0:0:75:Hat open.wav
192,192,8049,1,8,0:0:0:0:
320,192,8136,1,0,0:0:0:70:Tom1.wav
64,192,8224,1,8,0:0:0:0:
192,192,8311,1,8,0:0:0:0:
320,192,8311,1,2,0:0:0:0:
448,192,8311,1,4,0:0:0:0:
64,192,8398,1,8,0:0:0:0:
448,192,8485,1,0,0:0:0:55:Tom1.wav
320,192,8572,1,8,0:0:0:0:
64,192,8660,1,2,0:0:0:0:
192,192,8660,1,0,0:0:0:80:Crash 2.wav
448,192,8660,1,0,0:0:0:0:
192,192,8834,1,0,0:0:0:0:
64,192,9008,1,8,0:0:0:0:
320,192,9008,1,2,0:0:0:0:
448,192,9008,128,0,9183:0:0:0:75:Hat open.wav
192,192,9183,1,0,0:0:0:0:
320,192,9270,1,8,0:0:0:0:
64,192,9357,128,2,9532:0:0:0:0:
448,192,9357,1,0,0:0:0:75:Hat open.wav
192,192,9532,1,2,0:0:0:0:
320,192,9532,128,0,9706:0:0:0:0:
64,192,9706,1,8,0:0:0:0:
192,192,9706,1,0,0:0:0:75:Hat open.wav
448,192,9706,1,0,0:0:0:0:
64,192,9881,1,2,0:0:0:0:
320,192,9881,1,0,0:0:0:80:Crash 2.wav
448,192,9881,128,0,10055:0:0:0:0:
192,192,10055,1,0,0:0:0:0:
64,192,10229,128,2,10404:0:0:0:0:
192,192,10229,1,4,0:0:0:0:
448,192,10229,1,0,0:0:0:0:
320,192,10404,1,8,0:0:0:0:
448,192,10404,1,0,0:0:0:0:
64,192,10578,1,2,0:0:0:0:
192,192,10578,1,0,0:0:0:0:
320,192,10665,1,8,0:0:0:0:
64,192,10753,1,8,0:0:0:0:
448,192,10753,1,0,0:0:0:0:
192,192,10840,1,8,0:0:0:0:
320,192,10927,1,0,0:0:0:55:Tom1.wav
448,192,10927,1,0,0:0:0:0:
192,192,11014,1,8,0:0:0:0:
64,192,11101,1,8,0:0:0:0:
448,192,11101,1,0,0:0:0:0:
320,192,11189,1,8,0:0:0:0:
64,192,11276,1,0,0:0:0:60:Tom2.wav
192,192,11276,1,0,0:0:0:0:
320,192,11363,1,8,0:0:0:0:
64,192,11450,1,2,0:0:0:0:
192,192,11450,1,4,0:0:0:0:
448,192,11450,1,0,0:0:0:0:
320,192,11625,1,0,0:0:0:0:
64,192,11799,1,8,0:0:0:0:
320,192,11799,1,2,0:0:0:0:
448,192,11799,128,0,11974:0:0:0:75:Hat open.wav
192,192,11974,1,0,0:0:0:0:
320,192,12061,1,8,0:0:0:0:
64,192,12148,128,2,12322:0:0:0:0:
448,192,12148,1,0,0:0:0:75:Hat open.wav
320,192,12322,128,0,12497:0:0:0:0:
64,192,12497,1,8,0:0:0:0:
192,192,12497,1,2,0:0:0:0:
448,192,12497,1,0,0:0:0:75:Hat open.wav
192,192,12671,128,0,12846:0:0:0:0:
320,192,12846,1,2,0:0:0:0:
448,192,12846,1,0,0:0:0:75:Hat open.wav
64,192,13020,128,0,13194:0:0:0:0:
192,192,13194,1,8,0:0:0:0:
320,192,13194,1,2,0:0:0:0:
448,192,13194,1,0,0:0:0:75:Hat open.wav
320,192,13369,1,0,0:0:0:0:
192,192,13456,1,8,0:0:0:0:
64,192,13543,1,2,0:0:0:0:
448,192,13543,1,0,0:0:0:75:Hat open.wav
320,192,13631,1,8,0:0:0:0:
192,192,13718,1,0,0:0:0:55:Tom1.wav
448,192,13805,1,8,0:0:0:0:
64,192,13892,1,2,0:0:0:0:
192,192,13892,1,8,0:0:0:0:
320,192,13892,1,4,0:0:0:0:
448,192,13979,1,8,0:0:0:0:
64,192,14067,1,0,0:0:0:60:Tom2.wav
192,192,14154,1,8,0:0:0:0:
64,192,14241,1,2,0:0:0:0:
320,192,14241,1,4,0:0:0:0:
448,192,14241,1,0,0:0:0:0:
192,192,14415,1,0,0:0:0:0:
64,192,14590,128,8,14764:0:0:0:0:
192,192,14590,1,2,0:0:0:0:
448,192,14590,1,0,0:0:0:75:Hat open.wav
320,192,14764,1,0,0:0:0:0:
192,192,14851,1,8,0:0:0:0:
64,192,14939,1,2,0:0:0:0:
448,192,14939,128,0,15113:0:0:0:75:Hat open.wav
192,192,15113,128,0,15288:0:0:0:55:Tom1.wav
320,192,15113,1,0,0:0:0:0:
64,192,15288,1,8,0:0:0:0:
448,192,15288,1,0,0:0:0:0:
192,192,15462,1,2,0:0:0:0:
320,192,15462,128,0,15636:0:0:0:0:
448,192,15636,1,0,0:0:0:0:
64,192,15811,128,8,15985:0:0:0:0:
320,192,15811,1,0,0:0:0:0:
192,192,15985,1,8,0:0:0:0:
448,192,15985,1,0,0:0:0:0:
64,192,16160,1,8,0:0:0:0:
320,192,16160,1,0,0:0:0:0:
64,192,16334,1,8,0:0:0:0:
192,192,16334,1,0,0:0:0:60:Tom3.wav
448,192,16334,1,0,0:0:0:0:
192,192,16508,1,2,0:0:0:0:
320,192,16508,1,0,0:0:0:0:
64,192,16683,128,8,16944:0:0:0:0:
320,192,16683,128,4,16944:0:0:0:0:
448,192,16683,128,0,16944:0:0:0:0:
64,192,17032,1,2,0:0:0:0:
320,192,17032,1,8,0:0:0:0:
448,192,17032,1,0,0:0:0:40:Pr.wav
64,192,17206,1,8,0:0:0:0:
320,192,17206,1,2,0:0:0:0:
448,192,17206,1,0,0:0:0:40:Pr.wav
64,192,17381,1,8,0:0:0:0:
192,192,17381,1,2,0:0:0:0:
448,192,17381,1,0,0:0:0:40:Pr.wav
64,192,17729,1,8,0:0:0:0:
320,192,17729,1,2,0:0:0:0:
448,192,17729,1,0,0:0:0:40:Pr.wav
64,192,17904,1,8,0:0:0:0:
320,192,17904,1,2,0:0:0:0:
448,192,17904,1,0,0:0:0:40:Pr.wav
64,192,18078,1,8,0:0:0:0:
192,192,18078,1,2,0:0:0:0:
448,192,18078,1,0,0:0:0:40:Pr.wav
64,192,18427,1,8,0:0:0:0:
320,192,18427,1,2,0:0:0:0:
448,192,18427,1,0,0:0:0:40:Pr.wav
64,192,18601,1,8,0:0:0:0:
320,192,18601,1,2,0:0:0:0:
448,192,18601,1,0,0:0:0:40:Pr.wav
64,192,18776,1,8,0:0:0:0:
192,192,18776,1,2,0:0:0:0:
448,192,18776,1,0,0:0:0:40:Pr.wav
192,192,18950,128,4,19299:0:0:0:0:
64,192,18950,128,10,19299:0:0:0:0:
448,192,18950,128,0,19299:0:0:0:70:Pr.wav
320,192,19299,1,2,0:0:0:0:
64,192,19474,1,0,0:0:0:60:Tom2.wav
448,192,19474,1,0,0:0:0:0:
192,192,19648,1,0,0:0:0:60:Tom3.wav
64,192,19822,1,2,0:0:0:0:
320,192,19822,1,4,0:0:0:0:
448,192,19822,128,0,21218:0:0:0:0:
64,192,19997,1,0,0:0:0:0:
320,192,20171,1,2,0:0:0:0:
320,192,20346,1,0,0:0:0:0:
64,192,20520,1,2,0:0:0:0:
64,192,20694,1,0,0:0:0:0:
320,192,20869,1,2,0:0:0:0:
320,192,21043,1,0,0:0:0:0:
64,192,21218,128,2,22613:0:0:0:0:
192,192,21218,1,0,0:0:0:0:
192,192,21392,1,0,0:0:0:0:
448,192,21567,1,2,0:0:0:0:
448,192,21741,1,0,0:0:0:0:
320,192,21915,1,2,0:0:0:0:
320,192,22090,1,0,0:0:0:0:
192,192,22264,1,2,0:0:0:0:
448,192,22264,1,8,0:0:0:0:
192,192,22439,1,0,0:0:0:0:
320,192,22613,128,2,24008:0:0:0:0:
448,192,22613,1,0,0:0:0:0:
448,192,22788,1,0,0:0:0:0:
64,192,22962,1,2,0:0:0:0:
64,192,23136,1,0,0:0:0:0:
192,192,23311,1,2,0:0:0:0:
192,192,23485,1,0,0:0:0:0:
448,192,23660,1,2,0:0:0:0:
448,192,23834,1,0,0:0:0:0:
64,192,24008,1,2,0:0:0:0:
192,192,24008,128,0,25404:0:0:0:0:
64,192,24183,1,0,0:0:0:0:
448,192,24357,1,2,0:0:0:0:
448,192,24532,1,0,0:0:0:0:
320,192,24706,128,2,25055:0:0:0:0:
64,192,25055,128,2,25404:0:0:0:0:
320,192,25404,1,2,0:0:0:0:
448,192,25404,1,4,0:0:0:0:
320,192,25578,1,0,0:0:0:0:
64,192,25753,1,8,0:0:0:0:
192,192,25753,1,0,0:0:0:75:Hat open.wav
448,192,25753,1,0,0:0:0:0:
64,192,25927,1,0,0:0:0:0:
320,192,26101,1,2,0:0:0:0:
448,192,26101,1,0,0:0:0:75:Hat open.wav
192,192,26276,1,2,0:0:0:0:
64,192,26276,1,0,0:0:0:0:
64,192,26450,1,8,0:0:0:0:
320,192,26450,1,0,0:0:0:75:Hat open.wav
448,192,26450,1,0,0:0:0:0:
192,192,26625,1,2,0:0:0:0:
320,192,26625,1,0,0:0:0:0:
64,192,26799,1,8,0:0:0:0:
192,192,26799,1,0,0:0:0:75:Hat open.wav
448,192,26799,1,0,0:0:0:0:
64,192,26974,1,0,0:0:0:55:Tom1.wav
192,192,27061,1,0,0:0:0:60:Tom2.wav
320,192,27148,1,2,0:0:0:0:
448,192,27148,1,0,0:0:0:0:
64,192,27322,128,8,27671:0:0:0:0:
192,192,27322,1,4,0:0:0:0:
448,192,27322,1,0,0:0:0:0:
320,192,27671,1,2,0:0:0:0:
448,192,27671,1,0,0:0:0:80:Crash 2.wav
64,192,27846,1,8,0:0:0:0:
192,192,27846,1,0,0:0:0:0:
192,192,28020,1,8,0:0:0:0:
320,192,28020,1,0,0:0:0:0:
320,192,28194,1,2,0:0:0:0:
448,192,28194,128,0,28543:0:0:0:0:
64,192,28543,1,8,0:0:0:0:
192,192,28543,1,0,0:0:0:0:
64,192,28718,1,8,0:0:0:0:
192,192,28718,1,0,0:0:0:0:
192,192,29067,1,2,0:0:0:0:
320,192,29067,128,0,29241:0:0:0:0:
64,192,29241,128,8,29415:0:0:0:0:
448,192,29241,1,0,0:0:0:70:Crash 2.wav
448,192,29415,128,0,29590:0:0:0:0:
64,192,29590,1,2,0:0:0:0:
192,192,29590,128,4,29939:0:0:0:0:
320,192,29590,1,0,0:0:0:0:
320,192,29939,1,8,0:0:0:0:
448,192,29939,1,0,0:0:0:0:
320,192,30113,1,8,0:0:0:0:
448,192,30113,1,4,0:0:0:0:
64,192,30462,128,8,30636:0:0:0:0:
320,192,30462,1,0,0:0:0:0:
320,192,30636,128,0,30811:0:0:0:55:Tom1.wav
448,192,30636,1,0,0:0:0:0:
64,192,30811,1,0,0:0:0:60:Tom3.wav
192,192,30811,128,0,30985:0:0:0:0:
64,192,30985,1,2,0:0:0:0:
320,192,30985,1,4,0:0:0:0:
448,192,30985,1,0,0:0:0:0:
448,192,31160,128,0,31334:0:0:0:75:Hat open.wav
64,192,31334,1,8,0:0:0:0:
192,192,31334,1,2,0:0:0:0:
320,192,31334,1,0,0:0:0:0:
192,192,31508,128,0,31683:0:0:0:75:Hat open.wav
64,192,31683,1,2,0:0:0:0:
448,192,31683,1,0,0:0:0:0:
320,192,31857,128,0,32032:0:0:0:75:Hat open.wav
64,192,32032,1,8,0:0:0:0:
192,192,32032,1,2,0:0:0:0:
448,192,32032,1,0,0:0:0:0:
64,192,32206,128,0,32381:0:0:0:75:Hat open.wav
192,192,32381,1,2,0:0:0:0:
320,192,32381,1,0,0:0:0:0:
448,192,32381,1,0,0:0:0:0:
448,192,32555,128,0,32729:0:0:0:75:Hat open.wav
64,192,32729,1,8,0:0:0:0:
192,192,32729,1,2,0:0:0:0:
320,192,32729,1,0,0:0:0:0:
192,192,32904,128,0,33078:0:0:0:75:Hat open.wav
64,192,33078,1,2,0:0:0:0:
448,192,33078,1,0,0:0:0:0:
320,192,33253,128,0,33427:0:0:0:75:Hat open.wav
64,192,33427,1,8,0:0:0:0:
192,192,33427,1,2,0:0:0:0:
448,192,33427,1,0,0:0:0:0:
64,192,33601,128,0,33776:0:0:0:75:Hat open.wav
192,192,33776,1,2,0:0:0:0:
320,192,33776,1,0,0:0:0:0:
448,192,33776,1,0,0:0:0:0:
448,192,33950,128,0,34125:0:0:0:75:Hat open.wav
64,192,34125,1,8,0:0:0:0:
192,192,34125,1,2,0:0:0:0:
320,192,34125,1,0,0:0:0:0:
192,192,34299,128,0,34474:0:0:0:75:Hat open.wav
64,192,34474,1,2,0:0:0:0:
448,192,34474,1,0,0:0:0:0:
320,192,34648,128,0,34822:0:0:0:75:Hat open.wav
64,192,34822,1,8,0:0:0:0:
192,192,34822,1,2,0:0:0:0:
448,192,34822,1,0,0:0:0:0:
64,192,34997,128,0,35171:0:0:0:75:Hat open.wav
192,192,35171,1,2,0:0:0:0:
320,192,35171,1,0,0:0:0:0:
448,192,35171,1,0,0:0:0:0:
320,192,35346,128,0,35520:0:0:0:75:Hat open.wav
64,192,35520,1,8,0:0:0:0:
192,192,35520,1,2,0:0:0:0:
448,192,35520,1,0,0:0:0:0:
192,192,35694,128,0,35869:0:0:0:75:Hat open.wav
320,192,35869,1,2,0:0:0:0:
448,192,35869,1,0,0:0:0:0:
64,192,35956,1,8,0:0:0:0:
192,192,35956,1,0,0:0:0:0:
320,192,36043,1,0,0:0:0:55:Tom1.wav
64,192,36218,1,8,0:0:0:0:
192,192,36218,1,0,0:0:0:80:Crash 2.wav
448,192,36218,128,0,36567:0:0:0:0:
64,192,36567,128,2,36915:0:0:0:0:
192,192,36567,1,4,0:0:0:0:
320,192,36567,1,0,0:0:0:0:
192,192,36915,1,8,0:0:0:0:
320,192,36915,1,0,0:0:0:75:Hat open.wav
448,192,37090,1,0,0:0:0:0:
64,192,37264,1,2,0:0:0:0:
192,192,37264,1,0,0:0:0:75:Hat open.wav
192,192,37439,1,2,0:0:0:0:
320,192,37439,1,0,0:0:0:0:
320,192,37613,1,8,0:0:0:0:
448,192,37613,1,0,0:0:0:75:Hat open.wav
64,192,37788,1,0,0:0:0:0:
320,192,37962,1,2,0:0:0:0:
448,192,37962,1,0,0:0:0:75:Hat open.wav
192,192,38049,1,8,0:0:0:0:
64,192,38049,1,0,0:0:0:0:
320,192,38136,1,2,0:0:0:0:
448,192,38136,1,0,0:0:0:0:
64,192,38311,1,8,0:0:0:0:
192,192,38311,1,0,0:0:0:75:Hat open.wav
64,192,38485,128,2,38747:0:0:0:0:
192,192,38485,128,0,38747:0:0:0:80:Crash 2.wav
448,192,38485,1,0,0:0:0:0:
320,192,38834,1,2,0:0:0:0:
448,192,38834,1,0,0:0:0:0:
64,192,38921,1,0,0:0:0:0:
192,192,39008,1,8,0:0:0:0:
448,192,39008,1,0,0:0:0:0:
64,192,39096,1,8,0:0:0:0:
320,192,39096,1,0,0:0:0:0:
448,192,39183,1,0,0:0:0:60:Tom2.wav
64,192,39270,1,8,0:0:0:0:
192,192,39270,1,0,0:0:0:0:
320,192,39357,1,2,0:0:0:0:
448,192,39357,128,0,39706:0:0:0:0:
64,192,39532,1,2,0:0:0:0:
192,192,39706,1,8,0:0:0:0:
320,192,39706,1,0,0:0:0:60:Tom3.wav
192,192,39881,1,8,0:0:0:0:
320,192,39881,1,0,0:0:0:60:Tom3.wav
64,192,40229,128,2,40404:0:0:0:0:
192,192,40404,1,8,0:0:0:0:
320,192,40404,1,0,0:0:0:80:Crash 2.wav
448,192,40404,128,0,40578:0:0:0:0:
64,192,40578,1,2,0:0:0:0:
192,192,40578,1,0,0:0:0:0:
64,192,40753,1,8,0:0:0:0:
320,192,40753,1,4,0:0:0:0:
448,192,40753,1,0,0:0:0:0:
192,192,40840,1,8,0:0:0:0:
320,192,40927,1,2,0:0:0:0:
64,192,41101,1,8,0:0:0:0:
192,192,41101,1,0,0:0:0:0:
448,192,41101,1,0,0:0:0:0:
64,192,41276,128,2,41625:0:0:0:0:
320,192,41276,1,4,0:0:0:0:
448,192,41276,1,0,0:0:0:0:
448,192,41625,1,0,0:0:0:55:Tom1.wav
320,192,41712,1,0,0:0:0:60:Tom2.wav
64,192,41799,1,0,0:0:0:60:Tom3.wav
192,192,41799,1,0,0:0:0:0:
320,192,41974,1,2,0:0:0:0:
64,192,42148,1,2,0:0:0:0:
448,192,42148,128,4,42497:0:0:0:0:
192,192,42322,1,0,0:0:0:100:Rim.wav
320,192,42322,1,0,0:0:0:0:
64,192,42497,1,0,0:0:0:0:
320,192,42671,1,2,0:0:0:0:
64,192,42846,128,2,43020:0:0:0:0:
448,192,42846,1,0,0:0:0:100:Rim.wav
320,192,43020,128,0,43194:0:0:0:0:
64,192,43194,1,0,0:0:0:0:
192,192,43369,1,2,0:0:0:0:
448,192,43369,128,0,43718:0:0:0:75:Hat open.wav
64,192,43718,1,0,0:0:0:100:Rim.wav
192,192,43718,128,0,43892:0:0:0:0:
320,192,43892,128,0,44067:0:0:0:0:
448,192,44067,128,2,44241:0:0:0:0:
64,192,44241,1,2,0:0:0:0:
192,192,44241,1,0,0:0:0:100:Rim.wav
320,192,44415,1,0,0:0:0:0:
64,192,44590,1,0,0:0:0:100:Rim.wav
448,192,44590,1,0,0:0:0:0:
192,192,44764,1,2,0:0:0:0:
320,192,44939,128,2,45288:0:0:0:0:
64,192,45113,1,0,0:0:0:100:Rim.wav
448,192,45113,1,0,0:0:0:0:
192,192,45288,1,0,0:0:0:0:
320,192,45462,1,2,0:0:0:0:
64,192,45636,128,2,45811:0:0:0:0:
192,192,45636,1,0,0:0:0:100:Rim.wav
448,192,45811,128,0,45985:0:0:0:0:
320,192,45985,1,0,0:0:0:0:
64,192,46160,1,2,0:0:0:0:
192,192,46160,128,0,46508:0:0:0:75:Hat open.wav
320,192,46508,1,0,0:0:0:100:Rim.wav
448,192,46508,1,0,0:0:0:0:
64,192,46683,1,0,0:0:0:0:
192,192,46857,1,2,0:0:0:0:
448,192,46857,1,0,0:0:0:100:Rim.wav
64,192,47032,1,2,0:0:0:0:
320,192,47032,1,0,0:0:0:0:
64,192,47206,1,8,0:0:0:0:
192,192,47206,1,0,0:0:0:0:
448,192,47206,1,0,0:0:0:0:
320,192,47381,1,0,0:0:0:55:Tom1.wav
448,192,47381,1,0,0:0:0:0:
64,192,47555,1,0,0:0:0:60:Tom3.wav
192,192,47555,1,0,0:0:0:0:
64,192,47729,1,2,0:0:0:0:
448,192,47729,128,0,48078:0:0:0:80:Crash 2.wav
192,192,47904,1,0,0:0:0:100:Rim.wav
320,192,47904,1,0,0:0:0:0:
64,192,48078,1,0,0:0:0:0:
320,192,48253,1,2,0:0:0:0:
64,192,48427,1,2,0:0:0:0:
192,192,48427,128,0,48601:0:0:0:100:Rim.wav
448,192,48601,128,0,48776:0:0:0:0:
192,192,48776,1,0,0:0:0:0:
64,192,48950,128,2,49299:0:0:0:0:
448,192,48950,1,0,0:0:0:75:Hat open.wav
192,192,49299,1,0,0:0:0:100:Rim.wav
448,192,49299,1,0,0:0:0:0:
320,192,49474,1,0,0:0:0:0:
64,192,49648,1,2,0:0:0:0:
192,192,49648,1,0,0:0:0:0:
320,192,49822,1,8,0:0:0:0:
448,192,49822,1,0,0:0:0:0:
320,192,49997,1,8,0:0:0:0:
448,192,49997,1,0,0:0:0:0:
192,192,50171,1,0,0:0:0:55:Tom1.wav
320,192,50346,1,2,0:0:0:0:
64,192,50520,1,2,0:0:0:0:
192,192,50520,1,4,0:0:0:0:
448,192,50520,1,0,0:0:0:0:
64,192,50694,1,8,0:0:0:0:
192,192,50694,1,0,0:0:0:0:
320,192,50782,1,8,0:0:0:0:
448,192,50782,1,0,0:0:0:0:
64,192,50869,1,8,0:0:0:0:
192,192,50869,1,2,0:0:0:0:
64,192,51043,1,8,0:0:0:0:
192,192,51043,1,0,0:0:0:0:
320,192,51131,1,8,0:0:0:0:
448,192,51131,1,0,0:0:0:0:
64,192,51218,1,8,0:0:0:0:
192,192,51218,1,2,0:0:0:0:
320,192,51392,1,8,0:0:0:0:
448,192,51392,1,0,0:0:0:0:
64,192,51479,1,8,0:0:0:0:
192,192,51479,1,0,0:0:0:0:
320,192,51567,1,8,0:0:0:0:
448,192,51567,1,2,0:0:0:0:
320,192,51741,1,8,0:0:0:0:
448,192,51741,1,0,0:0:0:0:
64,192,51828,1,8,0:0:0:0:
192,192,51828,1,0,0:0:0:0:
320,192,51915,1,8,0:0:0:0:
448,192,51915,1,2,0:0:0:0:
64,192,52090,1,8,0:0:0:0:
448,192,52090,1,0,0:0:0:0:
192,192,52177,1,8,0:0:0:0:
320,192,52177,1,0,0:0:0:0:
64,192,52264,1,8,0:0:0:0:
448,192,52264,1,2,0:0:0:0:
64,192,52439,1,8,0:0:0:0:
448,192,52439,1,0,0:0:0:0:
192,192,52526,1,8,0:0:0:0:
320,192,52526,1,0,0:0:0:0:
64,192,52613,1,2,0:0:0:0:
448,192,52613,1,8,0:0:0:0:
192,192,52788,1,8,0:0:0:0:
320,192,52788,1,0,0:0:0:0:
64,192,52875,1,8,0:0:0:0:
320,192,52962,1,8,0:0:0:0:
448,192,52962,1,2,0:0:0:0:
64,192,53049,1,8,0:0:0:0:
192,192,53049,1,0,0:0:0:0:
320,192,53136,1,8,0:0:0:0:
448,192,53136,1,0,0:0:0:0:
64,192,53224,1,8,0:0:0:0:
192,192,53224,1,0,0:0:0:0:
320,192,53311,1,8,0:0:0:0:
448,192,53311,1,0,0:0:0:0:
64,192,53398,1,0,0:0:0:60:Tom2.wav
192,192,53485,1,2,0:0:0:0:
320,192,53485,1,0,0:0:0:0:
64,192,53660,1,2,0:0:0:0:
192,192,53660,1,0,0:0:0:0:
320,192,53834,1,8,0:0:0:0:
448,192,53834,1,0,0:0:0:0:
64,192,53921,1,0,0:0:0:60:Tom2.wav
192,192,54008,1,2,0:0:0:0:
320,192,54008,1,0,0:0:0:0:
64,192,54183,1,2,0:0:0:0:
192,192,54183,1,0,0:0:0:0:
320,192,54357,1,8,0:0:0:0:
448,192,54357,1,0,0:0:0:0:
320,192,54532,128,2,55055:0:0:0:0:
448,192,54532,128,0,55055:0:0:0:60:Tom3.wav
64,192,54881,1,2,0:0:0:0:
192,192,54881,1,0,0:0:0:0:
64,192,55055,128,2,55317:0:0:0:0:
192,192,55055,128,0,55317:0:0:0:0:
448,192,55317,1,8,0:0:0:0:
64,192,55404,1,8,0:0:0:0:
320,192,55404,1,0,0:0:0:0:
192,192,55491,1,8,0:0:0:0:
448,192,55491,1,0,0:0:0:0:
64,192,55578,1,2,0:0:0:0:
320,192,55753,128,8,56014:0:0:0:0:
448,192,55753,128,0,56014:0:0:0:0:
64,192,56101,128,2,56363:0:0:0:0:
192,192,56101,1,4,0:0:0:0:
448,192,56101,1,0,0:0:0:0:
448,192,56276,1,0,0:0:0:0:
64,192,56450,128,8,56799:0:0:0:0:
192,192,56450,1,2,0:0:0:0:
320,192,56450,1,0,0:0:0:0:
320,192,56625,1,0,0:0:0:75:Hat open.wav
192,192,56799,1,2,0:0:0:0:
448,192,56799,128,0,57061:0:0:0:0:
192,192,56974,1,0,0:0:0:75:Hat open.wav
64,192,57148,1,8,0:0:0:0:
320,192,57148,1,2,0:0:0:0:
448,192,57148,128,0,57497:0:0:0:0:
64,192,57322,1,0,0:0:0:75:Hat open.wav
64,192,57497,128,2,57758:0:0:0:0:
320,192,57497,1,0,0:0:0:0:
320,192,57671,1,0,0:0:0:75:Hat open.wav
64,192,57846,1,0,0:0:0:0:
320,192,57846,128,8,58020:0:0:0:0:
448,192,57846,1,2,0:0:0:0:
192,192,58020,128,0,58194:0:0:0:75:Hat open.wav
64,192,58194,1,2,0:0:0:0:
448,192,58194,128,0,58543:0:0:0:0:
192,192,58369,1,0,0:0:0:75:Hat open.wav
64,192,58543,1,8,0:0:0:0:
192,192,58543,1,2,0:0:0:0:
320,192,58543,1,0,0:0:0:60:Crash 2.wav
320,192,58718,128,0,58892:0:0:0:75:Hat open.wav
64,192,58892,128,2,59241:0:0:0:0:
192,192,58892,1,4,0:0:0:0:
448,192,58892,1,0,0:0:0:0:
320,192,59067,1,0,0:0:0:0:
192,192,59241,1,8,0:0:0:0:
448,192,59241,1,2,0:0:0:0:
320,192,59241,1,0,0:0:0:0:
192,192,59415,128,0,59590:0:0:0:75:Hat open.wav
64,192,59590,1,2,0:0:0:0:
448,192,59590,128,0,59939:0:0:0:0:
192,192,59764,1,0,0:0:0:75:Hat open.wav
64,192,59939,1,8,0:0:0:0:
320,192,59939,1,2,0:0:0:0:
192,192,59939,1,0,0:0:0:0:
320,192,60113,1,0,0:0:0:75:Hat open.wav
64,192,60288,128,2,60462:0:0:0:0:
448,192,60288,1,0,0:0:0:0:
320,192,60462,1,0,0:0:0:75:Hat open.wav
64,192,60636,1,8,0:0:0:0:
192,192,60636,1,2,0:0:0:0:
448,192,60636,128,0,60811:0:0:0:0:
192,192,60811,128,0,60985:0:0:0:75:Hat open.wav
64,192,60985,1,0,0:0:0:55:Tom1.wav
448,192,60985,1,0,0:0:0:0:
192,192,61160,1,2,0:0:0:0:
320,192,61160,1,0,0:0:0:0:
64,192,61334,1,8,0:0:0:0:
320,192,61334,1,0,0:0:0:80:Crash 2.wav
448,192,61334,1,0,0:0:0:0:
192,192,61508,1,0,0:0:0:0:
320,192,61596,1,0,0:0:0:0:
64,192,61683,128,2,61944:0:0:0:0:
192,192,61683,1,4,0:0:0:0:
448,192,61683,1,0,0:0:0:0:
448,192,61857,1,0,0:0:0:0:
64,192,62032,128,8,62381:0:0:0:0:
192,192,62032,1,2,0:0:0:0:
320,192,62032,1,0,0:0:0:0:
320,192,62206,1,0,0:0:0:75:Hat open.wav
192,192,62381,1,2,0:0:0:0:
448,192,62381,128,0,62642:0:0:0:0:
192,192,62555,1,0,0:0:0:75:Hat open.wav
64,192,62729,1,8,0:0:0:0:
320,192,62729,1,2,0:0:0:0:
448,192,62729,128,0,63078:0:0:0:0:
64,192,62904,1,0,0:0:0:75:Hat open.wav
64,192,63078,128,2,63253:0:0:0:0:
320,192,63078,1,0,0:0:0:0:
320,192,63253,1,0,0:0:0:75:Hat open.wav
64,192,63427,1,8,0:0:0:0:
192,192,63427,1,2,0:0:0:0:
448,192,63427,128,0,63601:0:0:0:0:
192,192,63601,128,0,63776:0:0:0:75:Hat open.wav
64,192,63776,1,2,0:0:0:0:
320,192,63776,128,0,63950:0:0:0:60:Crash 2.wav
448,192,63776,1,0,0:0:0:0:
192,192,63950,1,2,0:0:0:0:
320,192,64125,1,8,0:0:0:0:
448,192,64125,1,0,0:0:0:0:
64,192,64212,1,8,0:0:0:0:
192,192,64212,1,0,0:0:0:0:
320,192,64299,1,0,0:0:0:55:Tom1.wav
64,192,64474,1,2,0:0:0:0:
192,192,64474,1,4,0:0:0:0:
448,192,64474,1,0,0:0:0:0:
192,192,64648,1,2,0:0:0:0:
320,192,64648,1,0,0:0:0:0:
64,192,64822,1,8,0:0:0:0:
320,192,64822,128,0,65171:0:0:0:60:Crash 2.wav
448,192,64822,128,0,65171:0:0:0:0:
64,192,65171,1,2,0:0:0:0:
192,192,65171,1,0,0:0:0:75:Hat open.wav
320,192,65346,1,2,0:0:0:0:
448,192,65346,1,0,0:0:0:0:
64,192,65520,128,8,65869:0:0:0:0:
192,192,65520,128,0,65869:0:0:0:60:Crash 2.wav
448,192,65520,1,0,0:0:0:0:
320,192,65869,1,2,0:0:0:0:
448,192,65869,1,0,0:0:0:75:Hat open.wav
192,192,66043,1,2,0:0:0:0:
320,192,66043,1,0,0:0:0:0:
64,192,66218,1,8,0:0:0:0:
192,192,66218,1,0,0:0:0:75:Hat open.wav
448,192,66218,1,0,0:0:0:0:
320,192,66392,1,0,0:0:0:55:Tom1.wav
192,192,66479,1,8,0:0:0:0:
64,192,66567,1,8,0:0:0:0:
320,192,66567,1,0,0:0:0:75:Hat open.wav
448,192,66567,1,0,0:0:0:0:
64,192,66741,1,2,0:0:0:0:
192,192,66741,1,0,0:0:0:0:
64,192,66915,1,8,0:0:0:0:
320,192,66915,1,0,0:0:0:0:
448,192,66915,1,0,0:0:0:0:
192,192,67090,1,0,0:0:0:60:Tom2.wav
320,192,67090,1,0,0:0:0:0:
64,192,67264,1,2,0:0:0:0:
192,192,67264,1,4,0:0:0:0:
448,192,67264,1,0,0:0:0:0:
320,192,67439,1,8,0:0:0:0:
192,192,67526,1,8,0:0:0:0:
64,192,67613,1,8,0:0:0:0:
448,192,67613,1,0,0:0:0:75:Hat open.wav
192,192,67788,1,2,0:0:0:0:
320,192,67788,1,0,0:0:0:0:
64,192,67962,1,8,0:0:0:0:
192,192,67962,1,0,0:0:0:80:Crash 2.wav
448,192,67962,1,0,0:0:0:0:
64,192,68224,1,8,0:0:0:0:
192,192,68224,1,0,0:0:0:80:Crash 2.wav
448,192,68224,1,0,0:0:0:0:
64,192,68485,1,8,0:0:0:0:
192,192,68485,1,0,0:0:0:80:Crash 2.wav
448,192,68485,1,0,0:0:0:0:
320,192,68660,128,2,69357:0:0:0:0:
448,192,68660,128,4,69008:0:0:0:0:
64,192,69008,1,2,0:0:0:0:
192,192,69008,128,4,69706:0:0:0:0:
64,192,69357,128,8,69706:0:0:0:0:
448,192,69357,1,2,0:0:0:0:
320,192,69706,1,8,0:0:0:0:
448,192,69706,1,2,0:0:0:0:
320,192,69881,1,0,0:0:0:0:
64,192,70055,1,2,0:0:0:0:
192,192,70055,1,4,0:0:0:0:
448,192,70055,1,0,0:0:0:0:
320,192,70317,1,2,0:0:0:0:
64,192,70404,1,8,0:0:0:0:
192,192,70404,1,0,0:0:0:75:Hat open.wav
448,192,70404,1,0,0:0:0:0:
320,192,70578,1,2,0:0:0:0:
64,192,70753,1,8,0:0:0:0:
448,192,70753,1,0,0:0:0:75:Hat open.wav
192,192,70753,1,0,0:0:0:0:
192,192,70927,1,2,0:0:0:0:
64,192,71101,1,8,0:0:0:0:
448,192,71101,1,0,0:0:0:75:Hat open.wav
320,192,71101,1,0,0:0:0:0:
320,192,71276,1,0,0:0:0:0:
64,192,71450,1,2,0:0:0:0:
192,192,71450,1,0,0:0:0:0:
448,192,71450,1,0,0:0:0:0:
64,192,71712,1,8,0:0:0:0:
320,192,71712,1,0,0:0:0:60:Tom3.wav
448,192,71712,1,0,0:0:0:0:
64,192,71974,1,8,0:0:0:0:
192,192,71974,1,0,0:0:0:60:Tom3.wav
448,192,71974,1,0,0:0:0:0:
64,192,72148,1,2,0:0:0:0:
192,192,72148,1,0,0:0:0:0:
448,192,72148,1,0,0:0:0:0:
320,192,72381,1,0,0:0:0:0:
192,192,72497,1,0,0:0:0:0:
64,192,72613,1,0,0:0:0:0:
320,192,72729,1,0,0:0:0:0:
64,192,72846,1,2,0:0:0:0:
192,192,72846,1,4,0:0:0:0:
448,192,72846,1,0,0:0:0:0:
192,192,73020,1,2,0:0:0:0:
64,192,73194,128,8,73369:0:0:0:0:
320,192,73194,1,0,0:0:0:75:Hat open.wav
448,192,73194,1,0,0:0:0:0:
320,192,73369,1,2,0:0:0:0:
192,192,73456,1,2,0:0:0:0:
64,192,73543,1,8,0:0:0:0:
320,192,73543,1,0,0:0:0:75:Hat open.wav
448,192,73543,128,0,73718:0:0:0:0:
192,192,73718,128,2,73892:0:0:0:0:
64,192,73892,1,8,0:0:0:0:
320,192,73892,1,0,0:0:0:75:Hat open.wav
448,192,73892,1,0,0:0:0:0:
320,192,74067,128,2,74241:0:0:0:0:
64,192,74241,1,8,0:0:0:0:
192,192,74241,1,0,0:0:0:75:Hat open.wav
448,192,74241,1,0,0:0:0:0:
448,192,74415,128,2,74590:0:0:0:0:
64,192,74590,1,8,0:0:0:0:
192,192,74590,1,0,0:0:0:75:Hat open.wav
320,192,74590,1,0,0:0:0:0:
64,192,74764,128,2,74939:0:0:0:0:
192,192,74939,1,8,0:0:0:0:
320,192,74939,1,0,0:0:0:75:Hat open.wav
448,192,74939,128,0,75113:0:0:0:0:
192,192,75113,128,2,75288:0:0:0:0:
64,192,75288,1,8,0:0:0:0:
320,192,75288,1,4,0:0:0:0:
448,192,75288,128,0,75462:0:0:0:0:
192,192,75462,128,2,75636:0:0:0:0:
64,192,75636,1,8,0:0:0:0:
320,192,75636,1,0,0:0:0:80:Crash 2.wav
448,192,75636,1,0,0:0:0:0:
320,192,75811,1,2,0:0:0:0:
64,192,75985,1,8,0:0:0:0:
192,192,75985,1,0,0:0:0:75:Hat open.wav
448,192,75985,128,0,76160:0:0:0:0:
320,192,76160,1,2,0:0:0:0:
192,192,76247,1,2,0:0:0:0:
64,192,76334,128,8,76508:0:0:0:0:
320,192,76334,1,0,0:0:0:75:Hat open.wav
448,192,76334,1,0,0:0:0:0:
320,192,76508,128,2,76683:0:0:0:0:
64,192,76683,1,8,0:0:0:0:
192,192,76683,1,0,0:0:0:75:Hat open.wav
448,192,76683,1,0,0:0:0:0:
192,192,76857,128,2,77032:0:0:0:0:
64,192,77032,1,8,0:0:0:0:
320,192,77032,1,0,0:0:0:75:Hat open.wav
448,192,77032,1,0,0:0:0:0:
64,192,77206,128,2,77381:0:0:0:0:
192,192,77381,1,8,0:0:0:0:
320,192,77381,1,0,0:0:0:80:Crash 2.wav
448,192,77381,1,0,0:0:0:0:
64,192,77555,1,2,0:0:0:0:
192,192,77642,1,8,0:0:0:0:
320,192,77729,1,8,0:0:0:0:
448,192,77729,1,0,0:0:0:0:
192,192,77817,1,8,0:0:0:0:
64,192,77904,1,0,0:0:0:55:Tom1.wav
448,192,77904,1,0,0:0:0:0:
320,192,77991,1,8,0:0:0:0:
64,192,78078,1,8,0:0:0:0:
192,192,78078,1,0,0:0:0:0:
320,192,78165,1,8,0:0:0:0:
448,192,78165,1,0,0:0:0:0:
64,192,78253,1,0,0:0:0:60:Tom2.wav
192,192,78253,1,0,0:0:0:0:
320,192,78340,1,8,0:0:0:0:
448,192,78340,1,0,0:0:0:0:
64,192,78427,1,0,0:0:0:55:Tom1.wav
192,192,78514,1,0,0:0:0:60:Tom3.wav
448,192,78601,1,2,0:0:0:0:
320,192,78601,1,0,0:0:0:0:
64,192,78776,128,8,78950:0:0:0:0:
192,192,78776,1,4,0:0:0:0:
448,192,78776,1,0,0:0:0:0:
320,192,78950,1,2,0:0:0:0:
192,192,79038,1,2,0:0:0:0:
64,192,79125,1,8,0:0:0:0:
320,192,79125,1,0,0:0:0:70:Crash 2.wav
448,192,79125,128,0,79299:0:0:0:0:
192,192,79299,128,2,79474:0:0:0:0:
64,192,79474,1,8,0:0:0:0:
320,192,79474,1,0,0:0:0:70:Crash 2.wav
448,192,79474,1,0,0:0:0:0:
320,192,79648,128,2,79822:0:0:0:0:
64,192,79822,1,8,0:0:0:0:
192,192,79822,1,0,0:0:0:70:Crash 2.wav
448,192,79822,1,0,0:0:0:0:
64,192,79997,128,2,80171:0:0:0:0:
192,192,80171,1,8,0:0:0:0:
320,192,80171,1,0,0:0:0:70:Crash 2.wav
448,192,80171,1,0,0:0:0:0:
448,192,80346,128,2,80520:0:0:0:0:
64,192,80520,1,8,0:0:0:0:
192,192,80520,128,0,80694:0:0:0:70:Crash 2.wav
320,192,80520,1,0,0:0:0:0:
448,192,80694,1,2,0:0:0:0:
320,192,80782,1,8,0:0:0:0:
64,192,80869,1,8,0:0:0:0:
192,192,80869,1,0,0:0:0:70:Crash 2.wav
320,192,80956,1,8,0:0:0:0:
64,192,81043,1,2,0:0:0:0:
448,192,81043,1,0,0:0:0:0:
192,192,81131,1,8,0:0:0:0:
64,192,81218,1,8,0:0:0:0:
320,192,81218,1,4,0:0:0:0:
448,192,81218,1,0,0:0:0:0:
320,192,81392,1,2,0:0:0:0:
64,192,81567,1,8,0:0:0:0:
192,192,81567,1,0,0:0:0:70:Crash 2.wav
448,192,81567,128,0,81741:0:0:0:0:
192,192,81741,1,2,0:0:0:0:
320,192,81828,1,2,0:0:0:0:
64,192,81915,128,8,82090:0:0:0:0:
192,192,81915,1,0,0:0:0:70:Crash 2.wav
448,192,81915,1,0,0:0:0:0:
320,192,82090,128,2,82264:0:0:0:0:
64,192,82264,1,8,0:0:0:0:
192,192,82264,1,0,0:0:0:70:Crash 2.wav
448,192,82264,1,0,0:0:0:0:
192,192,82439,128,2,82788:0:0:0:0:
320,192,82439,1,0,0:0:0:0:
64,192,82788,1,8,0:0:0:0:
448,192,82788,1,0,0:0:0:0:
320,192,82875,1,8,0:0:0:0:
64,192,82962,1,2,0:0:0:0:
192,192,82962,1,0,0:0:0:0:
320,192,83049,1,8,0:0:0:0:
64,192,83136,1,0,0:0:0:55:Tom1.wav
448,192,83136,1,0,0:0:0:0:
192,192,83224,1,8,0:0:0:0:
64,192,83311,1,2,0:0:0:0:
320,192,83311,1,8,0:0:0:0:
448,192,83311,1,0,0:0:0:0:
64,192,83485,1,8,0:0:0:0:
320,192,83485,1,0,0:0:0:0:
448,192,83485,1,0,0:0:0:0:
64,192,83660,1,8,0:0:0:0:
192,192,83660,1,2,0:0:0:0:
448,192,83660,1,0,0:0:0:0:
64,192,83834,1,8,0:0:0:0:
192,192,83834,1,2,0:0:0:0:
448,192,83834,1,0,0:0:0:0:
320,192,84008,128,0,84096:0:0:0:30:Pr.wav
320,192,84183,128,0,84270:0:0:0:30:Pr.wav
320,192,84357,128,0,84444:0:0:0:30:Pr.wav
320,192,84706,128,0,84793:0:0:0:30:Pr.wav
320,192,84881,128,0,84968:0:0:0:30:Pr.wav
320,192,85055,128,0,85142:0:0:0:30:Pr.wav
320,192,85404,128,0,85491:0:0:0:30:Pr.wav
320,192,85578,128,0,85665:0:0:0:30:Pr.wav
320,192,85753,128,0,85840:0:0:0:30:Pr.wav
320,192,85927,128,0,86014:0:0:0:30:Pr.wav
64,192,86101,1,8,0:0:0:0:
192,192,86101,1,0,0:0:0:60:Tom3.wav
448,192,86101,1,0,0:0:0:0:
64,192,86276,1,8,0:0:0:0:
320,192,86276,1,0,0:0:0:60:Tom3.wav
448,192,86276,1,0,0:0:0:0:
64,192,86450,1,8,0:0:0:0:
192,192,86450,1,0,0:0:0:60:Tom3.wav
448,192,86450,1,0,0:0:0:0:
64,192,86625,128,2,87671:0:0:0:0:
320,192,86625,128,4,87671:0:0:0:0:
448,192,86625,128,0,87671:0:0:0:0:
