osu file format v14

[General]
AudioFilename: audio.ogg
AudioLeadIn: 0
PreviewTime: 101834
Countdown: 0
SampleSet: Normal
StackLeniency: 0.7
Mode: 1
LetterboxInBreaks: 0
WidescreenStoryboard: 1

[Editor]
Bookmarks: 24011,69187,103070,136952,186364,208952,242834,292246,337422
DistanceSpacing: 1.8
BeatDivisor: 4
GridSize: 32
TimelineZoom: 1.8

[Metadata]
Title:BLUE CLAPPER (hu-zin Bootleg)
TitleUnicode:BLUE CLAPPER (hu-zin Bootleg)
Artist:hololive IDOL PROJECT
ArtistUnicode:hololive IDOL PROJECT
Creator:X a v y
Version::clap:
Source:
Tags:huzin remix japanese electronic dance jcore j-core jpop j-pop hardcore hardpsy edm floral circlet vtuber virtual バーチャル youtuber female group vocals ホロライブ pandaboy 5期生 5th generation gen holofive cover corp 雪花ラミィ 桃鈴ねね 獅白ぼたん 尾丸ポルカ Yukihana Lamy Momosuzu Nene Shishiro Botan Omaru Polka original clap your hands collaboration maimaing xavy
BeatmapID:2833072
BeatmapSetID:1370153

[Difficulty]
HPDrainRate:4.4
CircleSize:5
OverallDifficulty:6.6
ApproachRate:5
SliderMultiplier:1.4
SliderTickRate:1

[Events]
//Background and Video events
0,0,"bg.jpg",0,115
//Break Periods
//Storyboard Layer 0 (Background)
//Storyboard Layer 1 (Fail)
//Storyboard Layer 2 (Pass)
//Storyboard Layer 3 (Foreground)
//Storyboard Layer 4 (Overlay)
//Storyboard Sound Samples

[TimingPoints]
12,352.941176470588,4,1,0,30,1,8
1423,352.941176470588,4,1,0,30,1,0
1423,-111.111111111111,4,1,0,30,0,0
2834,-166.666666666667,4,1,0,30,0,0
12011,-153.846153846154,4,1,0,30,0,0
12187,-150.943396226415,4,1,0,30,0,0
12364,-148.148148148148,4,1,0,50,0,0
12540,-145.454545454545,4,1,0,50,0,0
12717,-125,4,1,0,50,0,0
12893,-142.011834319527,4,1,0,50,0,0
13070,-141.176470588235,4,1,0,51,0,0
13246,-140.350877192982,4,1,0,51,0,0
13422,-139.53488372093,4,1,0,51,0,0
13599,-138.728323699422,4,1,0,51,0,0
13775,-137.931034482759,4,1,0,52,0,0
13952,-137.142857142857,4,1,0,52,0,0
14128,-136.363636363636,4,1,0,52,0,0
14305,-135.593220338983,4,1,0,52,0,0
14481,-134.831460674157,4,1,0,53,0,0
14658,-134.078212290503,4,1,0,53,0,0
14834,-133.333333333333,4,1,0,53,0,0
15011,-132.596685082873,4,1,0,54,0,0
15187,-131.868131868132,4,1,0,54,0,0
15364,-131.147540983607,4,1,0,54,0,0
15540,-130.434782608696,4,1,0,54,0,0
15717,-129.72972972973,4,1,0,54,0,0
15893,-129.032258064516,4,1,0,55,0,0
16070,-128.342245989305,4,1,0,55,0,0
16246,-127.659574468085,4,1,0,55,0,0
16422,-126.984126984127,4,1,0,56,0,0
16599,-126.315789473684,4,1,0,56,0,0
16775,-125.65445026178,4,1,0,56,0,0
16952,-125,4,1,0,57,0,0
17128,-124.352331606218,4,1,0,57,0,0
17305,-123.711340206186,4,1,0,57,0,0
17481,-123.076923076923,4,1,0,58,0,0
17658,-122.448979591837,4,1,0,58,0,0
17834,-121.827411167513,4,1,0,58,0,0
18011,-121.212121212121,4,1,0,58,0,0
18187,-120.603015075377,4,1,0,58,0,0
18364,-120,4,1,0,59,0,0
18540,-119.402985074627,4,1,0,59,0,0
18717,-118.811881188119,4,1,0,59,0,0
18893,-118.226600985222,4,1,0,59,0,0
19070,-117.647058823529,4,1,0,60,0,0
19246,-117.073170731707,4,1,0,60,0,0
19422,-116.504854368932,4,1,0,61,0,0
19599,-115.942028985507,4,1,0,61,0,0
19775,-115.384615384615,4,1,0,61,0,0
19952,-114.832535885167,4,1,0,61,0,0
20128,-114.285714285714,4,1,0,62,0,0
20305,-113.744075829384,4,1,0,62,0,0
20481,-113.207547169811,4,1,0,62,0,0
20658,-112.676056338028,4,1,0,62,0,0
20834,-112.14953271028,4,1,0,63,0,0
21011,-111.627906976744,4,1,0,63,0,0
21187,-111.111111111111,4,1,0,63,0,0
21364,-110.599078341014,4,1,0,64,0,0
21540,-110.091743119266,4,1,0,64,0,0
21717,-109.58904109589,4,1,0,64,0,0
21893,-109.090909090909,4,1,0,64,0,0
22070,-108.597285067873,4,1,0,65,0,0
22246,-108.108108108108,4,1,0,65,0,0
22422,-107.62331838565,4,1,0,65,0,0
22599,-107.142857142857,4,1,0,66,0,0
22687,-106.666666666667,4,1,0,66,0,0
22775,-106.194690265487,4,1,0,66,0,0
22864,-105.726872246696,4,1,0,66,0,0
22952,-105.263157894737,4,1,0,67,0,0
23040,-104.803493449782,4,1,0,67,0,0
23128,-104.347826086957,4,1,0,67,0,0
23217,-103.896103896104,4,1,0,68,0,0
23305,-103.448275862069,4,1,0,68,0,0
23393,-103.004291845494,4,1,0,68,0,0
23481,-102.564102564103,4,1,0,68,0,0
23570,-102.127659574468,4,1,0,69,0,0
23658,-101.694915254237,4,1,0,69,0,0
23746,-101.26582278481,4,1,0,69,0,0
23834,-100.840336134454,4,1,0,69,0,0
23922,-100.418410041841,4,1,0,70,0,0
24011,-100,4,1,0,70,0,0
34599,-93.0232558139535,4,1,0,70,0,0
34952,-86.9565217391304,4,1,0,70,0,0
35305,-76.9230769230769,4,1,0,70,0,0
35481,-100,4,1,0,70,0,0
46246,-86.9565217391304,4,1,0,70,0,0
46599,-76.9230769230769,4,1,0,70,0,0
46775,-100,4,1,0,70,0,0
51540,-93.0232558139535,4,1,0,70,0,0
51893,-86.9565217391304,4,1,0,70,0,0
52246,-76.9230769230769,4,1,0,70,0,0
52422,-100,4,1,0,70,0,0
57187,-93.0232558139535,4,1,0,70,0,0
57540,-86.9565217391304,4,1,0,70,0,0
57893,-76.9230769230769,4,1,0,70,0,0
58070,-100,4,1,0,70,0,0
58158,-99.8638220608261,4,1,0,70,0,0
58246,-99.728014505893,4,1,0,70,0,0
58334,-99.5925758261657,4,1,0,70,0,0
58422,-99.4575045207957,4,1,0,70,0,0
58511,-99.3227990970655,4,1,0,70,0,0
58599,-99.1884580703336,4,1,0,70,0,0
58687,-99.0544799639802,4,1,0,70,0,0
58775,-98.9208633093525,4,1,0,70,0,0
58864,-98.7876066457117,4,1,0,70,0,0
58952,-98.6547085201794,4,1,0,70,0,0
59040,-98.5221674876847,4,1,0,70,0,0
59128,-98.3899821109123,4,1,0,70,0,0
59217,-98.2581509602501,4,1,0,70,0,0
59305,-98.1266726137377,4,1,0,70,0,0
59393,-97.9955456570156,4,1,0,70,0,0
59481,-97.864768683274,4,1,0,70,0,0
59570,-97.734340293203,4,1,0,70,0,0
59658,-97.6042590949423,4,1,0,70,0,0
59746,-97.4745237040319,4,1,0,70,0,0
59834,-97.3451327433628,4,1,0,70,0,0
59922,-97.2160848431286,4,1,0,70,0,0
60011,-97.0873786407767,4,1,0,70,0,0
60099,-96.9590127809608,4,1,0,70,0,0
60187,-96.830985915493,4,1,0,70,0,0
60275,-96.7032967032967,4,1,0,70,0,0
60364,-96.57594381036,4,1,0,70,0,0
60452,-96.4489259096887,4,1,0,70,0,0
60540,-96.3222416812609,4,1,0,70,0,0
60628,-96.1958898119808,4,1,0,70,0,0
60717,-96.0698689956332,4,1,0,70,0,0
60805,-95.9441779328391,4,1,0,70,0,0
60893,-95.8188153310104,4,1,0,70,0,0
60981,-95.6937799043062,4,1,0,70,0,0
61070,-95.5690703735882,4,1,0,70,0,0
61158,-95.4446854663775,4,1,0,70,0,0
61246,-95.3206239168111,4,1,0,70,0,0
61334,-95.1968844655993,4,1,0,70,0,0
61422,-95.0734658599827,4,1,0,70,0,0
61511,-94.9503668536901,4,1,0,70,0,0
61599,-94.8275862068966,4,1,0,70,0,0
61687,-94.7051226861817,4,1,0,70,0,0
61775,-94.5829750644884,4,1,0,70,0,0
61864,-94.461142121082,4,1,0,70,0,0
61952,-94.3396226415094,4,1,0,70,0,0
62040,-94.2184154175589,4,1,0,70,0,0
62128,-94.0975192472199,4,1,0,70,0,0
62217,-93.9769329346433,4,1,0,70,0,0
62305,-93.8566552901024,4,1,0,70,0,0
62393,-93.7366851299531,4,1,0,70,0,0
62481,-93.6170212765958,4,1,0,70,0,0
62570,-93.497662558436,4,1,0,70,0,0
62658,-93.3786078098472,4,1,0,70,0,0
62746,-93.2598558711318,4,1,0,70,0,0
62834,-93.1414055884843,4,1,0,70,0,0
62922,-93.0232558139535,4,1,0,70,0,0
63011,-92.9054054054054,4,1,0,70,0,0
63099,-92.7878532264867,4,1,0,70,0,0
63187,-92.670598146588,4,1,0,70,0,0
63275,-92.5536390408078,4,1,0,70,0,0
63364,-92.436974789916,4,1,0,70,0,0
63452,-92.3206042803189,4,1,0,70,0,0
63540,-92.2045264040235,4,1,0,70,0,0
63628,-92.0887400586019,4,1,0,70,0,0
63717,-91.9732441471572,4,1,0,70,0,0
63805,-91.8580375782881,4,1,0,70,0,0
63893,-91.7431192660551,4,1,0,70,0,0
63981,-91.6284881299459,4,1,0,70,0,0
64070,-91.5141430948419,4,1,0,70,0,0
64158,-91.4000830909846,4,1,0,70,0,0
64246,-91.2863070539419,4,1,0,70,0,0
64334,-91.1728139245752,4,1,0,70,0,0
64422,-91.0596026490066,4,1,0,70,0,0
64511,-90.9466721785862,4,1,0,70,0,0
64599,-90.8340214698596,4,1,0,70,0,0
64687,-90.7216494845361,4,1,0,70,0,0
64775,-90.6095551894564,4,1,0,70,0,0
64864,-90.4977375565611,4,1,0,70,0,0
64952,-90.3861955628595,4,1,0,70,0,0
65040,-90.274928190398,4,1,0,70,0,0
65128,-90.1639344262295,4,1,0,70,0,0
65217,-90.0532132623823,4,1,0,70,0,0
65305,-89.9427636958299,4,1,0,70,0,0
65393,-89.8325847284606,4,1,0,70,0,0
65481,-89.7226753670473,4,1,0,70,0,0
65570,-89.6130346232179,4,1,0,70,0,0
65658,-89.5036615134256,4,1,0,70,0,0
65746,-89.3945550589191,4,1,0,70,0,0
65834,-89.2857142857143,4,1,0,70,0,0
65922,-89.1771382245642,4,1,0,70,0,0
66011,-89.0688259109312,4,1,0,70,0,0
66099,-88.9607763849575,4,1,0,70,0,0
66187,-88.8529886914378,4,1,0,70,0,0
66275,-88.7454618797902,4,1,0,70,0,0
66364,-88.638195004029,4,1,0,70,0,0
66452,-88.5311871227364,4,1,0,70,0,0
66540,-88.4244372990354,4,1,0,70,0,0
66628,-88.317944600562,4,1,0,70,0,0
66717,-88.2117080994387,4,1,0,70,0,0
66805,-88.1057268722467,4,1,0,70,0,0
66893,-88,4,1,0,70,0,0
66981,-87.8945265681183,4,1,0,70,0,0
67070,-87.7893056664007,4,1,0,70,0,0
67158,-87.6843363889996,4,1,0,70,0,0
67246,-87.5796178343949,4,1,0,70,0,0
67334,-87.4751491053678,4,1,0,70,0,0
67422,-87.3709293089754,4,1,0,70,0,0
67511,-87.2669575565252,4,1,0,70,0,0
67599,-87.1632329635499,4,1,0,70,0,0
67687,-87.0597546497824,4,1,0,70,0,0
67775,-86.9565217391304,4,1,0,70,0,0
67864,-88.0733944954129,4,1,0,70,0,0
67952,-89.2193308550186,4,1,0,70,0,0
68040,-90.3954802259887,4,1,0,70,0,0
68128,-91.6030534351145,4,1,0,70,0,0
68217,-92.8433268858801,4,1,0,70,0,0
68305,-94.1176470588235,4,1,0,70,0,0
68393,-95.427435387674,4,1,0,70,0,0
68481,-96.7741935483871,4,1,0,70,0,0
68570,-98.159509202454,4,1,0,70,0,0
68658,-99.5850622406639,4,1,0,70,0,0
68746,-101.052631578947,4,1,0,70,0,0
68834,-86.9565217391304,4,1,0,70,0,0
69187,-76.9230769230769,4,1,0,70,0,0
69364,-105.263157894737,4,1,0,70,0,0
74834,-80.0000000000001,4,1,0,70,0,0
75011,-105.263157894737,4,1,0,70,0,0
80128,-90.9090909090909,4,1,0,70,0,0
80481,-80.0000000000001,4,1,0,70,0,0
80658,-105.263157894737,4,1,0,70,0,0
86128,-80.0000000000001,4,1,0,70,0,0
86305,-105.263157894737,4,1,0,70,0,0
91422,-90.9090909090909,4,1,0,70,0,0
91775,-80.0000000000001,4,1,0,70,0,0
91952,-105.263157894737,4,1,0,70,0,0
96893,-80,4,1,0,70,0,0
97599,-105.263157894737,4,1,0,70,0,0
97687,-104.783599088838,4,1,0,70,0,0
97775,-104.308390022676,4,1,0,70,0,0
97864,-103.837471783296,4,1,0,70,0,0
97952,-103.370786516854,4,1,0,70,0,0
98040,-102.908277404922,4,1,0,70,0,0
98128,-102.449888641425,4,1,0,70,0,0
98217,-101.9955654102,4,1,0,70,0,0
98305,-101.545253863135,4,1,0,70,0,0
98393,-101.098901098901,4,1,0,70,0,0
98481,-100.656455142232,4,1,0,70,0,0
98570,-100.217864923747,4,1,0,70,0,0
98658,-99.7830802603037,4,1,0,70,0,0
98746,-99.3520518358531,4,1,0,70,0,0
98834,-98.9247311827957,4,1,0,70,0,0
98922,-98.5010706638116,4,1,0,70,0,0
99011,-98.0810234541578,4,1,0,70,0,0
99099,-97.6645435244161,4,1,0,70,0,0
99187,-97.2515856236787,4,1,0,70,0,0
99275,-96.8421052631579,4,1,0,70,0,0
99364,-96.4360587002097,4,1,0,70,0,0
99452,-96.0334029227558,4,1,0,70,0,0
99540,-95.6340956340956,4,1,0,70,0,0
99628,-95.2380952380953,4,1,0,70,0,0
99717,-94.8453608247423,4,1,0,70,0,0
99805,-94.4558521560575,4,1,0,70,0,0
99893,-94.0695296523517,4,1,0,70,0,0
99981,-93.6863543788187,4,1,0,70,0,0
100070,-93.3062880324544,4,1,0,70,0,0
100158,-92.9292929292929,4,1,0,70,0,0
100246,-92.5553319919517,4,1,0,70,0,0
100334,-92.184368737475,4,1,0,70,0,0
100422,-91.8163672654691,4,1,0,70,0,0
100511,-91.4512922465209,4,1,0,70,0,0
100599,-91.0891089108911,4,1,0,70,0,0
100687,-90.7297830374753,4,1,0,70,0,0
100775,-90.3732809430255,4,1,0,70,0,0
100864,-90.0195694716243,4,1,0,70,0,0
100952,-89.6686159844055,4,1,0,70,0,0
101040,-89.3203883495146,4,1,0,70,0,0
101128,-88.9748549323018,4,1,0,70,0,0
101217,-88.6319845857418,4,1,0,70,0,0
101305,-88.2917466410749,4,1,0,70,0,0
101393,-87.9541108986616,4,1,0,70,0,0
101481,-87.6190476190476,4,1,0,70,0,0
101570,-87.2865275142315,4,1,0,70,0,0
101658,-86.9565217391304,4,1,0,70,0,0
101746,-88.0733944954129,4,1,0,70,0,0
101834,-89.2193308550186,4,1,0,70,0,0
101922,-90.3954802259887,4,1,0,70,0,0
102011,-91.6030534351145,4,1,0,70,0,0
102099,-92.8433268858801,4,1,0,70,0,0
102187,-94.1176470588235,4,1,0,70,0,0
102275,-95.427435387674,4,1,0,70,0,0
102364,-96.7741935483871,4,1,0,70,0,0
102452,-98.159509202454,4,1,0,70,0,0
102540,-99.5850622406639,4,1,0,70,0,0
102628,-101.052631578947,4,1,0,70,0,0
102717,-86.9565217391304,4,1,0,70,0,0
103070,-76.9230769230769,4,1,0,70,0,1
103246,-100,4,1,0,70,0,1
120099,-99.6884735202492,4,1,0,70,0,1
120187,-99.3788819875776,4,1,0,70,0,1
120275,-99.0712074303406,4,1,0,70,0,1
120364,-98.7654320987654,4,1,0,70,0,1
120452,-98.4615384615385,4,1,0,70,0,1
120540,-98.159509202454,4,1,0,70,0,1
120628,-97.8593272171254,4,1,0,70,0,1
120717,-97.5609756097561,4,1,0,70,0,1
120805,-97.2644376899696,4,1,0,70,0,1
120893,-96.969696969697,4,1,0,70,0,1
120981,-96.6767371601208,4,1,0,70,0,1
121070,-96.3855421686747,4,1,0,70,0,1
121158,-96.0960960960961,4,1,0,70,0,1
121246,-95.8083832335329,4,1,0,70,0,1
121334,-95.5223880597015,4,1,0,70,0,1
121422,-95.2380952380952,4,1,0,70,0,1
121511,-94.9554896142433,4,1,0,70,0,1
121599,-94.6745562130178,4,1,0,70,0,1
121687,-94.3952802359882,4,1,0,70,0,1
121775,-94.1176470588235,4,1,0,70,0,1
121864,-93.841642228739,4,1,0,70,0,1
121952,-93.5672514619883,4,1,0,70,0,1
122040,-93.2944606413994,4,1,0,70,0,1
122128,-93.0232558139535,4,1,0,70,0,1
122217,-92.7536231884058,4,1,0,70,0,1
122305,-92.485549132948,4,1,0,70,0,1
122393,-92.2190201729107,4,1,0,70,0,1
122481,-91.9540229885058,4,1,0,70,0,1
122570,-91.6905444126075,4,1,0,70,0,1
122658,-91.4285714285714,4,1,0,70,0,1
122746,-91.1680911680912,4,1,0,70,0,1
122834,-90.9090909090909,4,1,0,70,0,1
122922,-90.6515580736544,4,1,0,70,0,1
123011,-90.3954802259887,4,1,0,70,0,1
123099,-90.1408450704225,4,1,0,70,0,1
123187,-89.8876404494382,4,1,0,70,0,1
123275,-89.6358543417367,4,1,0,70,0,1
123364,-89.3854748603352,4,1,0,70,0,1
123452,-89.1364902506964,4,1,0,70,0,1
123540,-88.8888888888889,4,1,0,70,0,1
123628,-88.6426592797784,4,1,0,70,0,1
123717,-88.3977900552486,4,1,0,70,0,1
123805,-88.1542699724518,4,1,0,70,0,1
123893,-87.9120879120879,4,1,0,70,0,1
123981,-87.6712328767123,4,1,0,70,0,1
124070,-87.4316939890711,4,1,0,70,0,1
124158,-87.1934604904632,4,1,0,70,0,1
124246,-86.9565217391304,4,1,0,70,0,1
124334,-88.0733944954129,4,1,0,70,0,1
124422,-89.2193308550186,4,1,0,70,0,1
124511,-90.3954802259887,4,1,0,70,0,1
124599,-91.6030534351145,4,1,0,70,0,1
124687,-92.8433268858801,4,1,0,70,0,1
124775,-94.1176470588235,4,1,0,70,0,1
124864,-95.427435387674,4,1,0,70,0,1
124952,-96.7741935483871,4,1,0,70,0,1
125040,-98.159509202454,4,1,0,70,0,1
125128,-99.5850622406639,4,1,0,70,0,1
125217,-101.052631578947,4,1,0,70,0,1
125305,-86.9565217391304,4,1,0,70,0,1
125658,-76.9230769230769,4,1,0,70,0,0
125834,-100,4,1,0,70,0,0
125922,-99.8638220608261,4,1,0,70,0,0
126011,-99.728014505893,4,1,0,70,0,0
126099,-99.5925758261657,4,1,0,70,0,0
126187,-99.4575045207957,4,1,0,70,0,0
126275,-99.3227990970655,4,1,0,70,0,0
126364,-99.1884580703336,4,1,0,70,0,0
126452,-99.0544799639802,4,1,0,70,0,0
126540,-98.9208633093525,4,1,0,70,0,0
126628,-98.7876066457117,4,1,0,70,0,0
126717,-98.6547085201794,4,1,0,70,0,0
126805,-98.5221674876847,4,1,0,70,0,0
126893,-98.3899821109123,4,1,0,70,0,0
126981,-98.2581509602501,4,1,0,70,0,0
127070,-98.1266726137377,4,1,0,70,0,0
127158,-97.9955456570156,4,1,0,70,0,0
127246,-97.864768683274,4,1,0,70,0,0
127334,-97.734340293203,4,1,0,70,0,0
127422,-97.6042590949423,4,1,0,70,0,0
127511,-97.4745237040319,4,1,0,70,0,0
127599,-97.3451327433628,4,1,0,70,0,0
127687,-97.2160848431286,4,1,0,70,0,0
127775,-97.0873786407767,4,1,0,70,0,0
127864,-96.9590127809608,4,1,0,70,0,0
127952,-96.830985915493,4,1,0,70,0,0
128040,-96.7032967032967,4,1,0,70,0,0
128128,-96.57594381036,4,1,0,70,0,0
128217,-96.4489259096887,4,1,0,70,0,0
128305,-96.3222416812609,4,1,0,70,0,0
128393,-96.1958898119808,4,1,0,70,0,0
128481,-96.0698689956332,4,1,0,70,0,0
128570,-95.9441779328391,4,1,0,70,0,0
128658,-95.8188153310104,4,1,0,70,0,0
128746,-95.6937799043062,4,1,0,70,0,0
128834,-95.5690703735882,4,1,0,70,0,0
128922,-95.4446854663775,4,1,0,70,0,0
129011,-95.3206239168111,4,1,0,70,0,0
129099,-95.1968844655993,4,1,0,70,0,0
129187,-95.0734658599827,4,1,0,70,0,0
129275,-94.9503668536901,4,1,0,70,0,0
129364,-94.8275862068966,4,1,0,70,0,0
129452,-94.7051226861817,4,1,0,70,0,0
129540,-94.5829750644884,4,1,0,70,0,0
129628,-94.461142121082,4,1,0,70,0,0
129717,-94.3396226415094,4,1,0,70,0,0
129805,-94.2184154175589,4,1,0,70,0,0
129893,-94.0975192472199,4,1,0,70,0,0
129981,-93.9769329346433,4,1,0,70,0,0
130070,-93.8566552901024,4,1,0,70,0,0
130158,-93.7366851299531,4,1,0,70,0,0
130246,-93.6170212765958,4,1,0,70,0,0
130334,-93.497662558436,4,1,0,70,0,0
130422,-93.3786078098472,4,1,0,70,0,0
130511,-93.2598558711318,4,1,0,70,0,0
130599,-93.1414055884843,4,1,0,70,0,0
130687,-93.0232558139535,4,1,0,70,0,0
130775,-83.3333333333333,4,1,0,70,0,0
131481,-92.0132499079867,4,1,0,70,0,0
131570,-91.8361099584357,4,1,0,70,0,0
131658,-91.6596507427827,4,1,0,70,0,0
131717,-91.4838683445486,4,1,0,70,0,0
131775,-91.3087588772404,4,1,0,70,0,0
131834,-91.134318484065,4,1,0,70,0,0
131922,-90.9605433376455,4,1,0,70,0,0
132011,-90.787429639742,4,1,0,70,0,0
132070,-90.6149736209744,4,1,0,70,0,0
132128,-90.4431715405487,4,1,0,70,0,0
132187,-90.2720196859871,4,1,0,70,0,0
132275,-90.1015143728601,4,1,0,70,0,0
132364,-89.9316519445222,4,1,0,70,0,0
132452,-89.7624287718505,4,1,0,70,0,0
132540,-89.5938412529865,4,1,0,70,0,0
132628,-89.42588581308,4,1,0,70,0,0
132717,-89.2585589040371,4,1,0,70,0,0
132775,-89.0918570042698,4,1,0,70,0,0
132834,-88.9257766184491,4,1,0,70,0,0
132893,-88.7603142772609,4,1,0,70,0,0
132981,-88.5954665371642,4,1,0,70,0,0
133070,-88.4312299801521,4,1,0,70,0,0
133128,-88.2676012135161,4,1,0,70,0,0
133187,-88.1045768696118,4,1,0,70,0,0
133246,-87.9421536056283,4,1,0,70,0,0
133334,-87.7803281033597,4,1,0,70,0,0
133422,-87.6190970689789,4,1,0,70,0,0
133481,-87.4584572328144,4,1,0,70,0,0
133540,-87.298405349129,4,1,0,70,0,0
133599,-87.1389381959012,4,1,0,70,0,0
133687,-86.9800525746096,4,1,0,70,0,0
133775,-86.8206285813509,4,1,0,70,0,0
133834,-86.7152271938952,4,1,0,70,0,0
133893,-86.6100814134765,4,1,0,70,0,0
133952,-86.5051903114187,4,1,0,70,0,0
134040,-86.3502622489446,4,1,0,70,0,0
134128,-86.1942371171539,4,1,0,70,0,0
134217,-86.0387748078468,4,1,0,70,0,0
134305,-85.8838722811393,4,1,0,70,0,0
134393,-85.7295265190002,4,1,0,70,0,0
134481,-85.5757345250547,4,1,0,70,0,0
134540,-85.4224933243903,4,1,0,70,0,0
134599,-85.2697999633656,4,1,0,70,0,0
134658,-85.1176515094197,4,1,0,70,0,0
134746,-84.9660450508852,4,1,0,70,0,0
134834,-84.8149776968022,4,1,0,70,0,0
134893,-84.6644465767342,4,1,0,70,0,0
134952,-84.514448840587,4,1,0,70,0,0
135011,-84.3649816584281,4,1,0,70,0,0
135099,-84.2160422203092,4,1,0,70,0,0
135187,-84.0676277360899,4,1,0,70,0,0
135275,-83.9197354352637,4,1,0,70,0,0
135364,-83.7723625667852,4,1,0,70,0,0
135422,-83.6255063988999,4,1,0,70,0,0
135481,-83.4791642189751,4,1,0,70,0,0
135540,-83.3333333333333,4,1,0,70,0,0
135628,-84.6153846153846,4,1,0,70,0,0
135717,-85.9375,4,1,0,70,0,0
135805,-87.3015873015873,4,1,0,70,0,0
135893,-88.7096774193548,4,1,0,70,0,0
135981,-90.1639344262295,4,1,0,70,0,0
136070,-91.6666666666667,4,1,0,70,0,0
136158,-93.2203389830509,4,1,0,70,0,0
136246,-94.8275862068966,4,1,0,70,0,0
136334,-96.4912280701754,4,1,0,70,0,0
136422,-98.2142857142857,4,1,0,70,0,0
136511,-100,4,1,0,70,0,0
136599,-86.9565217391304,4,1,0,70,0,0
136952,-76.9230769230769,4,1,0,70,0,0
137128,-83.3333333333333,4,1,0,70,0,0
137217,-83.4938985228003,4,1,0,70,0,0
137305,-83.6550836550837,4,1,0,70,0,0
137393,-83.8168923275306,4,1,0,70,0,0
137481,-83.9793281653747,4,1,0,70,0,0
137570,-84.1423948220065,4,1,0,70,0,0
137658,-84.3060959792477,4,1,0,70,0,0
137717,-84.4704353476283,4,1,0,70,0,0
137775,-84.6354166666667,4,1,0,70,0,0
137834,-84.8010437051533,4,1,0,70,0,0
137922,-84.9673202614379,4,1,0,70,0,0
138011,-85.1342501637197,4,1,0,70,0,0
138099,-85.3018372703412,4,1,0,70,0,0
138187,-85.4700854700855,4,1,0,70,0,0
138275,-85.638998682477,4,1,0,70,0,0
138364,-85.8085808580858,4,1,0,70,0,0
138422,-85.978835978836,4,1,0,70,0,0
138481,-86.1497680583168,4,1,0,70,0,0
138540,-86.3213811420983,4,1,0,70,0,0
138628,-86.4936793080506,4,1,0,70,0,0
138717,-86.6666666666667,4,1,0,70,0,0
138805,-86.8403473613894,4,1,0,70,0,0
138893,-87.0170553428472,4,1,0,70,0,0
138981,-87.2498836668218,4,1,0,70,0,0
139070,-87.4839612737665,4,1,0,70,0,0
139158,-87.719298245614,4,1,0,70,0,0
139246,-87.8972278566599,4,1,0,70,0,0
139334,-88.0758807588076,4,1,0,70,0,0
139422,-88.255261371351,4,1,0,70,0,0
139511,-88.4353741496599,4,1,0,70,0,0
139599,-88.6162235855487,4,1,0,70,0,0
139687,-88.7978142076503,4,1,0,70,0,0
139775,-88.9801505817933,4,1,0,70,0,0
139834,-89.1632373113855,4,1,0,70,0,0
139893,-89.3470790378007,4,1,0,70,0,0
139952,-89.5316804407714,4,1,0,70,0,0
140040,-89.7170462387854,4,1,0,70,0,0
140128,-89.9031811894883,4,1,0,70,0,0
140217,-90.0900900900901,4,1,0,70,0,0
140305,-90.2777777777778,4,1,0,70,0,0
140393,-90.4662491301322,4,1,0,70,0,0
140481,-90.6555090655509,4,1,0,70,0,0
140540,-90.8455625436758,4,1,0,70,0,0
140599,-91.0364145658263,4,1,0,70,0,0
140658,-91.2280701754386,4,1,0,70,0,0
140746,-91.4205344585091,4,1,0,70,0,0
140834,-91.6138125440451,4,1,0,70,0,0
140922,-91.8079096045198,4,1,0,70,0,0
141011,-92.002830856334,4,1,0,70,0,0
141099,-92.1985815602837,4,1,0,70,0,0
141187,-92.3951670220327,4,1,0,70,0,0
141246,-92.5925925925926,4,1,0,70,0,0
141305,-92.790863668808,4,1,0,70,0,0
141364,-92.9899856938484,4,1,0,70,0,0
141452,-93.1899641577061,4,1,0,70,0,0
141540,-93.3908045977012,4,1,0,70,0,0
141628,-93.5925125989921,4,1,0,70,0,0
141717,-93.7950937950938,4,1,0,70,0,0
141775,-93.998553868402,4,1,0,70,0,0
141834,-94.2028985507246,4,1,0,70,0,0
141893,-94.4081336238199,4,1,0,70,0,0
141981,-94.6142649199418,4,1,0,70,0,0
142070,-94.8212983223924,4,1,0,70,0,0
142158,-95.0292397660819,4,1,0,70,0,0
142246,-83.3333333333333,4,1,0,70,0,0
142599,-76.9230769230769,4,1,0,70,0,0
142775,-83.3333333333333,4,1,0,70,0,0
142864,-83.4964122635356,4,1,0,70,0,0
142952,-83.6601307189543,4,1,0,70,0,0
143040,-83.8244924688933,4,1,0,70,0,0
143128,-83.989501312336,4,1,0,70,0,0
143217,-84.155161078238,4,1,0,70,0,0
143305,-84.3214756258235,4,1,0,70,0,0
143364,-84.4884488448845,4,1,0,70,0,0
143422,-84.6560846560847,4,1,0,70,0,0
143481,-84.8243870112657,4,1,0,70,0,0
143570,-84.9933598937583,4,1,0,70,0,0
143658,-85.1630073186959,4,1,0,70,0,0
143746,-85.3333333333333,4,1,0,70,0,0
143834,-85.5043420173681,4,1,0,70,0,0
143922,-85.6760374832664,4,1,0,70,0,0
144011,-85.8484238765929,4,1,0,70,0,0
144070,-86.0215053763441,4,1,0,70,0,0
144128,-86.1952861952862,4,1,0,70,0,0
144187,-86.3697705802969,4,1,0,70,0,0
144275,-86.5449628127113,4,1,0,70,0,0
144364,-86.7208672086721,4,1,0,70,0,0
144452,-86.897488119484,4,1,0,70,0,0
144540,-87.0748299319728,4,1,0,70,0,0
144628,-87.252897068848,4,1,0,70,0,0
144717,-87.431693989071,4,1,0,70,0,0
144775,-87.6112251882273,4,1,0,70,0,0
144834,-87.7914951989026,4,1,0,70,0,0
144893,-87.9725085910653,4,1,0,70,0,0
144981,-88.1542699724518,4,1,0,70,0,0
145070,-88.3367839889579,4,1,0,70,0,0
145158,-88.5200553250346,4,1,0,70,0,0
145246,-88.7040887040887,4,1,0,70,0,0
145334,-88.8888888888889,4,1,0,70,0,0
145422,-89.0744606819763,4,1,0,70,0,0
145481,-89.2608089260809,4,1,0,70,0,0
145540,-89.4479385045423,4,1,0,70,0,0
145599,-89.6358543417367,4,1,0,70,0,0
145687,-89.8245614035088,4,1,0,70,0,0
145775,-90.014064697609,4,1,0,70,0,0
145864,-90.2043692741367,4,1,0,70,0,0
145952,-90.3954802259887,4,1,0,70,0,0
146040,-90.5874026893135,4,1,0,70,0,0
146128,-90.7801418439716,4,1,0,70,0,0
146187,-90.9737029140014,4,1,0,70,0,0
146246,-91.1680911680912,4,1,0,70,0,0
146305,-91.3633119200571,4,1,0,70,0,0
146393,-91.5593705293276,4,1,0,70,0,0
146481,-91.7562724014337,4,1,0,70,0,0
146570,-91.9540229885058,4,1,0,70,0,0
146658,-92.1526277897768,4,1,0,70,0,0
146746,-92.3520923520924,4,1,0,70,0,0
146834,-92.5524222704266,4,1,0,70,0,0
146922,-92.7536231884058,4,1,0,70,0,0
147011,-92.9557007988381,4,1,0,70,0,0
147099,-93.1586608442504,4,1,0,70,0,0
147187,-93.3625091174325,4,1,0,70,0,0
147275,-93.5672514619883,4,1,0,70,0,0
147364,-93.7728937728938,4,1,0,70,0,0
147452,-93.9794419970631,4,1,0,70,0,0
147540,-94.186902133922,4,1,0,70,0,0
147599,-94.3952802359882,4,1,0,70,0,0
147658,-94.6045824094604,4,1,0,70,0,0
147717,-94.8148148148148,4,1,0,70,0,0
147805,-95.0259836674091,4,1,0,70,0,0
147893,-83.3333333333333,4,1,0,70,0,0
148246,-76.9230769230769,4,1,0,70,0,0
148422,-83.3333333333333,4,1,0,70,0,0
148511,-83.4938985228003,4,1,0,70,0,0
148599,-83.6550836550837,4,1,0,70,0,0
148687,-83.8168923275306,4,1,0,70,0,0
148775,-83.9793281653747,4,1,0,70,0,0
148864,-84.1423948220065,4,1,0,70,0,0
148952,-84.3060959792477,4,1,0,70,0,0
149011,-84.4704353476283,4,1,0,70,0,0
149070,-84.6354166666667,4,1,0,70,0,0
149128,-84.8010437051533,4,1,0,70,0,0
149217,-84.9673202614379,4,1,0,70,0,0
149305,-85.1342501637197,4,1,0,70,0,0
149393,-85.3018372703412,4,1,0,70,0,0
149481,-85.4700854700855,4,1,0,70,0,0
149570,-85.638998682477,4,1,0,70,0,0
149658,-85.8085808580858,4,1,0,70,0,0
149717,-85.978835978836,4,1,0,70,0,0
149775,-86.1497680583168,4,1,0,70,0,0
149834,-86.3213811420983,4,1,0,70,0,0
149922,-86.4936793080506,4,1,0,70,0,0
150011,-86.6666666666667,4,1,0,70,0,0
150099,-86.8403473613894,4,1,0,70,0,0
150187,-87.0170553428472,4,1,0,70,0,0
150275,-87.2498836668218,4,1,0,70,0,0
150364,-87.4839612737665,4,1,0,70,0,0
150452,-87.719298245614,4,1,0,70,0,0
150540,-87.8972278566599,4,1,0,70,0,0
150628,-88.0758807588076,4,1,0,70,0,0
150717,-88.255261371351,4,1,0,70,0,0
150805,-88.4353741496599,4,1,0,70,0,0
150893,-88.6162235855487,4,1,0,70,0,0
150981,-88.7978142076503,4,1,0,70,0,0
151070,-88.9801505817933,4,1,0,70,0,0
151128,-89.1632373113855,4,1,0,70,0,0
151187,-89.3470790378007,4,1,0,70,0,0
151246,-89.5316804407714,4,1,0,70,0,0
151334,-89.7170462387854,4,1,0,70,0,0
151422,-89.9031811894883,4,1,0,70,0,0
151511,-90.0900900900901,4,1,0,70,0,0
151599,-90.2777777777778,4,1,0,70,0,0
151687,-90.4662491301322,4,1,0,70,0,0
151775,-90.6555090655509,4,1,0,70,0,0
151834,-90.8455625436758,4,1,0,70,0,0
151893,-91.0364145658263,4,1,0,70,0,0
151952,-91.2280701754386,4,1,0,70,0,0
152040,-91.4205344585091,4,1,0,70,0,0
152128,-91.6138125440451,4,1,0,70,0,0
152217,-91.8079096045198,4,1,0,70,0,0
152305,-92.002830856334,4,1,0,70,0,0
152393,-92.1985815602837,4,1,0,70,0,0
152481,-92.3951670220327,4,1,0,70,0,0
152540,-92.5925925925926,4,1,0,70,0,0
152599,-92.790863668808,4,1,0,70,0,0
152658,-92.9899856938484,4,1,0,70,0,0
152746,-93.1899641577061,4,1,0,70,0,0
152834,-93.3908045977012,4,1,0,70,0,0
152922,-93.5925125989921,4,1,0,70,0,0
153011,-93.7950937950938,4,1,0,70,0,0
153070,-93.998553868402,4,1,0,70,0,0
153128,-94.2028985507246,4,1,0,70,0,0
153187,-94.4081336238199,4,1,0,70,0,0
153275,-94.6142649199418,4,1,0,70,0,0
153364,-94.8212983223924,4,1,0,70,0,0
153452,-95.0292397660819,4,1,0,70,0,0
153540,-83.3333333333333,4,1,0,70,0,0
153893,-76.9230769230769,4,1,0,70,0,0
154070,-83.3333333333333,4,1,0,70,0,0
154158,-83.4964122635356,4,1,0,70,0,0
154246,-83.6601307189543,4,1,0,70,0,0
154334,-83.8244924688933,4,1,0,70,0,0
154422,-83.989501312336,4,1,0,70,0,0
154511,-84.155161078238,4,1,0,70,0,0
154599,-84.3214756258235,4,1,0,70,0,0
154658,-84.4884488448845,4,1,0,70,0,0
154717,-84.6560846560847,4,1,0,70,0,0
154775,-84.8243870112657,4,1,0,70,0,0
154864,-84.9933598937583,4,1,0,70,0,0
154952,-85.1630073186959,4,1,0,70,0,0
155040,-85.3333333333333,4,1,0,70,0,0
155128,-85.5043420173681,4,1,0,70,0,0
155217,-85.6760374832664,4,1,0,70,0,0
155305,-85.8484238765929,4,1,0,70,0,0
155364,-86.0215053763441,4,1,0,70,0,0
155422,-86.1952861952862,4,1,0,70,0,0
155481,-86.3697705802969,4,1,0,70,0,0
155570,-86.5449628127113,4,1,0,70,0,0
155658,-86.7208672086721,4,1,0,70,0,0
155717,-86.897488119484,4,1,0,70,0,0
155775,-87.0748299319728,4,1,0,70,0,0
155834,-87.252897068848,4,1,0,70,0,0
155922,-87.431693989071,4,1,0,70,0,0
156011,-87.6112251882273,4,1,0,70,0,0
156070,-87.7914951989026,4,1,0,70,0,0
156128,-87.9725085910653,4,1,0,70,0,0
156187,-88.1542699724518,4,1,0,70,0,0
156275,-88.3367839889579,4,1,0,70,0,0
156364,-88.5200553250346,4,1,0,70,0,0
156452,-88.7040887040887,4,1,0,70,0,0
156540,-88.8888888888889,4,1,0,70,0,0
156628,-89.0744606819763,4,1,0,70,0,0
156717,-89.2608089260809,4,1,0,70,0,0
156775,-89.4479385045423,4,1,0,70,0,0
156834,-89.6358543417367,4,1,0,70,0,0
156893,-89.8245614035088,4,1,0,70,0,0
156981,-90.014064697609,4,1,0,70,0,0
157070,-90.2043692741367,4,1,0,70,0,0
157158,-90.3954802259887,4,1,0,70,0,0
157246,-90.5874026893135,4,1,0,70,0,0
157334,-90.7801418439716,4,1,0,70,0,0
157422,-90.9737029140014,4,1,0,70,0,0
157481,-91.1680911680912,4,1,0,70,0,0
157540,-91.3633119200571,4,1,0,70,0,0
157599,-91.5593705293276,4,1,0,70,0,0
157687,-91.7562724014337,4,1,0,70,0,0
157775,-91.9540229885058,4,1,0,70,0,0
157864,-92.1526277897768,4,1,0,70,0,0
157952,-92.3520923520924,4,1,0,70,0,0
158040,-92.5524222704266,4,1,0,70,0,0
158128,-92.7536231884058,4,1,0,70,0,0
158217,-92.9557007988381,4,1,0,70,0,0
158305,-93.1586608442504,4,1,0,70,0,0
158393,-93.3625091174325,4,1,0,70,0,0
158481,-93.5672514619883,4,1,0,70,0,0
158570,-93.7728937728938,4,1,0,70,0,0
158658,-93.9794419970631,4,1,0,70,0,0
158746,-94.186902133922,4,1,0,70,0,0
158834,-94.3952802359882,4,1,0,70,0,0
158893,-94.6045824094604,4,1,0,70,0,0
158952,-94.8148148148148,4,1,0,70,0,0
159011,-95.0259836674091,4,1,0,70,0,0
159099,-95.2380952380952,4,1,0,70,0,0
159187,-83.3333333333333,4,1,0,70,0,0
159540,-125,4,1,0,70,0,0
162011,-80,4,1,0,70,0,0
162364,-97.5609756097561,4,1,0,70,0,0
167658,-83.3333333333333,4,1,0,70,0,0
168011,-93.0232558139535,4,1,0,70,0,0
172334,-92.7536231884058,4,1,0,70,0,0
172422,-92.9557007988381,4,1,0,70,0,0
172511,-93.1586608442504,4,1,0,70,0,0
172599,-93.3625091174325,4,1,0,70,0,0
172687,-93.5672514619883,4,1,0,70,0,0
172775,-93.7728937728938,4,1,0,70,0,0
172864,-93.9794419970631,4,1,0,70,0,0
172952,-94.186902133922,4,1,0,70,0,0
173011,-94.3952802359882,4,1,0,70,0,0
173070,-94.6045824094604,4,1,0,70,0,0
173128,-94.8148148148148,4,1,0,70,0,0
173217,-95.0259836674091,4,1,0,70,0,0
173305,-83.3333333333333,4,1,0,70,0,0
173658,-93.0232558139535,4,1,0,70,0,0
178952,-80,4,1,0,70,0,0
179305,-93.0232558139535,4,1,0,70,0,0
183628,-92.7536231884058,4,1,0,70,0,0
183717,-92.9557007988381,4,1,0,70,0,0
183805,-93.1586608442504,4,1,0,70,0,0
183893,-93.3625091174325,4,1,0,70,0,0
183981,-93.5672514619883,4,1,0,70,0,0
184070,-93.7728937728938,4,1,0,70,0,0
184158,-93.9794419970631,4,1,0,70,0,0
184246,-94.186902133922,4,1,0,70,0,0
184305,-94.3952802359882,4,1,0,70,0,0
184364,-94.6045824094604,4,1,0,70,0,0
184422,-94.8148148148148,4,1,0,70,0,0
184511,-95.0259836674091,4,1,0,70,0,0
184599,-83.3333333333333,4,1,0,70,0,0
184952,-105.263157894737,4,1,0,70,0,0
197305,-90.9090909090909,4,1,0,70,0,0
197658,-80.0000000000001,4,1,0,70,0,0
197834,-105.263157894737,4,1,0,70,0,0
202775,-80,4,1,0,70,0,0
203305,-105.263157894737,4,1,0,70,0,0
203570,-104.783599088838,4,1,0,70,0,0
203658,-104.308390022676,4,1,0,70,0,0
203746,-103.837471783296,4,1,0,70,0,0
203834,-103.370786516854,4,1,0,70,0,0
203922,-102.908277404922,4,1,0,70,0,0
204011,-102.449888641425,4,1,0,70,0,0
204099,-101.9955654102,4,1,0,70,0,0
204187,-101.545253863135,4,1,0,70,0,0
204275,-101.098901098901,4,1,0,70,0,0
204364,-100.656455142232,4,1,0,70,0,0
204452,-100.217864923747,4,1,0,70,0,0
204540,-99.7830802603037,4,1,0,70,0,0
204628,-99.3520518358531,4,1,0,70,0,0
204717,-98.9247311827957,4,1,0,70,0,0
204805,-98.5010706638116,4,1,0,70,0,0
204893,-98.0810234541578,4,1,0,70,0,0
204981,-97.6645435244161,4,1,0,70,0,0
205070,-97.2515856236787,4,1,0,70,0,0
205158,-96.8421052631579,4,1,0,70,0,0
205246,-96.4360587002097,4,1,0,70,0,0
205334,-96.0334029227558,4,1,0,70,0,0
205422,-95.6340956340956,4,1,0,70,0,0
205511,-95.2380952380953,4,1,0,70,0,0
205599,-94.8453608247423,4,1,0,70,0,0
205687,-94.4558521560575,4,1,0,70,0,0
205775,-94.0695296523517,4,1,0,70,0,0
205864,-93.6863543788187,4,1,0,70,0,0
205952,-93.3062880324544,4,1,0,70,0,0
206040,-92.9292929292929,4,1,0,70,0,0
206128,-92.5553319919517,4,1,0,70,0,0
206217,-92.184368737475,4,1,0,70,0,0
206305,-91.8163672654691,4,1,0,70,0,0
206393,-91.4512922465209,4,1,0,70,0,0
206481,-91.0891089108911,4,1,0,70,0,0
206570,-90.7297830374753,4,1,0,70,0,0
206658,-90.3732809430255,4,1,0,70,0,0
206746,-90.0195694716243,4,1,0,70,0,0
206834,-89.6686159844055,4,1,0,70,0,0
206922,-89.3203883495146,4,1,0,70,0,0
207011,-88.9748549323018,4,1,0,70,0,0
207099,-88.6319845857418,4,1,0,70,0,0
207187,-88.2917466410749,4,1,0,70,0,0
207275,-87.9541108986616,4,1,0,70,0,0
207364,-87.6190476190476,4,1,0,70,0,0
207452,-87.2865275142315,4,1,0,70,0,0
207540,-86.9565217391304,4,1,0,70,0,0
207628,-88.0733944954129,4,1,0,70,0,0
207717,-89.2193308550186,4,1,0,70,0,0
207805,-90.3954802259887,4,1,0,70,0,0
207893,-91.6030534351145,4,1,0,70,0,0
207981,-92.8433268858801,4,1,0,70,0,0
208070,-94.1176470588235,4,1,0,70,0,0
208158,-95.427435387674,4,1,0,70,0,0
208246,-96.7741935483871,4,1,0,70,0,0
208334,-98.159509202454,4,1,0,70,0,0
208422,-99.5850622406639,4,1,0,70,0,0
208511,-101.052631578947,4,1,0,70,0,0
208599,-86.9565217391304,4,1,0,70,0,0
208952,-76.9230769230769,4,1,0,70,0,1
209128,-100,4,1,0,70,0,1
225981,-99.6884735202492,4,1,0,70,0,1
226070,-99.3788819875776,4,1,0,70,0,1
226158,-99.0712074303406,4,1,0,70,0,1
226246,-98.7654320987654,4,1,0,70,0,1
226334,-98.4615384615385,4,1,0,70,0,1
226422,-98.159509202454,4,1,0,70,0,1
226511,-97.8593272171254,4,1,0,70,0,1
226599,-97.5609756097561,4,1,0,70,0,1
226687,-97.2644376899696,4,1,0,70,0,1
226775,-96.969696969697,4,1,0,70,0,1
226864,-96.6767371601208,4,1,0,70,0,1
226952,-96.3855421686747,4,1,0,70,0,1
227040,-96.0960960960961,4,1,0,70,0,1
227128,-95.8083832335329,4,1,0,70,0,1
227217,-95.5223880597015,4,1,0,70,0,1
227305,-95.2380952380952,4,1,0,70,0,1
227393,-94.9554896142433,4,1,0,70,0,1
227481,-94.6745562130178,4,1,0,70,0,1
227570,-94.3952802359882,4,1,0,70,0,1
227658,-94.1176470588235,4,1,0,70,0,1
227746,-93.841642228739,4,1,0,70,0,1
227834,-93.5672514619883,4,1,0,70,0,1
227922,-93.2944606413994,4,1,0,70,0,1
228011,-93.0232558139535,4,1,0,70,0,1
228099,-92.7536231884058,4,1,0,70,0,1
228187,-92.485549132948,4,1,0,70,0,1
228275,-92.2190201729107,4,1,0,70,0,1
228364,-91.9540229885058,4,1,0,70,0,1
228452,-91.6905444126075,4,1,0,70,0,1
228540,-91.4285714285714,4,1,0,70,0,1
228628,-91.1680911680912,4,1,0,70,0,1
228717,-90.9090909090909,4,1,0,70,0,1
228805,-90.6515580736544,4,1,0,70,0,1
228893,-90.3954802259887,4,1,0,70,0,1
228981,-90.1408450704225,4,1,0,70,0,1
229070,-89.8876404494382,4,1,0,70,0,1
229158,-89.6358543417367,4,1,0,70,0,1
229246,-89.3854748603352,4,1,0,70,0,1
229334,-89.1364902506964,4,1,0,70,0,1
229422,-88.8888888888889,4,1,0,70,0,1
229511,-88.6426592797784,4,1,0,70,0,1
229599,-88.3977900552486,4,1,0,70,0,1
229687,-88.1542699724518,4,1,0,70,0,1
229775,-87.9120879120879,4,1,0,70,0,1
229864,-87.6712328767123,4,1,0,70,0,1
229952,-87.4316939890711,4,1,0,70,0,1
230040,-87.1934604904632,4,1,0,70,0,1
230128,-86.9565217391304,4,1,0,70,0,1
230217,-88.0733944954129,4,1,0,70,0,1
230305,-89.2193308550186,4,1,0,70,0,1
230393,-90.3954802259887,4,1,0,70,0,1
230481,-91.6030534351145,4,1,0,70,0,1
230570,-92.8433268858801,4,1,0,70,0,1
230658,-94.1176470588235,4,1,0,70,0,1
230746,-95.427435387674,4,1,0,70,0,1
230834,-96.7741935483871,4,1,0,70,0,1
230922,-98.159509202454,4,1,0,70,0,1
231011,-99.5850622406639,4,1,0,70,0,1
231099,-101.052631578947,4,1,0,70,0,1
231187,-101.26582278481,4,1,0,70,0,1
231364,-102.564102564103,4,1,0,70,0,1
231540,-76.9230769230769,4,1,0,70,0,0
231717,-100,4,1,0,70,0,0
231805,-99.8638220608261,4,1,0,70,0,0
231893,-99.728014505893,4,1,0,70,0,0
231981,-99.5925758261657,4,1,0,70,0,0
232070,-99.4575045207957,4,1,0,70,0,0
232158,-99.3227990970655,4,1,0,70,0,0
232246,-99.1884580703336,4,1,0,70,0,0
232334,-99.0544799639802,4,1,0,70,0,0
232422,-98.9208633093525,4,1,0,70,0,0
232511,-98.7876066457117,4,1,0,70,0,0
232599,-98.6547085201794,4,1,0,70,0,0
232687,-98.5221674876847,4,1,0,70,0,0
232775,-98.3899821109123,4,1,0,70,0,0
232864,-98.2581509602501,4,1,0,70,0,0
232952,-98.1266726137377,4,1,0,70,0,0
233040,-97.9955456570156,4,1,0,70,0,0
233128,-97.864768683274,4,1,0,70,0,0
233217,-97.734340293203,4,1,0,70,0,0
233305,-97.6042590949423,4,1,0,70,0,0
233393,-97.4745237040319,4,1,0,70,0,0
233481,-97.3451327433628,4,1,0,70,0,0
233570,-97.2160848431286,4,1,0,70,0,0
233658,-97.0873786407767,4,1,0,70,0,0
233746,-96.9590127809608,4,1,0,70,0,0
233834,-96.830985915493,4,1,0,70,0,0
233922,-96.7032967032967,4,1,0,70,0,0
234011,-96.57594381036,4,1,0,70,0,0
234099,-96.4489259096887,4,1,0,70,0,0
234187,-96.3222416812609,4,1,0,70,0,0
234275,-96.1958898119808,4,1,0,70,0,0
234364,-96.0698689956332,4,1,0,70,0,0
234452,-95.9441779328391,4,1,0,70,0,0
234540,-95.8188153310104,4,1,0,70,0,0
234628,-95.6937799043062,4,1,0,70,0,0
234717,-95.5690703735882,4,1,0,70,0,0
234805,-95.4446854663775,4,1,0,70,0,0
234893,-95.3206239168111,4,1,0,70,0,0
234981,-95.1968844655993,4,1,0,70,0,0
235070,-95.0734658599827,4,1,0,70,0,0
235158,-94.9503668536901,4,1,0,70,0,0
235246,-94.8275862068966,4,1,0,70,0,0
235334,-94.7051226861817,4,1,0,70,0,0
235422,-94.5829750644884,4,1,0,70,0,0
235511,-94.461142121082,4,1,0,70,0,0
235599,-94.3396226415094,4,1,0,70,0,0
235687,-94.2184154175589,4,1,0,70,0,0
235775,-94.0975192472199,4,1,0,70,0,0
235864,-93.9769329346433,4,1,0,70,0,0
235952,-93.8566552901024,4,1,0,70,0,0
236040,-93.7366851299531,4,1,0,70,0,0
236128,-93.6170212765958,4,1,0,70,0,0
236217,-93.497662558436,4,1,0,70,0,0
236305,-93.3786078098472,4,1,0,70,0,0
236393,-93.2598558711318,4,1,0,70,0,0
236481,-93.1414055884843,4,1,0,70,0,0
236570,-93.0232558139535,4,1,0,70,0,0
236658,-92.1658986175115,4,1,0,70,0,0
236834,-83.3333333333333,4,1,0,70,0,0
237364,-92.0132499079867,4,1,0,70,0,0
237452,-91.8361099584357,4,1,0,70,0,0
237540,-91.6596507427827,4,1,0,70,0,0
237628,-91.4838683445486,4,1,0,70,0,0
237717,-91.3087588772404,4,1,0,70,0,0
237775,-91.134318484065,4,1,0,70,0,0
237834,-90.9605433376455,4,1,0,70,0,0
237893,-90.787429639742,4,1,0,70,0,0
237981,-90.6149736209744,4,1,0,70,0,0
238070,-90.4431715405487,4,1,0,70,0,0
238158,-90.2720196859871,4,1,0,70,0,0
238246,-90.1015143728601,4,1,0,70,0,0
238305,-89.9316519445222,4,1,0,70,0,0
238364,-89.7624287718505,4,1,0,70,0,0
238422,-89.5938412529865,4,1,0,70,0,0
238511,-89.42588581308,4,1,0,70,0,0
238599,-89.2585589040371,4,1,0,70,0,0
238658,-89.0918570042698,4,1,0,70,0,0
238717,-88.9257766184491,4,1,0,70,0,0
238775,-88.7603142772609,4,1,0,70,0,0
238864,-88.5954665371642,4,1,0,70,0,0
238952,-88.4312299801521,4,1,0,70,0,0
239040,-88.2676012135161,4,1,0,70,0,0
239128,-88.1045768696118,4,1,0,70,0,0
239187,-87.9421536056283,4,1,0,70,0,0
239246,-87.7803281033597,4,1,0,70,0,0
239305,-87.6190970689789,4,1,0,70,0,0
239393,-87.4584572328144,4,1,0,70,0,0
239481,-87.298405349129,4,1,0,70,0,0
239540,-87.1389381959012,4,1,0,70,0,0
239599,-86.9800525746096,4,1,0,70,0,0
239658,-86.8217453100179,4,1,0,70,0,0
239746,-86.6640132499647,4,1,0,70,0,0
239834,-86.5068532651531,4,1,0,70,0,0
239922,-86.3502622489446,4,1,0,70,0,0
240011,-86.1942371171539,4,1,0,70,0,0
240099,-86.0387748078468,4,1,0,70,0,0
240187,-85.8838722811393,4,1,0,70,0,0
240275,-85.7295265190002,4,1,0,70,0,0
240364,-85.5757345250547,4,1,0,70,0,0
240422,-85.4224933243903,4,1,0,70,0,0
240481,-85.2697999633656,4,1,0,70,0,0
240540,-85.1176515094197,4,1,0,70,0,0
240628,-84.9660450508852,4,1,0,70,0,0
240717,-84.8149776968022,4,1,0,70,0,0
240775,-84.6644465767342,4,1,0,70,0,0
240834,-84.514448840587,4,1,0,70,0,0
240893,-84.3649816584281,4,1,0,70,0,0
240981,-84.2160422203092,4,1,0,70,0,0
241070,-84.0676277360899,4,1,0,70,0,0
241128,-83.9197354352637,4,1,0,70,0,0
241187,-83.7723625667852,4,1,0,70,0,0
241246,-83.6255063988999,4,1,0,70,0,0
241334,-83.4791642189751,4,1,0,70,0,0
241422,-83.3333333333333,4,1,0,70,0,0
241511,-84.6153846153846,4,1,0,70,0,0
241599,-85.9375,4,1,0,70,0,0
241687,-87.3015873015873,4,1,0,70,0,0
241775,-88.7096774193548,4,1,0,70,0,0
241864,-90.1639344262295,4,1,0,70,0,0
241952,-91.6666666666667,4,1,0,70,0,0
242040,-93.2203389830509,4,1,0,70,0,0
242128,-94.8275862068966,4,1,0,70,0,0
242217,-96.4912280701754,4,1,0,70,0,0
242305,-98.2142857142857,4,1,0,70,0,0
242393,-100,4,1,0,70,0,0
242481,-86.9565217391304,4,1,0,70,0,0
242834,-76.9230769230769,4,1,0,70,0,1
243011,-93.0232558139535,4,1,0,70,0,1
248128,-86.9565217391304,4,1,0,70,0,1
248481,-76.9230769230769,4,1,0,70,0,1
248658,-93.0232558139535,4,1,0,70,0,1
253775,-86.9565217391304,4,1,0,70,0,1
254128,-76.9230769230769,4,1,0,70,0,1
254305,-93.0232558139535,4,1,0,70,0,1
259422,-86.9565217391304,4,1,0,70,0,1
259775,-76.9230769230769,4,1,0,70,0,1
259952,-93.0232558139535,4,1,0,70,0,1
265070,-86.9565217391304,4,1,0,70,0,1
265422,-125,4,1,0,70,0,0
267893,-80,4,1,0,70,0,0
268246,-76.9230769230769,4,1,0,70,0,1
268422,-93.0232558139535,4,1,0,70,0,1
279187,-80,4,1,0,70,0,1
279540,-76.9230769230769,4,1,0,70,0,1
279717,-93.0232558139535,4,1,0,70,0,1
290481,-80,4,1,0,70,0,0
290834,-142.857142857143,4,1,0,70,0,0
291364,-142.857142857143,4,1,0,50,0,0
292422,-142.011834319527,4,1,0,50,0,0
292599,-141.176470588235,4,1,0,51,0,0
292775,-140.350877192982,4,1,0,51,0,0
292952,-139.53488372093,4,1,0,51,0,0
293128,-138.728323699422,4,1,0,51,0,0
293305,-137.931034482759,4,1,0,52,0,0
293481,-137.142857142857,4,1,0,52,0,0
293658,-136.363636363636,4,1,0,52,0,0
293834,-135.593220338983,4,1,0,52,0,0
294011,-134.831460674157,4,1,0,53,0,0
294187,-134.078212290503,4,1,0,53,0,0
294364,-133.333333333333,4,1,0,53,0,0
294540,-132.596685082873,4,1,0,53,0,0
294717,-131.868131868132,4,1,0,54,0,0
294893,-131.147540983607,4,1,0,54,0,0
295070,-130.434782608696,4,1,0,54,0,0
295246,-129.72972972973,4,1,0,54,0,0
295422,-129.032258064516,4,1,0,55,0,0
295599,-128.342245989305,4,1,0,55,0,0
295775,-127.659574468085,4,1,0,55,0,0
295952,-126.984126984127,4,1,0,55,0,0
296128,-126.315789473684,4,1,0,56,0,0
296305,-125.65445026178,4,1,0,56,0,0
296481,-125,4,1,0,57,0,0
296658,-124.352331606218,4,1,0,57,0,0
296834,-123.711340206186,4,1,0,57,0,0
297011,-123.076923076923,4,1,0,58,0,0
297187,-122.448979591837,4,1,0,58,0,0
297364,-121.827411167513,4,1,0,58,0,0
297540,-121.212121212121,4,1,0,58,0,0
297717,-120.603015075377,4,1,0,58,0,0
297893,-120,4,1,0,59,0,0
298070,-119.402985074627,4,1,0,59,0,0
298246,-118.811881188119,4,1,0,59,0,0
298422,-118.226600985222,4,1,0,59,0,0
298599,-117.647058823529,4,1,0,60,0,0
298775,-117.073170731707,4,1,0,60,0,0
298952,-116.504854368932,4,1,0,61,0,0
299128,-115.942028985507,4,1,0,61,0,0
299305,-115.384615384615,4,1,0,61,0,0
299481,-114.832535885167,4,1,0,61,0,0
299658,-114.285714285714,4,1,0,62,0,0
299834,-113.744075829384,4,1,0,62,0,0
300011,-113.207547169811,4,1,0,62,0,0
300187,-112.676056338028,4,1,0,62,0,0
300364,-112.14953271028,4,1,0,63,0,0
300540,-111.627906976744,4,1,0,63,0,0
300717,-111.111111111111,4,1,0,63,0,0
300893,-110.599078341014,4,1,0,63,0,0
300981,-110.599078341014,4,1,0,64,0,0
301070,-110.091743119266,4,1,0,64,0,0
301246,-109.58904109589,4,1,0,64,0,0
301422,-109.090909090909,4,1,0,64,0,0
301599,-108.597285067873,4,1,0,64,0,0
301687,-108.597285067873,4,1,0,65,0,0
301775,-108.108108108108,4,1,0,65,0,0
301952,-107.62331838565,4,1,0,65,0,0
302128,-107.142857142857,4,1,0,66,0,0
302217,-106.666666666667,4,1,0,66,0,0
302305,-106.194690265487,4,1,0,66,0,0
302393,-105.726872246696,4,1,0,66,0,0
302481,-105.263157894737,4,1,0,67,0,0
302570,-104.803493449782,4,1,0,67,0,0
302658,-104.347826086957,4,1,0,67,0,0
302746,-103.896103896104,4,1,0,68,0,0
302834,-103.448275862069,4,1,0,68,0,0
302922,-103.004291845494,4,1,0,68,0,0
303011,-102.564102564103,4,1,0,68,0,0
303099,-102.127659574468,4,1,0,68,0,0
303187,-86.9565217391304,4,1,0,69,0,0
303540,-76.9230769230769,4,1,0,70,0,1
303717,-100,4,1,0,70,0,1
309364,-99.6884735202492,4,1,0,70,0,1
309452,-99.3788819875776,4,1,0,70,0,1
309540,-99.0712074303406,4,1,0,70,0,1
309628,-98.7654320987654,4,1,0,70,0,1
309717,-98.4615384615385,4,1,0,70,0,1
309805,-98.159509202454,4,1,0,70,0,1
309893,-97.8593272171254,4,1,0,70,0,1
309981,-97.5609756097561,4,1,0,70,0,1
310070,-97.2644376899696,4,1,0,70,0,1
310158,-96.969696969697,4,1,0,70,0,1
310246,-96.6767371601208,4,1,0,70,0,1
310334,-96.3855421686747,4,1,0,70,0,1
310422,-96.0960960960961,4,1,0,70,0,1
310511,-95.8083832335329,4,1,0,70,0,1
310599,-95.5223880597015,4,1,0,70,0,1
310687,-95.2380952380952,4,1,0,70,0,1
310775,-94.9554896142433,4,1,0,70,0,1
310864,-94.6745562130178,4,1,0,70,0,1
310952,-94.3952802359882,4,1,0,70,0,1
311040,-94.1176470588235,4,1,0,70,0,1
311128,-93.841642228739,4,1,0,70,0,1
311217,-93.5672514619883,4,1,0,70,0,1
311305,-93.2944606413994,4,1,0,70,0,1
311393,-93.0232558139535,4,1,0,70,0,1
311481,-92.7536231884058,4,1,0,70,0,1
311570,-92.485549132948,4,1,0,70,0,1
311658,-92.2190201729107,4,1,0,70,0,1
311746,-91.9540229885058,4,1,0,70,0,1
311834,-91.6905444126075,4,1,0,70,0,1
311922,-91.4285714285714,4,1,0,70,0,1
312011,-91.1680911680912,4,1,0,70,0,1
312099,-90.9090909090909,4,1,0,70,0,1
312187,-90.6515580736544,4,1,0,70,0,1
312275,-90.3954802259887,4,1,0,70,0,1
312364,-90.1408450704225,4,1,0,70,0,1
312452,-89.8876404494382,4,1,0,70,0,1
312540,-89.6358543417367,4,1,0,70,0,1
312628,-89.3854748603352,4,1,0,70,0,1
312717,-89.1364902506964,4,1,0,70,0,1
312805,-88.8888888888889,4,1,0,70,0,1
312893,-88.6426592797784,4,1,0,70,0,1
312981,-88.3977900552486,4,1,0,70,0,1
313070,-88.1542699724518,4,1,0,70,0,1
313158,-87.9120879120879,4,1,0,70,0,1
313246,-87.6712328767123,4,1,0,70,0,1
313334,-87.4316939890711,4,1,0,70,0,1
313422,-87.1934604904632,4,1,0,70,0,1
313511,-86.9565217391304,4,1,0,70,0,1
313599,-88.0733944954129,4,1,0,70,0,1
313687,-89.2193308550186,4,1,0,70,0,1
313775,-90.3954802259887,4,1,0,70,0,1
313864,-91.6030534351145,4,1,0,70,0,1
313952,-92.8433268858801,4,1,0,70,0,1
314040,-94.1176470588235,4,1,0,70,0,1
314128,-95.427435387674,4,1,0,70,0,1
314217,-96.7741935483871,4,1,0,70,0,1
314305,-98.159509202454,4,1,0,70,0,1
314393,-99.5850622406639,4,1,0,70,0,1
314481,-101.052631578947,4,1,0,70,0,1
314834,-93.0232558139535,4,1,0,70,0,1
326128,-80,4,1,0,70,0,1
326305,-93.0232558139535,4,1,0,70,0,1
331952,-92.7936821322804,4,1,0,70,0,1
332040,-92.5652387986214,4,1,0,70,0,1
332128,-92.3379174852652,4,1,0,70,0,1
332217,-92.1117099461049,4,1,0,70,0,1
332305,-91.8866080156403,4,1,0,70,0,1
332393,-91.6626036079961,4,1,0,70,0,1
332481,-91.4396887159533,4,1,0,70,0,1
332570,-91.2178554099952,4,1,0,70,0,1
332658,-90.9970958373669,4,1,0,70,0,1
332746,-90.7774022211492,4,1,0,70,0,1
332834,-90.5587668593449,4,1,0,70,0,1
332922,-90.3411821239789,4,1,0,70,0,1
333011,-90.1246404602109,4,1,0,70,0,1
333099,-89.9091343854615,4,1,0,70,0,1
333187,-89.6946564885496,4,1,0,70,0,1
333275,-89.4811994288434,4,1,0,70,0,1
333364,-89.2687559354226,4,1,0,70,0,1
333452,-89.057318806253,4,1,0,70,0,1
333540,-88.8468809073724,4,1,0,70,0,1
333628,-88.6374351720886,4,1,0,70,0,1
333717,-88.4289746001881,4,1,0,70,0,1
333805,-88.2214922571563,4,1,0,70,0,1
333893,-88.0149812734082,4,1,0,70,0,1
333981,-87.8094348435311,4,1,0,70,0,1
334070,-87.6048462255359,4,1,0,70,0,1
334158,-87.4012087401209,4,1,0,70,0,1
334246,-87.1985157699443,4,1,0,70,0,1
334334,-86.9967607589079,4,1,0,70,0,1
334422,-86.7959372114497,4,1,0,70,0,1
334511,-86.5960386918471,4,1,0,70,0,1
334599,-86.3970588235294,4,1,0,70,0,1
334687,-86.1989912883998,4,1,0,70,0,1
334775,-86.0018298261665,4,1,0,70,0,1
334864,-85.8055682336832,4,1,0,70,0,1
334952,-85.6102003642987,4,1,0,70,0,1
335040,-85.4157201272149,4,1,0,70,0,1
335128,-85.222121486854,4,1,0,70,0,1
335217,-85.0293984622343,4,1,0,70,0,1
335305,-84.8375451263538,4,1,0,70,0,1
335393,-84.6465556055831,4,1,0,70,0,1
335481,-84.4564240790656,4,1,0,70,0,1
335570,-84.2671447781264,4,1,0,70,0,1
335658,-84.0787119856887,4,1,0,70,0,1
335746,-83.8911200356984,4,1,0,70,0,1
335834,-83.7043633125557,4,1,0,70,0,1
335922,-83.5184362505553,4,1,0,70,0,1
336011,-83.3333333333333,4,1,0,70,0,1
336099,-84.5665961945032,4,1,0,70,0,1
336187,-85.8369098712446,4,1,0,70,0,1
336275,-87.1459694989107,4,1,0,70,0,1
336364,-88.495575221239,4,1,0,70,0,1
336452,-89.8876404494382,4,1,0,70,0,1
336540,-91.324200913242,4,1,0,70,0,1
336628,-92.8074245939675,4,1,0,70,0,1
336717,-94.3396226415094,4,1,0,70,0,1
336805,-95.5794504181601,4,1,0,70,0,1
336893,-96.8523002421308,4,1,0,70,0,1
336981,-98.159509202454,4,1,0,70,0,1
337070,-99.5024875621891,4,1,0,70,0,1
337158,-100.882723833544,4,1,0,70,0,1
337246,-102.30179028133,4,1,0,70,0,1
337334,-103.761348897536,4,1,0,70,0,1
337422,-105.263157894737,4,1,0,70,0,0
342364,-93.0232558139535,4,1,0,70,0,0
342717,-86.9565217391304,4,1,0,70,0,0
343070,-76.9230769230769,4,1,0,70,0,0
343246,-102.564102564103,4,1,0,70,0,0
348011,-93.0232558139535,4,1,0,70,0,0
348364,-86.9565217391304,4,1,0,70,0,0
348717,-76.9230769230769,4,1,0,70,0,0
348893,-100,4,1,0,70,0,0
353658,-93.0232558139535,4,1,0,70,0,0
354011,-86.9565217391304,4,1,0,70,0,0
354364,-76.9230769230769,4,1,0,70,0,0
354540,-97.5609756097561,4,1,0,70,0,0
370599,-93.0232558139535,4,1,0,70,0,0
370952,-86.9565217391304,4,1,0,70,0,0
371305,-76.9230769230769,4,1,0,70,0,0
371481,-100,4,1,0,70,0,0
371570,-99.8638220608261,4,1,0,70,0,0
371658,-99.728014505893,4,1,0,70,0,0
371746,-99.5925758261657,4,1,0,70,0,0
371834,-99.4575045207957,4,1,0,70,0,0
371922,-99.3227990970655,4,1,0,70,0,0
372011,-99.1884580703336,4,1,0,70,0,0
372099,-99.0544799639802,4,1,0,70,0,0
372187,-98.9208633093525,4,1,0,70,0,0
372275,-98.7876066457117,4,1,0,70,0,0
372364,-98.6547085201794,4,1,0,70,0,0
372452,-98.5221674876847,4,1,0,70,0,0
372540,-98.3899821109123,4,1,0,70,0,0
372628,-98.2581509602501,4,1,0,70,0,0
372717,-98.1266726137377,4,1,0,70,0,0
372805,-97.9955456570156,4,1,0,70,0,0
372893,-97.864768683274,4,1,0,70,0,0
372981,-97.734340293203,4,1,0,70,0,0
373070,-97.6042590949423,4,1,0,70,0,0
373158,-97.4745237040319,4,1,0,70,0,0
373246,-97.3451327433628,4,1,0,70,0,0
373334,-97.2160848431286,4,1,0,70,0,0
373422,-97.0873786407767,4,1,0,70,0,0
373511,-96.9590127809608,4,1,0,70,0,0
373599,-96.830985915493,4,1,0,70,0,0
373687,-96.7032967032967,4,1,0,70,0,0
373775,-96.57594381036,4,1,0,70,0,0
373864,-96.4489259096887,4,1,0,70,0,0
373952,-96.3222416812609,4,1,0,70,0,0
374040,-96.1958898119808,4,1,0,70,0,0
374128,-96.0698689956332,4,1,0,70,0,0
374217,-95.9441779328391,4,1,0,70,0,0
374305,-95.8188153310104,4,1,0,70,0,0
374393,-95.6937799043062,4,1,0,70,0,0
374481,-95.5690703735882,4,1,0,70,0,0
374570,-95.4446854663775,4,1,0,70,0,0
374658,-95.3206239168111,4,1,0,70,0,0
374746,-95.1968844655993,4,1,0,70,0,0
374834,-95.0734658599827,4,1,0,70,0,0
374922,-94.9503668536901,4,1,0,70,0,0
375011,-94.8275862068966,4,1,0,70,0,0
375099,-94.7051226861817,4,1,0,70,0,0
375187,-94.5829750644884,4,1,0,70,0,0
375275,-94.461142121082,4,1,0,70,0,0
375364,-94.3396226415094,4,1,0,70,0,0
375452,-94.2184154175589,4,1,0,70,0,0
375540,-94.0975192472199,4,1,0,70,0,0
375628,-93.9769329346433,4,1,0,70,0,0
375717,-93.8566552901024,4,1,0,70,0,0
375805,-93.7366851299531,4,1,0,70,0,0
375893,-93.6170212765958,4,1,0,70,0,0
375981,-93.497662558436,4,1,0,70,0,0
376070,-93.3786078098472,4,1,0,70,0,0
376158,-93.2598558711318,4,1,0,70,0,0
376246,-93.1414055884843,4,1,0,70,0,0
376334,-93.0232558139535,4,1,0,70,0,0
376422,-92.9054054054054,4,1,0,70,0,0
376511,-92.7878532264867,4,1,0,70,0,0
376599,-92.670598146588,4,1,0,70,0,0
376687,-92.5536390408078,4,1,0,70,0,0
376775,-92.436974789916,4,1,0,70,0,0
376864,-92.3206042803189,4,1,0,70,0,0
376952,-92.2045264040235,4,1,0,70,0,0
377040,-92.0887400586019,4,1,0,70,0,0
377128,-91.9732441471572,4,1,0,70,0,0
377217,-91.8580375782881,4,1,0,70,0,0
377305,-91.7431192660551,4,1,0,70,0,0
377393,-91.6284881299459,4,1,0,70,0,0
377481,-91.5141430948419,4,1,0,70,0,0
377570,-91.4000830909846,4,1,0,70,0,0
377658,-91.2863070539419,4,1,0,70,0,0
377746,-91.1728139245752,4,1,0,70,0,0
377834,-91.0596026490066,4,1,0,70,0,0
377922,-90.9466721785862,4,1,0,70,0,0
378011,-90.8340214698596,4,1,0,70,0,0
378099,-90.7216494845361,4,1,0,70,0,0
378187,-90.6095551894564,4,1,0,70,0,0
378275,-90.4977375565611,4,1,0,70,0,0
378364,-90.3861955628595,4,1,0,70,0,0
378452,-90.274928190398,4,1,0,70,0,0
378540,-90.1639344262295,4,1,0,70,0,0
378628,-90.0532132623823,4,1,0,70,0,0
378717,-89.9427636958299,4,1,0,70,0,0
378805,-89.8325847284606,4,1,0,70,0,0
378893,-89.7226753670473,4,1,0,70,0,0
378981,-89.6130346232179,4,1,0,70,0,0
379070,-89.5036615134256,4,1,0,70,0,0
379158,-89.3945550589191,4,1,0,70,0,0
379246,-89.2857142857143,4,1,0,70,0,0
379334,-89.1771382245642,4,1,0,70,0,0
379422,-89.0688259109312,4,1,0,70,0,0
379511,-88.9607763849575,4,1,0,70,0,0
379599,-88.8529886914378,4,1,0,70,0,0
379687,-88.7454618797902,4,1,0,70,0,0
379775,-88.638195004029,4,1,0,70,0,0
379864,-88.5311871227364,4,1,0,70,0,0
379952,-88.4244372990354,4,1,0,70,0,0
380040,-88.317944600562,4,1,0,70,0,0
380128,-88.2117080994387,4,1,0,70,0,0
380217,-88.1057268722467,4,1,0,70,0,0
380305,-88,4,1,0,70,0,0
380393,-87.8945265681183,4,1,0,70,0,0
380481,-87.7893056664007,4,1,0,70,0,0
380570,-87.6843363889996,4,1,0,70,0,0
380658,-87.5796178343949,4,1,0,70,0,0
380746,-87.4751491053678,4,1,0,70,0,0
380834,-87.3709293089754,4,1,0,70,0,0
380922,-87.2669575565252,4,1,0,70,0,0
381011,-87.1632329635499,4,1,0,70,0,0
381099,-87.0597546497824,4,1,0,70,0,0
381187,-86.9565217391304,4,1,0,70,0,0
381275,-87.6712328767123,4,1,0,70,0,0
381364,-88.3977900552486,4,1,0,70,0,0
381452,-89.1364902506964,4,1,0,70,0,0
381540,-89.8876404494382,4,1,0,70,0,0
381628,-90.6515580736544,4,1,0,70,0,0
381717,-91.4285714285714,4,1,0,70,0,0
381805,-92.2190201729107,4,1,0,70,0,0
381893,-93.0232558139535,4,1,0,70,0,0
381981,-93.841642228739,4,1,0,70,0,0
382070,-94.6745562130178,4,1,0,70,0,0
382158,-95.5223880597015,4,1,0,70,0,0
382246,-96.3855421686747,4,1,0,70,0,0
382334,-97.2644376899696,4,1,0,70,0,0
382422,-98.159509202454,4,1,0,70,0,0
382511,-99.0712074303406,4,1,0,70,0,0
382599,-100,4,1,0,70,0,0

[HitObjects]
256,192,1423,5,12,1:0:0:0:
256,192,2834,1,0,1:0:0:0:
256,192,3540,1,0,1:0:0:0:
256,192,4246,1,8,1:0:0:0:
256,192,5658,1,8,1:0:0:0:
256,192,6364,1,8,1:0:0:0:
256,192,7070,1,0,1:0:0:0:
256,192,8481,1,8,1:0:0:0:
256,192,9893,1,0,1:0:0:0:
256,192,10246,1,8,1:0:0:0:
256,192,10599,1,0,1:0:0:0:
256,192,10864,1,0,1:0:0:0:
256,192,11128,1,8,1:0:0:0:
256,192,12011,1,8,1:0:0:0:
256,192,12187,1,0,1:0:0:0:
256,192,12364,1,8,1:0:0:0:
256,192,12540,1,8,1:0:0:0:
256,192,12717,1,4,1:0:0:0:
256,192,13070,1,8,1:0:0:0:
256,192,13246,1,0,1:0:0:0:
256,192,13599,1,0,1:0:0:0:
256,192,13775,1,8,1:0:0:0:
256,192,13952,1,8,1:0:0:0:
256,192,14128,1,0,1:0:0:0:
256,192,14305,1,0,1:0:0:0:
256,192,14481,1,8,1:0:0:0:
256,192,14658,1,0,1:0:0:0:
256,192,15011,1,0,1:0:0:0:
256,192,15187,1,8,1:0:0:0:
256,192,15540,1,0,1:0:0:0:
256,192,15893,1,8,1:0:0:0:
256,192,16070,1,0,1:0:0:0:
256,192,16422,1,0,1:0:0:0:
256,192,16599,1,8,1:0:0:0:
256,192,16775,1,8,1:0:0:0:
256,192,16952,1,0,1:0:0:0:
256,192,17305,1,8,1:0:0:0:
256,192,17481,1,8,1:0:0:0:
256,192,17834,1,8,1:0:0:0:
256,192,18011,1,8,1:0:0:0:
256,192,18364,1,0,1:0:0:0:
256,192,18717,1,0,1:0:0:0:
256,192,19070,1,0,1:0:0:0:
256,192,19422,1,0,1:0:0:0:
256,192,19775,1,8,1:0:0:0:
256,192,20128,1,8,1:0:0:0:
256,192,20481,1,8,1:0:0:0:
256,192,20834,1,8,1:0:0:0:
256,192,21187,1,8,1:0:0:0:
256,192,21364,1,0,1:0:0:0:
256,192,21540,1,8,1:0:0:0:
256,192,21717,1,8,1:0:0:0:
256,192,21893,1,0,1:0:0:0:
256,192,22070,1,0,1:0:0:0:
256,192,22246,1,8,1:0:0:0:
256,192,22422,1,0,1:0:0:0:
256,192,22599,1,8,1:0:0:0:
256,192,22687,1,8,1:0:0:0:
256,192,22775,1,0,1:0:0:0:
256,192,22864,1,0,1:0:0:0:
256,192,22952,1,8,1:0:0:0:
256,192,23040,1,0,1:0:0:0:
256,192,23128,1,8,1:0:0:0:
256,192,23217,1,8,1:0:0:0:
256,192,23305,1,0,1:0:0:0:
256,192,23393,1,0,1:0:0:0:
256,192,23481,1,8,1:0:0:0:
256,192,23570,1,0,1:0:0:0:
256,192,23658,1,8,1:0:0:0:
256,192,23834,1,8,1:0:0:0:
256,192,23922,1,8,1:0:0:0:
159,147,24011,1,0,1:0:0:0:
125,230,24187,1,8,1:0:0:0:
125,230,24275,1,8,1:0:0:0:
125,230,24364,1,0,1:0:0:0:
125,230,24540,1,8,1:0:0:0:
125,230,24717,1,0,1:0:0:0:
200,118,24893,1,8,1:0:0:0:
47,84,24981,1,8,1:0:0:0:
200,118,25070,1,0,1:0:0:0:
125,230,25246,1,8,1:0:0:0:
125,230,25422,1,0,1:0:0:0:
200,118,25599,1,8,1:0:0:0:
200,118,25687,1,8,1:0:0:0:
125,230,25775,1,0,1:0:0:0:
125,230,25952,1,8,1:0:0:0:
125,230,26128,1,0,1:0:0:0:
200,118,26305,1,0,1:0:0:0:
92,51,26393,1,8,1:0:0:0:
196,108,26481,1,0,1:0:0:0:
125,230,26658,1,8,1:0:0:0:
125,230,26834,1,0,1:0:0:0:
196,108,27011,1,8,1:0:0:0:
195,105,27099,1,8,1:0:0:0:
125,230,27187,1,0,1:0:0:0:
193,103,27364,1,8,1:0:0:0:
125,230,27540,1,0,1:0:0:0:
193,103,27717,1,8,1:0:0:0:
193,103,27805,1,8,1:0:0:0:
125,230,27893,1,0,1:0:0:0:
125,230,28070,1,8,1:0:0:0:
125,230,28246,1,0,1:0:0:0:
187,92,28422,1,8,1:0:0:0:
187,92,28511,1,8,1:0:0:0:
125,230,28599,1,0,1:0:0:0:
125,230,28775,1,8,1:0:0:0:
125,230,28952,1,0,1:0:0:0:
12,60,29128,1,0,1:0:0:0:
125,230,29217,1,8,1:0:0:0:
76,61,29305,1,0,1:0:0:0:
76,61,29481,1,8,1:0:0:0:
159,147,29658,1,0,1:0:0:0:
125,230,29834,1,8,1:0:0:0:
125,230,29922,1,8,1:0:0:0:
125,230,30011,1,0,1:0:0:0:
125,230,30187,1,8,1:0:0:0:
125,230,30364,1,0,1:0:0:0:
200,118,30540,1,8,1:0:0:0:
47,84,30628,1,8,1:0:0:0:
200,118,30717,1,0,1:0:0:0:
125,230,30893,1,8,1:0:0:0:
125,230,31070,1,0,1:0:0:0:
200,118,31246,1,8,1:0:0:0:
200,118,31334,1,8,1:0:0:0:
125,230,31422,1,0,1:0:0:0:
125,230,31599,1,8,1:0:0:0:
125,230,31775,1,0,1:0:0:0:
200,118,31952,1,0,1:0:0:0:
92,51,32040,1,8,1:0:0:0:
196,108,32128,1,0,1:0:0:0:
125,230,32305,1,8,1:0:0:0:
125,230,32481,1,0,1:0:0:0:
196,108,32658,1,8,1:0:0:0:
195,105,32746,1,8,1:0:0:0:
125,230,32834,1,0,1:0:0:0:
193,103,33011,1,8,1:0:0:0:
125,230,33187,1,0,1:0:0:0:
193,103,33364,1,8,1:0:0:0:
193,103,33452,1,8,1:0:0:0:
125,230,33540,1,0,1:0:0:0:
125,230,33717,1,8,1:0:0:0:
125,230,33893,1,0,1:0:0:0:
187,92,34070,1,8,1:0:0:0:
187,92,34158,1,8,1:0:0:0:
125,230,34246,1,0,1:0:0:0:
125,230,34422,1,8,1:0:0:0:
125,230,34599,1,4,1:0:0:0:
125,230,34952,1,12,1:0:0:0:
159,147,35305,1,4,1:0:0:0:
125,230,35481,1,8,1:0:0:0:
125,230,35570,1,8,1:0:0:0:
125,230,35658,1,0,1:0:0:0:
125,230,35834,1,8,1:0:0:0:
125,230,36011,1,0,1:0:0:0:
200,118,36187,1,8,1:0:0:0:
47,84,36275,1,8,1:0:0:0:
200,118,36364,1,0,1:0:0:0:
125,230,36540,1,8,1:0:0:0:
125,230,36717,1,0,1:0:0:0:
200,118,36893,1,8,1:0:0:0:
200,118,36981,1,8,1:0:0:0:
125,230,37070,1,0,1:0:0:0:
125,230,37246,1,8,1:0:0:0:
125,230,37422,1,0,1:0:0:0:
200,118,37599,1,0,1:0:0:0:
92,51,37687,1,8,1:0:0:0:
196,108,37775,1,0,1:0:0:0:
125,230,37952,1,8,1:0:0:0:
125,230,38128,1,0,1:0:0:0:
196,108,38305,1,8,1:0:0:0:
195,105,38393,1,8,1:0:0:0:
125,230,38481,1,0,1:0:0:0:
193,103,38658,1,8,1:0:0:0:
125,230,38834,1,0,1:0:0:0:
193,103,39011,1,8,1:0:0:0:
193,103,39099,1,8,1:0:0:0:
125,230,39187,1,0,1:0:0:0:
125,230,39364,1,8,1:0:0:0:
125,230,39540,1,0,1:0:0:0:
187,92,39717,1,8,1:0:0:0:
187,92,39805,1,8,1:0:0:0:
125,230,39893,1,0,1:0:0:0:
125,230,40070,1,8,1:0:0:0:
125,230,40246,1,0,1:0:0:0:
12,60,40422,1,0,1:0:0:0:
125,230,40511,1,8,1:0:0:0:
76,61,40599,1,0,1:0:0:0:
76,61,40775,1,8,1:0:0:0:
159,147,40952,1,4,1:0:0:0:
125,230,41128,1,8,1:0:0:0:
125,230,41217,1,8,1:0:0:0:
125,230,41305,1,0,1:0:0:0:
125,230,41481,1,8,1:0:0:0:
125,230,41658,1,0,1:0:0:0:
200,118,41834,1,8,1:0:0:0:
47,84,41922,1,8,1:0:0:0:
200,118,42011,1,0,1:0:0:0:
125,230,42187,1,8,1:0:0:0:
125,230,42364,1,4,1:0:0:0:
200,118,42540,1,8,1:0:0:0:
200,118,42628,1,8,1:0:0:0:
125,230,42717,1,0,1:0:0:0:
125,230,42893,1,8,1:0:0:0:
125,230,43070,1,0,1:0:0:0:
200,118,43246,1,0,1:0:0:0:
92,51,43334,1,8,1:0:0:0:
196,108,43422,1,0,1:0:0:0:
125,230,43599,1,8,1:0:0:0:
125,230,43775,1,4,1:0:0:0:
196,108,43952,1,8,1:0:0:0:
195,105,44040,1,8,1:0:0:0:
125,230,44128,1,0,1:0:0:0:
193,103,44305,1,8,1:0:0:0:
125,230,44481,1,4,1:0:0:0:
193,103,44658,1,8,1:0:0:0:
193,103,44746,1,8,1:0:0:0:
125,230,44834,1,0,1:0:0:0:
125,230,45011,1,8,1:0:0:0:
125,230,45187,1,0,1:0:0:0:
226,138,45275,1,0,1:0:0:0:
226,138,45364,1,0,1:0:0:0:
226,138,45452,1,0,1:0:0:0:
226,138,45540,1,8,1:0:0:0:
309,145,45717,1,0,1:0:0:0:
309,145,45805,1,8,1:0:0:0:
309,145,45981,1,0,1:0:0:0:
309,145,46070,1,0,1:0:0:0:
309,145,46246,1,12,1:0:0:0:
159,147,46599,1,4,1:0:0:0:
125,230,46775,1,8,1:0:0:0:
125,230,46864,1,8,1:0:0:0:
125,230,46952,1,0,1:0:0:0:
125,230,47128,1,8,1:0:0:0:
125,230,47305,1,0,1:0:0:0:
200,118,47481,1,8,1:0:0:0:
47,84,47570,1,8,1:0:0:0:
200,118,47658,1,0,1:0:0:0:
125,230,47834,1,8,1:0:0:0:
125,230,48011,1,0,1:0:0:0:
200,118,48187,1,8,1:0:0:0:
200,118,48275,1,8,1:0:0:0:
125,230,48364,1,0,1:0:0:0:
125,230,48540,1,8,1:0:0:0:
322,164,48717,1,0,1:0:0:0:
200,118,48893,1,0,1:0:0:0:
92,51,48981,1,8,1:0:0:0:
196,108,49070,1,0,1:0:0:0:
125,230,49246,1,8,1:0:0:0:
125,230,49422,1,0,1:0:0:0:
196,108,49599,1,8,1:0:0:0:
195,105,49687,1,8,1:0:0:0:
125,230,49775,1,0,1:0:0:0:
193,103,49952,1,8,1:0:0:0:
125,230,50128,1,0,1:0:0:0:
193,103,50305,1,8,1:0:0:0:
193,103,50393,1,8,1:0:0:0:
125,230,50481,1,0,1:0:0:0:
125,230,50658,1,8,1:0:0:0:
125,230,50834,1,0,1:0:0:0:
187,92,51011,1,8,1:0:0:0:
187,92,51099,1,8,1:0:0:0:
125,230,51187,1,0,1:0:0:0:
125,230,51364,1,8,1:0:0:0:
125,230,51540,1,4,1:0:0:0:
76,61,51893,1,12,1:0:0:0:
159,147,52246,1,4,1:0:0:0:
125,230,52422,1,8,1:0:0:0:
125,230,52511,1,8,1:0:0:0:
125,230,52599,1,0,1:0:0:0:
125,230,52775,1,8,1:0:0:0:
125,230,52952,1,0,1:0:0:0:
200,118,53128,1,8,1:0:0:0:
47,84,53217,1,8,1:0:0:0:
200,118,53305,1,0,1:0:0:0:
125,230,53481,1,8,1:0:0:0:
125,230,53658,1,0,1:0:0:0:
200,118,53834,1,8,1:0:0:0:
200,118,53922,1,8,1:0:0:0:
125,230,54011,1,0,1:0:0:0:
125,230,54187,1,8,1:0:0:0:
125,230,54364,1,0,1:0:0:0:
200,118,54540,1,0,1:0:0:0:
92,51,54628,1,8,1:0:0:0:
196,108,54717,1,0,1:0:0:0:
125,230,54893,1,8,1:0:0:0:
125,230,55070,1,0,1:0:0:0:
196,108,55246,1,8,1:0:0:0:
195,105,55334,1,8,1:0:0:0:
125,230,55422,1,0,1:0:0:0:
193,103,55599,1,8,1:0:0:0:
125,230,55775,1,0,1:0:0:0:
193,103,55952,1,8,1:0:0:0:
193,103,56040,1,8,1:0:0:0:
125,230,56128,1,0,1:0:0:0:
125,230,56305,1,8,1:0:0:0:
125,230,56481,1,0,1:0:0:0:
187,92,56658,1,8,1:0:0:0:
187,92,56746,1,8,1:0:0:0:
125,230,56834,1,0,1:0:0:0:
125,230,57011,1,8,1:0:0:0:
125,230,57187,1,4,1:0:0:0:
125,230,57540,1,12,1:0:0:0:
159,147,57893,1,4,1:0:0:0:
125,230,58070,1,8,1:0:0:0:
125,230,58158,1,8,1:0:0:0:
125,230,58246,1,0,1:0:0:0:
125,230,58422,1,8,1:0:0:0:
125,230,58599,1,0,1:0:0:0:
200,118,58775,1,8,1:0:0:0:
47,84,58864,1,8,1:0:0:0:
200,118,58952,1,0,1:0:0:0:
125,230,59128,1,8,1:0:0:0:
125,230,59305,1,0,1:0:0:0:
200,118,59481,1,8,1:0:0:0:
200,118,59570,1,8,1:0:0:0:
125,230,59658,1,0,1:0:0:0:
125,230,59834,1,8,1:0:0:0:
125,230,60011,1,0,1:0:0:0:
388,126,60099,1,0,1:0:0:0:
200,118,60187,1,0,1:0:0:0:
92,51,60275,1,8,1:0:0:0:
196,108,60364,1,0,1:0:0:0:
125,230,60540,1,8,1:0:0:0:
125,230,60717,1,4,1:0:0:0:
196,108,60893,1,8,1:0:0:0:
195,105,60981,1,8,1:0:0:0:
125,230,61070,1,0,1:0:0:0:
193,103,61246,1,8,1:0:0:0:
125,230,61422,1,0,1:0:0:0:
193,103,61599,1,8,1:0:0:0:
193,103,61687,1,8,1:0:0:0:
125,230,61775,1,0,1:0:0:0:
125,230,61952,1,8,1:0:0:0:
125,230,62128,1,0,1:0:0:0:
187,92,62305,1,0,1:0:0:0:
187,92,62393,1,0,1:0:0:0:
125,230,62481,1,8,1:0:0:0:
125,230,62658,1,8,1:0:0:0:
125,230,62834,1,0,1:0:0:0:
12,60,63011,1,8,1:0:0:0:
125,230,63099,1,0,1:0:0:0:
76,61,63187,1,8,1:0:0:0:
76,61,63364,1,0,1:0:0:0:
159,147,63540,1,12,1:0:0:0:
312,132,63717,1,0,1:0:0:0:
312,132,63893,1,8,1:0:0:0:
312,132,64070,1,0,1:0:0:0:
179,65,64158,1,0,1:0:0:0:
312,132,64246,1,8,1:0:0:0:
312,132,64422,1,0,1:0:0:0:
312,132,64599,1,8,1:0:0:0:
129,119,64687,1,8,1:0:0:0:
312,132,64775,1,0,1:0:0:0:
312,132,64952,1,12,1:0:0:0:
312,132,65128,1,0,1:0:0:0:
312,132,65305,1,8,1:0:0:0:
312,132,65481,1,0,1:0:0:0:
187,187,65570,1,0,1:0:0:0:
312,132,65658,1,8,1:0:0:0:
312,132,65834,1,0,1:0:0:0:
312,132,66011,1,8,1:0:0:0:
281,182,66099,1,8,1:0:0:0:
312,132,66187,1,0,1:0:0:0:
312,132,66364,1,12,1:0:0:0:
312,132,66540,1,0,1:0:0:0:
194,63,66628,1,0,1:0:0:0:
312,132,66717,1,8,1:0:0:0:
194,63,66805,1,0,1:0:0:0:
312,132,66893,1,8,1:0:0:0:
312,132,66981,1,8,1:0:0:0:
312,132,67070,1,0,1:0:0:0:
312,132,67158,1,0,1:0:0:0:
312,132,67246,1,0,1:0:0:0:
312,132,67334,1,0,1:0:0:0:
102,42,67422,1,8,1:0:0:0:
98,52,67511,1,8,1:0:0:0:
125,230,67599,1,8,1:0:0:0:
125,230,67687,1,8,1:0:0:0:
256,192,67775,1,0,1:0:0:0:
256,192,67864,1,0,1:0:0:0:
256,192,67952,1,8,1:0:0:0:
256,192,68040,1,0,1:0:0:0:
256,192,68128,1,8,1:0:0:0:
256,192,68217,1,8,1:0:0:0:
256,192,68305,1,0,1:0:0:0:
256,192,68393,1,8,1:0:0:0:
256,192,68481,1,0,1:0:0:0:
256,192,68570,1,0,1:0:0:0:
256,192,68658,1,0,1:0:0:0:
309,145,68834,1,12,1:0:0:0:
256,192,69187,1,4,1:0:0:0:
256,192,69364,1,8,1:0:0:0:
256,192,69540,1,8,1:0:0:0:
256,192,69717,1,0,1:0:0:0:
256,192,69805,1,8,1:0:0:0:
256,192,69981,1,8,1:0:0:0:
256,192,70158,1,0,1:0:0:0:
256,192,70246,1,8,1:0:0:0:
256,192,70422,1,0,1:0:0:0:
256,192,70599,1,0,1:0:0:0:
256,192,70687,1,0,1:0:0:0:
256,192,70775,1,8,1:0:0:0:
256,192,70952,1,0,1:0:0:0:
256,192,71128,1,0,1:0:0:0:
256,192,71217,1,8,1:0:0:0:
256,192,71393,1,8,1:0:0:0:
256,192,71570,1,0,1:0:0:0:
256,192,71658,1,8,1:0:0:0:
256,192,71834,1,8,1:0:0:0:
256,192,72011,1,0,1:0:0:0:
256,192,72099,1,0,1:0:0:0:
256,192,72187,1,8,1:0:0:0:
256,192,72364,1,8,1:0:0:0:
256,192,72540,1,0,1:0:0:0:
256,192,72628,1,8,1:0:0:0:
256,192,72805,1,8,1:0:0:0:
256,192,72981,1,0,1:0:0:0:
256,191,73070,1,8,1:0:0:0:
256,191,73246,1,0,1:0:0:0:
256,191,73422,1,8,1:0:0:0:
256,191,73599,1,0,1:0:0:0:
256,191,73687,1,0,1:0:0:0:
256,191,73775,1,8,1:0:0:0:
256,191,73952,1,0,1:0:0:0:
256,192,74128,1,8,1:0:0:0:
256,191,74217,1,8,1:0:0:0:
256,191,74305,1,0,1:0:0:0:
256,191,74481,1,8,1:0:0:0:
256,191,74834,1,4,1:0:0:0:
256,191,75011,1,8,1:0:0:0:
256,191,75099,1,0,1:0:0:0:
256,190,75187,1,8,1:0:0:0:
256,190,75364,1,0,1:0:0:0:
256,190,75452,1,8,1:0:0:0:
256,190,75628,1,8,1:0:0:0:
256,190,75805,1,0,1:0:0:0:
256,192,75893,1,8,1:0:0:0:
256,192,76070,1,0,1:0:0:0:
256,192,76246,1,0,1:0:0:0:
257,192,76422,1,8,1:0:0:0:
257,192,76511,1,0,1:0:0:0:
257,192,76599,1,8,1:0:0:0:
257,192,76775,1,0,1:0:0:0:
257,192,76864,1,8,1:0:0:0:
257,192,77040,1,8,1:0:0:0:
257,192,77217,1,0,1:0:0:0:
257,192,77305,1,8,1:0:0:0:
257,192,77481,1,8,1:0:0:0:
256,192,77658,1,0,1:0:0:0:
256,192,77746,1,0,1:0:0:0:
257,192,77834,1,8,1:0:0:0:
257,192,77922,1,0,1:0:0:0:
257,192,78011,1,8,1:0:0:0:
257,192,78187,1,0,1:0:0:0:
257,192,78275,1,8,1:0:0:0:
257,192,78452,1,8,1:0:0:0:
257,192,78628,1,0,1:0:0:0:
257,192,78717,1,8,1:0:0:0:
257,192,78893,1,8,1:0:0:0:
257,192,79070,1,0,1:0:0:0:
257,192,79158,1,0,1:0:0:0:
256,192,79246,1,0,1:0:0:0:
257,192,79334,1,0,1:0:0:0:
257,192,79422,1,8,1:0:0:0:
257,192,79599,1,0,1:0:0:0:
257,192,79687,1,8,1:0:0:0:
257,192,79864,1,0,1:0:0:0:
257,192,79952,1,0,1:0:0:0:
257,192,80128,1,12,1:0:0:0:
256,192,80481,1,4,1:0:0:0:
256,192,80658,1,8,1:0:0:0:
256,192,80746,1,0,1:0:0:0:
256,192,80834,1,8,1:0:0:0:
256,192,81011,1,0,1:0:0:0:
256,192,81099,1,8,1:0:0:0:
256,192,81275,1,8,1:0:0:0:
256,192,81452,1,0,1:0:0:0:
256,192,81540,1,8,1:0:0:0:
256,192,81717,1,0,1:0:0:0:
256,192,81893,1,0,1:0:0:0:
256,192,82070,1,8,1:0:0:0:
256,192,82246,1,8,1:0:0:0:
256,192,82422,1,0,1:0:0:0:
256,192,82511,1,8,1:0:0:0:
256,192,82687,1,8,1:0:0:0:
256,192,82864,1,0,1:0:0:0:
256,192,82952,1,8,1:0:0:0:
256,192,83128,1,8,1:0:0:0:
256,192,83305,1,0,1:0:0:0:
256,192,83393,1,0,1:0:0:0:
256,192,83481,1,8,1:0:0:0:
256,192,83570,1,0,1:0:0:0:
256,192,83658,1,8,1:0:0:0:
256,192,83834,1,0,1:0:0:0:
256,192,83922,1,8,1:0:0:0:
256,192,84099,1,8,1:0:0:0:
256,192,84275,1,0,1:0:0:0:
256,191,84364,1,8,1:0:0:0:
256,191,84540,1,0,1:0:0:0:
256,191,84717,1,8,1:0:0:0:
256,191,84893,1,0,1:0:0:0:
256,191,84981,1,0,1:0:0:0:
256,191,85070,1,8,1:0:0:0:
256,191,85246,1,0,1:0:0:0:
256,192,85422,1,8,1:0:0:0:
256,191,85511,1,8,1:0:0:0:
256,191,85599,1,0,1:0:0:0:
256,191,85775,1,8,1:0:0:0:
256,191,86128,1,4,1:0:0:0:
256,191,86305,1,8,1:0:0:0:
256,191,86393,1,8,1:0:0:0:
256,190,86481,1,0,1:0:0:0:
256,190,86658,1,8,1:0:0:0:
256,190,86746,1,0,1:0:0:0:
256,190,86922,1,8,1:0:0:0:
256,190,87099,1,0,1:0:0:0:
256,192,87187,1,8,1:0:0:0:
256,192,87364,1,0,1:0:0:0:
256,192,87540,1,8,1:0:0:0:
256,192,87628,1,8,1:0:0:0:
257,192,87717,1,0,1:0:0:0:
257,192,87805,1,0,1:0:0:0:
257,192,87893,1,8,1:0:0:0:
257,192,88070,1,0,1:0:0:0:
257,192,88158,1,8,1:0:0:0:
257,192,88334,1,8,1:0:0:0:
257,192,88511,1,0,1:0:0:0:
257,192,88599,1,8,1:0:0:0:
257,192,88775,1,8,1:0:0:0:
256,192,88952,1,0,1:0:0:0:
256,192,89040,1,0,1:0:0:0:
257,192,89128,1,8,1:0:0:0:
257,192,89217,1,0,1:0:0:0:
257,192,89305,1,8,1:0:0:0:
257,192,89481,1,0,1:0:0:0:
257,192,89570,1,8,1:0:0:0:
257,192,89746,1,8,1:0:0:0:
257,192,89922,1,0,1:0:0:0:
257,192,90011,1,8,1:0:0:0:
257,192,90099,1,0,1:0:0:0:
257,192,90187,1,8,1:0:0:0:
257,192,90275,1,8,1:0:0:0:
257,192,90364,1,0,1:0:0:0:
256,192,90540,1,0,1:0:0:0:
257,192,90628,1,0,1:0:0:0:
257,192,90717,1,8,1:0:0:0:
257,192,90893,1,8,1:0:0:0:
257,192,90981,1,8,1:0:0:0:
257,192,91070,1,0,1:0:0:0:
257,192,91158,1,8,1:0:0:0:
257,192,91246,1,0,1:0:0:0:
257,192,91422,1,12,1:0:0:0:
256,192,91775,1,4,1:0:0:0:
256,192,92128,1,0,1:0:0:0:
256,192,92305,1,0,1:0:0:0:
256,192,92481,1,8,1:0:0:0:
256,192,92658,1,0,1:0:0:0:
256,192,92834,1,0,1:0:0:0:
256,192,93011,1,8,1:0:0:0:
256,192,93364,1,0,1:0:0:0:
256,192,93540,1,0,1:0:0:0:
256,192,93893,1,8,1:0:0:0:
256,192,94070,1,0,1:0:0:0:
256,192,94246,1,0,1:0:0:0:
256,192,94422,1,8,1:0:0:0:
256,192,94599,1,0,1:0:0:0:
256,192,94952,1,0,1:0:0:0:
256,192,95128,1,0,1:0:0:0:
256,192,95305,1,8,1:0:0:0:
256,192,95481,1,0,1:0:0:0:
256,192,95658,1,0,1:0:0:0:
256,192,95834,1,8,1:0:0:0:
256,192,96187,1,0,1:0:0:0:
256,192,96364,1,8,1:0:0:0:
256,192,96540,1,0,1:0:0:0:
256,192,96628,1,0,1:0:0:0:
256,192,96717,1,0,1:0:0:0:
256,192,96893,1,12,1:0:0:0:
256,192,97070,1,12,1:0:0:0:
256,192,97422,1,4,1:0:0:0:
256,192,97599,1,8,1:0:0:0:
256,192,97687,1,8,1:0:0:0:
256,192,97775,1,0,1:0:0:0:
256,192,97952,1,8,1:0:0:0:
256,192,98040,1,8,1:0:0:0:
256,192,98128,1,0,1:0:0:0:
256,192,98217,1,8,1:0:0:0:
256,192,98393,1,0,1:0:0:0:
256,192,98481,1,8,1:0:0:0:
256,192,98658,1,8,1:0:0:0:
256,192,98834,1,0,1:0:0:0:
256,192,98922,1,0,1:0:0:0:
256,192,99011,1,8,1:0:0:0:
256,192,99187,1,0,1:0:0:0:
256,192,99364,1,8,1:0:0:0:
256,192,99452,1,0,1:0:0:0:
256,192,99540,1,8,1:0:0:0:
256,192,99628,1,8,1:0:0:0:
256,192,99805,1,0,1:0:0:0:
256,192,99893,1,8,1:0:0:0:
256,192,100070,1,8,1:0:0:0:
256,192,100246,1,0,1:0:0:0:
256,192,100334,1,0,1:0:0:0:
256,192,100422,1,0,1:0:0:0:
256,192,100511,1,0,1:0:0:0:
256,192,100599,1,8,1:0:0:0:
256,192,100687,1,8,1:0:0:0:
256,192,100775,1,0,1:0:0:0:
256,192,100864,1,0,1:0:0:0:
256,192,100952,1,8,1:0:0:0:
256,192,101040,1,0,1:0:0:0:
256,192,101128,1,8,1:0:0:0:
256,192,101217,1,8,1:0:0:0:
256,192,101305,1,0,1:0:0:0:
256,192,101393,1,0,1:0:0:0:
256,192,101481,1,8,1:0:0:0:
256,192,101570,1,8,1:0:0:0:
256,192,101658,1,0,1:0:0:0:
256,192,101834,1,0,1:0:0:0:
256,192,101922,1,0,1:0:0:0:
256,192,102011,1,8,1:0:0:0:
256,192,102187,1,0,1:0:0:0:
256,192,102275,1,8,1:0:0:0:
256,192,102452,1,0,1:0:0:0:
256,192,102540,1,0,1:0:0:0:
256,192,102717,1,12,1:0:0:0:
198,150,103070,1,4,1:0:0:0:
198,150,103246,1,0,1:0:0:0:
198,150,103334,1,0,1:0:0:0:
198,150,103422,1,8,1:0:0:0:
198,150,103599,1,0,1:0:0:0:
198,150,103775,1,8,1:0:0:0:
64,64,103864,1,0,1:0:0:0:
64,64,104040,1,0,1:0:0:0:
198,150,104128,1,8,1:0:0:0:
198,150,104305,1,8,1:0:0:0:
198,150,104481,1,0,1:0:0:0:
198,150,104658,1,8,1:0:0:0:
198,150,104746,1,0,1:0:0:0:
198,150,104834,1,8,1:0:0:0:
198,150,105011,1,0,1:0:0:0:
198,150,105187,1,8,1:0:0:0:
198,150,105275,1,8,1:0:0:0:
198,150,105364,1,0,1:0:0:0:
356,96,105540,1,8,1:0:0:0:
198,150,105717,1,0,1:0:0:0:
198,150,105893,1,8,1:0:0:0:
198,150,106070,1,0,1:0:0:0:
198,150,106158,1,0,1:0:0:0:
67,91,106246,1,8,1:0:0:0:
198,150,106422,1,0,1:0:0:0:
198,150,106599,1,8,1:0:0:0:
198,150,106687,1,0,1:0:0:0:
30,123,106775,1,0,1:0:0:0:
198,150,106864,1,0,1:0:0:0:
198,150,106952,1,8,1:0:0:0:
198,150,107128,1,8,1:0:0:0:
198,150,107305,1,0,1:0:0:0:
198,150,107481,1,8,1:0:0:0:
198,150,107570,1,8,1:0:0:0:
198,150,107658,1,0,1:0:0:0:
198,150,107834,1,8,1:0:0:0:
198,150,108011,1,0,1:0:0:0:
198,150,108099,1,0,1:0:0:0:
198,150,108275,1,8,1:0:0:0:
198,150,108364,1,0,1:0:0:0:
198,150,108540,1,8,1:0:0:0:
198,150,108628,1,8,1:0:0:0:
198,150,108717,1,0,1:0:0:0:
198,150,108893,1,8,1:0:0:0:
198,150,109070,1,0,1:0:0:0:
198,150,109246,1,8,1:0:0:0:
198,150,109422,1,0,1:0:0:0:
9,85,109511,1,0,1:0:0:0:
198,150,109599,1,8,1:0:0:0:
198,150,109775,1,0,1:0:0:0:
198,150,109952,1,8,1:0:0:0:
198,150,110040,1,0,1:0:0:0:
86,112,110128,1,0,1:0:0:0:
198,150,110305,1,8,1:0:0:0:
198,150,110481,1,0,1:0:0:0:
198,150,110658,1,8,1:0:0:0:
198,150,110834,1,0,1:0:0:0:
156,17,110922,1,8,1:0:0:0:
198,150,111011,1,0,1:0:0:0:
198,150,111187,1,8,1:0:0:0:
198,150,111364,1,0,1:0:0:0:
198,150,111540,1,8,1:0:0:0:
198,150,111717,1,0,1:0:0:0:
85,79,111805,1,0,1:0:0:0:
198,150,111893,1,8,1:0:0:0:
198,150,112070,1,0,1:0:0:0:
198,150,112246,1,8,1:0:0:0:
198,150,112422,1,0,1:0:0:0:
198,150,112511,1,8,1:0:0:0:
78,121,112687,1,0,1:0:0:0:
198,150,112775,1,8,1:0:0:0:
198,150,112952,1,0,1:0:0:0:
51,116,113040,1,0,1:0:0:0:
198,150,113128,1,8,1:0:0:0:
51,116,113217,1,0,1:0:0:0:
198,150,113305,1,8,1:0:0:0:
198,150,113481,1,0,1:0:0:0:
198,150,113658,1,8,1:0:0:0:
198,150,113834,1,8,1:0:0:0:
198,150,114011,1,0,1:0:0:0:
198,150,114187,1,0,1:0:0:0:
198,150,114364,1,12,1:0:0:0:
198,150,114540,1,0,1:0:0:0:
198,150,114628,1,0,1:0:0:0:
198,150,114717,1,8,1:0:0:0:
198,150,114893,1,0,1:0:0:0:
198,150,115070,1,8,1:0:0:0:
64,64,115158,1,0,1:0:0:0:
64,64,115334,1,0,1:0:0:0:
198,150,115422,1,8,1:0:0:0:
198,150,115599,1,8,1:0:0:0:
198,150,115775,1,0,1:0:0:0:
198,150,115952,1,8,1:0:0:0:
198,150,116040,1,0,1:0:0:0:
198,150,116128,1,8,1:0:0:0:
198,150,116305,1,0,1:0:0:0:
198,150,116481,1,8,1:0:0:0:
198,150,116570,1,8,1:0:0:0:
198,150,116658,1,0,1:0:0:0:
356,96,116834,1,8,1:0:0:0:
198,150,117011,1,0,1:0:0:0:
294,93,117099,1,0,1:0:0:0:
198,150,117187,1,8,1:0:0:0:
198,150,117364,1,0,1:0:0:0:
198,150,117452,1,0,1:0:0:0:
67,91,117540,1,8,1:0:0:0:
198,150,117717,1,0,1:0:0:0:
198,150,117893,1,8,1:0:0:0:
198,150,117981,1,0,1:0:0:0:
30,123,118070,1,0,1:0:0:0:
198,150,118158,1,0,1:0:0:0:
198,150,118246,1,8,1:0:0:0:
198,150,118422,1,8,1:0:0:0:
198,150,118599,1,0,1:0:0:0:
198,150,118775,1,8,1:0:0:0:
198,150,118864,1,8,1:0:0:0:
198,150,118952,1,0,1:0:0:0:
198,150,119128,1,8,1:0:0:0:
198,150,119305,1,0,1:0:0:0:
198,150,119393,1,0,1:0:0:0:
198,150,119570,1,8,1:0:0:0:
198,150,119658,1,0,1:0:0:0:
198,150,119834,1,8,1:0:0:0:
198,150,119922,1,8,1:0:0:0:
198,150,120011,1,0,1:0:0:0:
198,150,120187,1,8,1:0:0:0:
198,150,120364,1,0,1:0:0:0:
198,150,120540,1,8,1:0:0:0:
198,150,120717,1,0,1:0:0:0:
9,85,120805,1,0,1:0:0:0:
198,150,120981,1,8,1:0:0:0:
198,150,121070,1,0,1:0:0:0:
198,150,121246,1,8,1:0:0:0:
198,150,121334,1,0,1:0:0:0:
86,112,121422,1,0,1:0:0:0:
198,150,121599,1,8,1:0:0:0:
198,150,121775,1,0,1:0:0:0:
198,150,121952,1,8,1:0:0:0:
198,150,122128,1,0,1:0:0:0:
156,17,122217,1,8,1:0:0:0:
198,150,122393,1,8,1:0:0:0:
198,150,122481,1,0,1:0:0:0:
198,150,122658,1,0,1:0:0:0:
198,150,122834,1,8,1:0:0:0:
198,150,123011,1,8,1:0:0:0:
198,150,123187,1,0,1:0:0:0:
198,150,123364,1,0,1:0:0:0:
198,150,123540,1,8,1:0:0:0:
198,150,123717,1,0,1:0:0:0:
198,150,123893,1,8,1:0:0:0:
78,121,123981,1,8,1:0:0:0:
198,150,124070,1,8,1:0:0:0:
198,150,124158,1,8,1:0:0:0:
51,116,124246,1,0,1:0:0:0:
198,150,124422,1,0,1:0:0:0:
51,116,124511,1,0,1:0:0:0:
198,150,124599,1,8,1:0:0:0:
102,87,124775,1,0,1:0:0:0:
198,150,124864,1,8,1:0:0:0:
198,150,125040,1,0,1:0:0:0:
198,150,125128,1,0,1:0:0:0:
198,150,125305,1,12,1:0:0:0:
159,147,125658,1,4,1:0:0:0:
125,230,125834,1,8,1:0:0:0:
125,230,125922,1,8,1:0:0:0:
125,230,126011,1,0,1:0:0:0:
125,230,126187,1,8,1:0:0:0:
125,230,126364,1,0,1:0:0:0:
200,118,126540,1,8,1:0:0:0:
47,84,126628,1,8,1:0:0:0:
200,118,126717,1,0,1:0:0:0:
125,230,126893,1,8,1:0:0:0:
125,230,127070,1,0,1:0:0:0:
200,118,127246,1,8,1:0:0:0:
200,118,127334,1,8,1:0:0:0:
125,230,127422,1,0,1:0:0:0:
125,230,127599,1,8,1:0:0:0:
125,230,127775,1,0,1:0:0:0:
200,118,127952,1,0,1:0:0:0:
92,51,128040,1,8,1:0:0:0:
196,108,128128,1,0,1:0:0:0:
125,230,128305,1,8,1:0:0:0:
125,230,128481,1,4,1:0:0:0:
196,108,128658,1,8,1:0:0:0:
195,105,128746,1,8,1:0:0:0:
125,230,128834,1,0,1:0:0:0:
193,103,129011,1,8,1:0:0:0:
125,230,129187,1,0,1:0:0:0:
193,103,129364,1,8,1:0:0:0:
193,103,129452,1,8,1:0:0:0:
125,230,129540,1,0,1:0:0:0:
125,230,129717,1,8,1:0:0:0:
125,230,129893,1,0,1:0:0:0:
187,92,130070,1,8,1:0:0:0:
187,92,130158,1,0,1:0:0:0:
125,230,130246,1,8,1:0:0:0:
125,230,130422,1,8,1:0:0:0:
125,230,130599,1,0,1:0:0:0:
299,132,130775,1,12,1:0:0:0:
76,61,130952,1,12,1:0:0:0:
159,147,131305,1,4,1:0:0:0:
125,230,131481,1,0,1:0:0:0:
125,230,131658,1,8,1:0:0:0:
273,103,131717,1,8,1:0:0:0:
273,103,131775,1,8,1:0:0:0:
125,230,131834,1,0,1:0:0:0:
258,76,131922,1,0,1:0:0:0:
125,230,132011,1,8,1:0:0:0:
331,132,132070,1,0,1:0:0:0:
200,118,132128,1,0,1:0:0:0:
47,84,132187,1,8,1:0:0:0:
200,118,132364,1,0,1:0:0:0:
135,134,132452,1,0,1:0:0:0:
200,118,132540,1,8,1:0:0:0:
200,118,132628,1,0,1:0:0:0:
125,230,132717,1,8,1:0:0:0:
273,103,132775,1,8,1:0:0:0:
273,103,132834,1,8,1:0:0:0:
125,230,132893,1,0,1:0:0:0:
125,230,132981,1,0,1:0:0:0:
125,230,133070,1,8,1:0:0:0:
273,103,133128,1,8,1:0:0:0:
273,103,133187,1,8,1:0:0:0:
125,230,133246,1,0,1:0:0:0:
125,230,133422,1,8,1:0:0:0:
331,132,133481,1,8,1:0:0:0:
47,84,133540,1,8,1:0:0:0:
372,187,133599,1,0,1:0:0:0:
372,187,133687,1,0,1:0:0:0:
125,230,133775,1,8,1:0:0:0:
273,103,133834,1,8,1:0:0:0:
273,103,133893,1,8,1:0:0:0:
372,187,133952,1,0,1:0:0:0:
125,230,134128,1,8,1:0:0:0:
125,230,134217,1,0,1:0:0:0:
195,105,134305,1,8,1:0:0:0:
125,230,134393,1,0,1:0:0:0:
73,72,134481,1,8,1:0:0:0:
123,106,134540,1,8,1:0:0:0:
123,106,134599,1,8,1:0:0:0:
193,103,134658,1,0,1:0:0:0:
342,106,134746,1,0,1:0:0:0:
125,230,134834,1,8,1:0:0:0:
193,103,134893,1,8,1:0:0:0:
193,103,134952,1,8,1:0:0:0:
111,96,135011,1,0,1:0:0:0:
111,96,135099,1,0,1:0:0:0:
125,230,135187,1,8,1:0:0:0:
173,71,135275,1,0,1:0:0:0:
193,103,135364,1,8,1:0:0:0:
111,96,135422,1,8,1:0:0:0:
111,96,135481,1,8,1:0:0:0:
125,230,135540,1,0,1:0:0:0:
125,230,135717,1,0,1:0:0:0:
125,230,135805,1,0,1:0:0:0:
256,192,135893,1,8,1:0:0:0:
78,87,136070,1,0,1:0:0:0:
256,192,136158,1,8,1:0:0:0:
9,144,136334,1,0,1:0:0:0:
9,144,136422,1,0,1:0:0:0:
256,192,136599,1,12,1:0:0:0:
256,192,136952,1,4,1:0:0:0:
256,192,137128,1,0,1:0:0:0:
256,192,137217,1,0,1:0:0:0:
256,192,137305,1,8,1:0:0:0:
256,192,137393,1,0,1:0:0:0:
256,192,137481,1,8,1:0:0:0:
256,192,137570,1,0,1:0:0:0:
256,192,137658,1,8,1:0:0:0:
256,192,137717,1,8,1:0:0:0:
256,192,137775,1,8,1:0:0:0:
256,192,137834,1,0,1:0:0:0:
256,192,137922,1,8,1:0:0:0:
256,192,138011,1,0,1:0:0:0:
256,192,138187,1,8,1:0:0:0:
256,192,138275,1,0,1:0:0:0:
256,192,138364,1,8,1:0:0:0:
256,192,138422,1,8,1:0:0:0:
256,192,138481,1,8,1:0:0:0:
256,192,138540,1,0,1:0:0:0:
256,192,138628,1,0,1:0:0:0:
256,192,138717,1,8,1:0:0:0:
256,192,138893,1,0,1:0:0:0:
256,192,138981,1,0,1:0:0:0:
256,192,139070,1,8,1:0:0:0:
256,192,139158,1,0,1:0:0:0:
256,192,139246,1,0,1:0:0:0:
256,192,139334,1,0,1:0:0:0:
256,192,139422,1,8,1:0:0:0:
256,192,139599,1,0,1:0:0:0:
256,192,139775,1,8,1:0:0:0:
256,192,139834,1,8,1:0:0:0:
256,192,139893,1,8,1:0:0:0:
256,192,139952,1,0,1:0:0:0:
256,192,140040,1,0,1:0:0:0:
256,192,140128,1,8,1:0:0:0:
256,192,140217,1,0,1:0:0:0:
256,192,140305,1,8,1:0:0:0:
256,192,140393,1,0,1:0:0:0:
256,192,140481,1,8,1:0:0:0:
256,192,140540,1,8,1:0:0:0:
256,192,140599,1,8,1:0:0:0:
256,192,140658,1,0,1:0:0:0:
256,192,140834,1,0,1:0:0:0:
256,192,140922,1,0,1:0:0:0:
256,192,141011,1,8,1:0:0:0:
256,192,141099,1,0,1:0:0:0:
256,192,141187,1,8,1:0:0:0:
256,192,141246,1,8,1:0:0:0:
256,192,141305,1,8,1:0:0:0:
256,192,141364,1,0,1:0:0:0:
256,192,141452,1,0,1:0:0:0:
256,192,141540,1,8,1:0:0:0:
256,192,141717,1,0,1:0:0:0:
256,192,141775,1,0,1:0:0:0:
256,192,141834,1,0,1:0:0:0:
256,192,141893,1,8,1:0:0:0:
256,192,141981,1,0,1:0:0:0:
256,192,142070,1,0,1:0:0:0:
256,192,142246,1,12,1:0:0:0:
256,192,142599,1,4,1:0:0:0:
256,192,142775,1,0,1:0:0:0:
256,192,142864,1,0,1:0:0:0:
256,192,142952,1,8,1:0:0:0:
256,192,143040,1,0,1:0:0:0:
256,192,143128,1,8,1:0:0:0:
256,192,143217,1,0,1:0:0:0:
256,192,143305,1,8,1:0:0:0:
256,192,143364,1,8,1:0:0:0:
256,192,143422,1,8,1:0:0:0:
256,192,143481,1,0,1:0:0:0:
256,192,143570,1,8,1:0:0:0:
256,192,143658,1,0,1:0:0:0:
256,192,143834,1,8,1:0:0:0:
256,192,143922,1,0,1:0:0:0:
256,192,144011,1,8,1:0:0:0:
256,192,144070,1,8,1:0:0:0:
256,192,144128,1,8,1:0:0:0:
256,192,144187,1,0,1:0:0:0:
256,192,144275,1,0,1:0:0:0:
256,192,144364,1,8,1:0:0:0:
256,192,144540,1,0,1:0:0:0:
256,192,144628,1,0,1:0:0:0:
256,192,144717,1,8,1:0:0:0:
256,192,144775,1,8,1:0:0:0:
256,192,144834,1,8,1:0:0:0:
256,192,144893,1,0,1:0:0:0:
256,192,144981,1,0,1:0:0:0:
256,192,145070,1,8,1:0:0:0:
256,192,145246,1,0,1:0:0:0:
256,192,145422,1,8,1:0:0:0:
256,192,145481,1,8,1:0:0:0:
256,192,145540,1,8,1:0:0:0:
256,192,145599,1,0,1:0:0:0:
256,192,145687,1,0,1:0:0:0:
256,192,145775,1,8,1:0:0:0:
256,192,145864,1,0,1:0:0:0:
256,192,145952,1,8,1:0:0:0:
256,192,146040,1,0,1:0:0:0:
256,192,146128,1,8,1:0:0:0:
256,192,146187,1,8,1:0:0:0:
256,192,146246,1,8,1:0:0:0:
256,192,146305,1,0,1:0:0:0:
256,192,146481,1,0,1:0:0:0:
256,192,146570,1,0,1:0:0:0:
256,192,146658,1,8,1:0:0:0:
256,192,146746,1,0,1:0:0:0:
256,192,146834,1,8,1:0:0:0:
256,192,147011,1,0,1:0:0:0:
256,192,147099,1,0,1:0:0:0:
256,192,147187,1,8,1:0:0:0:
256,192,147275,1,8,1:0:0:0:
256,192,147364,1,0,1:0:0:0:
256,192,147452,1,8,1:0:0:0:
256,192,147540,1,0,1:0:0:0:
256,192,147599,1,0,1:0:0:0:
256,192,147658,1,0,1:0:0:0:
256,192,147717,1,0,1:0:0:0:
256,192,147893,1,12,1:0:0:0:
256,192,148246,1,4,1:0:0:0:
256,192,148422,1,0,1:0:0:0:
256,192,148511,1,0,1:0:0:0:
256,192,148599,1,8,1:0:0:0:
256,192,148687,1,0,1:0:0:0:
256,192,148775,1,8,1:0:0:0:
256,192,148864,1,0,1:0:0:0:
256,192,148952,1,8,1:0:0:0:
256,192,149011,1,8,1:0:0:0:
256,192,149070,1,8,1:0:0:0:
256,192,149128,1,0,1:0:0:0:
256,192,149217,1,8,1:0:0:0:
256,192,149305,1,0,1:0:0:0:
256,192,149481,1,8,1:0:0:0:
256,192,149570,1,0,1:0:0:0:
256,192,149658,1,8,1:0:0:0:
256,192,149717,1,8,1:0:0:0:
256,192,149775,1,8,1:0:0:0:
256,192,149834,1,0,1:0:0:0:
256,192,149922,1,0,1:0:0:0:
256,192,150011,1,8,1:0:0:0:
256,192,150187,1,0,1:0:0:0:
256,192,150275,1,0,1:0:0:0:
256,192,150364,1,8,1:0:0:0:
256,192,150452,1,0,1:0:0:0:
256,192,150540,1,0,1:0:0:0:
256,192,150628,1,0,1:0:0:0:
256,192,150717,1,8,1:0:0:0:
256,192,150893,1,0,1:0:0:0:
256,192,151070,1,8,1:0:0:0:
256,192,151128,1,8,1:0:0:0:
256,192,151187,1,8,1:0:0:0:
256,192,151246,1,0,1:0:0:0:
256,192,151334,1,0,1:0:0:0:
256,192,151422,1,8,1:0:0:0:
256,192,151511,1,0,1:0:0:0:
256,192,151599,1,8,1:0:0:0:
256,192,151687,1,0,1:0:0:0:
256,192,151775,1,8,1:0:0:0:
256,192,151834,1,8,1:0:0:0:
256,192,151893,1,8,1:0:0:0:
256,192,151952,1,0,1:0:0:0:
256,192,152128,1,0,1:0:0:0:
256,192,152217,1,0,1:0:0:0:
256,192,152305,1,8,1:0:0:0:
256,192,152393,1,0,1:0:0:0:
256,192,152481,1,8,1:0:0:0:
256,192,152540,1,8,1:0:0:0:
256,192,152599,1,8,1:0:0:0:
256,192,152658,1,0,1:0:0:0:
256,192,152746,1,0,1:0:0:0:
256,192,152834,1,8,1:0:0:0:
256,192,153011,1,0,1:0:0:0:
256,192,153070,1,0,1:0:0:0:
256,192,153128,1,0,1:0:0:0:
256,192,153187,1,8,1:0:0:0:
256,192,153275,1,0,1:0:0:0:
256,192,153364,1,0,1:0:0:0:
256,192,153540,1,12,1:0:0:0:
256,192,153893,1,4,1:0:0:0:
256,192,154070,1,0,1:0:0:0:
256,192,154158,1,0,1:0:0:0:
256,192,154246,1,8,1:0:0:0:
256,192,154334,1,0,1:0:0:0:
256,192,154422,1,8,1:0:0:0:
256,192,154511,1,0,1:0:0:0:
256,192,154599,1,8,1:0:0:0:
256,192,154658,1,8,1:0:0:0:
256,192,154717,1,8,1:0:0:0:
256,192,154775,1,0,1:0:0:0:
256,192,154864,1,8,1:0:0:0:
256,192,154952,1,0,1:0:0:0:
256,192,155128,1,8,1:0:0:0:
256,192,155217,1,0,1:0:0:0:
256,192,155305,1,8,1:0:0:0:
256,192,155364,1,8,1:0:0:0:
256,192,155422,1,8,1:0:0:0:
256,192,155481,1,0,1:0:0:0:
256,192,155570,1,0,1:0:0:0:
256,192,155658,1,8,1:0:0:0:
256,192,155717,1,8,1:0:0:0:
256,192,155775,1,8,1:0:0:0:
256,192,155834,1,0,1:0:0:0:
256,192,156011,1,8,1:0:0:0:
256,192,156070,1,8,1:0:0:0:
256,192,156128,1,8,1:0:0:0:
256,192,156187,1,0,1:0:0:0:
256,192,156275,1,0,1:0:0:0:
256,192,156364,1,8,1:0:0:0:
256,192,156540,1,0,1:0:0:0:
256,192,156628,1,0,1:0:0:0:
256,192,156717,1,8,1:0:0:0:
256,192,156775,1,8,1:0:0:0:
256,192,156834,1,8,1:0:0:0:
256,192,156893,1,0,1:0:0:0:
256,192,156981,1,0,1:0:0:0:
256,192,157070,1,8,1:0:0:0:
256,192,157158,1,0,1:0:0:0:
256,192,157246,1,8,1:0:0:0:
256,192,157334,1,0,1:0:0:0:
256,192,157422,1,8,1:0:0:0:
256,192,157481,1,8,1:0:0:0:
256,192,157540,1,8,1:0:0:0:
256,192,157599,1,0,1:0:0:0:
256,192,157775,1,0,1:0:0:0:
256,192,157864,1,0,1:0:0:0:
256,192,157952,1,8,1:0:0:0:
256,192,158040,1,0,1:0:0:0:
256,192,158128,1,8,1:0:0:0:
256,192,158305,1,0,1:0:0:0:
256,192,158393,1,0,1:0:0:0:
256,192,158481,1,8,1:0:0:0:
256,192,158570,1,0,1:0:0:0:
256,192,158658,1,8,1:0:0:0:
256,192,158746,1,8,1:0:0:0:
256,192,158834,1,0,1:0:0:0:
256,192,158893,1,0,1:0:0:0:
256,192,158952,1,0,1:0:0:0:
256,192,159011,1,0,1:0:0:0:
256,192,159187,1,12,1:0:0:0:
256,192,159540,1,8,1:0:0:0:
256,192,159893,1,8,1:0:0:0:
256,192,160246,1,8,1:0:0:0:
256,192,160599,1,8,1:0:0:0:
256,192,160775,1,0,1:0:0:0:
256,192,160952,1,8,1:0:0:0:
256,192,161128,1,8,1:0:0:0:
256,192,161305,1,0,1:0:0:0:
256,192,161481,1,8,1:0:0:0:
256,192,161658,1,0,1:0:0:0:
256,192,162011,1,12,1:0:0:0:
256,192,162364,1,8,1:0:0:0:
256,192,162540,1,8,1:0:0:0:
256,192,162717,1,8,1:0:0:0:
256,192,162805,1,8,1:0:0:0:
256,192,162981,1,8,1:0:0:0:
256,192,163070,1,0,1:0:0:0:
256,192,163158,1,8,1:0:0:0:
256,192,163246,1,8,1:0:0:0:
256,192,163422,1,8,1:0:0:0:
256,192,163599,1,8,1:0:0:0:
256,192,163775,1,0,1:0:0:0:
256,192,163864,1,8,1:0:0:0:
256,192,164040,1,8,1:0:0:0:
256,192,164128,1,0,1:0:0:0:
256,192,164305,1,8,1:0:0:0:
256,192,164393,1,0,1:0:0:0:
256,192,164481,1,8,1:0:0:0:
256,192,164570,1,8,1:0:0:0:
256,192,164658,1,8,1:0:0:0:
256,192,164834,1,8,1:0:0:0:
256,192,165011,1,0,1:0:0:0:
256,192,165099,1,0,1:0:0:0:
256,192,165187,1,8,1:0:0:0:
256,192,165364,1,8,1:0:0:0:
256,192,165540,1,8,1:0:0:0:
256,192,165628,1,8,1:0:0:0:
256,192,165805,1,8,1:0:0:0:
256,192,165893,1,0,1:0:0:0:
256,192,165981,1,8,1:0:0:0:
256,192,166070,1,8,1:0:0:0:
256,192,166246,1,8,1:0:0:0:
256,192,166422,1,8,1:0:0:0:
256,192,166599,1,0,1:0:0:0:
256,192,166687,1,8,1:0:0:0:
256,192,166775,1,8,1:0:0:0:
256,192,166864,1,8,1:0:0:0:
256,192,166952,1,0,1:0:0:0:
256,192,167128,1,8,1:0:0:0:
256,192,167217,1,0,1:0:0:0:
256,192,167305,1,8,1:0:0:0:
256,192,167364,1,8,1:0:0:0:
256,192,167422,1,8,1:0:0:0:
256,192,167481,1,0,1:0:0:0:
256,192,167658,1,12,1:0:0:0:
256,192,168011,1,8,1:0:0:0:
256,192,168187,1,8,1:0:0:0:
256,192,168364,1,8,1:0:0:0:
256,192,168452,1,8,1:0:0:0:
256,192,168628,1,8,1:0:0:0:
256,192,168717,1,0,1:0:0:0:
256,192,168805,1,8,1:0:0:0:
256,192,168893,1,8,1:0:0:0:
256,192,168981,1,0,1:0:0:0:
256,192,169070,1,8,1:0:0:0:
256,192,169246,1,8,1:0:0:0:
256,192,169422,1,0,1:0:0:0:
256,192,169511,1,8,1:0:0:0:
256,192,169687,1,8,1:0:0:0:
256,192,169775,1,0,1:0:0:0:
256,192,169952,1,8,1:0:0:0:
256,192,170040,1,0,1:0:0:0:
256,192,170128,1,8,1:0:0:0:
256,192,170217,1,8,1:0:0:0:
256,192,170305,1,8,1:0:0:0:
256,192,170393,1,0,1:0:0:0:
256,192,170481,1,8,1:0:0:0:
256,192,170570,1,8,1:0:0:0:
256,192,170658,1,0,1:0:0:0:
256,192,170746,1,0,1:0:0:0:
256,192,170834,1,8,1:0:0:0:
256,192,171011,1,8,1:0:0:0:
256,192,171187,1,8,1:0:0:0:
256,192,171275,1,8,1:0:0:0:
256,192,171452,1,8,1:0:0:0:
256,192,171540,1,0,1:0:0:0:
256,192,171717,1,8,1:0:0:0:
256,192,171805,1,0,1:0:0:0:
256,192,171893,1,8,1:0:0:0:
256,192,171981,1,0,1:0:0:0:
256,192,172070,1,8,1:0:0:0:
256,192,172158,1,8,1:0:0:0:
256,192,172246,1,0,1:0:0:0:
256,192,172422,1,0,1:0:0:0:
256,192,172511,1,0,1:0:0:0:
256,192,172599,1,8,1:0:0:0:
256,192,172687,1,0,1:0:0:0:
256,192,172775,1,8,1:0:0:0:
256,192,172864,1,8,1:0:0:0:
256,192,172952,1,0,1:0:0:0:
256,192,173011,1,0,1:0:0:0:
256,192,173070,1,0,1:0:0:0:
256,192,173128,1,0,1:0:0:0:
256,192,173305,1,12,1:0:0:0:
256,192,173658,1,0,1:0:0:0:
256,192,173834,1,8,1:0:0:0:
256,192,174011,1,0,1:0:0:0:
256,192,174099,1,8,1:0:0:0:
256,192,174275,1,8,1:0:0:0:
256,192,174364,1,0,1:0:0:0:
256,192,174452,1,8,1:0:0:0:
256,192,174540,1,0,1:0:0:0:
256,192,174628,1,0,1:0:0:0:
256,192,174717,1,8,1:0:0:0:
256,192,174893,1,0,1:0:0:0:
256,192,174952,1,0,1:0:0:0:
256,192,175011,1,0,1:0:0:0:
256,192,175070,1,8,1:0:0:0:
256,192,175158,1,0,1:0:0:0:
256,192,175246,1,0,1:0:0:0:
256,192,175334,1,0,1:0:0:0:
256,192,175422,1,8,1:0:0:0:
256,192,175481,1,8,1:0:0:0:
256,192,175540,1,8,1:0:0:0:
256,192,175599,1,0,1:0:0:0:
256,192,175775,1,8,1:0:0:0:
256,192,175864,1,8,1:0:0:0:
256,192,175952,1,0,1:0:0:0:
256,192,176040,1,0,1:0:0:0:
256,192,176128,1,8,1:0:0:0:
256,192,176187,1,8,1:0:0:0:
256,192,176246,1,8,1:0:0:0:
256,192,176305,1,0,1:0:0:0:
256,192,176393,1,0,1:0:0:0:
256,192,176481,1,8,1:0:0:0:
256,192,176570,1,0,1:0:0:0:
256,192,176658,1,8,1:0:0:0:
256,192,176834,1,0,1:0:0:0:
256,192,176922,1,8,1:0:0:0:
256,192,177099,1,8,1:0:0:0:
256,192,177187,1,0,1:0:0:0:
256,192,177275,1,8,1:0:0:0:
256,192,177364,1,0,1:0:0:0:
256,192,177452,1,0,1:0:0:0:
256,192,177540,1,8,1:0:0:0:
256,192,177717,1,0,1:0:0:0:
256,192,177775,1,0,1:0:0:0:
256,192,177834,1,0,1:0:0:0:
256,192,177893,1,8,1:0:0:0:
256,192,177981,1,8,1:0:0:0:
256,192,178070,1,0,1:0:0:0:
256,192,178158,1,0,1:0:0:0:
256,192,178246,1,8,1:0:0:0:
256,192,178334,1,0,1:0:0:0:
256,192,178422,1,8,1:0:0:0:
256,192,178511,1,8,1:0:0:0:
256,192,178599,1,0,1:0:0:0:
256,192,178658,1,0,1:0:0:0:
256,192,178717,1,0,1:0:0:0:
256,192,178775,1,0,1:0:0:0:
256,192,178952,1,12,1:0:0:0:
256,192,179305,1,8,1:0:0:0:
256,192,179364,1,8,1:0:0:0:
256,192,179422,1,8,1:0:0:0:
256,192,179481,1,0,1:0:0:0:
256,192,179570,1,0,1:0:0:0:
256,192,179658,1,8,1:0:0:0:
256,192,179834,1,0,1:0:0:0:
256,192,179922,1,0,1:0:0:0:
256,192,180011,1,8,1:0:0:0:
256,192,180070,1,8,1:0:0:0:
256,192,180128,1,8,1:0:0:0:
256,192,180187,1,0,1:0:0:0:
256,192,180275,1,0,1:0:0:0:
256,192,180364,1,8,1:0:0:0:
256,192,180452,1,0,1:0:0:0:
256,192,180540,1,8,1:0:0:0:
256,192,180628,1,0,1:0:0:0:
256,192,180717,1,8,1:0:0:0:
256,192,180805,1,8,1:0:0:0:
256,192,180981,1,0,1:0:0:0:
256,192,181070,1,8,1:0:0:0:
256,192,181246,1,0,1:0:0:0:
256,192,181334,1,0,1:0:0:0:
256,192,181422,1,8,1:0:0:0:
256,192,181481,1,8,1:0:0:0:
256,192,181540,1,8,1:0:0:0:
256,192,181599,1,0,1:0:0:0:
256,192,181687,1,0,1:0:0:0:
256,192,181775,1,8,1:0:0:0:
256,192,181864,1,0,1:0:0:0:
256,192,181952,1,8,1:0:0:0:
256,192,182040,1,0,1:0:0:0:
256,192,182128,1,8,1:0:0:0:
256,192,182187,1,8,1:0:0:0:
256,192,182246,1,8,1:0:0:0:
256,192,182305,1,0,1:0:0:0:
256,192,182481,1,8,1:0:0:0:
256,192,182570,1,8,1:0:0:0:
256,192,182658,1,0,1:0:0:0:
256,192,182746,1,0,1:0:0:0:
256,192,182834,1,8,1:0:0:0:
256,192,182922,1,8,1:0:0:0:
256,192,183011,1,0,1:0:0:0:
256,192,183099,1,0,1:0:0:0:
256,192,183187,1,8,1:0:0:0:
256,192,183275,1,0,1:0:0:0:
256,192,183364,1,8,1:0:0:0:
256,192,183452,1,0,1:0:0:0:
256,192,183540,1,8,1:0:0:0:
256,192,183717,1,0,1:0:0:0:
256,192,183805,1,0,1:0:0:0:
256,192,183893,1,8,1:0:0:0:
256,192,183981,1,0,1:0:0:0:
256,192,184070,1,8,1:0:0:0:
256,192,184158,1,8,1:0:0:0:
256,192,184246,1,0,1:0:0:0:
256,192,184305,1,0,1:0:0:0:
256,192,184364,1,0,1:0:0:0:
256,192,184422,1,0,1:0:0:0:
256,192,184599,1,12,1:0:0:0:
237,148,186364,1,0,1:0:0:0:
27,112,186452,1,0,1:0:0:0:
156,108,186540,1,8,1:0:0:0:
237,148,186717,1,8,1:0:0:0:
237,148,186893,1,0,1:0:0:0:
237,148,186981,1,8,1:0:0:0:
237,148,187158,1,8,1:0:0:0:
237,148,187334,1,0,1:0:0:0:
237,148,187422,1,8,1:0:0:0:
237,148,187599,1,8,1:0:0:0:
237,148,187775,1,0,1:0:0:0:
237,148,187864,1,0,1:0:0:0:
237,148,187952,1,8,1:0:0:0:
237,148,188128,1,8,1:0:0:0:
237,148,188305,1,0,1:0:0:0:
237,148,188393,1,8,1:0:0:0:
237,148,188570,1,8,1:0:0:0:
237,148,188746,1,0,1:0:0:0:
237,148,188834,1,8,1:0:0:0:
237,148,189011,1,8,1:0:0:0:
105,76,189187,1,0,1:0:0:0:
237,148,189275,1,0,1:0:0:0:
237,148,189364,1,8,1:0:0:0:
237,148,189540,1,8,1:0:0:0:
237,148,189717,1,0,1:0:0:0:
237,148,189805,1,8,1:0:0:0:
237,148,189981,1,8,1:0:0:0:
249,138,190158,1,0,1:0:0:0:
249,137,190246,1,8,1:0:0:0:
249,137,190422,1,0,1:0:0:0:
249,137,190599,1,8,1:0:0:0:
249,137,190775,1,0,1:0:0:0:
30,130,190864,1,0,1:0:0:0:
249,137,190952,1,8,1:0:0:0:
249,138,191040,1,0,1:0:0:0:
249,137,191128,1,0,1:0:0:0:
249,137,191305,1,8,1:0:0:0:
249,137,191393,1,0,1:0:0:0:
249,137,191481,1,0,1:0:0:0:
249,137,191658,1,8,1:0:0:0:
249,137,192011,1,0,1:0:0:0:
249,137,192099,1,0,1:0:0:0:
249,138,192187,1,8,1:0:0:0:
86,116,192275,1,0,1:0:0:0:
249,137,192364,1,8,1:0:0:0:
249,137,192540,1,0,1:0:0:0:
249,137,192628,1,8,1:0:0:0:
249,137,192805,1,8,1:0:0:0:
249,137,192981,1,0,1:0:0:0:
82,126,193070,1,8,1:0:0:0:
255,145,193246,1,8,1:0:0:0:
256,145,193422,1,0,1:0:0:0:
256,145,193599,1,8,1:0:0:0:
253,144,193687,1,0,1:0:0:0:
249,137,193775,1,8,1:0:0:0:
227,121,193952,1,0,1:0:0:0:
227,121,194040,1,8,1:0:0:0:
227,121,194217,1,8,1:0:0:0:
227,121,194393,1,0,1:0:0:0:
227,121,194481,1,8,1:0:0:0:
227,121,194658,1,8,1:0:0:0:
227,121,194834,1,0,1:0:0:0:
227,121,195011,1,8,1:0:0:0:
227,121,195099,1,0,1:0:0:0:
227,121,195187,1,8,1:0:0:0:
227,121,195364,1,0,1:0:0:0:
227,121,195452,1,0,1:0:0:0:
227,121,195540,1,8,1:0:0:0:
227,121,195628,1,8,1:0:0:0:
227,121,195805,1,0,1:0:0:0:
227,121,195893,1,8,1:0:0:0:
227,121,196070,1,8,1:0:0:0:
129,207,196246,1,0,1:0:0:0:
129,207,196334,1,0,1:0:0:0:
275,221,196422,1,0,1:0:0:0:
129,207,196511,1,0,1:0:0:0:
227,121,196599,1,8,1:0:0:0:
227,121,196775,1,0,1:0:0:0:
227,121,196864,1,8,1:0:0:0:
227,121,197040,1,0,1:0:0:0:
227,121,197128,1,0,1:0:0:0:
227,121,197305,1,12,1:0:0:0:
227,121,197658,1,4,1:0:0:0:
227,121,198011,1,0,1:0:0:0:
227,121,198187,1,0,1:0:0:0:
227,121,198364,1,8,1:0:0:0:
227,121,198540,1,0,1:0:0:0:
227,121,198717,1,0,1:0:0:0:
227,121,198893,1,8,1:0:0:0:
227,121,199246,1,0,1:0:0:0:
227,121,199422,1,8,1:0:0:0:
227,121,199775,1,8,1:0:0:0:
227,121,199952,1,0,1:0:0:0:
227,121,200128,1,0,1:0:0:0:
227,121,200305,1,8,1:0:0:0:
227,121,200481,1,0,1:0:0:0:
227,121,200834,1,0,1:0:0:0:
227,121,201011,1,0,1:0:0:0:
227,121,201187,1,8,1:0:0:0:
227,121,201364,1,0,1:0:0:0:
227,121,201540,1,0,1:0:0:0:
227,121,201717,1,8,1:0:0:0:
256,192,202070,1,0,1:0:0:0:
256,192,202246,1,8,1:0:0:0:
256,192,202422,1,0,1:0:0:0:
256,192,202511,1,0,1:0:0:0:
256,192,202599,1,0,1:0:0:0:
256,192,202775,1,12,1:0:0:0:
256,192,202952,1,12,1:0:0:0:
369,107,203305,1,0,1:0:0:0:
222,119,203481,1,8,1:0:0:0:
222,119,203570,1,8,1:0:0:0:
221,119,203658,1,0,1:0:0:0:
221,119,203834,1,8,1:0:0:0:
221,119,204011,1,0,1:0:0:0:
213,118,204187,1,0,1:0:0:0:
221,119,204275,1,8,1:0:0:0:
216,118,204364,1,0,1:0:0:0:
213,118,204540,1,0,1:0:0:0:
81,107,204717,1,0,1:0:0:0:
108,85,204893,1,8,1:0:0:0:
164,14,204981,1,8,1:0:0:0:
213,119,205070,1,0,1:0:0:0:
213,119,205246,1,8,1:0:0:0:
216,118,205422,1,0,1:0:0:0:
210,119,205599,1,8,1:0:0:0:
204,119,205687,1,0,1:0:0:0:
206,121,205775,1,8,1:0:0:0:
206,121,205952,1,0,1:0:0:0:
369,68,206128,1,8,1:0:0:0:
369,68,206217,1,8,1:0:0:0:
207,120,206305,1,0,1:0:0:0:
207,120,206393,1,0,1:0:0:0:
210,119,206481,1,8,1:0:0:0:
207,120,206570,1,0,1:0:0:0:
212,119,206658,1,8,1:0:0:0:
207,120,206746,1,0,1:0:0:0:
212,119,206834,1,8,1:0:0:0:
207,120,206922,1,8,1:0:0:0:
212,119,207011,1,0,1:0:0:0:
212,119,207099,1,0,1:0:0:0:
212,119,207187,1,8,1:0:0:0:
212,119,207275,1,0,1:0:0:0:
210,119,207364,1,8,1:0:0:0:
212,119,207452,1,8,1:0:0:0:
212,119,207540,1,0,1:0:0:0:
97,153,207628,1,0,1:0:0:0:
97,153,207717,1,0,1:0:0:0:
97,153,207805,1,0,1:0:0:0:
212,119,207893,1,8,1:0:0:0:
212,119,208070,1,0,1:0:0:0:
212,119,208158,1,8,1:0:0:0:
210,119,208334,1,0,1:0:0:0:
212,119,208422,1,0,1:0:0:0:
212,119,208599,1,12,1:0:0:0:
256,192,208952,1,4,1:0:0:0:
256,192,209128,1,8,1:0:0:0:
256,192,209217,1,8,1:0:0:0:
256,192,209305,1,0,1:0:0:0:
256,192,209481,1,8,1:0:0:0:
256,192,209658,1,0,1:0:0:0:
256,192,209746,1,0,1:0:0:0:
256,192,209834,1,0,1:0:0:0:
256,192,210011,1,8,1:0:0:0:
256,192,210187,1,0,1:0:0:0:
256,192,210275,1,0,1:0:0:0:
256,192,210364,1,8,1:0:0:0:
256,192,210540,1,0,1:0:0:0:
256,192,210717,1,8,1:0:0:0:
256,192,210805,1,0,1:0:0:0:
256,192,210893,1,0,1:0:0:0:
256,192,211070,1,8,1:0:0:0:
256,192,211158,1,8,1:0:0:0:
256,192,211246,1,0,1:0:0:0:
256,192,211334,1,0,1:0:0:0:
256,192,211422,1,8,1:0:0:0:
256,192,211599,1,0,1:0:0:0:
256,192,211775,1,8,1:0:0:0:
256,192,211952,1,0,1:0:0:0:
256,192,212040,1,0,1:0:0:0:
256,192,212128,1,8,1:0:0:0:
256,192,212305,1,0,1:0:0:0:
256,192,212481,1,8,1:0:0:0:
256,192,212570,1,0,1:0:0:0:
256,192,212658,1,0,1:0:0:0:
256,192,212746,1,0,1:0:0:0:
256,192,212834,1,8,1:0:0:0:
256,192,213011,1,8,1:0:0:0:
256,192,213187,1,0,1:0:0:0:
256,192,213364,1,0,1:0:0:0:
256,192,213452,1,0,1:0:0:0:
256,192,213540,1,8,1:0:0:0:
256,192,213717,1,8,1:0:0:0:
256,192,213893,1,0,1:0:0:0:
256,192,214070,1,8,1:0:0:0:
256,192,214158,1,0,1:0:0:0:
256,192,214246,1,8,1:0:0:0:
256,192,214334,1,8,1:0:0:0:
256,192,214422,1,0,1:0:0:0:
256,192,214511,1,8,1:0:0:0:
256,192,214599,1,0,1:0:0:0:
256,192,214775,1,0,1:0:0:0:
256,192,214864,1,0,1:0:0:0:
256,192,214952,1,8,1:0:0:0:
256,192,215128,1,0,1:0:0:0:
256,192,215217,1,0,1:0:0:0:
256,192,215305,1,0,1:0:0:0:
256,192,215481,1,8,1:0:0:0:
256,192,215658,1,8,1:0:0:0:
256,192,215834,1,0,1:0:0:0:
256,192,216011,1,0,1:0:0:0:
256,192,216187,1,8,1:0:0:0:
256,192,216275,1,0,1:0:0:0:
256,192,216364,1,8,1:0:0:0:
256,192,216540,1,0,1:0:0:0:
256,192,216628,1,0,1:0:0:0:
256,192,216717,1,0,1:0:0:0:
256,192,216893,1,8,1:0:0:0:
256,192,217070,1,8,1:0:0:0:
256,192,217246,1,0,1:0:0:0:
256,192,217334,1,0,1:0:0:0:
256,192,217422,1,8,1:0:0:0:
256,192,217599,1,0,1:0:0:0:
256,192,217775,1,8,1:0:0:0:
256,192,217952,1,0,1:0:0:0:
256,192,218040,1,0,1:0:0:0:
256,192,218128,1,8,1:0:0:0:
256,192,218305,1,0,1:0:0:0:
256,192,218393,1,8,1:0:0:0:
256,192,218570,1,0,1:0:0:0:
256,192,218658,1,8,1:0:0:0:
256,192,218746,1,8,1:0:0:0:
256,192,218834,1,0,1:0:0:0:
256,192,219011,1,0,1:0:0:0:
256,192,219099,1,0,1:0:0:0:
256,192,219187,1,8,1:0:0:0:
256,192,219364,1,0,1:0:0:0:
256,192,219540,1,8,1:0:0:0:
256,192,219717,1,8,1:0:0:0:
256,192,219893,1,0,1:0:0:0:
256,192,220070,1,0,1:0:0:0:
256,192,220246,1,12,1:0:0:0:
256,192,220422,1,0,1:0:0:0:
256,192,220511,1,0,1:0:0:0:
256,192,220599,1,8,1:0:0:0:
256,192,220775,1,0,1:0:0:0:
256,192,220952,1,8,1:0:0:0:
256,192,221040,1,0,1:0:0:0:
256,192,221128,1,8,1:0:0:0:
256,192,221217,1,8,1:0:0:0:
256,192,221305,1,0,1:0:0:0:
256,192,221481,1,8,1:0:0:0:
256,192,221658,1,0,1:0:0:0:
256,192,221834,1,0,1:0:0:0:
256,192,221922,1,0,1:0:0:0:
256,192,222011,1,8,1:0:0:0:
256,192,222187,1,0,1:0:0:0:
256,192,222364,1,8,1:0:0:0:
256,192,222452,1,8,1:0:0:0:
256,192,222540,1,8,1:0:0:0:
256,192,222628,1,0,1:0:0:0:
256,192,222717,1,8,1:0:0:0:
256,192,222893,1,0,1:0:0:0:
256,192,223070,1,8,1:0:0:0:
256,192,223246,1,0,1:0:0:0:
256,192,223422,1,8,1:0:0:0:
256,192,223511,1,8,1:0:0:0:
256,192,223599,1,0,1:0:0:0:
256,192,223775,1,8,1:0:0:0:
256,192,223864,1,0,1:0:0:0:
256,192,223952,1,8,1:0:0:0:
256,192,224040,1,8,1:0:0:0:
256,192,224128,1,0,1:0:0:0:
256,192,224305,1,8,1:0:0:0:
256,192,224481,1,0,1:0:0:0:
256,192,224658,1,0,1:0:0:0:
256,192,224746,1,0,1:0:0:0:
256,192,224834,1,8,1:0:0:0:
256,192,225011,1,8,1:0:0:0:
256,192,225187,1,0,1:0:0:0:
256,192,225364,1,8,1:0:0:0:
256,192,225452,1,0,1:0:0:0:
256,192,225540,1,8,1:0:0:0:
256,192,225628,1,8,1:0:0:0:
256,192,225717,1,0,1:0:0:0:
256,192,225805,1,8,1:0:0:0:
256,192,225893,1,0,1:0:0:0:
256,192,226070,1,0,1:0:0:0:
256,192,226158,1,0,1:0:0:0:
256,192,226246,1,8,1:0:0:0:
256,192,226422,1,0,1:0:0:0:
256,192,226599,1,0,1:0:0:0:
256,192,226775,1,8,1:0:0:0:
256,192,226864,1,0,1:0:0:0:
256,192,226952,1,8,1:0:0:0:
256,192,227040,1,8,1:0:0:0:
256,192,227128,1,0,1:0:0:0:
256,192,227305,1,0,1:0:0:0:
256,192,227481,1,8,1:0:0:0:
256,192,227570,1,0,1:0:0:0:
256,192,227658,1,8,1:0:0:0:
256,192,227834,1,0,1:0:0:0:
256,192,228011,1,0,1:0:0:0:
256,192,228187,1,8,1:0:0:0:
256,192,228275,1,0,1:0:0:0:
256,192,228364,1,8,1:0:0:0:
256,192,228452,1,8,1:0:0:0:
256,192,228540,1,0,1:0:0:0:
256,192,228628,1,0,1:0:0:0:
256,192,228717,1,8,1:0:0:0:
256,192,228893,1,0,1:0:0:0:
256,192,229070,1,8,1:0:0:0:
256,192,229246,1,0,1:0:0:0:
256,192,229334,1,0,1:0:0:0:
256,192,229422,1,8,1:0:0:0:
256,192,229599,1,0,1:0:0:0:
256,192,229687,1,0,1:0:0:0:
256,192,229775,1,8,1:0:0:0:
256,192,229864,1,0,1:0:0:0:
256,192,229952,1,8,1:0:0:0:
256,192,230040,1,8,1:0:0:0:
256,192,230128,1,0,1:0:0:0:
256,192,230305,1,0,1:0:0:0:
256,192,230393,1,0,1:0:0:0:
256,192,230481,1,8,1:0:0:0:
256,192,230658,1,8,1:0:0:0:
256,192,230834,1,0,1:0:0:0:
256,192,230922,1,0,1:0:0:0:
256,192,231011,1,0,1:0:0:0:
256,192,231099,1,0,1:0:0:0:
256,192,231187,1,8,1:0:0:0:
256,192,231364,1,0,1:0:0:0:
256,192,231540,1,12,1:0:0:0:
256,192,231717,1,0,1:0:0:0:
256,192,231805,1,0,1:0:0:0:
256,192,231893,1,8,1:0:0:0:
256,192,232070,1,8,1:0:0:0:
256,192,232158,1,0,1:0:0:0:
256,192,232246,1,8,1:0:0:0:
256,192,232334,1,8,1:0:0:0:
256,192,232422,1,0,1:0:0:0:
256,192,232599,1,0,1:0:0:0:
256,192,232775,1,8,1:0:0:0:
256,192,232864,1,8,1:0:0:0:
256,192,232952,1,0,1:0:0:0:
256,192,233040,1,8,1:0:0:0:
256,192,233128,1,8,1:0:0:0:
256,192,233305,1,0,1:0:0:0:
256,192,233481,1,8,1:0:0:0:
256,192,233570,1,8,1:0:0:0:
256,192,233658,1,0,1:0:0:0:
256,192,233834,1,8,1:0:0:0:
256,192,233922,1,8,1:0:0:0:
256,192,234011,1,0,1:0:0:0:
256,192,234099,1,8,1:0:0:0:
256,192,234187,1,0,1:0:0:0:
256,192,234275,1,0,1:0:0:0:
256,192,234364,1,8,1:0:0:0:
256,192,234540,1,0,1:0:0:0:
256,192,234628,1,0,1:0:0:0:
256,192,234717,1,8,1:0:0:0:
256,192,234805,1,0,1:0:0:0:
256,192,234893,1,8,1:0:0:0:
256,192,234981,1,0,1:0:0:0:
256,192,235070,1,8,1:0:0:0:
256,192,235158,1,8,1:0:0:0:
256,192,235246,1,0,1:0:0:0:
256,192,235422,1,8,1:0:0:0:
256,192,235599,1,0,1:0:0:0:
256,192,235687,1,0,1:0:0:0:
256,192,235775,1,8,1:0:0:0:
256,192,235864,1,8,1:0:0:0:
256,192,235952,1,0,1:0:0:0:
256,192,236040,1,0,1:0:0:0:
256,192,236128,1,8,1:0:0:0:
256,192,236217,1,0,1:0:0:0:
256,192,236305,1,8,1:0:0:0:
256,192,236393,1,8,1:0:0:0:
256,192,236481,1,0,1:0:0:0:
256,192,236570,1,0,1:0:0:0:
256,192,236658,1,0,1:0:0:0:
256,192,236834,1,12,1:0:0:0:
256,192,237187,1,4,1:0:0:0:
256,192,237364,1,8,1:0:0:0:
256,192,237452,1,0,1:0:0:0:
256,192,237540,1,8,1:0:0:0:
256,192,237628,1,0,1:0:0:0:
256,192,237717,1,8,1:0:0:0:
256,192,237775,1,8,1:0:0:0:
256,192,237834,1,8,1:0:0:0:
256,192,237893,1,0,1:0:0:0:
256,192,237981,1,0,1:0:0:0:
256,192,238070,1,8,1:0:0:0:
256,192,238158,1,0,1:0:0:0:
256,192,238246,1,8,1:0:0:0:
256,192,238305,1,0,1:0:0:0:
256,192,238364,1,0,1:0:0:0:
256,192,238422,1,8,1:0:0:0:
256,192,238511,1,0,1:0:0:0:
256,192,238599,1,8,1:0:0:0:
256,192,238775,1,0,1:0:0:0:
256,192,238864,1,0,1:0:0:0:
256,192,238952,1,8,1:0:0:0:
256,192,239040,1,0,1:0:0:0:
256,192,239128,1,8,1:0:0:0:
256,192,239187,1,8,1:0:0:0:
256,192,239246,1,8,1:0:0:0:
256,192,239305,1,0,1:0:0:0:
256,192,239393,1,0,1:0:0:0:
256,192,239481,1,8,1:0:0:0:
256,192,239540,1,8,1:0:0:0:
256,192,239599,1,8,1:0:0:0:
256,192,239658,1,0,1:0:0:0:
256,192,239746,1,0,1:0:0:0:
256,192,239834,1,8,1:0:0:0:
256,192,239922,1,0,1:0:0:0:
256,192,240011,1,8,1:0:0:0:
256,192,240187,1,0,1:0:0:0:
256,192,240275,1,0,1:0:0:0:
256,192,240364,1,8,1:0:0:0:
256,192,240422,1,8,1:0:0:0:
256,192,240481,1,8,1:0:0:0:
256,192,240540,1,0,1:0:0:0:
256,192,240628,1,0,1:0:0:0:
256,192,240717,1,8,1:0:0:0:
256,192,240775,1,0,1:0:0:0:
256,192,240834,1,0,1:0:0:0:
256,192,240893,1,8,1:0:0:0:
256,192,240981,1,0,1:0:0:0:
256,192,241070,1,8,1:0:0:0:
256,192,241128,1,8,1:0:0:0:
256,192,241187,1,8,1:0:0:0:
256,192,241246,1,0,1:0:0:0:
256,192,241334,1,0,1:0:0:0:
256,192,241422,1,8,1:0:0:0:
256,192,241599,1,0,1:0:0:0:
256,192,241687,1,0,1:0:0:0:
256,192,241775,1,8,1:0:0:0:
256,192,241864,1,8,1:0:0:0:
256,192,241952,1,0,1:0:0:0:
256,192,242040,1,8,1:0:0:0:
256,192,242128,1,0,1:0:0:0:
256,192,242217,1,0,1:0:0:0:
256,192,242305,1,0,1:0:0:0:
256,192,242481,1,12,1:0:0:0:
210,154,242834,1,4,1:0:0:0:
210,154,243011,1,8,1:0:0:0:
210,154,243187,1,0,1:0:0:0:
210,154,243275,1,0,1:0:0:0:
154,132,243364,1,8,1:0:0:0:
154,132,243540,1,0,1:0:0:0:
210,154,243628,1,8,1:0:0:0:
154,132,243717,1,8,1:0:0:0:
210,154,243805,1,8,1:0:0:0:
154,125,243893,1,0,1:0:0:0:
155,123,244070,1,8,1:0:0:0:
155,122,244246,1,0,1:0:0:0:
210,154,244334,1,0,1:0:0:0:
155,122,244422,1,8,1:0:0:0:
210,154,244511,1,8,1:0:0:0:
323,164,244599,1,0,1:0:0:0:
210,154,244687,1,8,1:0:0:0:
345,168,244775,1,8,1:0:0:0:
210,154,244864,1,8,1:0:0:0:
345,168,244952,1,0,1:0:0:0:
210,154,245040,1,8,1:0:0:0:
345,168,245128,1,0,1:0:0:0:
210,154,245217,1,0,1:0:0:0:
345,168,245305,1,8,1:0:0:0:
210,154,245481,1,8,1:0:0:0:
210,154,245658,1,0,1:0:0:0:
210,154,245834,1,8,1:0:0:0:
210,154,246011,1,0,1:0:0:0:
210,154,246099,1,0,1:0:0:0:
210,154,246187,1,8,1:0:0:0:
210,154,246275,1,8,1:0:0:0:
210,154,246364,1,0,1:0:0:0:
210,154,246452,1,0,1:0:0:0:
88,175,246540,1,8,1:0:0:0:
88,175,246628,1,0,1:0:0:0:
88,175,246717,1,0,1:0:0:0:
210,154,246893,1,8,1:0:0:0:
166,99,247070,1,0,1:0:0:0:
210,154,247158,1,0,1:0:0:0:
166,99,247246,1,8,1:0:0:0:
210,154,247334,1,0,1:0:0:0:
166,99,247422,1,8,1:0:0:0:
210,154,247511,1,8,1:0:0:0:
166,99,247599,1,0,1:0:0:0:
210,154,247687,1,8,1:0:0:0:
166,99,247775,1,0,1:0:0:0:
166,99,247864,1,8,1:0:0:0:
210,154,247952,1,0,1:0:0:0:
210,154,248128,1,12,1:0:0:0:
210,154,248481,1,4,1:0:0:0:
210,154,248658,1,8,1:0:0:0:
210,154,248834,1,0,1:0:0:0:
276,144,248922,1,0,1:0:0:0:
210,154,249011,1,8,1:0:0:0:
210,154,249187,1,0,1:0:0:0:
150,171,249275,1,0,1:0:0:0:
210,154,249364,1,8,1:0:0:0:
155,160,249452,1,8,1:0:0:0:
210,154,249540,1,0,1:0:0:0:
155,160,249628,1,0,1:0:0:0:
210,154,249717,1,8,1:0:0:0:
210,154,249893,1,0,1:0:0:0:
179,66,249981,1,0,1:0:0:0:
210,154,250070,1,8,1:0:0:0:
179,66,250158,1,8,1:0:0:0:
210,154,250246,1,0,1:0:0:0:
179,66,250334,1,0,1:0:0:0:
210,154,250422,1,8,1:0:0:0:
179,66,250511,1,8,1:0:0:0:
210,154,250599,1,0,1:0:0:0:
179,66,250687,1,8,1:0:0:0:
179,66,250775,1,0,1:0:0:0:
179,66,250864,1,0,1:0:0:0:
210,154,250952,1,8,1:0:0:0:
210,154,251128,1,8,1:0:0:0:
210,154,251305,1,0,1:0:0:0:
210,154,251481,1,8,1:0:0:0:
210,154,251658,1,0,1:0:0:0:
321,118,251746,1,0,1:0:0:0:
210,154,251834,1,8,1:0:0:0:
210,154,252011,1,0,1:0:0:0:
180,74,252099,1,8,1:0:0:0:
210,154,252187,1,0,1:0:0:0:
180,74,252275,1,0,1:0:0:0:
210,154,252364,1,8,1:0:0:0:
180,74,252452,1,8,1:0:0:0:
180,74,252540,1,8,1:0:0:0:
180,74,252628,1,8,1:0:0:0:
210,154,252717,1,0,1:0:0:0:
110,184,252805,1,0,1:0:0:0:
110,184,252893,1,0,1:0:0:0:
110,184,252981,1,0,1:0:0:0:
110,184,253070,1,8,1:0:0:0:
110,184,253246,1,0,1:0:0:0:
110,184,253334,1,8,1:0:0:0:
110,184,253511,1,0,1:0:0:0:
110,184,253599,1,0,1:0:0:0:
110,184,253775,1,12,1:0:0:0:
210,154,254128,1,4,1:0:0:0:
210,154,254305,1,8,1:0:0:0:
210,154,254481,1,0,1:0:0:0:
210,154,254570,1,0,1:0:0:0:
154,132,254658,1,8,1:0:0:0:
410,60,254746,1,8,1:0:0:0:
154,132,254834,1,0,1:0:0:0:
210,154,254922,1,8,1:0:0:0:
154,132,255011,1,8,1:0:0:0:
210,154,255099,1,8,1:0:0:0:
154,125,255187,1,0,1:0:0:0:
155,123,255364,1,8,1:0:0:0:
372,82,255452,1,8,1:0:0:0:
155,122,255540,1,0,1:0:0:0:
210,154,255628,1,0,1:0:0:0:
155,122,255717,1,8,1:0:0:0:
210,154,255805,1,0,1:0:0:0:
323,164,255893,1,0,1:0:0:0:
210,154,255981,1,0,1:0:0:0:
345,168,256070,1,8,1:0:0:0:
210,154,256158,1,8,1:0:0:0:
345,168,256246,1,0,1:0:0:0:
210,154,256334,1,0,1:0:0:0:
345,168,256422,1,8,1:0:0:0:
210,154,256511,1,0,1:0:0:0:
345,168,256599,1,8,1:0:0:0:
210,154,256687,1,8,1:0:0:0:
210,154,256775,1,8,1:0:0:0:
210,154,256864,1,8,1:0:0:0:
210,154,256952,1,0,1:0:0:0:
210,154,257128,1,8,1:0:0:0:
210,154,257305,1,0,1:0:0:0:
210,154,257393,1,0,1:0:0:0:
210,154,257481,1,8,1:0:0:0:
357,133,257570,1,8,1:0:0:0:
210,154,257658,1,0,1:0:0:0:
210,154,257746,1,0,1:0:0:0:
88,175,257834,1,8,1:0:0:0:
88,175,257922,1,0,1:0:0:0:
88,175,258011,1,8,1:0:0:0:
210,154,258187,1,8,1:0:0:0:
166,99,258364,1,0,1:0:0:0:
210,154,258452,1,0,1:0:0:0:
166,99,258540,1,8,1:0:0:0:
210,154,258628,1,0,1:0:0:0:
166,99,258717,1,8,1:0:0:0:
210,154,258805,1,8,1:0:0:0:
166,99,258893,1,0,1:0:0:0:
210,154,258981,1,8,1:0:0:0:
166,99,259070,1,0,1:0:0:0:
166,99,259158,1,8,1:0:0:0:
210,154,259246,1,0,1:0:0:0:
210,154,259422,1,12,1:0:0:0:
210,154,259775,1,4,1:0:0:0:
210,154,259952,1,8,1:0:0:0:
210,154,260128,1,0,1:0:0:0:
276,144,260217,1,0,1:0:0:0:
210,154,260305,1,8,1:0:0:0:
417,118,260393,1,8,1:0:0:0:
210,154,260481,1,0,1:0:0:0:
150,171,260570,1,8,1:0:0:0:
210,154,260658,1,8,1:0:0:0:
155,160,260746,1,0,1:0:0:0:
210,154,260834,1,8,1:0:0:0:
155,160,260922,1,8,1:0:0:0:
210,154,261011,1,0,1:0:0:0:
417,118,261099,1,8,1:0:0:0:
210,154,261187,1,0,1:0:0:0:
179,66,261275,1,0,1:0:0:0:
210,154,261364,1,8,1:0:0:0:
179,66,261452,1,8,1:0:0:0:
210,154,261540,1,0,1:0:0:0:
179,66,261628,1,8,1:0:0:0:
210,154,261717,1,0,1:0:0:0:
179,66,261805,1,0,1:0:0:0:
210,154,261893,1,8,1:0:0:0:
179,66,261981,1,8,1:0:0:0:
179,66,262070,1,0,1:0:0:0:
179,66,262158,1,8,1:0:0:0:
210,154,262246,1,0,1:0:0:0:
179,66,262334,1,0,1:0:0:0:
210,154,262422,1,8,1:0:0:0:
210,154,262599,1,0,1:0:0:0:
210,154,262775,1,0,1:0:0:0:
210,154,262952,1,8,1:0:0:0:
210,154,263128,1,8,1:0:0:0:
210,154,263305,1,0,1:0:0:0:
283,97,263393,1,0,1:0:0:0:
210,154,263481,1,8,1:0:0:0:
210,154,263570,1,0,1:0:0:0:
210,154,263658,1,8,1:0:0:0:
180,74,263746,1,8,1:0:0:0:
210,154,263834,1,8,1:0:0:0:
377,131,263922,1,8,1:0:0:0:
210,154,264011,1,0,1:0:0:0:
110,184,264099,1,0,1:0:0:0:
110,184,264187,1,0,1:0:0:0:
110,184,264275,1,0,1:0:0:0:
110,184,264364,1,8,1:0:0:0:
110,184,264540,1,0,1:0:0:0:
110,184,264628,1,8,1:0:0:0:
110,184,264805,1,0,1:0:0:0:
110,184,264893,1,0,1:0:0:0:
110,184,265070,1,12,1:0:0:0:
198,150,265422,1,8,1:0:0:0:
198,150,265775,1,8,1:0:0:0:
198,150,266128,1,8,1:0:0:0:
198,150,266481,1,8,1:0:0:0:
198,150,266658,1,0,1:0:0:0:
198,150,266834,1,8,1:0:0:0:
198,150,267011,1,8,1:0:0:0:
198,150,267187,1,0,1:0:0:0:
198,150,267364,1,8,1:0:0:0:
198,150,267540,1,0,1:0:0:0:
356,96,267893,1,12,1:0:0:0:
198,150,268246,1,4,1:0:0:0:
208,155,268422,1,8,1:0:0:0:
208,155,268599,1,0,1:0:0:0:
296,150,268687,1,0,1:0:0:0:
208,155,268775,1,8,1:0:0:0:
208,155,268864,1,8,1:0:0:0:
208,155,268952,1,0,1:0:0:0:
134,150,269070,1,8,1:0:0:0:
134,150,269187,1,8,1:0:0:0:
208,155,269305,1,0,1:0:0:0:
208,155,269481,1,8,1:0:0:0:
178,82,269658,1,0,1:0:0:0:
178,82,269775,1,0,1:0:0:0:
178,82,269893,1,8,1:0:0:0:
178,82,270011,1,8,1:0:0:0:
178,82,270128,1,0,1:0:0:0:
178,82,270246,1,8,1:0:0:0:
178,82,270364,1,0,1:0:0:0:
178,82,270422,1,0,1:0:0:0:
178,82,270481,1,8,1:0:0:0:
178,82,270599,1,0,1:0:0:0:
178,82,270717,1,8,1:0:0:0:
198,51,270834,1,8,1:0:0:0:
198,51,270952,1,0,1:0:0:0:
208,155,271070,1,8,1:0:0:0:
350,168,271158,1,8,1:0:0:0:
208,155,271246,1,0,1:0:0:0:
208,155,271422,1,8,1:0:0:0:
208,155,271599,1,0,1:0:0:0:
80,138,271687,1,0,1:0:0:0:
208,155,271775,1,8,1:0:0:0:
208,155,271952,1,0,1:0:0:0:
208,155,272128,1,8,1:0:0:0:
208,155,272305,1,8,1:0:0:0:
208,155,272481,1,0,1:0:0:0:
208,155,272570,1,0,1:0:0:0:
70,162,272658,1,8,1:0:0:0:
208,155,272834,1,8,1:0:0:0:
208,155,272922,1,8,1:0:0:0:
208,155,273011,1,0,1:0:0:0:
135,94,273099,1,0,1:0:0:0:
208,155,273187,1,8,1:0:0:0:
208,155,273305,1,0,1:0:0:0:
99,181,273422,1,8,1:0:0:0:
208,155,273540,1,0,1:0:0:0:
208,155,273893,1,12,1:0:0:0:
208,155,274070,1,0,1:0:0:0:
232,79,274158,1,0,1:0:0:0:
208,155,274246,1,8,1:0:0:0:
208,155,274422,1,0,1:0:0:0:
208,155,274599,1,8,1:0:0:0:
208,155,274687,1,0,1:0:0:0:
208,155,274775,1,0,1:0:0:0:
208,155,274864,1,0,1:0:0:0:
208,155,274952,1,8,1:0:0:0:
208,155,275040,1,8,1:0:0:0:
208,155,275128,1,0,1:0:0:0:
125,113,275305,1,12,1:0:0:0:
208,155,275481,1,0,1:0:0:0:
208,155,275570,1,0,1:0:0:0:
208,155,275658,1,8,1:0:0:0:
208,155,275834,1,0,1:0:0:0:
208,155,275922,1,0,1:0:0:0:
208,155,276011,1,8,1:0:0:0:
208,155,276099,1,0,1:0:0:0:
208,155,276187,1,0,1:0:0:0:
30,118,276364,1,8,1:0:0:0:
90,96,276452,1,8,1:0:0:0:
178,51,276540,1,0,1:0:0:0:
178,51,276717,1,12,1:0:0:0:
208,155,276893,1,0,1:0:0:0:
208,155,277070,1,8,1:0:0:0:
369,147,277187,1,0,1:0:0:0:
369,147,277305,1,0,1:0:0:0:
208,155,277422,1,8,1:0:0:0:
208,155,277540,1,8,1:0:0:0:
208,155,277658,1,0,1:0:0:0:
208,155,277775,1,8,1:0:0:0:
208,155,277893,1,8,1:0:0:0:
208,155,278011,1,8,1:0:0:0:
143,95,278128,1,0,1:0:0:0:
143,95,278187,1,0,1:0:0:0:
143,95,278246,1,0,1:0:0:0:
143,95,278364,1,0,1:0:0:0:
87,124,278481,1,8,1:0:0:0:
87,124,278540,1,8,1:0:0:0:
208,155,278599,1,0,1:0:0:0:
87,124,278717,1,0,1:0:0:0:
208,155,278834,1,8,1:0:0:0:
208,155,278893,1,8,1:0:0:0:
308,115,278952,1,8,1:0:0:0:
208,155,279070,1,0,1:0:0:0:
208,155,279187,1,12,1:0:0:0:
198,150,279540,1,4,1:0:0:0:
208,155,279717,1,8,1:0:0:0:
208,155,279893,1,0,1:0:0:0:
296,150,279981,1,0,1:0:0:0:
208,155,280070,1,8,1:0:0:0:
208,155,280158,1,8,1:0:0:0:
208,155,280246,1,0,1:0:0:0:
134,150,280364,1,8,1:0:0:0:
134,150,280481,1,8,1:0:0:0:
208,155,280599,1,0,1:0:0:0:
208,155,280775,1,8,1:0:0:0:
178,82,280952,1,0,1:0:0:0:
178,82,281070,1,0,1:0:0:0:
178,82,281187,1,8,1:0:0:0:
178,82,281305,1,8,1:0:0:0:
178,82,281422,1,0,1:0:0:0:
178,82,281540,1,8,1:0:0:0:
178,82,281658,1,0,1:0:0:0:
178,82,281717,1,0,1:0:0:0:
178,82,281775,1,8,1:0:0:0:
178,82,281893,1,0,1:0:0:0:
178,82,282011,1,8,1:0:0:0:
198,51,282128,1,8,1:0:0:0:
198,51,282246,1,0,1:0:0:0:
208,155,282364,1,8,1:0:0:0:
350,168,282452,1,8,1:0:0:0:
208,155,282540,1,0,1:0:0:0:
208,155,282717,1,8,1:0:0:0:
80,138,282893,1,0,1:0:0:0:
208,155,283070,1,8,1:0:0:0:
208,155,283158,1,8,1:0:0:0:
208,155,283246,1,0,1:0:0:0:
208,155,283422,1,8,1:0:0:0:
208,155,283599,1,8,1:0:0:0:
208,155,283775,1,0,1:0:0:0:
208,155,283864,1,0,1:0:0:0:
70,162,283952,1,8,1:0:0:0:
208,155,284128,1,8,1:0:0:0:
208,155,284217,1,8,1:0:0:0:
465,142,284305,1,0,1:0:0:0:
135,94,284393,1,0,1:0:0:0:
208,155,284481,1,8,1:0:0:0:
208,155,284599,1,0,1:0:0:0:
87,131,284717,1,8,1:0:0:0:
208,155,284834,1,0,1:0:0:0:
208,155,285187,1,12,1:0:0:0:
208,155,285364,1,0,1:0:0:0:
232,79,285452,1,0,1:0:0:0:
208,155,285540,1,8,1:0:0:0:
208,155,285717,1,0,1:0:0:0:
208,155,285893,1,8,1:0:0:0:
208,155,285981,1,0,1:0:0:0:
208,155,286070,1,0,1:0:0:0:
339,193,286158,1,0,1:0:0:0:
208,155,286246,1,8,1:0:0:0:
208,155,286334,1,8,1:0:0:0:
208,155,286422,1,0,1:0:0:0:
125,113,286599,1,12,1:0:0:0:
208,155,286775,1,0,1:0:0:0:
208,155,286864,1,0,1:0:0:0:
208,155,286952,1,8,1:0:0:0:
208,155,287040,1,0,1:0:0:0:
359,193,287128,1,8,1:0:0:0:
208,155,287217,1,8,1:0:0:0:
208,155,287305,1,0,1:0:0:0:
208,155,287393,1,8,1:0:0:0:
208,155,287481,1,0,1:0:0:0:
30,118,287658,1,8,1:0:0:0:
90,96,287746,1,8,1:0:0:0:
178,51,287834,1,0,1:0:0:0:
178,51,288011,1,12,1:0:0:0:
208,155,288187,1,0,1:0:0:0:
208,155,288364,1,8,1:0:0:0:
369,147,288481,1,0,1:0:0:0:
369,147,288599,1,0,1:0:0:0:
208,155,288717,1,8,1:0:0:0:
208,155,288834,1,8,1:0:0:0:
208,155,288952,1,0,1:0:0:0:
208,155,289070,1,8,1:0:0:0:
208,155,289187,1,0,1:0:0:0:
208,155,289305,1,8,1:0:0:0:
143,95,289422,1,0,1:0:0:0:
238,152,289481,1,0,1:0:0:0:
143,95,289540,1,0,1:0:0:0:
143,95,289658,1,8,1:0:0:0:
87,124,289775,1,0,1:0:0:0:
156,158,289834,1,0,1:0:0:0:
208,155,289893,1,8,1:0:0:0:
87,124,290011,1,8,1:0:0:0:
208,155,290128,1,0,1:0:0:0:
199,116,290187,1,0,1:0:0:0:
308,115,290246,1,0,1:0:0:0:
208,155,290364,1,0,1:0:0:0:
208,155,290481,1,12,1:0:0:0:
256,192,291364,1,8,1:0:0:0:
256,192,291540,1,0,1:0:0:0:
256,192,291717,1,0,1:0:0:0:
256,192,291893,1,8,1:0:0:0:
256,192,292070,1,8,1:0:0:0:
256,192,292246,1,4,1:0:0:0:
256,192,292599,1,8,1:0:0:0:
256,192,292952,1,8,1:0:0:0:
256,192,293305,1,0,1:0:0:0:
256,192,293481,1,8,1:0:0:0:
256,192,293658,1,0,1:0:0:0:
256,192,293834,1,0,1:0:0:0:
256,192,294011,1,8,1:0:0:0:
256,192,294187,1,0,1:0:0:0:
256,192,294364,1,8,1:0:0:0:
256,192,294717,1,0,1:0:0:0:
256,192,295070,1,8,1:0:0:0:
256,192,295422,1,8,1:0:0:0:
256,192,295775,1,8,1:0:0:0:
256,192,296128,1,0,1:0:0:0:
256,192,296305,1,8,1:0:0:0:
256,192,296481,1,0,1:0:0:0:
256,192,296658,1,0,1:0:0:0:
256,192,296834,1,8,1:0:0:0:
256,192,297011,1,8,1:0:0:0:
256,192,297187,1,0,1:0:0:0:
256,192,297717,1,0,1:0:0:0:
256,192,297893,1,8,1:0:0:0:
256,192,298070,1,8,1:0:0:0:
256,192,298246,1,8,1:0:0:0:
256,192,298599,1,8,1:0:0:0:
256,192,298864,1,0,1:0:0:0:
256,192,298952,1,8,1:0:0:0:
256,192,299128,1,0,1:0:0:0:
256,192,299305,1,8,1:0:0:0:
256,192,299481,1,8,1:0:0:0:
256,192,299658,1,8,1:0:0:0:
256,192,300011,1,8,1:0:0:0:
256,192,300275,1,0,1:0:0:0:
256,192,300364,1,8,1:0:0:0:
256,192,300540,1,0,1:0:0:0:
256,192,300717,1,8,1:0:0:0:
256,192,300981,1,0,1:0:0:0:
256,192,301070,1,8,1:0:0:0:
256,192,301246,1,0,1:0:0:0:
256,192,301422,1,8,1:0:0:0:
256,192,301511,1,8,1:0:0:0:
256,192,301687,1,8,1:0:0:0:
256,192,301775,1,0,1:0:0:0:
256,192,301952,1,8,1:0:0:0:
256,192,302128,1,0,1:0:0:0:
256,192,302217,1,0,1:0:0:0:
256,192,302305,1,8,1:0:0:0:
256,192,302393,1,0,1:0:0:0:
256,192,302481,1,8,1:0:0:0:
256,192,302570,1,8,1:0:0:0:
256,192,302658,1,0,1:0:0:0:
256,192,302746,1,8,1:0:0:0:
256,192,302834,1,0,1:0:0:0:
256,192,302922,1,0,1:0:0:0:
256,192,303011,1,0,1:0:0:0:
256,192,303187,1,12,1:0:0:0:
256,192,303540,1,12,1:0:0:0:
256,192,303717,1,0,1:0:0:0:
256,192,303805,1,0,1:0:0:0:
256,192,303893,1,8,1:0:0:0:
256,192,304070,1,0,1:0:0:0:
256,192,304158,1,0,1:0:0:0:
256,192,304246,1,8,1:0:0:0:
256,192,304334,1,8,1:0:0:0:
256,192,304422,1,0,1:0:0:0:
256,192,304511,1,0,1:0:0:0:
256,192,304599,1,8,1:0:0:0:
256,192,304775,1,8,1:0:0:0:
256,192,304864,1,0,1:0:0:0:
256,192,304952,1,8,1:0:0:0:
256,192,305040,1,8,1:0:0:0:
256,192,305128,1,0,1:0:0:0:
256,192,305305,1,8,1:0:0:0:
256,192,305481,1,0,1:0:0:0:
256,192,305658,1,8,1:0:0:0:
256,192,305746,1,8,1:0:0:0:
256,192,305834,1,0,1:0:0:0:
256,192,305922,1,0,1:0:0:0:
256,192,306011,1,8,1:0:0:0:
256,192,306099,1,0,1:0:0:0:
256,192,306187,1,0,1:0:0:0:
256,192,306275,1,0,1:0:0:0:
256,192,306364,1,8,1:0:0:0:
256,192,306540,1,0,1:0:0:0:
256,192,306628,1,0,1:0:0:0:
256,192,306717,1,8,1:0:0:0:
256,192,306893,1,0,1:0:0:0:
256,192,307070,1,8,1:0:0:0:
256,192,307158,1,8,1:0:0:0:
256,192,307246,1,0,1:0:0:0:
256,192,307334,1,0,1:0:0:0:
256,192,307422,1,8,1:0:0:0:
256,192,307599,1,0,1:0:0:0:
256,192,307775,1,8,1:0:0:0:
256,192,307952,1,0,1:0:0:0:
256,192,308040,1,0,1:0:0:0:
256,192,308128,1,8,1:0:0:0:
256,192,308305,1,8,1:0:0:0:
256,192,308481,1,0,1:0:0:0:
256,192,308658,1,8,1:0:0:0:
256,192,308834,1,8,1:0:0:0:
256,192,309187,1,0,1:0:0:0:
256,192,309364,1,0,1:0:0:0:
256,192,309452,1,0,1:0:0:0:
256,192,309540,1,8,1:0:0:0:
256,192,309717,1,0,1:0:0:0:
256,192,309805,1,0,1:0:0:0:
256,192,309893,1,8,1:0:0:0:
256,192,309981,1,0,1:0:0:0:
256,192,310070,1,8,1:0:0:0:
256,192,310158,1,8,1:0:0:0:
256,192,310246,1,0,1:0:0:0:
256,192,310334,1,0,1:0:0:0:
256,192,310422,1,8,1:0:0:0:
256,192,310599,1,0,1:0:0:0:
256,192,310775,1,0,1:0:0:0:
256,192,310864,1,0,1:0:0:0:
256,192,310952,1,8,1:0:0:0:
256,192,311128,1,0,1:0:0:0:
256,192,311217,1,0,1:0:0:0:
256,192,311305,1,8,1:0:0:0:
256,192,311393,1,0,1:0:0:0:
256,192,311481,1,8,1:0:0:0:
256,192,311570,1,8,1:0:0:0:
256,192,311658,1,0,1:0:0:0:
256,192,311746,1,0,1:0:0:0:
256,192,311834,1,8,1:0:0:0:
256,192,311922,1,0,1:0:0:0:
256,192,312011,1,8,1:0:0:0:
256,192,312187,1,0,1:0:0:0:
256,192,312364,1,8,1:0:0:0:
256,192,312540,1,0,1:0:0:0:
256,192,312628,1,0,1:0:0:0:
256,192,312717,1,8,1:0:0:0:
256,192,312893,1,0,1:0:0:0:
256,192,313070,1,8,1:0:0:0:
256,192,313158,1,0,1:0:0:0:
256,192,313246,1,8,1:0:0:0:
256,192,313334,1,8,1:0:0:0:
256,192,313422,1,0,1:0:0:0:
256,192,313599,1,0,1:0:0:0:
256,192,313687,1,0,1:0:0:0:
256,192,313775,1,8,1:0:0:0:
256,192,313952,1,0,1:0:0:0:
256,192,314128,1,8,1:0:0:0:
256,192,314217,1,8,1:0:0:0:
256,192,314305,1,0,1:0:0:0:
256,192,314393,1,0,1:0:0:0:
256,192,314481,1,8,1:0:0:0:
256,192,314834,1,12,1:0:0:0:
256,192,315011,1,0,1:0:0:0:
256,192,315099,1,0,1:0:0:0:
256,192,315187,1,8,1:0:0:0:
256,192,315364,1,0,1:0:0:0:
256,192,315540,1,8,1:0:0:0:
256,192,315628,1,8,1:0:0:0:
256,192,315717,1,0,1:0:0:0:
256,192,315805,1,0,1:0:0:0:
256,192,315893,1,8,1:0:0:0:
256,192,316070,1,0,1:0:0:0:
256,192,316246,1,0,1:0:0:0:
256,192,316422,1,0,1:0:0:0:
256,192,316511,1,0,1:0:0:0:
256,192,316599,1,8,1:0:0:0:
256,192,316775,1,0,1:0:0:0:
256,192,316952,1,8,1:0:0:0:
256,192,317040,1,8,1:0:0:0:
256,192,317128,1,8,1:0:0:0:
256,192,317217,1,8,1:0:0:0:
256,192,317305,1,0,1:0:0:0:
256,192,317393,1,0,1:0:0:0:
256,192,317481,1,0,1:0:0:0:
256,192,317570,1,0,1:0:0:0:
256,192,317658,1,8,1:0:0:0:
256,192,317834,1,0,1:0:0:0:
256,192,317922,1,0,1:0:0:0:
256,192,318011,1,8,1:0:0:0:
256,192,318187,1,0,1:0:0:0:
256,192,318364,1,8,1:0:0:0:
256,192,318452,1,8,1:0:0:0:
256,192,318540,1,0,1:0:0:0:
256,192,318717,1,8,1:0:0:0:
256,192,318893,1,0,1:0:0:0:
256,192,318981,1,0,1:0:0:0:
256,192,319070,1,0,1:0:0:0:
256,192,319246,1,0,1:0:0:0:
256,192,319334,1,0,1:0:0:0:
256,192,319422,1,8,1:0:0:0:
256,192,319599,1,0,1:0:0:0:
256,192,319775,1,0,1:0:0:0:
256,192,319952,1,8,1:0:0:0:
256,192,320040,1,0,1:0:0:0:
256,192,320128,1,8,1:0:0:0:
256,192,320217,1,8,1:0:0:0:
256,192,320305,1,0,1:0:0:0:
256,192,320393,1,0,1:0:0:0:
256,192,320481,1,8,1:0:0:0:
256,192,320658,1,0,1:0:0:0:
256,192,320746,1,0,1:0:0:0:
256,192,320834,1,8,1:0:0:0:
256,192,321011,1,0,1:0:0:0:
256,192,321099,1,0,1:0:0:0:
256,192,321187,1,8,1:0:0:0:
256,192,321275,1,0,1:0:0:0:
256,192,321364,1,0,1:0:0:0:
256,192,321452,1,0,1:0:0:0:
256,192,321540,1,8,1:0:0:0:
256,192,321628,1,0,1:0:0:0:
256,192,321717,1,8,1:0:0:0:
256,192,321805,1,8,1:0:0:0:
256,192,321893,1,0,1:0:0:0:
256,192,322070,1,0,1:0:0:0:
256,192,322158,1,0,1:0:0:0:
256,192,322246,1,8,1:0:0:0:
256,192,322422,1,0,1:0:0:0:
256,192,322511,1,0,1:0:0:0:
256,192,322599,1,8,1:0:0:0:
256,192,322687,1,8,1:0:0:0:
256,192,322775,1,8,1:0:0:0:
256,192,322864,1,8,1:0:0:0:
256,192,322952,1,0,1:0:0:0:
256,192,323040,1,0,1:0:0:0:
256,192,323128,1,0,1:0:0:0:
256,192,323217,1,0,1:0:0:0:
256,192,323305,1,8,1:0:0:0:
256,192,323481,1,0,1:0:0:0:
256,192,323658,1,8,1:0:0:0:
256,192,323834,1,0,1:0:0:0:
256,192,323922,1,0,1:0:0:0:
256,192,324011,1,8,1:0:0:0:
256,192,324099,1,8,1:0:0:0:
256,192,324187,1,0,1:0:0:0:
256,192,324364,1,8,1:0:0:0:
256,192,324540,1,0,1:0:0:0:
256,192,324717,1,0,1:0:0:0:
256,192,324893,1,0,1:0:0:0:
256,192,324981,1,0,1:0:0:0:
256,192,325070,1,8,1:0:0:0:
256,192,325246,1,0,1:0:0:0:
256,192,325422,1,8,1:0:0:0:
256,192,325511,1,8,1:0:0:0:
256,192,325599,1,0,1:0:0:0:
256,192,325687,1,0,1:0:0:0:
256,192,325775,1,8,1:0:0:0:
256,192,326128,1,12,1:0:0:0:
256,192,326305,1,0,1:0:0:0:
256,192,326393,1,0,1:0:0:0:
256,192,326481,1,8,1:0:0:0:
256,192,326658,1,0,1:0:0:0:
256,192,326834,1,8,1:0:0:0:
256,192,326922,1,8,1:0:0:0:
256,192,327011,1,0,1:0:0:0:
256,192,327099,1,0,1:0:0:0:
256,192,327187,1,8,1:0:0:0:
256,192,327364,1,0,1:0:0:0:
256,192,327540,1,0,1:0:0:0:
256,192,327717,1,0,1:0:0:0:
256,192,327805,1,0,1:0:0:0:
256,192,327893,1,8,1:0:0:0:
256,192,328070,1,0,1:0:0:0:
256,192,328246,1,8,1:0:0:0:
256,192,328334,1,8,1:0:0:0:
256,192,328422,1,8,1:0:0:0:
256,192,328511,1,8,1:0:0:0:
256,192,328599,1,0,1:0:0:0:
256,192,328687,1,0,1:0:0:0:
256,192,328775,1,0,1:0:0:0:
256,192,328864,1,0,1:0:0:0:
256,192,328952,1,8,1:0:0:0:
256,192,329128,1,0,1:0:0:0:
256,192,329217,1,0,1:0:0:0:
256,192,329305,1,8,1:0:0:0:
256,192,329481,1,0,1:0:0:0:
256,192,329658,1,8,1:0:0:0:
256,192,329746,1,8,1:0:0:0:
256,192,329834,1,0,1:0:0:0:
256,192,330011,1,8,1:0:0:0:
256,192,330187,1,0,1:0:0:0:
256,192,330275,1,0,1:0:0:0:
256,192,330364,1,0,1:0:0:0:
256,192,330540,1,0,1:0:0:0:
256,192,330628,1,0,1:0:0:0:
256,192,330717,1,8,1:0:0:0:
256,192,330893,1,0,1:0:0:0:
256,192,331070,1,0,1:0:0:0:
256,192,331246,1,8,1:0:0:0:
256,192,331334,1,0,1:0:0:0:
256,192,331422,1,8,1:0:0:0:
256,192,331511,1,8,1:0:0:0:
256,192,331599,1,0,1:0:0:0:
256,192,331687,1,0,1:0:0:0:
256,192,331775,1,8,1:0:0:0:
256,192,331952,1,0,1:0:0:0:
256,192,332040,1,0,1:0:0:0:
256,192,332128,1,8,1:0:0:0:
256,192,332305,1,0,1:0:0:0:
256,192,332393,1,0,1:0:0:0:
256,192,332481,1,8,1:0:0:0:
256,192,332570,1,0,1:0:0:0:
256,192,332658,1,0,1:0:0:0:
256,192,332746,1,8,1:0:0:0:
256,192,332834,1,0,1:0:0:0:
256,192,332922,1,0,1:0:0:0:
256,192,333011,1,8,1:0:0:0:
256,192,333099,1,8,1:0:0:0:
256,192,333187,1,0,1:0:0:0:
256,192,333364,1,0,1:0:0:0:
256,192,333452,1,0,1:0:0:0:
256,192,333540,1,8,1:0:0:0:
256,192,333717,1,0,1:0:0:0:
256,192,333805,1,0,1:0:0:0:
256,192,333893,1,8,1:0:0:0:
256,192,333981,1,0,1:0:0:0:
256,192,334070,1,8,1:0:0:0:
256,192,334158,1,0,1:0:0:0:
256,192,334246,1,8,1:0:0:0:
256,192,334334,1,8,1:0:0:0:
256,192,334422,1,0,1:0:0:0:
256,192,334511,1,0,1:0:0:0:
256,192,334599,1,8,1:0:0:0:
256,192,334775,1,0,1:0:0:0:
256,192,334952,1,8,1:0:0:0:
256,192,335128,1,0,1:0:0:0:
256,192,335217,1,0,1:0:0:0:
256,192,335305,1,8,1:0:0:0:
256,192,335393,1,8,1:0:0:0:
256,192,335481,1,0,1:0:0:0:
256,192,335570,1,8,1:0:0:0:
256,192,335658,1,0,1:0:0:0:
256,192,335746,1,0,1:0:0:0:
256,192,335834,1,8,1:0:0:0:
256,192,335922,1,8,1:0:0:0:
256,192,336011,1,0,1:0:0:0:
256,192,336187,1,0,1:0:0:0:
256,192,336275,1,0,1:0:0:0:
256,192,336364,1,8,1:0:0:0:
256,192,336452,1,0,1:0:0:0:
256,192,336540,1,8,1:0:0:0:
256,192,336628,1,8,1:0:0:0:
256,192,336717,1,0,1:0:0:0:
256,192,336805,1,0,1:0:0:0:
256,192,336893,1,8,1:0:0:0:
256,192,336981,1,0,1:0:0:0:
256,192,337070,1,8,1:0:0:0:
256,192,337246,1,8,1:0:0:0:
256,192,337334,1,8,1:0:0:0:
159,147,337422,1,0,1:0:0:0:
125,230,337599,1,8,1:0:0:0:
125,230,337687,1,8,1:0:0:0:
125,230,337775,1,0,1:0:0:0:
125,230,337952,1,8,1:0:0:0:
125,230,338128,1,0,1:0:0:0:
200,118,338305,1,8,1:0:0:0:
47,84,338393,1,8,1:0:0:0:
200,118,338481,1,0,1:0:0:0:
125,230,338658,1,8,1:0:0:0:
125,230,338834,1,0,1:0:0:0:
200,118,339011,1,8,1:0:0:0:
200,118,339099,1,8,1:0:0:0:
125,230,339187,1,0,1:0:0:0:
125,230,339364,1,8,1:0:0:0:
125,230,339540,1,0,1:0:0:0:
200,118,339717,1,0,1:0:0:0:
92,51,339805,1,8,1:0:0:0:
196,108,339893,1,0,1:0:0:0:
125,230,340070,1,8,1:0:0:0:
125,230,340246,1,0,1:0:0:0:
196,108,340422,1,8,1:0:0:0:
195,105,340511,1,8,1:0:0:0:
125,230,340599,1,0,1:0:0:0:
193,103,340775,1,8,1:0:0:0:
125,230,340952,1,0,1:0:0:0:
193,103,341128,1,8,1:0:0:0:
193,103,341217,1,8,1:0:0:0:
125,230,341305,1,0,1:0:0:0:
125,230,341481,1,8,1:0:0:0:
125,230,341658,1,0,1:0:0:0:
187,92,341834,1,8,1:0:0:0:
187,92,341922,1,8,1:0:0:0:
125,230,342011,1,0,1:0:0:0:
125,230,342187,1,8,1:0:0:0:
125,230,342364,1,4,1:0:0:0:
76,61,342717,1,12,1:0:0:0:
159,147,343070,1,4,1:0:0:0:
125,230,343246,1,8,1:0:0:0:
125,230,343334,1,8,1:0:0:0:
125,230,343422,1,0,1:0:0:0:
125,230,343599,1,8,1:0:0:0:
125,230,343775,1,0,1:0:0:0:
200,118,343952,1,8,1:0:0:0:
47,84,344040,1,8,1:0:0:0:
200,118,344128,1,0,1:0:0:0:
125,230,344305,1,8,1:0:0:0:
125,230,344481,1,0,1:0:0:0:
200,118,344658,1,8,1:0:0:0:
200,118,344746,1,8,1:0:0:0:
125,230,344834,1,0,1:0:0:0:
125,230,345011,1,8,1:0:0:0:
125,230,345187,1,0,1:0:0:0:
200,118,345364,1,0,1:0:0:0:
92,51,345452,1,8,1:0:0:0:
196,108,345540,1,0,1:0:0:0:
125,230,345717,1,8,1:0:0:0:
125,230,345893,1,0,1:0:0:0:
196,108,346070,1,8,1:0:0:0:
195,105,346158,1,8,1:0:0:0:
125,230,346246,1,0,1:0:0:0:
193,103,346422,1,8,1:0:0:0:
125,230,346599,1,0,1:0:0:0:
193,103,346775,1,8,1:0:0:0:
193,103,346864,1,8,1:0:0:0:
125,230,346952,1,0,1:0:0:0:
125,230,347128,1,8,1:0:0:0:
125,230,347305,1,0,1:0:0:0:
187,92,347481,1,8,1:0:0:0:
187,92,347570,1,8,1:0:0:0:
125,230,347658,1,0,1:0:0:0:
125,230,347834,1,8,1:0:0:0:
125,230,348011,1,4,1:0:0:0:
125,230,348364,1,12,1:0:0:0:
159,147,348717,1,4,1:0:0:0:
125,230,348893,1,8,1:0:0:0:
125,230,348981,1,8,1:0:0:0:
125,230,349070,1,0,1:0:0:0:
125,230,349246,1,8,1:0:0:0:
125,230,349422,1,0,1:0:0:0:
200,118,349599,1,8,1:0:0:0:
47,84,349687,1,8,1:0:0:0:
200,118,349775,1,0,1:0:0:0:
125,230,349952,1,8,1:0:0:0:
125,230,350128,1,0,1:0:0:0:
200,118,350305,1,8,1:0:0:0:
200,118,350393,1,8,1:0:0:0:
125,230,350481,1,0,1:0:0:0:
125,230,350658,1,8,1:0:0:0:
125,230,350834,1,0,1:0:0:0:
200,118,351011,1,0,1:0:0:0:
92,51,351099,1,8,1:0:0:0:
196,108,351187,1,0,1:0:0:0:
125,230,351364,1,8,1:0:0:0:
125,230,351540,1,0,1:0:0:0:
196,108,351717,1,8,1:0:0:0:
195,105,351805,1,8,1:0:0:0:
125,230,351893,1,0,1:0:0:0:
193,103,352070,1,8,1:0:0:0:
125,230,352246,1,0,1:0:0:0:
193,103,352422,1,8,1:0:0:0:
193,103,352511,1,8,1:0:0:0:
125,230,352599,1,0,1:0:0:0:
125,230,352775,1,8,1:0:0:0:
125,230,352952,1,0,1:0:0:0:
187,92,353128,1,8,1:0:0:0:
187,92,353217,1,8,1:0:0:0:
125,230,353305,1,0,1:0:0:0:
125,230,353481,1,8,1:0:0:0:
125,230,353658,1,4,1:0:0:0:
76,61,354011,1,12,1:0:0:0:
159,147,354364,1,4,1:0:0:0:
125,230,354540,1,8,1:0:0:0:
125,230,354628,1,8,1:0:0:0:
125,230,354717,1,0,1:0:0:0:
125,230,354893,1,8,1:0:0:0:
125,230,355070,1,0,1:0:0:0:
200,118,355246,1,8,1:0:0:0:
47,84,355334,1,8,1:0:0:0:
200,118,355422,1,0,1:0:0:0:
125,230,355599,1,8,1:0:0:0:
125,230,355775,1,4,1:0:0:0:
200,118,355952,1,8,1:0:0:0:
200,118,356040,1,8,1:0:0:0:
125,230,356128,1,0,1:0:0:0:
125,230,356305,1,8,1:0:0:0:
125,230,356481,1,0,1:0:0:0:
200,118,356658,1,0,1:0:0:0:
92,51,356746,1,8,1:0:0:0:
196,108,356834,1,0,1:0:0:0:
125,230,357011,1,8,1:0:0:0:
125,230,357187,1,4,1:0:0:0:
196,108,357364,1,8,1:0:0:0:
195,105,357452,1,8,1:0:0:0:
125,230,357540,1,0,1:0:0:0:
193,103,357717,1,8,1:0:0:0:
125,230,357893,1,4,1:0:0:0:
193,103,358070,1,8,1:0:0:0:
193,103,358158,1,8,1:0:0:0:
125,230,358246,1,0,1:0:0:0:
125,230,358422,1,8,1:0:0:0:
125,230,358599,1,0,1:0:0:0:
226,138,358687,1,0,1:0:0:0:
226,138,358775,1,0,1:0:0:0:
226,138,358864,1,0,1:0:0:0:
226,138,358952,1,8,1:0:0:0:
309,145,359128,1,0,1:0:0:0:
309,145,359217,1,8,1:0:0:0:
309,145,359393,1,0,1:0:0:0:
309,145,359481,1,0,1:0:0:0:
309,145,359570,1,0,1:0:0:0:
309,145,359658,1,8,1:0:0:0:
462,236,359746,1,0,1:0:0:0:
454,249,359834,1,8,1:0:0:0:
159,147,360011,1,4,1:0:0:0:
200,118,360187,1,8,1:0:0:0:
125,230,360275,1,8,1:0:0:0:
125,230,360364,1,0,1:0:0:0:
125,230,360540,1,8,1:0:0:0:
125,230,360717,1,0,1:0:0:0:
47,84,360981,1,8,1:0:0:0:
200,118,361070,1,0,1:0:0:0:
125,230,361246,1,8,1:0:0:0:
125,230,361422,1,0,1:0:0:0:
200,118,361599,1,8,1:0:0:0:
200,118,361687,1,8,1:0:0:0:
125,230,361775,1,0,1:0:0:0:
125,230,361952,1,8,1:0:0:0:
125,230,362128,1,0,1:0:0:0:
200,118,362305,1,0,1:0:0:0:
92,51,362393,1,8,1:0:0:0:
196,108,362481,1,0,1:0:0:0:
125,230,362658,1,8,1:0:0:0:
125,230,362834,1,0,1:0:0:0:
196,108,363011,1,8,1:0:0:0:
195,105,363099,1,8,1:0:0:0:
125,230,363187,1,0,1:0:0:0:
193,103,363364,1,8,1:0:0:0:
125,230,363540,1,0,1:0:0:0:
193,103,363805,1,8,1:0:0:0:
125,230,363893,1,0,1:0:0:0:
125,230,364070,1,8,1:0:0:0:
125,230,364246,1,0,1:0:0:0:
187,92,364422,1,8,1:0:0:0:
187,92,364511,1,8,1:0:0:0:
125,230,364599,1,0,1:0:0:0:
125,230,364775,1,8,1:0:0:0:
125,230,364952,1,0,1:0:0:0:
371,235,365128,1,0,1:0:0:0:
371,235,365217,1,8,1:0:0:0:
76,61,365305,1,0,1:0:0:0:
371,235,365481,1,8,1:0:0:0:
159,147,365658,1,0,1:0:0:0:
125,230,365834,1,8,1:0:0:0:
125,230,365922,1,8,1:0:0:0:
125,230,366011,1,0,1:0:0:0:
125,230,366187,1,8,1:0:0:0:
125,230,366364,1,0,1:0:0:0:
47,84,366628,1,8,1:0:0:0:
200,118,366717,1,0,1:0:0:0:
125,230,366893,1,8,1:0:0:0:
125,230,367070,1,0,1:0:0:0:
200,118,367246,1,8,1:0:0:0:
200,118,367334,1,8,1:0:0:0:
125,230,367422,1,0,1:0:0:0:
125,230,367599,1,8,1:0:0:0:
125,230,367775,1,0,1:0:0:0:
200,118,367952,1,0,1:0:0:0:
92,51,368040,1,8,1:0:0:0:
196,108,368128,1,0,1:0:0:0:
125,230,368305,1,8,1:0:0:0:
125,230,368481,1,0,1:0:0:0:
196,108,368658,1,8,1:0:0:0:
195,105,368746,1,8,1:0:0:0:
125,230,368834,1,0,1:0:0:0:
193,103,369011,1,8,1:0:0:0:
342,106,369187,1,0,1:0:0:0:
193,103,369452,1,8,1:0:0:0:
125,230,369540,1,0,1:0:0:0:
125,230,369717,1,8,1:0:0:0:
342,106,369893,1,0,1:0:0:0:
187,92,370070,1,8,1:0:0:0:
187,92,370158,1,8,1:0:0:0:
125,230,370246,1,0,1:0:0:0:
125,230,370422,1,8,1:0:0:0:
125,230,370599,1,4,1:0:0:0:
125,230,370952,1,12,1:0:0:0:
159,147,371305,1,4,1:0:0:0:
125,230,371481,1,8,1:0:0:0:
125,230,371570,1,8,1:0:0:0:
125,230,371658,1,0,1:0:0:0:
417,111,371746,1,0,1:0:0:0:
125,230,371834,1,8,1:0:0:0:
125,230,372011,1,0,1:0:0:0:
47,84,372275,1,8,1:0:0:0:
200,118,372364,1,0,1:0:0:0:
125,230,372540,1,8,1:0:0:0:
125,230,372717,1,0,1:0:0:0:
200,118,372893,1,8,1:0:0:0:
200,118,372981,1,0,1:0:0:0:
125,230,373070,1,0,1:0:0:0:
300,64,373158,1,0,1:0:0:0:
125,230,373246,1,8,1:0:0:0:
388,126,373422,1,0,1:0:0:0:
200,118,373599,1,8,1:0:0:0:
200,118,373687,1,8,1:0:0:0:
196,108,373775,1,0,1:0:0:0:
125,230,373952,1,8,1:0:0:0:
195,105,374128,1,0,1:0:0:0:
264,39,374305,1,8,1:0:0:0:
264,39,374393,1,8,1:0:0:0:
125,230,374481,1,0,1:0:0:0:
264,39,374570,1,0,1:0:0:0:
193,103,374658,1,8,1:0:0:0:
125,230,374834,1,0,1:0:0:0:
193,103,375099,1,8,1:0:0:0:
125,230,375187,1,0,1:0:0:0:
125,230,375364,1,8,1:0:0:0:
125,230,375540,1,0,1:0:0:0:
187,92,375717,1,0,1:0:0:0:
187,92,375805,1,0,1:0:0:0:
125,230,375893,1,8,1:0:0:0:
125,230,376070,1,8,1:0:0:0:
125,230,376246,1,0,1:0:0:0:
12,60,376422,1,8,1:0:0:0:
125,230,376511,1,0,1:0:0:0:
76,61,376599,1,8,1:0:0:0:
76,61,376775,1,0,1:0:0:0:
159,147,376952,1,12,1:0:0:0:
312,132,377128,1,0,1:0:0:0:
312,132,377305,1,8,1:0:0:0:
312,132,377481,1,0,1:0:0:0:
179,65,377570,1,0,1:0:0:0:
312,132,377658,1,8,1:0:0:0:
312,132,377834,1,0,1:0:0:0:
312,132,377922,1,8,1:0:0:0:
129,119,378011,1,0,1:0:0:0:
312,132,378187,1,8,1:0:0:0:
312,132,378364,1,12,1:0:0:0:
312,132,378540,1,0,1:0:0:0:
312,132,378717,1,8,1:0:0:0:
312,132,378893,1,0,1:0:0:0:
187,187,378981,1,0,1:0:0:0:
312,132,379070,1,8,1:0:0:0:
312,132,379158,1,0,1:0:0:0:
312,132,379246,1,8,1:0:0:0:
281,182,379334,1,8,1:0:0:0:
312,132,379422,1,0,1:0:0:0:
312,132,379599,1,0,1:0:0:0:
312,132,379775,1,8,1:0:0:0:
312,132,379864,1,8,1:0:0:0:
312,132,379952,1,0,1:0:0:0:
194,63,380040,1,0,1:0:0:0:
312,132,380128,1,8,1:0:0:0:
312,132,380217,1,0,1:0:0:0:
312,132,380305,1,8,1:0:0:0:
312,132,380393,1,8,1:0:0:0:
312,132,380481,1,0,1:0:0:0:
312,132,380570,1,0,1:0:0:0:
312,132,380658,1,8,1:0:0:0:
312,132,380746,1,0,1:0:0:0:
102,42,380834,1,8,1:0:0:0:
98,52,380922,1,8,1:0:0:0:
125,230,381011,1,8,1:0:0:0:
312,132,381099,1,8,1:0:0:0:
125,230,381187,1,0,1:0:0:0:
226,138,381275,1,0,1:0:0:0:
226,138,381364,1,0,1:0:0:0:
226,138,381452,1,0,1:0:0:0:
226,138,381540,1,8,1:0:0:0:
226,138,381628,1,8,1:0:0:0:
309,145,381717,1,0,1:0:0:0:
309,145,381805,1,8,1:0:0:0:
226,138,381893,1,0,1:0:0:0:
309,145,382070,1,0,1:0:0:0:
309,145,382246,1,8,1:0:0:0:
309,145,382422,1,8,1:0:0:0:
309,145,382511,1,8,1:0:0:0:
