osu file format v14

[General]
AudioFilename: audio.mp3
AudioLeadIn: 0
PreviewTime: 83368
Countdown: 0
SampleSet: Normal
StackLeniency: 0.7
Mode: 1
LetterboxInBreaks: 0
WidescreenStoryboard: 1

[Editor]
Bookmarks: 3407,29889,44786,71269,84510,110993,124230,137476,150717,177200,190437,206993,220234,233476,246717
DistanceSpacing: 2
BeatDivisor: 4
GridSize: 32
TimelineZoom: 1.86

[Metadata]
Title:BLUE CLAPPER
TitleUnicode:BLUE CLAPPER
Artist:hololive IDOL PROJECT
ArtistUnicode:hololive IDOL PROJECT
Creator:Jerry
Version:Ulqui's Inner Oni
Source:
Tags:ulqui japanese electronic jpop j-pop pop floral circlet vtuber virtual バーチャルyoutuber ホロライブ pandaboy 5期生 5th generation gen holofive cover corp 雪花ラミィ 桃鈴ねね 獅白ぼたん 尾丸ポルカ 魔乃アロエ Yukihana Lamy Momosuzu Nene Shishiro Botan Omaru Polka Mano Aloe original clap your hands
BeatmapID:2756998
BeatmapSetID:1329875

[Difficulty]
HPDrainRate:6
CircleSize:5
OverallDifficulty:6
ApproachRate:5
SliderMultiplier:1.4
SliderTickRate:1

[Events]
//Background and Video events
0,0,"HOLOFIVE.png",0,175
//Break Periods
2,206988,212408
//Storyboard Layer 0 (Background)
Sprite,Background,TopLeft,"HOLOFIVE.png",0,0
//Storyboard Layer 1 (Fail)
//Storyboard Layer 2 (Pass)
//Storyboard Layer 3 (Foreground)
Sprite,Foreground,Centre,"SB\credits\ulqui.png",320,85 L,117609,2 F,0,0,46,0,0.65 F,0,46,92,0.65,0 F,0,92,138,0,0.65 S,0,117609,120919,0.75
Sprite,Foreground,Centre,"SB\credits\storyboard.png",320,85 L,120919,2 F,0,0,46,0,0.65 F,0,46,92,0.65,0 F,0,92,138,0,0.65 L,122575,2 F,0,0,46,0.65,0 F,0,46,92,0,0.65 F,0,92,138,0.65,0 S,0,120919,122575,0.75
//Storyboard Layer 4 (Overlay)
//Storyboard Sound Samples

[TimingPoints]
1748,413.793103448276,4,1,0,80,1,0
1748,-66.6666666666667,4,1,0,80,0,0
2368,-100,4,1,0,80,0,0
3403,413.793103448276,4,1,0,80,1,0
29834,-71.4285714285714,4,1,0,80,0,0
30248,-72.3981900452489,4,1,0,80,0,0
30661,-73.3944954128441,4,1,0,80,0,0
30972,-74.4186046511628,4,1,0,80,0,0
31075,-75.4716981132076,4,1,0,80,0,0
31179,-76.555023923445,4,1,0,80,0,0
31282,-77.6699029126214,4,1,0,80,0,0
31385,-78.8177339901478,4,1,0,80,0,0
31489,-80,4,1,0,80,0,0
31903,-81.2182741116751,4,1,0,80,0,0
32316,-82.4742268041237,4,1,0,80,0,0
32627,-83.7696335078534,4,1,0,80,0,0
32730,-85.1063829787234,4,1,0,80,0,0
32834,-86.4864864864865,4,1,0,80,0,0
32937,-87.9120879120879,4,1,0,80,0,0
33041,-89.3854748603352,4,1,0,80,0,0
33144,-90.9090909090909,4,1,0,80,0,0
33558,-92.485549132948,4,1,0,80,0,0
33972,-94.1176470588235,4,1,0,80,0,0
34282,-95.8083832335329,4,1,0,80,0,0
34385,-97.5609756097561,4,1,0,80,0,0
34489,-99.3788819875776,4,1,0,80,0,0
34592,-101.26582278481,4,1,0,80,0,0
34696,-103.225806451613,4,1,0,80,0,0
34799,-105.263157894737,4,1,0,80,0,0
35213,-107.38255033557,4,1,0,80,0,0
35627,-109.58904109589,4,1,0,80,0,0
35937,-111.888111888112,4,1,0,80,0,0
36041,-114.285714285714,4,1,0,80,0,0
36144,-116.788321167883,4,1,0,80,0,0
36248,-119.402985074627,4,1,0,80,0,0
36351,-122.137404580153,4,1,0,80,0,0
36454,-125,4,1,0,80,0,0
36661,-123.076923076923,4,1,0,80,0,0
36868,-121.212121212121,4,1,0,80,0,0
37075,-119.402985074627,4,1,0,80,0,0
37282,-117.647058823529,4,1,0,80,0,0
37489,-115.942028985507,4,1,0,80,0,0
37696,-114.285714285714,4,1,0,80,0,0
37903,-112.676056338028,4,1,0,80,0,0
38110,-111.111111111111,4,1,0,80,0,0
38316,-109.58904109589,4,1,0,80,0,0
38523,-108.108108108108,4,1,0,80,0,0
38730,-106.666666666667,4,1,0,80,0,0
38937,-105.263157894737,4,1,0,80,0,0
39144,-103.896103896104,4,1,0,80,0,0
39351,-102.564102564103,4,1,0,80,0,0
39558,-101.26582278481,4,1,0,80,0,0
39765,-100,4,1,0,80,0,0
39868,-98.7654320987654,4,1,0,80,0,0
39972,-97.5609756097561,4,1,0,80,0,0
40075,-96.3855421686747,4,1,0,80,0,0
40179,-95.2380952380952,4,1,0,80,0,0
40282,-94.1176470588235,4,1,0,80,0,0
40385,-93.0232558139535,4,1,0,80,0,0
40489,-91.9540229885058,4,1,0,80,0,0
40592,-90.9090909090909,4,1,0,80,0,0
40696,-89.8876404494382,4,1,0,80,0,0
40799,-88.8888888888889,4,1,0,80,0,0
40903,-87.9120879120879,4,1,0,80,0,0
41006,-86.9565217391304,4,1,0,80,0,0
41110,-86.0215053763441,4,1,0,80,0,0
41213,-85.1063829787234,4,1,0,80,0,0
41316,-84.2105263157895,4,1,0,80,0,0
41420,-83.3333333333333,4,1,0,80,0,0
41523,-82.4742268041237,4,1,0,80,0,0
41627,-81.6326530612245,4,1,0,80,0,0
41730,-80.8080808080808,4,1,0,80,0,0
41834,-80,4,1,0,80,0,0
41937,-79.2079207920792,4,1,0,80,0,0
42041,-78.4313725490196,4,1,0,80,0,0
42144,-77.6699029126214,4,1,0,80,0,0
42248,-76.9230769230769,4,1,0,80,0,0
42351,-76.1904761904762,4,1,0,80,0,0
42454,-75.4716981132076,4,1,0,80,0,0
42558,-74.7663551401869,4,1,0,80,0,0
42661,-74.0740740740741,4,1,0,80,0,0
42765,-73.3944954128441,4,1,0,80,0,0
42868,-72.7272727272727,4,1,0,80,0,0
42972,-72.0720720720721,4,1,0,80,0,0
43075,-71.4285714285714,4,1,0,80,0,0
44316,-66.6666666666667,4,1,0,80,0,0
44782,413.793103448276,4,1,0,80,1,0
44782,-100,4,1,0,80,0,0
70850,-66.6666666666667,4,1,0,80,0,0
71213,-71.4285714285714,4,1,0,80,0,0
71627,-72.3981900452489,4,1,0,80,0,0
72040,-73.3944954128441,4,1,0,80,0,0
72351,-74.4186046511628,4,1,0,80,0,0
72454,-75.4716981132076,4,1,0,80,0,0
72558,-76.555023923445,4,1,0,80,0,0
72661,-77.6699029126214,4,1,0,80,0,0
72764,-78.8177339901478,4,1,0,80,0,0
72868,-80,4,1,0,80,0,0
73282,-81.2182741116751,4,1,0,80,0,0
73695,-82.4742268041237,4,1,0,80,0,0
73903,-83.7696335078534,4,1,0,80,0,0
74109,-85.1063829787234,4,1,0,80,0,0
74213,-86.4864864864865,4,1,0,80,0,0
74316,-87.9120879120879,4,1,0,80,0,0
74420,-89.3854748603352,4,1,0,80,0,0
74523,-90.9090909090909,4,1,0,80,0,0
74937,-92.485549132948,4,1,0,80,0,0
75351,-94.1176470588235,4,1,0,80,0,0
75661,-95.8083832335329,4,1,0,80,0,0
75764,-97.5609756097561,4,1,0,80,0,0
75868,-99.3788819875776,4,1,0,80,0,0
75971,-101.26582278481,4,1,0,80,0,0
76075,-103.225806451613,4,1,0,80,0,0
76178,-105.263157894737,4,1,0,80,0,0
76592,-107.38255033557,4,1,0,80,0,0
77006,-109.58904109589,4,1,0,80,0,0
77161,-111.888111888112,4,1,0,80,0,0
77420,-114.285714285714,4,1,0,80,0,0
77523,-116.788321167883,4,1,0,80,0,0
77627,-119.402985074627,4,1,0,80,0,0
77730,-122.137404580153,4,1,0,80,0,0
77834,-125,4,1,0,80,0,0
78041,-123.076923076923,4,1,0,80,0,0
78248,-121.212121212121,4,1,0,80,0,0
78455,-119.402985074627,4,1,0,80,0,0
78662,-117.647058823529,4,1,0,80,0,0
78869,-115.942028985507,4,1,0,80,0,0
79076,-114.285714285714,4,1,0,80,0,0
79283,-112.676056338028,4,1,0,80,0,0
79490,-111.111111111111,4,1,0,80,0,0
79696,-109.58904109589,4,1,0,80,0,0
79903,-108.108108108108,4,1,0,80,0,0
80110,-106.666666666667,4,1,0,80,0,0
80317,-105.263157894737,4,1,0,80,0,0
80524,-103.896103896104,4,1,0,80,0,0
80731,-102.564102564103,4,1,0,80,0,0
80938,-101.26582278481,4,1,0,80,0,0
81145,-100,4,1,0,80,0,0
81248,-98.7654320987654,4,1,0,80,0,0
81352,-97.5609756097561,4,1,0,80,0,0
81455,-96.3855421686747,4,1,0,80,0,0
81559,-95.2380952380952,4,1,0,80,0,0
81662,-94.1176470588235,4,1,0,80,0,0
81765,-93.0232558139535,4,1,0,80,0,0
81869,-91.9540229885058,4,1,0,80,0,0
81972,-90.9090909090909,4,1,0,80,0,0
82076,-89.8876404494382,4,1,0,80,0,0
82179,-88.8888888888889,4,1,0,80,0,0
82283,-87.9120879120879,4,1,0,80,0,0
82386,-86.9565217391304,4,1,0,80,0,0
82490,-86.0215053763441,4,1,0,80,0,0
82593,-85.1063829787234,4,1,0,80,0,0
82696,-84.2105263157895,4,1,0,80,0,0
82800,-83.3333333333333,4,1,0,80,0,0
84041,-66.6666666666667,4,1,0,80,0,0
84506,-100,4,1,0,80,0,1
96092,-100,4,1,0,80,0,0
97747,-100,4,1,0,80,0,1
109333,-100,4,1,0,80,0,0
110575,-66.6666666666667,4,1,0,80,0,0
110988,-100,4,1,0,80,0,0
122523,-100,4,1,0,80,0,0
122627,-102.040816326531,4,1,0,80,0,0
122834,-104.166666666667,4,1,0,80,0,0
122937,-106.382978723404,4,1,0,80,0,0
123144,-108.695652173913,4,1,0,80,0,0
123351,-111.111111111111,4,1,0,80,0,0
123558,-113.636363636364,4,1,0,80,0,0
123765,-116.279069767442,4,1,0,80,0,0
123972,-119.047619047619,4,1,0,80,0,0
124075,-121.951219512195,4,1,0,80,0,0
124179,-125,4,1,0,80,0,0
136644,-142.857142857143,4,1,0,80,0,0
136782,-133.333333333333,4,1,0,80,0,0
136919,-125,4,1,0,80,0,0
137057,-117.647058823529,4,1,0,80,0,0
137420,-71.4285714285714,4,1,0,80,0,0
137834,-72.3981900452489,4,1,0,80,0,0
138247,-73.3944954128441,4,1,0,80,0,0
138558,-74.4186046511628,4,1,0,80,0,0
138661,-75.4716981132076,4,1,0,80,0,0
138765,-76.555023923445,4,1,0,80,0,0
138868,-77.6699029126214,4,1,0,80,0,0
138971,-78.8177339901478,4,1,0,80,0,0
139075,-80,4,1,0,80,0,0
139489,-81.2182741116751,4,1,0,80,0,0
139902,-82.4742268041237,4,1,0,80,0,0
140110,-83.7696335078534,4,1,0,80,0,0
140316,-85.1063829787234,4,1,0,80,0,0
140420,-86.4864864864865,4,1,0,80,0,0
140523,-87.9120879120879,4,1,0,80,0,0
140627,-89.3854748603352,4,1,0,80,0,0
140730,-90.9090909090909,4,1,0,80,0,0
141144,-92.485549132948,4,1,0,80,0,0
141558,-94.1176470588235,4,1,0,80,0,0
141868,-95.8083832335329,4,1,0,80,0,0
141971,-97.5609756097561,4,1,0,80,0,0
142075,-99.3788819875776,4,1,0,80,0,0
142178,-101.26582278481,4,1,0,80,0,0
142282,-103.225806451613,4,1,0,80,0,0
142385,-105.263157894737,4,1,0,80,0,0
142799,-107.38255033557,4,1,0,80,0,0
143213,-109.58904109589,4,1,0,80,0,0
143368,-111.888111888112,4,1,0,80,0,0
143627,-114.285714285714,4,1,0,80,0,0
143730,-116.788321167883,4,1,0,80,0,0
143834,-119.402985074627,4,1,0,80,0,0
143937,-122.137404580153,4,1,0,80,0,0
144041,-125,4,1,0,80,0,0
144248,-123.076923076923,4,1,0,80,0,0
144455,-121.212121212121,4,1,0,80,0,0
144662,-119.402985074627,4,1,0,80,0,0
144869,-117.647058823529,4,1,0,80,0,0
145076,-115.942028985507,4,1,0,80,0,0
145283,-114.285714285714,4,1,0,80,0,0
145490,-112.676056338028,4,1,0,80,0,0
145697,-111.111111111111,4,1,0,80,0,0
145903,-109.58904109589,4,1,0,80,0,0
146110,-108.108108108108,4,1,0,80,0,0
146317,-106.666666666667,4,1,0,80,0,0
146524,-105.263157894737,4,1,0,80,0,0
146731,-103.896103896104,4,1,0,80,0,0
146938,-102.564102564103,4,1,0,80,0,0
147145,-101.26582278481,4,1,0,80,0,0
147352,-100,4,1,0,80,0,0
147455,-98.7654320987654,4,1,0,80,0,0
147559,-97.5609756097561,4,1,0,80,0,0
147662,-96.3855421686747,4,1,0,80,0,0
147766,-95.2380952380952,4,1,0,80,0,0
147869,-94.1176470588235,4,1,0,80,0,0
147972,-93.0232558139535,4,1,0,80,0,0
148076,-91.9540229885058,4,1,0,80,0,0
148179,-90.9090909090909,4,1,0,80,0,0
148283,-89.8876404494382,4,1,0,80,0,0
148386,-88.8888888888889,4,1,0,80,0,0
148490,-87.9120879120879,4,1,0,80,0,0
148593,-86.9565217391304,4,1,0,80,0,0
148697,-86.0215053763441,4,1,0,80,0,0
148800,-85.1063829787234,4,1,0,80,0,0
148903,-84.2105263157895,4,1,0,80,0,0
149007,-83.3333333333333,4,1,0,80,0,0
150713,-100,4,1,0,80,0,1
162299,-100,4,1,0,80,0,0
163954,-100,4,1,0,80,0,1
175540,-100,4,1,0,80,0,0
177195,-125,4,1,0,80,0,0
188937,-128.205128205128,4,1,0,80,0,0
189144,-131.578947368421,4,1,0,80,0,0
189350,-135.135135135135,4,1,0,80,0,0
189557,-138.888888888889,4,1,0,80,0,0
190023,-142.857142857143,4,1,0,80,0,0
190437,-166.666666666667,4,1,0,80,0,1
202850,-66.6666666666667,4,1,0,80,0,1
203678,-66.6666666666667,4,1,0,80,0,0
205333,-166.666666666667,4,1,0,80,0,0
206988,413.793103448276,4,1,0,80,1,0
206988,-166.666666666667,4,1,0,80,0,0
219815,-66.6666666666667,4,1,0,80,0,0
220229,-100,4,1,0,80,0,1
231815,-100,4,1,0,80,0,0
233056,-66.6666666666667,4,1,0,80,0,0
233470,-100,4,1,0,80,0,0
246712,-66.6666666666667,4,1,0,80,0,0

[HitObjects]
120,145,1748,5,12,0:0:0:0:
154,163,2368,1,8,0:0:0:0:
159,168,2575,1,0,0:0:0:0:
159,168,2782,1,8,0:0:0:0:
159,168,2989,1,8,0:0:0:0:
159,168,3196,1,0,0:0:0:0:
159,168,3403,1,8,0:0:0:0:
145,111,3713,1,0,0:0:0:0:
145,111,3816,1,0,0:0:0:0:
145,111,4023,1,8,0:0:0:0:
145,111,4230,1,0,0:0:0:0:
145,111,4334,1,8,0:0:0:0:
146,119,4644,1,8,0:0:0:0:
145,120,5058,1,0,0:0:0:0:
117,159,5368,1,8,0:0:0:0:
117,159,5471,1,8,0:0:0:0:
117,159,5678,1,0,0:0:0:0:
117,159,5885,1,8,0:0:0:0:
117,159,5989,1,0,0:0:0:0:
117,159,6299,1,8,0:0:0:0:
117,159,6713,1,8,0:0:0:0:
117,159,7023,1,0,0:0:0:0:
117,159,7127,1,0,0:0:0:0:
117,159,7334,1,8,0:0:0:0:
117,159,7540,1,0,0:0:0:0:
117,159,7644,1,8,0:0:0:0:
117,159,7954,1,8,0:0:0:0:
117,159,8368,1,0,0:0:0:0:
117,159,8678,1,8,0:0:0:0:
117,159,8782,1,8,0:0:0:0:
117,159,8989,1,0,0:0:0:0:
117,159,9196,1,8,0:0:0:0:
108,164,9299,1,0,0:0:0:0:
103,167,9609,1,8,0:0:0:0:
104,163,10023,1,0,0:0:0:0:
103,167,10334,1,8,0:0:0:0:
103,167,10437,1,8,0:0:0:0:
103,167,10644,1,0,0:0:0:0:
104,163,10851,1,12,0:0:0:0:
160,81,11058,1,12,0:0:0:0:
103,167,11265,1,12,0:0:0:0:
157,86,11678,1,0,0:0:0:0:
157,86,11989,1,8,0:0:0:0:
157,86,12092,1,8,0:0:0:0:
157,86,12299,1,0,0:0:0:0:
157,86,12506,1,12,0:0:0:0:
157,86,12713,1,12,0:0:0:0:
157,86,12920,1,12,0:0:0:0:
157,86,13334,1,0,0:0:0:0:
157,86,13644,1,8,0:0:0:0:
157,86,13747,1,8,0:0:0:0:
157,86,13954,1,0,0:0:0:0:
157,86,14161,1,8,0:0:0:0:
171,32,14265,1,0,0:0:0:0:
170,89,14471,1,0,0:0:0:0:
157,86,14575,1,8,0:0:0:0:
176,115,14989,1,0,0:0:0:0:
176,115,15299,1,8,0:0:0:0:
176,115,15403,1,8,0:0:0:0:
176,115,15609,1,0,0:0:0:0:
176,115,15816,1,8,0:0:0:0:
176,115,15920,1,0,0:0:0:0:
165,89,16023,1,8,0:0:0:0:
168,124,16127,1,0,0:0:0:0:
168,77,16230,1,8,0:0:0:0:
201,54,16437,1,0,0:0:0:0:
168,77,16644,1,12,0:0:0:0:
198,159,16954,1,0,0:0:0:0:
198,159,17058,1,0,0:0:0:0:
198,159,17265,1,8,0:0:0:0:
198,159,17471,1,0,0:0:0:0:
198,159,17575,1,8,0:0:0:0:
198,159,17885,1,8,0:0:0:0:
192,161,18299,1,0,0:0:0:0:
192,161,18609,1,8,0:0:0:0:
192,161,18713,1,8,0:0:0:0:
192,161,18920,1,0,0:0:0:0:
192,161,19127,1,8,0:0:0:0:
192,161,19230,1,0,0:0:0:0:
192,161,19540,1,8,0:0:0:0:
192,161,19954,1,8,0:0:0:0:
192,161,20265,1,0,0:0:0:0:
192,161,20368,1,0,0:0:0:0:
192,161,20575,1,8,0:0:0:0:
192,161,20782,1,0,0:0:0:0:
192,161,20885,1,8,0:0:0:0:
192,161,21196,1,8,0:0:0:0:
192,161,21609,1,0,0:0:0:0:
192,161,21920,1,8,0:0:0:0:
192,161,22023,1,8,0:0:0:0:
192,161,22230,1,0,0:0:0:0:
192,161,22437,1,8,0:0:0:0:
192,161,22540,1,0,0:0:0:0:
192,161,22851,1,8,0:0:0:0:
192,161,23265,1,0,0:0:0:0:
192,161,23575,1,8,0:0:0:0:
192,161,23678,1,8,0:0:0:0:
142,82,23885,1,0,0:0:0:0:
142,82,24092,1,12,0:0:0:0:
142,82,24299,1,12,0:0:0:0:
142,82,24506,1,12,0:0:0:0:
142,82,24920,1,0,0:0:0:0:
142,82,25230,1,8,0:0:0:0:
142,82,25334,1,8,0:0:0:0:
142,82,25540,1,0,0:0:0:0:
142,82,25747,1,12,0:0:0:0:
142,82,25954,1,12,0:0:0:0:
142,82,26161,1,12,0:0:0:0:
142,88,26575,1,8,0:0:0:0:
140,92,26885,1,0,0:0:0:0:
140,93,26989,1,0,0:0:0:0:
142,88,27196,1,8,0:0:0:0:
140,93,27403,1,0,0:0:0:0:
142,88,27506,1,8,0:0:0:0:
140,92,27713,1,8,0:0:0:0:
140,92,27816,1,8,0:0:0:0:
149,93,28023,1,0,0:0:0:0:
256,192,28230,12,0,28437,0:0:0:0:
154,88,29885,5,12,0:0:0:0:
151,109,30299,1,8,0:0:0:0:
151,109,30713,1,8,0:0:0:0:
151,109,31023,1,8,0:0:0:0:
165,101,31127,1,0,0:0:0:0:
165,101,31230,1,0,0:0:0:0:
151,109,31334,1,8,0:0:0:0:
165,101,31437,1,0,0:0:0:0:
151,109,31540,1,8,0:0:0:0:
151,109,31954,1,8,0:0:0:0:
151,109,32368,1,8,0:0:0:0:
151,109,32678,1,8,0:0:0:0:
161,62,32782,1,0,0:0:0:0:
161,62,32885,1,0,0:0:0:0:
151,109,32989,1,8,0:0:0:0:
161,62,33092,1,0,0:0:0:0:
151,109,33196,1,8,0:0:0:0:
151,109,33609,1,8,0:0:0:0:
151,109,34023,1,8,0:0:0:0:
151,109,34334,1,8,0:0:0:0:
151,109,34437,1,0,0:0:0:0:
151,109,34540,1,0,0:0:0:0:
151,109,34644,1,8,0:0:0:0:
151,109,34747,1,0,0:0:0:0:
151,109,34851,1,8,0:0:0:0:
151,109,35265,1,8,0:0:0:0:
151,109,35678,1,8,0:0:0:0:
151,109,35989,1,8,0:0:0:0:
160,121,36092,1,0,0:0:0:0:
160,121,36196,1,0,0:0:0:0:
151,109,36299,1,8,0:0:0:0:
160,121,36403,1,0,0:0:0:0:
151,109,36506,1,8,0:0:0:0:
160,146,36713,1,8,0:0:0:0:
160,146,36920,1,8,0:0:0:0:
160,146,37127,1,8,0:0:0:0:
160,146,37334,1,8,0:0:0:0:
160,146,37540,1,8,0:0:0:0:
160,146,37747,1,8,0:0:0:0:
160,146,37954,1,8,0:0:0:0:
160,146,38161,1,8,0:0:0:0:
160,146,38368,1,8,0:0:0:0:
160,146,38575,1,8,0:0:0:0:
160,146,38782,1,8,0:0:0:0:
160,146,38989,1,8,0:0:0:0:
160,146,39196,1,8,0:0:0:0:
160,146,39403,1,8,0:0:0:0:
160,146,39609,1,8,0:0:0:0:
160,146,39816,1,8,0:0:0:0:
160,146,39920,1,8,0:0:0:0:
160,146,40023,1,8,0:0:0:0:
160,146,40127,1,8,0:0:0:0:
160,146,40230,1,8,0:0:0:0:
160,146,40334,1,8,0:0:0:0:
160,146,40437,1,8,0:0:0:0:
160,146,40540,1,8,0:0:0:0:
160,146,40644,1,8,0:0:0:0:
160,146,40747,1,8,0:0:0:0:
160,146,40851,1,8,0:0:0:0:
160,146,40954,1,8,0:0:0:0:
160,146,41058,1,8,0:0:0:0:
160,146,41161,1,8,0:0:0:0:
160,146,41265,1,8,0:0:0:0:
160,146,41368,1,8,0:0:0:0:
160,146,41471,1,8,0:0:0:0:
160,146,41575,1,8,0:0:0:0:
160,146,41678,1,8,0:0:0:0:
160,146,41782,1,8,0:0:0:0:
160,146,41885,1,8,0:0:0:0:
160,146,41989,1,8,0:0:0:0:
160,146,42092,1,8,0:0:0:0:
160,146,42196,1,8,0:0:0:0:
160,146,42299,1,8,0:0:0:0:
160,146,42403,1,8,0:0:0:0:
160,146,42506,1,8,0:0:0:0:
160,146,42609,1,8,0:0:0:0:
160,146,42713,1,8,0:0:0:0:
160,146,42816,1,8,0:0:0:0:
160,146,42920,1,8,0:0:0:0:
160,146,43023,1,8,0:0:0:0:
160,146,44368,1,12,0:0:0:0:
160,103,44782,1,4,0:0:0:0:
192,140,44988,1,8,0:0:0:0:
197,104,45092,1,8,0:0:0:0:
192,140,45195,1,8,0:0:0:0:
192,140,45402,1,0,0:0:0:0:
192,140,45506,1,0,0:0:0:0:
192,140,45713,1,8,0:0:0:0:
192,140,45816,1,0,0:0:0:0:
192,140,45919,1,0,0:0:0:0:
192,140,46023,1,8,0:0:0:0:
164,72,46230,1,8,0:0:0:0:
164,72,46437,1,0,0:0:0:0:
158,80,46644,1,8,0:0:0:0:
180,39,46747,1,0,0:0:0:0:
158,80,46850,1,8,0:0:0:0:
158,80,47057,1,0,0:0:0:0:
158,80,47161,1,8,0:0:0:0:
158,81,47368,1,8,0:0:0:0:
158,81,47471,1,8,0:0:0:0:
158,80,47575,1,0,0:0:0:0:
158,80,47678,1,8,0:0:0:0:
158,80,47885,1,8,0:0:0:0:
167,65,48092,1,0,0:0:0:0:
167,65,48299,1,8,0:0:0:0:
151,90,48402,1,0,0:0:0:0:
167,65,48506,1,0,0:0:0:0:
167,65,48713,1,8,0:0:0:0:
167,65,48816,1,8,0:0:0:0:
167,65,49023,1,8,0:0:0:0:
167,65,49126,1,0,0:0:0:0:
167,65,49230,1,0,0:0:0:0:
167,65,49333,1,8,0:0:0:0:
184,56,49540,1,8,0:0:0:0:
163,50,49747,1,0,0:0:0:0:
186,59,49850,1,8,0:0:0:0:
187,58,49954,1,8,0:0:0:0:
184,66,50161,1,0,0:0:0:0:
183,66,50264,1,0,0:0:0:0:
182,68,50368,1,8,0:0:0:0:
176,89,50575,1,4,0:0:0:0:
177,84,50988,1,8,0:0:0:0:
138,72,51402,1,4,0:0:0:0:
164,72,51609,1,8,0:0:0:0:
158,90,51713,1,8,0:0:0:0:
164,72,51816,1,8,0:0:0:0:
157,112,52023,1,0,0:0:0:0:
157,112,52126,1,0,0:0:0:0:
157,112,52333,1,8,0:0:0:0:
157,112,52437,1,0,0:0:0:0:
157,112,52540,1,0,0:0:0:0:
157,112,52644,1,8,0:0:0:0:
189,83,52850,1,8,0:0:0:0:
189,83,53057,1,0,0:0:0:0:
176,101,53264,1,8,0:0:0:0:
170,82,53368,1,0,0:0:0:0:
176,101,53471,1,8,0:0:0:0:
176,101,53678,1,0,0:0:0:0:
176,102,53782,1,8,0:0:0:0:
175,104,53988,1,8,0:0:0:0:
174,105,54092,1,0,0:0:0:0:
174,105,54195,1,8,0:0:0:0:
174,105,54299,1,8,0:0:0:0:
181,84,54506,1,8,0:0:0:0:
181,85,54713,1,0,0:0:0:0:
181,85,54919,1,8,0:0:0:0:
170,52,55023,1,0,0:0:0:0:
181,85,55126,1,0,0:0:0:0:
181,85,55333,1,8,0:0:0:0:
181,84,55437,1,8,0:0:0:0:
181,85,55644,1,8,0:0:0:0:
181,85,55747,1,0,0:0:0:0:
181,85,55850,1,0,0:0:0:0:
181,85,55954,1,8,0:0:0:0:
181,85,56161,1,0,0:0:0:0:
181,85,56368,1,8,0:0:0:0:
181,84,56471,1,8,0:0:0:0:
181,85,56678,1,0,0:0:0:0:
181,85,56782,1,0,0:0:0:0:
181,85,56988,1,8,0:0:0:0:
181,85,57195,1,4,0:0:0:0:
180,77,57402,1,4,0:0:0:0:
180,77,57609,1,12,0:0:0:0:
160,103,58023,1,4,0:0:0:0:
192,140,58230,1,8,0:0:0:0:
197,104,58333,1,8,0:0:0:0:
192,140,58437,1,8,0:0:0:0:
192,140,58644,1,0,0:0:0:0:
192,140,58747,1,0,0:0:0:0:
192,140,58954,1,8,0:0:0:0:
192,140,59057,1,0,0:0:0:0:
192,140,59161,1,0,0:0:0:0:
192,140,59264,1,8,0:0:0:0:
164,72,59471,1,8,0:0:0:0:
164,72,59678,1,0,0:0:0:0:
158,80,59885,1,8,0:0:0:0:
180,39,59988,1,0,0:0:0:0:
158,80,60092,1,8,0:0:0:0:
158,80,60299,1,0,0:0:0:0:
158,80,60402,1,8,0:0:0:0:
158,81,60609,1,8,0:0:0:0:
158,81,60713,1,8,0:0:0:0:
158,80,60816,1,0,0:0:0:0:
158,80,60919,1,8,0:0:0:0:
158,80,61126,1,8,0:0:0:0:
167,65,61333,1,0,0:0:0:0:
167,65,61540,1,8,0:0:0:0:
151,90,61644,1,0,0:0:0:0:
167,65,61747,1,0,0:0:0:0:
167,65,61954,1,8,0:0:0:0:
167,65,62057,1,8,0:0:0:0:
167,65,62264,1,8,0:0:0:0:
167,65,62368,1,0,0:0:0:0:
167,65,62471,1,0,0:0:0:0:
167,65,62575,1,8,0:0:0:0:
184,56,62782,1,8,0:0:0:0:
163,50,62988,1,0,0:0:0:0:
186,59,63092,1,8,0:0:0:0:
187,58,63195,1,8,0:0:0:0:
184,66,63402,1,0,0:0:0:0:
183,66,63506,1,0,0:0:0:0:
182,68,63609,1,8,0:0:0:0:
176,89,63816,1,0,0:0:0:0:
176,56,63919,1,8,0:0:0:0:
189,26,64023,1,8,0:0:0:0:
172,64,64126,1,0,0:0:0:0:
172,64,64230,1,8,0:0:0:0:
138,72,64644,1,4,0:0:0:0:
164,72,64850,1,8,0:0:0:0:
158,90,64954,1,0,0:0:0:0:
164,72,65057,1,0,0:0:0:0:
157,112,65264,1,8,0:0:0:0:
157,112,65368,1,8,0:0:0:0:
157,112,65575,1,8,0:0:0:0:
157,112,65678,1,0,0:0:0:0:
157,112,65782,1,0,0:0:0:0:
157,112,65885,1,8,0:0:0:0:
189,83,66092,1,8,0:0:0:0:
189,83,66299,1,0,0:0:0:0:
176,101,66506,1,8,0:0:0:0:
170,82,66609,1,0,0:0:0:0:
176,101,66713,1,8,0:0:0:0:
176,101,66919,1,0,0:0:0:0:
176,102,67023,1,8,0:0:0:0:
175,104,67230,1,8,0:0:0:0:
174,105,67333,1,0,0:0:0:0:
174,105,67437,1,8,0:0:0:0:
174,105,67540,1,8,0:0:0:0:
181,84,67747,1,8,0:0:0:0:
181,85,67954,1,0,0:0:0:0:
181,85,68161,1,8,0:0:0:0:
170,52,68264,1,8,0:0:0:0:
181,85,68368,1,8,0:0:0:0:
181,85,68575,1,0,0:0:0:0:
181,84,68678,1,8,0:0:0:0:
181,85,68885,1,8,0:0:0:0:
181,85,68988,1,0,0:0:0:0:
181,85,69092,1,0,0:0:0:0:
181,85,69195,1,8,0:0:0:0:
181,85,69402,1,0,0:0:0:0:
160,111,69609,1,8,0:0:0:0:
149,101,69713,1,8,0:0:0:0:
149,101,69816,1,8,0:0:0:0:
149,101,69919,1,8,0:0:0:0:
149,101,70023,1,0,0:0:0:0:
149,101,70126,1,0,0:0:0:0:
153,100,70230,1,0,0:0:0:0:
149,101,70333,1,0,0:0:0:0:
149,101,70437,1,8,0:0:0:0:
134,169,70575,1,0,0:0:0:0:
134,169,70713,1,0,0:0:0:0:
134,169,70850,1,12,0:0:0:0:
160,114,71264,1,4,0:0:0:0:
129,181,71678,1,8,0:0:0:0:
129,181,72092,1,8,0:0:0:0:
129,181,72402,1,8,0:0:0:0:
129,181,72713,1,8,0:0:0:0:
129,181,72919,1,0,0:0:0:0:
149,101,73333,1,8,0:0:0:0:
149,101,73747,1,8,0:0:0:0:
149,101,73954,1,8,0:0:0:0:
149,101,74161,1,8,0:0:0:0:
149,101,74575,1,0,0:0:0:0:
164,102,74988,1,8,0:0:0:0:
164,103,75402,1,8,0:0:0:0:
164,102,75713,1,8,0:0:0:0:
164,102,76023,1,8,0:0:0:0:
164,103,76230,1,0,0:0:0:0:
164,102,76644,1,8,0:0:0:0:
164,102,77057,1,8,0:0:0:0:
173,103,77264,1,8,0:0:0:0:
173,103,77471,1,8,0:0:0:0:
173,103,77885,1,4,0:0:0:0:
185,93,78092,1,8,0:0:0:0:
170,97,78299,1,0,0:0:0:0:
175,154,78609,1,8,0:0:0:0:
170,98,78713,1,0,0:0:0:0:
175,154,78919,1,8,0:0:0:0:
170,97,79126,1,0,0:0:0:0:
174,102,79540,1,0,0:0:0:0:
187,83,79747,1,8,0:0:0:0:
174,102,79954,1,0,0:0:0:0:
175,154,80264,1,8,0:0:0:0:
174,102,80368,1,0,0:0:0:0:
175,154,80575,1,8,0:0:0:0:
174,102,80782,1,0,0:0:0:0:
165,70,80988,1,8,0:0:0:0:
108,253,81195,5,0,0:0:0:0:
108,253,81402,1,0,0:0:0:0:
108,253,81609,1,0,0:0:0:0:
108,253,81816,1,0,0:0:0:0:
108,253,82023,1,0,0:0:0:0:
151,126,82230,1,0,0:0:0:0:
151,126,82437,1,0,0:0:0:0:
151,126,82644,1,0,0:0:0:0:
163,102,82850,1,0,0:0:0:0:
161,145,84092,1,12,0:0:0:0:
161,145,84506,1,4,0:0:0:0:
163,152,84713,1,8,0:0:0:0:
163,152,84816,1,0,0:0:0:0:
163,152,84919,1,8,0:0:0:0:
163,152,85023,1,0,0:0:0:0:
163,152,85126,1,0,0:0:0:0:
163,152,85230,1,8,0:0:0:0:
163,156,85437,1,8,0:0:0:0:
163,156,85540,1,0,0:0:0:0:
160,159,85644,1,0,0:0:0:0:
160,161,85747,1,8,0:0:0:0:
160,161,85850,1,8,0:0:0:0:
160,161,85954,1,0,0:0:0:0:
160,161,86057,1,8,0:0:0:0:
160,161,86161,1,0,0:0:0:0:
163,51,86368,1,8,0:0:0:0:
163,51,86471,1,0,0:0:0:0:
150,53,86575,1,8,0:0:0:0:
150,53,86678,1,8,0:0:0:0:
149,55,86782,1,0,0:0:0:0:
123,62,86988,1,8,0:0:0:0:
123,62,87092,1,0,0:0:0:0:
178,61,87195,1,0,0:0:0:0:
178,61,87402,1,8,0:0:0:0:
188,57,87506,1,0,0:0:0:0:
190,67,87609,1,8,0:0:0:0:
190,71,87816,1,0,0:0:0:0:
167,114,88023,1,8,0:0:0:0:
167,114,88126,1,0,0:0:0:0:
163,118,88230,1,8,0:0:0:0:
161,120,88333,1,0,0:0:0:0:
161,120,88437,1,8,0:0:0:0:
161,120,88540,1,8,0:0:0:0:
161,120,88747,1,8,0:0:0:0:
161,120,88850,1,0,0:0:0:0:
160,120,88954,1,0,0:0:0:0:
160,120,89057,1,8,0:0:0:0:
160,120,89161,1,0,0:0:0:0:
161,120,89264,1,8,0:0:0:0:
161,120,89368,1,8,0:0:0:0:
161,120,89471,1,0,0:0:0:0:
161,120,89678,1,0,0:0:0:0:
161,120,89782,1,0,0:0:0:0:
160,120,89885,1,8,0:0:0:0:
160,120,89988,1,8,0:0:0:0:
160,120,90092,1,0,0:0:0:0:
162,56,90299,1,8,0:0:0:0:
161,120,90402,1,8,0:0:0:0:
161,120,90609,1,0,0:0:0:0:
158,125,90713,1,8,0:0:0:0:
178,53,90919,1,0,0:0:0:0:
178,55,91126,1,8,0:0:0:0:
177,58,91230,1,0,0:0:0:0:
177,58,91333,1,8,0:0:0:0:
145,61,91437,1,0,0:0:0:0:
177,58,91540,1,8,0:0:0:0:
145,61,91747,1,0,0:0:0:0:
145,61,91954,1,12,0:0:0:0:
145,61,92161,1,12,0:0:0:0:
145,61,92368,1,12,0:0:0:0:
186,128,92575,1,0,0:0:0:0:
156,66,92782,1,8,0:0:0:0:
156,66,92885,1,0,0:0:0:0:
154,68,92988,1,8,0:0:0:0:
155,67,93092,1,0,0:0:0:0:
154,68,93195,1,8,0:0:0:0:
156,66,93402,1,0,0:0:0:0:
156,66,93609,1,12,0:0:0:0:
156,66,93816,1,12,0:0:0:0:
155,67,94023,1,12,0:0:0:0:
156,66,94437,1,0,0:0:0:0:
138,98,94644,1,8,0:0:0:0:
138,98,94747,1,0,0:0:0:0:
138,98,94850,1,8,0:0:0:0:
138,98,95057,1,0,0:0:0:0:
138,98,95264,1,8,0:0:0:0:
138,98,95368,1,0,0:0:0:0:
138,98,95471,1,0,0:0:0:0:
138,98,95575,1,8,0:0:0:0:
174,19,95678,1,8,0:0:0:0:
155,74,95885,1,8,0:0:0:0:
163,44,95988,1,8,0:0:0:0:
138,98,96092,1,0,0:0:0:0:
138,98,96195,1,8,0:0:0:0:
138,98,96402,1,0,0:0:0:0:
133,98,96506,1,8,0:0:0:0:
154,80,96713,1,0,0:0:0:0:
154,80,96816,1,0,0:0:0:0:
154,80,96919,1,8,0:0:0:0:
144,170,97023,1,8,0:0:0:0:
144,170,97126,1,8,0:0:0:0:
144,170,97230,1,8,0:0:0:0:
144,170,97333,1,8,0:0:0:0:
152,74,97747,1,4,0:0:0:0:
113,235,97954,1,8,0:0:0:0:
113,235,98057,1,0,0:0:0:0:
113,235,98161,1,8,0:0:0:0:
113,235,98264,1,0,0:0:0:0:
113,235,98368,1,0,0:0:0:0:
113,235,98471,1,8,0:0:0:0:
113,235,98678,1,8,0:0:0:0:
113,235,98782,1,0,0:0:0:0:
113,235,98885,1,0,0:0:0:0:
113,235,98988,1,8,0:0:0:0:
113,235,99092,1,8,0:0:0:0:
192,45,99195,1,0,0:0:0:0:
113,235,99299,1,8,0:0:0:0:
192,45,99402,1,0,0:0:0:0:
192,45,99609,1,8,0:0:0:0:
192,45,99713,1,0,0:0:0:0:
187,48,99816,1,8,0:0:0:0:
187,48,99919,1,8,0:0:0:0:
187,48,100023,1,0,0:0:0:0:
173,77,100230,1,8,0:0:0:0:
173,77,100333,1,0,0:0:0:0:
173,77,100437,1,0,0:0:0:0:
173,77,100644,1,8,0:0:0:0:
173,77,100747,1,0,0:0:0:0:
173,77,100850,1,8,0:0:0:0:
174,82,101057,1,0,0:0:0:0:
174,84,101264,1,8,0:0:0:0:
174,84,101368,1,0,0:0:0:0:
174,84,101471,1,8,0:0:0:0:
174,84,101575,1,0,0:0:0:0:
174,84,101678,1,8,0:0:0:0:
174,84,101782,1,8,0:0:0:0:
174,82,101988,1,8,0:0:0:0:
174,82,102092,1,0,0:0:0:0:
174,84,102195,1,0,0:0:0:0:
174,84,102299,1,8,0:0:0:0:
174,84,102402,1,0,0:0:0:0:
174,84,102506,1,8,0:0:0:0:
174,84,102609,1,8,0:0:0:0:
171,95,102713,1,0,0:0:0:0:
172,97,102919,1,0,0:0:0:0:
172,97,103023,1,0,0:0:0:0:
172,98,103126,1,8,0:0:0:0:
174,98,103230,1,8,0:0:0:0:
174,98,103333,1,0,0:0:0:0:
174,98,103540,1,8,0:0:0:0:
193,99,103644,1,8,0:0:0:0:
193,99,103850,1,0,0:0:0:0:
192,98,103954,1,8,0:0:0:0:
191,98,104161,1,0,0:0:0:0:
191,98,104368,1,8,0:0:0:0:
149,155,104471,1,0,0:0:0:0:
176,125,104575,1,8,0:0:0:0:
149,155,104678,1,0,0:0:0:0:
176,125,104782,1,8,0:0:0:0:
176,125,104988,1,0,0:0:0:0:
145,150,105195,1,12,0:0:0:0:
145,150,105402,1,12,0:0:0:0:
145,150,105609,1,12,0:0:0:0:
151,155,105816,1,0,0:0:0:0:
151,155,105919,1,0,0:0:0:0:
151,155,106023,1,8,0:0:0:0:
151,155,106126,1,0,0:0:0:0:
151,155,106230,1,8,0:0:0:0:
151,155,106333,1,0,0:0:0:0:
151,155,106437,1,8,0:0:0:0:
151,155,106644,1,0,0:0:0:0:
151,155,106850,1,12,0:0:0:0:
151,155,107057,1,12,0:0:0:0:
151,155,107264,1,12,0:0:0:0:
151,155,107678,1,8,0:0:0:0:
151,155,107885,1,0,0:0:0:0:
157,135,107988,1,0,0:0:0:0:
151,155,108092,1,8,0:0:0:0:
157,135,108299,1,0,0:0:0:0:
157,135,108506,1,8,0:0:0:0:
157,136,108609,1,8,0:0:0:0:
157,135,108713,1,8,0:0:0:0:
160,137,108816,1,8,0:0:0:0:
157,136,108919,1,0,0:0:0:0:
160,137,109023,1,0,0:0:0:0:
157,135,109126,1,0,0:0:0:0:
157,135,109230,1,0,0:0:0:0:
157,135,109333,1,8,0:0:0:0:
163,116,110575,1,12,0:0:0:0:
145,195,110988,1,4,0:0:0:0:
178,3,111195,1,8,0:0:0:0:
173,102,111299,1,8,0:0:0:0:
161,71,111402,1,0,0:0:0:0:
173,102,111506,1,8,0:0:0:0:
161,71,111713,1,0,0:0:0:0:
161,71,111816,1,8,0:0:0:0:
158,76,112023,1,8,0:0:0:0:
150,81,112230,1,8,0:0:0:0:
199,89,112437,1,0,0:0:0:0:
199,89,112540,1,8,0:0:0:0:
135,93,112644,1,0,0:0:0:0:
136,66,112850,1,8,0:0:0:0:
135,93,112954,1,0,0:0:0:0:
136,66,113057,1,0,0:0:0:0:
135,93,113161,1,8,0:0:0:0:
191,45,113368,1,0,0:0:0:0:
191,45,113471,1,8,0:0:0:0:
181,52,113678,1,8,0:0:0:0:
180,53,113885,1,8,0:0:0:0:
178,54,114299,1,0,0:0:0:0:
170,67,114506,1,8,0:0:0:0:
170,67,114609,1,8,0:0:0:0:
168,70,114713,1,0,0:0:0:0:
166,72,114816,1,8,0:0:0:0:
132,88,115023,1,0,0:0:0:0:
132,88,115126,1,8,0:0:0:0:
132,88,115333,1,8,0:0:0:0:
132,88,115540,1,8,0:0:0:0:
165,61,115747,1,0,0:0:0:0:
165,61,115850,1,8,0:0:0:0:
165,61,115954,1,0,0:0:0:0:
183,111,116161,1,8,0:0:0:0:
183,111,116264,1,0,0:0:0:0:
183,111,116368,1,0,0:0:0:0:
183,111,116471,1,8,0:0:0:0:
160,90,116678,1,0,0:0:0:0:
160,90,116782,1,8,0:0:0:0:
160,90,116988,1,8,0:0:0:0:
160,90,117195,1,8,0:0:0:0:
160,90,117609,1,0,0:0:0:0:
164,136,117816,1,8,0:0:0:0:
164,136,117919,1,8,0:0:0:0:
164,136,118023,1,0,0:0:0:0:
159,141,118126,1,8,0:0:0:0:
121,72,118333,1,0,0:0:0:0:
121,72,118437,1,8,0:0:0:0:
121,72,118644,1,8,0:0:0:0:
121,77,118850,1,8,0:0:0:0:
121,77,119057,1,0,0:0:0:0:
117,80,119161,1,8,0:0:0:0:
117,82,119264,1,0,0:0:0:0:
117,82,119471,1,8,0:0:0:0:
117,82,119575,1,0,0:0:0:0:
117,82,119678,1,0,0:0:0:0:
160,60,119782,1,8,0:0:0:0:
160,60,119988,1,0,0:0:0:0:
160,60,120092,1,8,0:0:0:0:
160,60,120299,1,8,0:0:0:0:
160,60,120506,1,8,0:0:0:0:
160,60,120919,1,0,0:0:0:0:
149,71,121126,1,8,0:0:0:0:
148,73,121230,1,8,0:0:0:0:
146,74,121333,1,0,0:0:0:0:
146,74,121437,1,8,0:0:0:0:
158,71,121644,1,0,0:0:0:0:
156,72,121747,1,8,0:0:0:0:
154,74,121954,1,8,0:0:0:0:
154,74,122161,1,8,0:0:0:0:
154,74,122368,1,0,0:0:0:0:
154,74,122471,1,8,0:0:0:0:
154,74,122575,1,0,0:0:0:0:
163,46,122678,1,0,0:0:0:0:
159,50,122885,1,0,0:0:0:0:
159,50,122988,1,0,0:0:0:0:
159,50,123195,1,0,0:0:0:0:
159,50,123402,1,8,0:0:0:0:
157,50,123609,1,8,0:0:0:0:
159,50,123816,1,8,0:0:0:0:
154,74,124023,1,8,0:0:0:0:
154,74,124126,1,8,0:0:0:0:
149,77,124230,1,0,0:0:0:0:
173,109,124437,1,8,0:0:0:0:
190,63,124540,1,0,0:0:0:0:
173,109,124747,1,0,0:0:0:0:
203,141,124850,1,0,0:0:0:0:
172,72,125057,1,8,0:0:0:0:
173,109,125471,1,8,0:0:0:0:
65,77,125678,1,8,0:0:0:0:
138,74,125782,1,8,0:0:0:0:
66,88,125885,1,0,0:0:0:0:
142,85,126092,1,8,0:0:0:0:
142,85,126195,1,0,0:0:0:0:
142,85,126402,1,8,0:0:0:0:
142,85,126506,1,8,0:0:0:0:
142,85,126609,1,0,0:0:0:0:
166,79,126713,1,8,0:0:0:0:
154,103,126919,1,0,0:0:0:0:
154,103,127023,1,0,0:0:0:0:
154,103,127126,1,8,0:0:0:0:
155,66,127333,1,8,0:0:0:0:
154,66,127540,1,0,0:0:0:0:
202,100,127747,1,0,0:0:0:0:
202,100,127954,1,8,0:0:0:0:
164,75,128161,1,0,0:0:0:0:
164,75,128264,1,0,0:0:0:0:
164,76,128368,1,8,0:0:0:0:
170,66,128471,1,0,0:0:0:0:
170,67,128678,1,0,0:0:0:0:
170,67,128782,1,8,0:0:0:0:
149,93,128988,1,8,0:0:0:0:
149,94,129195,1,0,0:0:0:0:
147,94,129299,1,0,0:0:0:0:
147,94,129402,1,8,0:0:0:0:
149,93,129506,1,0,0:0:0:0:
187,32,129609,1,0,0:0:0:0:
157,45,129713,1,8,0:0:0:0:
154,50,129816,1,0,0:0:0:0:
147,110,130023,1,8,0:0:0:0:
152,113,130126,1,8,0:0:0:0:
152,113,130333,1,0,0:0:0:0:
152,113,130437,1,8,0:0:0:0:
155,114,130644,1,8,0:0:0:0:
155,114,130850,1,0,0:0:0:0:
185,92,131057,1,8,0:0:0:0:
185,92,131161,1,0,0:0:0:0:
185,92,131264,1,0,0:0:0:0:
177,51,131368,1,8,0:0:0:0:
177,51,131575,1,0,0:0:0:0:
177,51,131678,1,8,0:0:0:0:
170,77,132092,1,8,0:0:0:0:
170,77,132299,1,8,0:0:0:0:
171,75,132402,1,8,0:0:0:0:
170,77,132506,1,0,0:0:0:0:
160,95,132713,1,8,0:0:0:0:
160,95,132816,1,0,0:0:0:0:
184,20,132919,1,0,0:0:0:0:
159,96,133126,1,8,0:0:0:0:
177,52,133230,1,8,0:0:0:0:
177,52,133333,1,8,0:0:0:0:
177,52,133437,1,0,0:0:0:0:
186,63,133644,1,0,0:0:0:0:
185,64,133747,1,8,0:0:0:0:
174,77,133954,1,8,0:0:0:0:
173,77,134161,1,0,0:0:0:0:
162,88,134368,1,8,0:0:0:0:
162,88,134471,1,0,0:0:0:0:
162,88,134575,1,8,0:0:0:0:
162,88,134782,1,0,0:0:0:0:
162,88,134885,1,8,0:0:0:0:
154,82,135092,1,8,0:0:0:0:
154,82,135299,1,0,0:0:0:0:
154,82,135402,1,8,0:0:0:0:
154,82,135609,1,8,0:0:0:0:
155,82,135816,1,0,0:0:0:0:
151,136,136644,1,8,0:0:0:0:
151,136,136782,1,8,0:0:0:0:
151,136,136919,1,8,0:0:0:0:
151,136,137057,1,8,0:0:0:0:
161,141,137471,1,4,0:0:0:0:
185,162,137885,1,8,0:0:0:0:
185,162,138299,1,8,0:0:0:0:
185,162,138609,1,8,0:0:0:0:
185,162,138919,1,8,0:0:0:0:
185,162,139126,1,0,0:0:0:0:
185,162,139540,1,8,0:0:0:0:
185,162,139954,1,8,0:0:0:0:
185,162,140161,1,8,0:0:0:0:
185,162,140368,1,8,0:0:0:0:
185,162,140782,1,0,0:0:0:0:
185,162,141195,1,8,0:0:0:0:
185,162,141609,1,8,0:0:0:0:
185,162,141919,1,8,0:0:0:0:
185,162,142230,1,8,0:0:0:0:
185,162,142437,1,0,0:0:0:0:
185,162,142850,1,8,0:0:0:0:
185,162,143264,1,8,0:0:0:0:
185,162,143471,1,8,0:0:0:0:
185,162,143678,1,8,0:0:0:0:
185,162,144092,1,4,0:0:0:0:
189,116,144299,1,8,0:0:0:0:
185,162,144506,1,0,0:0:0:0:
202,172,144816,1,8,0:0:0:0:
166,138,144919,1,0,0:0:0:0:
181,98,145126,1,8,0:0:0:0:
166,138,145333,1,0,0:0:0:0:
166,138,145747,1,0,0:0:0:0:
175,90,145954,1,8,0:0:0:0:
166,138,146161,1,0,0:0:0:0:
183,97,146471,1,8,0:0:0:0:
166,138,146575,1,0,0:0:0:0:
183,97,146782,1,8,0:0:0:0:
166,138,146988,1,0,0:0:0:0:
164,72,147195,1,8,0:0:0:0:
166,138,147402,1,0,0:0:0:0:
166,138,147609,1,0,0:0:0:0:
166,138,147816,1,0,0:0:0:0:
166,138,148023,1,0,0:0:0:0:
166,138,148230,1,0,0:0:0:0:
166,138,148333,1,0,0:0:0:0:
166,138,148437,1,0,0:0:0:0:
166,138,148540,1,0,0:0:0:0:
166,138,148644,1,0,0:0:0:0:
166,138,148747,1,0,0:0:0:0:
166,138,148850,1,0,0:0:0:0:
166,138,148954,1,0,0:0:0:0:
166,138,149057,1,0,0:0:0:0:
173,145,150299,1,12,0:0:0:0:
161,145,150713,1,4,0:0:0:0:
163,152,150919,1,8,0:0:0:0:
163,152,151023,1,0,0:0:0:0:
163,152,151126,1,8,0:0:0:0:
163,152,151230,1,0,0:0:0:0:
163,152,151333,1,0,0:0:0:0:
163,152,151437,1,8,0:0:0:0:
163,156,151644,1,8,0:0:0:0:
163,156,151747,1,0,0:0:0:0:
160,159,151850,1,0,0:0:0:0:
160,161,151954,1,8,0:0:0:0:
160,161,152057,1,8,0:0:0:0:
160,161,152161,1,0,0:0:0:0:
160,161,152264,1,8,0:0:0:0:
160,161,152368,1,0,0:0:0:0:
163,51,152575,1,8,0:0:0:0:
163,51,152678,1,0,0:0:0:0:
150,53,152782,1,8,0:0:0:0:
150,53,152885,1,8,0:0:0:0:
149,55,152988,1,0,0:0:0:0:
123,62,153195,1,8,0:0:0:0:
123,62,153299,1,0,0:0:0:0:
178,61,153402,1,0,0:0:0:0:
178,61,153609,1,8,0:0:0:0:
188,57,153713,1,0,0:0:0:0:
190,67,153816,1,8,0:0:0:0:
190,71,154023,1,0,0:0:0:0:
167,114,154230,1,8,0:0:0:0:
167,114,154333,1,0,0:0:0:0:
163,118,154437,1,8,0:0:0:0:
161,120,154540,1,0,0:0:0:0:
161,120,154644,1,8,0:0:0:0:
161,120,154747,1,8,0:0:0:0:
161,120,154954,1,8,0:0:0:0:
161,120,155057,1,0,0:0:0:0:
160,120,155161,1,0,0:0:0:0:
160,120,155264,1,8,0:0:0:0:
160,120,155368,1,0,0:0:0:0:
161,120,155471,1,8,0:0:0:0:
161,120,155575,1,8,0:0:0:0:
161,120,155678,1,0,0:0:0:0:
161,120,155885,1,0,0:0:0:0:
161,120,155988,1,0,0:0:0:0:
160,120,156092,1,8,0:0:0:0:
160,120,156195,1,8,0:0:0:0:
160,120,156299,1,0,0:0:0:0:
162,56,156506,1,8,0:0:0:0:
161,120,156609,1,8,0:0:0:0:
161,120,156816,1,0,0:0:0:0:
158,125,156919,1,8,0:0:0:0:
178,53,157126,1,0,0:0:0:0:
178,55,157333,1,8,0:0:0:0:
177,58,157437,1,0,0:0:0:0:
177,58,157540,1,8,0:0:0:0:
145,61,157644,1,0,0:0:0:0:
177,58,157747,1,8,0:0:0:0:
145,61,157954,1,0,0:0:0:0:
145,61,158161,1,12,0:0:0:0:
145,61,158368,1,12,0:0:0:0:
145,61,158575,1,12,0:0:0:0:
186,128,158782,1,0,0:0:0:0:
156,66,158988,1,8,0:0:0:0:
156,66,159092,1,0,0:0:0:0:
154,68,159195,1,8,0:0:0:0:
155,67,159299,1,0,0:0:0:0:
154,68,159402,1,8,0:0:0:0:
156,66,159609,1,0,0:0:0:0:
156,66,159816,1,12,0:0:0:0:
156,66,160023,1,12,0:0:0:0:
155,67,160230,1,12,0:0:0:0:
156,66,160644,1,0,0:0:0:0:
138,98,160850,1,8,0:0:0:0:
138,98,160954,1,0,0:0:0:0:
138,98,161057,1,8,0:0:0:0:
138,98,161264,1,0,0:0:0:0:
138,98,161471,1,8,0:0:0:0:
138,98,161575,1,0,0:0:0:0:
138,98,161678,1,0,0:0:0:0:
138,98,161782,1,8,0:0:0:0:
174,19,161885,1,8,0:0:0:0:
155,74,162092,1,8,0:0:0:0:
163,44,162195,1,8,0:0:0:0:
138,98,162299,1,0,0:0:0:0:
138,98,162402,1,8,0:0:0:0:
138,98,162609,1,0,0:0:0:0:
133,98,162713,1,8,0:0:0:0:
154,80,162919,1,0,0:0:0:0:
154,80,163023,1,0,0:0:0:0:
154,80,163126,1,8,0:0:0:0:
144,170,163230,1,8,0:0:0:0:
144,170,163333,1,8,0:0:0:0:
144,170,163437,1,8,0:0:0:0:
144,170,163540,1,8,0:0:0:0:
152,74,163954,1,4,0:0:0:0:
113,235,164161,1,8,0:0:0:0:
113,235,164264,1,0,0:0:0:0:
113,235,164368,1,8,0:0:0:0:
113,235,164471,1,0,0:0:0:0:
113,235,164575,1,0,0:0:0:0:
113,235,164678,1,8,0:0:0:0:
113,235,164885,1,8,0:0:0:0:
113,235,164988,1,0,0:0:0:0:
113,235,165092,1,0,0:0:0:0:
113,235,165195,1,8,0:0:0:0:
113,235,165299,1,8,0:0:0:0:
192,45,165402,1,0,0:0:0:0:
113,235,165506,1,8,0:0:0:0:
192,45,165609,1,0,0:0:0:0:
192,45,165816,1,8,0:0:0:0:
192,45,165919,1,0,0:0:0:0:
187,48,166023,1,8,0:0:0:0:
187,48,166126,1,8,0:0:0:0:
187,48,166230,1,0,0:0:0:0:
173,77,166437,1,8,0:0:0:0:
173,77,166540,1,0,0:0:0:0:
173,77,166644,1,0,0:0:0:0:
173,77,166850,1,8,0:0:0:0:
173,77,166954,1,0,0:0:0:0:
173,77,167057,1,8,0:0:0:0:
174,82,167264,1,0,0:0:0:0:
174,84,167471,1,8,0:0:0:0:
174,84,167575,1,0,0:0:0:0:
174,84,167678,1,8,0:0:0:0:
174,84,167782,1,0,0:0:0:0:
174,84,167885,1,8,0:0:0:0:
174,84,167988,1,8,0:0:0:0:
174,82,168195,1,8,0:0:0:0:
174,82,168299,1,0,0:0:0:0:
174,84,168402,1,0,0:0:0:0:
174,84,168506,1,8,0:0:0:0:
174,84,168609,1,0,0:0:0:0:
174,84,168713,1,8,0:0:0:0:
174,84,168816,1,8,0:0:0:0:
171,95,168919,1,0,0:0:0:0:
172,97,169126,1,0,0:0:0:0:
172,97,169230,1,0,0:0:0:0:
172,98,169333,1,8,0:0:0:0:
174,98,169437,1,8,0:0:0:0:
174,98,169540,1,0,0:0:0:0:
174,98,169747,1,8,0:0:0:0:
193,99,169850,1,8,0:0:0:0:
193,99,170057,1,0,0:0:0:0:
192,98,170161,1,8,0:0:0:0:
191,98,170368,1,0,0:0:0:0:
191,98,170575,1,8,0:0:0:0:
149,155,170678,1,0,0:0:0:0:
176,125,170782,1,8,0:0:0:0:
149,155,170885,1,0,0:0:0:0:
176,125,170988,1,8,0:0:0:0:
176,125,171195,1,0,0:0:0:0:
145,150,171402,1,12,0:0:0:0:
145,150,171609,1,12,0:0:0:0:
145,150,171816,1,12,0:0:0:0:
151,155,172023,1,0,0:0:0:0:
151,155,172230,1,8,0:0:0:0:
151,155,172333,1,0,0:0:0:0:
151,155,172437,1,8,0:0:0:0:
151,155,172540,1,0,0:0:0:0:
151,155,172644,1,8,0:0:0:0:
151,155,172850,1,0,0:0:0:0:
151,155,173057,1,12,0:0:0:0:
151,155,173264,1,12,0:0:0:0:
151,155,173471,1,12,0:0:0:0:
151,155,173885,1,8,0:0:0:0:
151,155,174092,1,0,0:0:0:0:
157,135,174195,1,0,0:0:0:0:
151,155,174299,1,8,0:0:0:0:
157,135,174506,1,0,0:0:0:0:
157,135,174713,1,8,0:0:0:0:
157,136,174816,1,8,0:0:0:0:
157,135,174919,1,8,0:0:0:0:
160,137,175023,1,8,0:0:0:0:
157,136,175126,1,0,0:0:0:0:
160,137,175230,1,0,0:0:0:0:
157,135,175333,1,0,0:0:0:0:
157,135,175437,1,0,0:0:0:0:
157,135,175540,1,8,0:0:0:0:
60,104,177195,1,12,0:0:0:0:
138,161,178850,1,0,0:0:0:0:
158,190,180506,1,12,0:0:0:0:
151,110,182161,1,0,0:0:0:0:
147,78,182988,1,8,0:0:0:0:
147,78,183816,1,12,0:0:0:0:
186,130,185471,1,0,0:0:0:0:
164,140,187126,1,12,0:0:0:0:
162,105,188782,1,0,0:0:0:0:
159,109,188988,1,0,0:0:0:0:
159,109,189195,1,0,0:0:0:0:
160,109,189402,1,0,0:0:0:0:
160,109,189609,1,8,0:0:0:0:
165,108,190023,1,12,0:0:0:0:
165,108,190437,1,4,0:0:0:0:
186,143,190850,1,8,0:0:0:0:
178,133,191057,1,0,0:0:0:0:
186,84,191161,1,0,0:0:0:0:
178,133,191264,1,8,0:0:0:0:
170,130,191471,1,8,0:0:0:0:
178,133,191678,1,0,0:0:0:0:
186,134,191885,1,8,0:0:0:0:
178,133,192092,1,0,0:0:0:0:
186,134,192299,1,0,0:0:0:0:
186,84,192402,1,8,0:0:0:0:
178,133,192506,1,8,0:0:0:0:
186,134,192609,1,0,0:0:0:0:
178,133,192816,1,0,0:0:0:0:
178,133,192919,1,8,0:0:0:0:
127,83,193023,1,8,0:0:0:0:
127,83,193230,1,0,0:0:0:0:
178,133,193333,1,8,0:0:0:0:
151,70,193437,1,8,0:0:0:0:
151,70,193540,1,8,0:0:0:0:
151,70,193644,1,8,0:0:0:0:
178,133,193747,1,0,0:0:0:0:
164,110,194161,1,8,0:0:0:0:
162,135,194368,1,0,0:0:0:0:
162,135,194575,1,8,0:0:0:0:
168,81,194678,1,8,0:0:0:0:
164,110,194782,1,0,0:0:0:0:
162,135,194988,1,8,0:0:0:0:
176,62,195092,1,8,0:0:0:0:
162,135,195195,1,0,0:0:0:0:
162,135,195402,1,0,0:0:0:0:
182,45,195506,1,8,0:0:0:0:
170,52,195609,1,0,0:0:0:0:
162,135,195816,1,8,0:0:0:0:
162,135,196023,1,0,0:0:0:0:
162,135,196230,1,8,0:0:0:0:
202,150,196368,1,8,0:0:0:0:
202,150,196506,1,8,0:0:0:0:
162,135,196644,1,8,0:0:0:0:
206,130,197057,1,0,0:0:0:0:
184,154,197368,1,8,0:0:0:0:
183,154,197471,1,0,0:0:0:0:
184,154,197678,1,8,0:0:0:0:
184,154,197885,1,0,0:0:0:0:
184,154,198092,1,0,0:0:0:0:
184,154,198195,1,0,0:0:0:0:
184,154,198299,1,8,0:0:0:0:
176,75,198506,1,0,0:0:0:0:
176,75,198713,1,0,0:0:0:0:
187,82,199023,1,8,0:0:0:0:
186,83,199126,1,0,0:0:0:0:
186,84,199333,1,8,0:0:0:0:
186,84,199540,1,0,0:0:0:0:
186,84,199747,1,0,0:0:0:0:
187,82,199850,1,0,0:0:0:0:
183,86,199954,1,8,0:0:0:0:
178,58,200057,1,8,0:0:0:0:
178,58,200161,1,8,0:0:0:0:
178,58,200264,1,8,0:0:0:0:
178,58,200368,1,0,0:0:0:0:
165,78,200575,1,0,0:0:0:0:
163,83,200678,1,8,0:0:0:0:
163,83,200782,1,0,0:0:0:0:
219,141,200988,1,8,0:0:0:0:
191,157,201195,1,0,0:0:0:0:
191,157,201402,1,8,0:0:0:0:
162,69,201506,1,0,0:0:0:0:
191,157,201609,1,0,0:0:0:0:
162,74,201816,1,8,0:0:0:0:
162,76,202023,1,0,0:0:0:0:
160,97,202126,1,0,0:0:0:0:
159,104,202230,1,0,0:0:0:0:
153,109,202333,1,0,0:0:0:0:
158,106,202437,1,0,0:0:0:0:
156,107,202540,1,0,0:0:0:0:
154,109,202644,1,0,0:0:0:0:
152,110,202747,1,0,0:0:0:0:
256,192,202850,12,0,203575,0:0:0:0:
169,95,203678,5,4,0:0:0:0:
168,129,213608,5,0,0:0:0:0:
208,173,214436,1,12,0:0:0:0:
208,173,214643,1,12,0:0:0:0:
208,173,214850,1,12,0:0:0:0:
208,173,215263,1,4,0:0:0:0:
208,173,216091,1,12,0:0:0:0:
208,173,216298,1,12,0:0:0:0:
208,173,216505,1,12,0:0:0:0:
256,192,216919,12,0,218367,0:0:0:0:
185,119,218574,5,8,0:0:0:0:
185,119,218677,1,8,0:0:0:0:
185,119,218884,1,8,0:0:0:0:
185,119,218988,1,8,0:0:0:0:
191,119,219194,1,8,0:0:0:0:
191,121,219401,1,0,0:0:0:0:
191,121,219608,1,0,0:0:0:0:
191,121,219815,1,12,0:0:0:0:
161,145,220229,1,0,0:0:0:0:
181,154,220332,1,8,0:0:0:0:
163,152,220436,1,8,0:0:0:0:
163,152,220539,1,0,0:0:0:0:
163,152,220643,1,8,0:0:0:0:
163,152,220746,1,0,0:0:0:0:
163,152,220850,1,0,0:0:0:0:
163,152,220953,1,8,0:0:0:0:
163,156,221160,1,8,0:0:0:0:
163,156,221263,1,0,0:0:0:0:
160,159,221367,1,0,0:0:0:0:
160,161,221470,1,8,0:0:0:0:
160,161,221574,1,8,0:0:0:0:
160,161,221677,1,0,0:0:0:0:
160,161,221781,1,8,0:0:0:0:
160,161,221884,1,0,0:0:0:0:
163,51,222091,1,8,0:0:0:0:
163,51,222194,1,0,0:0:0:0:
150,53,222298,1,8,0:0:0:0:
150,53,222401,1,8,0:0:0:0:
149,55,222505,1,0,0:0:0:0:
123,62,222712,1,8,0:0:0:0:
123,62,222815,1,0,0:0:0:0:
178,61,222919,1,0,0:0:0:0:
178,61,223125,1,8,0:0:0:0:
188,57,223229,1,0,0:0:0:0:
190,67,223332,1,8,0:0:0:0:
190,71,223539,1,0,0:0:0:0:
195,51,223643,1,0,0:0:0:0:
167,114,223746,1,8,0:0:0:0:
167,114,223850,1,0,0:0:0:0:
163,118,223953,1,8,0:0:0:0:
161,120,224056,1,0,0:0:0:0:
161,120,224160,1,8,0:0:0:0:
161,120,224263,1,8,0:0:0:0:
161,120,224470,1,8,0:0:0:0:
161,120,224574,1,0,0:0:0:0:
160,120,224677,1,0,0:0:0:0:
160,120,224781,1,8,0:0:0:0:
160,120,224884,1,0,0:0:0:0:
161,120,224988,1,8,0:0:0:0:
161,120,225091,1,8,0:0:0:0:
161,120,225194,1,0,0:0:0:0:
161,120,225401,1,0,0:0:0:0:
161,120,225505,1,0,0:0:0:0:
160,120,225608,1,8,0:0:0:0:
160,120,225712,1,8,0:0:0:0:
160,120,225815,1,0,0:0:0:0:
162,56,226022,1,8,0:0:0:0:
161,120,226125,1,8,0:0:0:0:
200,53,226229,1,0,0:0:0:0:
161,120,226332,1,0,0:0:0:0:
158,125,226436,1,8,0:0:0:0:
178,53,226643,1,0,0:0:0:0:
199,112,226746,1,0,0:0:0:0:
178,55,226850,1,8,0:0:0:0:
177,58,226953,1,0,0:0:0:0:
177,58,227056,1,8,0:0:0:0:
145,61,227160,1,0,0:0:0:0:
177,58,227263,1,8,0:0:0:0:
145,61,227470,1,0,0:0:0:0:
145,61,227677,1,12,0:0:0:0:
145,61,227884,1,12,0:0:0:0:
145,61,228091,1,12,0:0:0:0:
186,128,228298,1,0,0:0:0:0:
169,106,228401,1,0,0:0:0:0:
156,66,228505,1,8,0:0:0:0:
156,66,228608,1,0,0:0:0:0:
154,68,228712,1,8,0:0:0:0:
155,67,228815,1,0,0:0:0:0:
154,68,228919,1,8,0:0:0:0:
156,66,229125,1,0,0:0:0:0:
156,66,229332,1,12,0:0:0:0:
156,66,229539,1,12,0:0:0:0:
155,67,229746,1,12,0:0:0:0:
156,66,230160,1,8,0:0:0:0:
213,114,230367,1,0,0:0:0:0:
190,16,230470,1,0,0:0:0:0:
213,114,230574,1,8,0:0:0:0:
208,118,230781,1,0,0:0:0:0:
208,118,230988,1,8,0:0:0:0:
170,47,231091,1,8,0:0:0:0:
208,118,231194,1,8,0:0:0:0:
170,47,231298,1,8,0:0:0:0:
208,118,231401,1,0,0:0:0:0:
153,72,231505,1,0,0:0:0:0:
208,118,231608,1,0,0:0:0:0:
153,72,231712,1,0,0:0:0:0:
208,118,231815,1,8,0:0:0:0:
181,97,233056,1,12,0:0:0:0:
145,195,233470,1,4,0:0:0:0:
178,3,233677,1,8,0:0:0:0:
173,102,233781,1,8,0:0:0:0:
161,71,233884,1,0,0:0:0:0:
173,102,233988,1,8,0:0:0:0:
161,71,234194,1,0,0:0:0:0:
161,71,234298,1,8,0:0:0:0:
158,76,234505,1,8,0:0:0:0:
150,81,234712,1,8,0:0:0:0:
199,89,234919,1,0,0:0:0:0:
199,89,235022,1,8,0:0:0:0:
135,93,235125,1,0,0:0:0:0:
136,66,235332,1,8,0:0:0:0:
135,93,235436,1,0,0:0:0:0:
136,66,235539,1,0,0:0:0:0:
135,93,235643,1,8,0:0:0:0:
191,45,235850,1,0,0:0:0:0:
191,45,235953,1,8,0:0:0:0:
181,52,236160,1,8,0:0:0:0:
180,53,236367,1,8,0:0:0:0:
178,54,236781,1,0,0:0:0:0:
170,67,236988,1,8,0:0:0:0:
170,67,237091,1,8,0:0:0:0:
168,70,237194,1,0,0:0:0:0:
166,72,237298,1,8,0:0:0:0:
132,88,237505,1,0,0:0:0:0:
132,88,237608,1,8,0:0:0:0:
132,88,237815,1,8,0:0:0:0:
132,88,238022,1,8,0:0:0:0:
165,61,238229,1,0,0:0:0:0:
165,61,238332,1,8,0:0:0:0:
165,61,238436,1,0,0:0:0:0:
183,111,238643,1,8,0:0:0:0:
183,111,238746,1,0,0:0:0:0:
183,111,238850,1,0,0:0:0:0:
183,111,238953,1,8,0:0:0:0:
160,90,239160,1,0,0:0:0:0:
160,90,239263,1,8,0:0:0:0:
160,90,239470,1,8,0:0:0:0:
160,90,239677,1,8,0:0:0:0:
160,90,240091,1,0,0:0:0:0:
164,136,240298,1,8,0:0:0:0:
164,136,240401,1,8,0:0:0:0:
164,136,240505,1,0,0:0:0:0:
159,141,240608,1,8,0:0:0:0:
121,72,240815,1,0,0:0:0:0:
121,72,240919,1,8,0:0:0:0:
121,72,241125,1,8,0:0:0:0:
121,77,241332,1,8,0:0:0:0:
121,77,241539,1,0,0:0:0:0:
117,80,241643,1,8,0:0:0:0:
117,82,241746,1,0,0:0:0:0:
117,82,241953,1,8,0:0:0:0:
117,82,242056,1,0,0:0:0:0:
117,82,242160,1,0,0:0:0:0:
160,60,242263,1,8,0:0:0:0:
160,60,242470,1,0,0:0:0:0:
160,60,242574,1,8,0:0:0:0:
160,60,242781,1,8,0:0:0:0:
160,60,242988,1,8,0:0:0:0:
160,60,243401,1,0,0:0:0:0:
149,71,243608,1,8,0:0:0:0:
148,73,243712,1,8,0:0:0:0:
146,74,243815,1,0,0:0:0:0:
146,74,243919,1,8,0:0:0:0:
158,71,244125,1,0,0:0:0:0:
156,72,244229,1,8,0:0:0:0:
154,74,244436,1,8,0:0:0:0:
154,74,244643,1,8,0:0:0:0:
154,74,244850,1,0,0:0:0:0:
154,74,244953,1,8,0:0:0:0:
154,74,245056,1,0,0:0:0:0:
163,46,245160,1,0,0:0:0:0:
159,50,245367,1,0,0:0:0:0:
159,50,245470,1,0,0:0:0:0:
159,50,245677,1,0,0:0:0:0:
159,50,245884,1,12,0:0:0:0:
157,50,246091,1,12,0:0:0:0:
159,50,246298,1,12,0:0:0:0:
200,78,246712,1,4,0:0:0:0:
