osu file format v14

[General]
AudioFilename: audio.mp3
AudioLeadIn: 0
PreviewTime: 83368
Countdown: 0
SampleSet: Normal
StackLeniency: 0.7
Mode: 1
LetterboxInBreaks: 0
WidescreenStoryboard: 1

[Editor]
DistanceSpacing: 2
BeatDivisor: 4
GridSize: 32
TimelineZoom: 2.310002

[Metadata]
Title:BLUE CLAPPER
TitleUnicode:BLUE CLAPPER
Artist:hololive IDOL PROJECT
ArtistUnicode:hololive IDOL PROJECT
Creator:Jerry
Version:Oni
Source:
Tags:ulqui japanese electronic jpop j-pop pop floral circlet vtuber virtual バーチャルyoutuber ホロライブ pandaboy 5期生 5th generation gen holofive cover corp 雪花ラミィ 桃鈴ねね 獅白ぼたん 尾丸ポルカ 魔乃アロエ Yukihana Lamy Momosuzu Nene Shishiro Botan Omaru Polka Mano Aloe original clap your hands
BeatmapID:2755469
BeatmapSetID:1329875

[Difficulty]
HPDrainRate:5
CircleSize:5
OverallDifficulty:5.5
ApproachRate:5
SliderMultiplier:1.4
SliderTickRate:1

[Events]
//Background and Video events
0,0,"HOLOFIVE.png",0,175
//Break Periods
2,203878,205788
//Storyboard Layer 0 (Background)
Sprite,Background,TopLeft,"HOLOFIVE.png",0,0
//Storyboard Layer 1 (Fail)
//Storyboard Layer 2 (Pass)
//Storyboard Layer 3 (Foreground)
Sprite,Foreground,Centre,"SB\credits\jerry.png",320,85 L,117609,2 F,0,0,46,0,0.65 F,0,46,92,0.65,0 F,0,92,138,0,0.65 L,122575,2 F,0,0,46,0.65,0 F,0,46,92,0,0.65 F,0,92,138,0.65,0 S,0,117609,120919,0.75
//Storyboard Layer 4 (Overlay)
//Storyboard Sound Samples

[TimingPoints]
1748,413.793103448276,4,1,0,80,1,0
1748,-50,4,1,0,80,0,0
3299,-100,4,1,0,80,0,0
3403,413.793103448276,4,1,0,80,1,0
29678,-125,4,1,0,80,0,0
33092,-111.111111111111,4,1,0,80,0,0
36661,-108.108108108108,4,1,0,80,0,0
36764,-106.666666666667,4,1,0,80,0,0
36868,-105.263157894737,4,1,0,80,0,0
37075,-102.564102564103,4,1,0,80,0,0
37282,-100,4,1,0,80,0,0
37488,-97.5609756097561,4,1,0,80,0,0
37592,-96.3855421686747,4,1,0,80,0,0
37695,-95.2380952380952,4,1,0,80,0,0
37902,-93.0232558139535,4,1,0,80,0,0
38109,-90.9090909090909,4,1,0,80,0,0
38316,-88.8888888888889,4,1,0,80,0,0
38419,-87.9120879120879,4,1,0,80,0,0
38523,-86.9565217391304,4,1,0,80,0,0
38730,-85.1063829787234,4,1,0,80,0,0
38937,-83.3333333333333,4,1,0,80,0,0
39040,-82.4742268041237,4,1,0,80,0,0
39144,-81.6326530612245,4,1,0,80,0,0
39247,-80.8080808080808,4,1,0,80,0,0
39351,-80,4,1,0,80,0,0
39557,-78.4313725490196,4,1,0,80,0,0
39764,-76.9230769230769,4,1,0,80,0,0
43954,-66.6666666666667,4,1,0,80,0,0
44575,-100,4,1,0,80,0,0
44782,413.793103448276,4,1,0,80,1,0
71057,-125,4,1,0,80,0,0
77988,-117.647058823529,4,1,0,80,0,0
79644,-111.111111111111,4,1,0,80,0,0
81350,-105.263157894737,4,1,0,80,0,0
81557,-100,4,1,0,80,0,0
81764,-95.2380952380952,4,1,0,80,0,0
81971,-90.9090909090909,4,1,0,80,0,0
82074,-89.8876404494382,4,1,0,80,0,0
82178,-88.8888888888889,4,1,0,80,0,0
82281,-87.9120879120879,4,1,0,80,0,0
82385,-86.9565217391304,4,1,0,80,0,0
82592,-85.1063829787234,4,1,0,80,0,0
82798,-83.3333333333333,4,1,0,80,0,0
83678,-66.6666666666667,4,1,0,80,0,0
84299,-100,4,1,0,80,0,0
84506,-100,4,1,0,80,0,1
91850,-83.3333333333333,4,1,0,80,0,1
92471,-100,4,1,0,80,0,1
93506,-83.3333333333333,4,1,0,80,0,1
94230,-100,4,1,0,80,0,1
96092,-100,4,1,0,80,0,0
97747,-100,4,1,0,80,0,1
105092,-83.3333333333333,4,1,0,80,0,1
105713,-100,4,1,0,80,0,1
106747,-83.3333333333333,4,1,0,80,0,1
107471,-100,4,1,0,80,0,1
109333,-100,4,1,0,80,0,0
110368,-66.6666666666667,4,1,0,80,0,0
110782,-100,4,1,0,80,0,0
137264,-125,4,1,0,80,0,0
144195,-117.647058823529,4,1,0,80,0,0
145850,-111.111111111111,4,1,0,80,0,0
147557,-106.666666666667,4,1,0,80,0,0
147764,-102.564102564103,4,1,0,80,0,0
147971,-98.7654320987654,4,1,0,80,0,0
148178,-95.2380952380952,4,1,0,80,0,0
148281,-93.5672514619883,4,1,0,80,0,0
148385,-91.9540229885058,4,1,0,80,0,0
148488,-90.3954802259887,4,1,0,80,0,0
148592,-88.8888888888889,4,1,0,80,0,0
148798,-86.0215053763441,4,1,0,80,0,0
149005,-83.3333333333333,4,1,0,80,0,0
149885,-66.6666666666667,4,1,0,80,0,0
150506,-100,4,1,0,80,0,0
150713,-100,4,1,0,80,0,1
158057,-83.3333333333333,4,1,0,80,0,1
158678,-100,4,1,0,80,0,1
159713,-83.3333333333333,4,1,0,80,0,1
160333,-100,4,1,0,80,0,1
162299,-100,4,1,0,80,0,0
163954,-100,4,1,0,80,0,1
171299,-83.3333333333333,4,1,0,80,0,1
171919,-100,4,1,0,80,0,1
172954,-83.3333333333333,4,1,0,80,0,1
173575,-100,4,1,0,80,0,1
175540,-100,4,1,0,80,0,0
190437,-100,4,1,0,80,0,1
196954,-83.3333333333333,4,1,0,80,0,1
197161,-100,4,1,0,80,0,1
198609,-83.3333333333333,4,1,0,80,0,1
198816,-100,4,1,0,80,0,1
200264,-83.3333333333333,4,1,0,80,0,1
200471,-100,4,1,0,80,0,1
203678,-100,4,1,0,80,0,0
206988,413.793103448276,4,1,0,80,1,0
220229,-100,4,1,0,80,0,1
227574,-83.3333333333333,4,1,0,80,0,1
228194,-100,4,1,0,80,0,1
229229,-83.3333333333333,4,1,0,80,0,1
229850,-100,4,1,0,80,0,1
231815,-100,4,1,0,80,0,0
232850,-66.6666666666667,4,1,0,80,0,0
233263,-100,4,1,0,80,0,0

[HitObjects]
256,192,1748,5,12,0:0:0:0:
256,192,3403,1,4,0:0:0:0:
256,192,3713,1,8,0:0:0:0:
256,192,3816,1,0,0:0:0:0:
256,192,4023,1,8,0:0:0:0:
256,192,4230,1,0,0:0:0:0:
256,192,4334,1,8,0:0:0:0:
256,192,4437,1,0,0:0:0:0:
256,192,4644,1,8,0:0:0:0:
256,192,4851,1,0,0:0:0:0:
256,192,5058,1,0,0:0:0:0:
256,192,5368,1,8,0:0:0:0:
256,192,5471,1,8,0:0:0:0:
256,192,5678,1,8,0:0:0:0:
256,192,5885,1,0,0:0:0:0:
256,192,5989,1,8,0:0:0:0:
256,192,6092,1,0,0:0:0:0:
256,192,6196,1,0,0:0:0:0:
256,192,6299,1,8,0:0:0:0:
256,192,6713,1,0,0:0:0:0:
256,192,7023,1,8,0:0:0:0:
256,192,7127,1,0,0:0:0:0:
256,192,7334,1,8,0:0:0:0:
256,192,7540,1,0,0:0:0:0:
256,192,7644,1,8,0:0:0:0:
256,192,7747,1,0,0:0:0:0:
256,192,7954,1,8,0:0:0:0:
256,192,8161,1,0,0:0:0:0:
256,192,8368,1,0,0:0:0:0:
256,192,8678,1,8,0:0:0:0:
256,192,8782,1,8,0:0:0:0:
256,192,8989,1,8,0:0:0:0:
256,192,9196,1,8,0:0:0:0:
256,192,9299,1,8,0:0:0:0:
256,192,9403,1,0,0:0:0:0:
256,192,9506,1,0,0:0:0:0:
256,192,9609,1,8,0:0:0:0:
256,192,10023,1,8,0:0:0:0:
256,192,10230,1,8,0:0:0:0:
256,192,10437,1,0,0:0:0:0:
256,192,10851,1,12,0:0:0:0:
256,192,11058,1,12,0:0:0:0:
256,192,11265,1,12,0:0:0:0:
256,192,11471,1,0,0:0:0:0:
256,192,11678,1,8,0:0:0:0:
256,192,11885,1,8,0:0:0:0:
256,192,12092,1,0,0:0:0:0:
256,192,12506,1,12,0:0:0:0:
256,192,12713,1,12,0:0:0:0:
256,192,12920,1,12,0:0:0:0:
256,192,13334,1,0,0:0:0:0:
256,192,13644,1,8,0:0:0:0:
256,192,13747,1,0,0:0:0:0:
256,192,13954,1,8,0:0:0:0:
256,192,14161,1,0,0:0:0:0:
256,192,14265,1,8,0:0:0:0:
256,192,14368,1,0,0:0:0:0:
256,192,14471,1,0,0:0:0:0:
256,192,14575,1,8,0:0:0:0:
256,192,14782,1,8,0:0:0:0:
256,192,14989,1,0,0:0:0:0:
256,192,15196,1,8,0:0:0:0:
256,192,15299,1,0,0:0:0:0:
256,192,15403,1,8,0:0:0:0:
256,192,15609,1,8,0:0:0:0:
256,192,15816,1,8,0:0:0:0:
256,192,15920,1,8,0:0:0:0:
256,192,16023,1,0,0:0:0:0:
256,192,16127,1,0,0:0:0:0:
256,192,16230,1,8,0:0:0:0:
256,192,16437,1,8,0:0:0:0:
256,192,16644,1,4,0:0:0:0:
256,192,16954,1,8,0:0:0:0:
256,192,17058,1,0,0:0:0:0:
256,192,17265,1,8,0:0:0:0:
256,192,17471,1,0,0:0:0:0:
256,192,17575,1,8,0:0:0:0:
256,192,17678,1,0,0:0:0:0:
256,192,17885,1,8,0:0:0:0:
256,192,18092,1,0,0:0:0:0:
256,192,18299,1,0,0:0:0:0:
256,192,18506,1,8,0:0:0:0:
256,192,18609,1,0,0:0:0:0:
256,192,18713,1,8,0:0:0:0:
256,192,18920,1,8,0:0:0:0:
256,192,19127,1,0,0:0:0:0:
256,192,19230,1,0,0:0:0:0:
256,192,19334,1,8,0:0:0:0:
256,192,19540,1,8,0:0:0:0:
256,192,19954,1,0,0:0:0:0:
256,192,20265,1,8,0:0:0:0:
256,192,20368,1,0,0:0:0:0:
256,192,20575,1,8,0:0:0:0:
256,192,20782,1,0,0:0:0:0:
256,192,20885,1,8,0:0:0:0:
256,192,20989,1,0,0:0:0:0:
256,192,21196,1,8,0:0:0:0:
256,192,21403,1,0,0:0:0:0:
256,192,21609,1,0,0:0:0:0:
256,192,21816,1,8,0:0:0:0:
256,192,21920,1,8,0:0:0:0:
256,192,22023,1,0,0:0:0:0:
256,192,22230,1,8,0:0:0:0:
256,192,22437,1,0,0:0:0:0:
256,192,22540,1,8,0:0:0:0:
256,192,22644,1,8,0:0:0:0:
256,192,22747,1,0,0:0:0:0:
256,192,22851,1,8,0:0:0:0:
256,192,23058,1,0,0:0:0:0:
256,192,23265,1,0,0:0:0:0:
256,192,23471,1,8,0:0:0:0:
256,192,23575,1,8,0:0:0:0:
256,192,23678,1,0,0:0:0:0:
256,192,23885,1,8,0:0:0:0:
256,192,24092,1,12,0:0:0:0:
256,192,24299,1,12,0:0:0:0:
256,192,24506,1,12,0:0:0:0:
256,192,24713,1,0,0:0:0:0:
256,192,24816,1,0,0:0:0:0:
256,192,24920,1,8,0:0:0:0:
256,192,25127,1,8,0:0:0:0:
256,192,25334,1,0,0:0:0:0:
256,192,25540,1,8,0:0:0:0:
256,192,25747,1,12,0:0:0:0:
256,192,25954,1,12,0:0:0:0:
256,192,26161,1,12,0:0:0:0:
256,192,26575,1,0,0:0:0:0:
256,192,26782,1,8,0:0:0:0:
256,192,26885,1,8,0:0:0:0:
256,192,26989,1,0,0:0:0:0:
256,192,27196,1,8,0:0:0:0:
256,192,27403,1,0,0:0:0:0:
256,192,27506,1,8,0:0:0:0:
256,192,27609,1,0,0:0:0:0:
256,192,27713,1,0,0:0:0:0:
256,192,27816,1,8,0:0:0:0:
256,192,28023,1,8,0:0:0:0:
256,192,28230,1,0,0:0:0:0:
256,192,29885,1,0,0:0:0:0:
256,192,30196,1,8,0:0:0:0:
256,192,30299,1,0,0:0:0:0:
256,192,30506,1,8,0:0:0:0:
256,192,30713,1,0,0:0:0:0:
256,192,30816,1,8,0:0:0:0:
256,192,31023,1,8,0:0:0:0:
256,192,31127,1,0,0:0:0:0:
256,192,31334,1,8,0:0:0:0:
256,192,31540,1,0,0:0:0:0:
256,192,31747,1,8,0:0:0:0:
256,192,31851,1,0,0:0:0:0:
256,192,31954,1,8,0:0:0:0:
256,192,32161,1,0,0:0:0:0:
256,192,32265,1,0,0:0:0:0:
256,192,32368,1,8,0:0:0:0:
256,192,32471,1,0,0:0:0:0:
256,192,32678,1,8,0:0:0:0:
256,192,32782,1,0,0:0:0:0:
256,192,32989,1,8,0:0:0:0:
256,192,33196,1,0,0:0:0:0:
256,192,33506,1,8,0:0:0:0:
256,192,33609,1,0,0:0:0:0:
256,192,33816,1,8,0:0:0:0:
256,192,34023,1,0,0:0:0:0:
256,192,34127,1,8,0:0:0:0:
256,192,34334,1,8,0:0:0:0:
256,192,34437,1,0,0:0:0:0:
256,192,34644,1,8,0:0:0:0:
256,192,34851,1,0,0:0:0:0:
256,192,35058,1,8,0:0:0:0:
256,192,35161,1,0,0:0:0:0:
256,192,35265,1,8,0:0:0:0:
256,192,35471,1,0,0:0:0:0:
256,192,35575,1,0,0:0:0:0:
256,192,35678,1,8,0:0:0:0:
256,192,35782,1,0,0:0:0:0:
256,192,35989,1,8,0:0:0:0:
256,192,36092,1,0,0:0:0:0:
256,192,36299,1,8,0:0:0:0:
256,192,36506,1,0,0:0:0:0:
256,192,36713,1,8,0:0:0:0:
256,192,36816,1,0,0:0:0:0:
256,192,36920,1,8,0:0:0:0:
256,192,37127,1,0,0:0:0:0:
256,192,37334,1,8,0:0:0:0:
256,192,37540,1,0,0:0:0:0:
256,192,37644,1,0,0:0:0:0:
256,192,37747,1,8,0:0:0:0:
256,192,37954,1,8,0:0:0:0:
256,192,38161,1,8,0:0:0:0:
256,192,38368,1,8,0:0:0:0:
256,192,38471,1,0,0:0:0:0:
256,192,38575,1,8,0:0:0:0:
256,192,38782,1,8,0:0:0:0:
256,192,38989,1,8,0:0:0:0:
256,192,39092,1,8,0:0:0:0:
256,192,39196,1,0,0:0:0:0:
256,192,39299,1,0,0:0:0:0:
256,192,39403,1,8,0:0:0:0:
256,192,39609,1,8,0:0:0:0:
256,192,39816,12,0,43127,0:0:0:0:
256,192,44368,5,12,0:0:0:0:
256,192,44782,1,0,0:0:0:0:
256,192,44988,1,8,0:0:0:0:
256,192,45092,1,8,0:0:0:0:
256,192,45195,1,0,0:0:0:0:
256,192,45402,1,8,0:0:0:0:
256,192,45506,1,0,0:0:0:0:
256,192,45713,1,8,0:0:0:0:
256,192,45919,1,0,0:0:0:0:
256,192,46023,1,8,0:0:0:0:
256,192,46230,1,8,0:0:0:0:
256,192,46437,1,0,0:0:0:0:
256,192,46644,1,8,0:0:0:0:
256,192,46747,1,0,0:0:0:0:
256,192,46850,1,8,0:0:0:0:
256,192,47057,1,0,0:0:0:0:
256,192,47161,1,8,0:0:0:0:
256,192,47368,1,8,0:0:0:0:
256,192,47471,1,0,0:0:0:0:
256,192,47678,1,8,0:0:0:0:
256,192,47885,1,0,0:0:0:0:
256,192,48092,1,0,0:0:0:0:
256,192,48299,1,0,0:0:0:0:
256,192,48402,1,0,0:0:0:0:
256,192,48506,1,8,0:0:0:0:
256,192,48713,1,0,0:0:0:0:
256,192,48816,1,8,0:0:0:0:
256,192,49023,1,8,0:0:0:0:
256,192,49230,1,0,0:0:0:0:
256,192,49333,1,8,0:0:0:0:
256,192,49540,1,8,0:0:0:0:
256,192,49747,1,0,0:0:0:0:
256,192,50057,1,8,0:0:0:0:
256,192,50161,1,0,0:0:0:0:
256,192,50368,1,8,0:0:0:0:
256,192,50575,1,0,0:0:0:0:
256,192,50678,1,8,0:0:0:0:
256,192,50782,1,0,0:0:0:0:
256,192,50885,1,0,0:0:0:0:
256,192,50988,1,8,0:0:0:0:
256,192,51402,1,0,0:0:0:0:
256,192,51609,1,8,0:0:0:0:
256,192,51713,1,8,0:0:0:0:
256,192,51816,1,0,0:0:0:0:
256,192,52023,1,8,0:0:0:0:
256,192,52126,1,0,0:0:0:0:
256,192,52333,1,0,0:0:0:0:
256,192,52540,1,0,0:0:0:0:
256,192,52644,1,8,0:0:0:0:
256,192,52850,1,8,0:0:0:0:
256,192,53057,1,0,0:0:0:0:
256,192,53264,1,8,0:0:0:0:
256,192,53368,1,0,0:0:0:0:
256,192,53471,1,8,0:0:0:0:
256,192,53678,1,0,0:0:0:0:
256,192,53782,1,8,0:0:0:0:
256,192,53988,1,8,0:0:0:0:
256,192,54092,1,0,0:0:0:0:
256,192,54299,1,8,0:0:0:0:
256,192,54506,1,8,0:0:0:0:
256,192,54713,1,0,0:0:0:0:
256,192,54919,1,8,0:0:0:0:
256,192,55023,1,8,0:0:0:0:
256,192,55126,1,0,0:0:0:0:
256,192,55333,1,8,0:0:0:0:
256,192,55437,1,0,0:0:0:0:
256,192,55644,1,0,0:0:0:0:
256,192,55850,1,8,0:0:0:0:
256,192,55954,1,8,0:0:0:0:
256,192,56161,1,8,0:0:0:0:
256,192,56368,1,0,0:0:0:0:
256,192,56471,1,8,0:0:0:0:
256,192,56678,1,0,0:0:0:0:
256,192,56782,1,8,0:0:0:0:
256,192,56988,1,8,0:0:0:0:
256,192,57195,1,0,0:0:0:0:
256,192,57299,1,8,0:0:0:0:
256,192,57402,1,8,0:0:0:0:
256,192,57506,1,0,0:0:0:0:
256,192,57609,1,8,0:0:0:0:
256,192,58023,1,4,0:0:0:0:
256,192,58230,1,8,0:0:0:0:
256,192,58333,1,8,0:0:0:0:
256,192,58437,1,0,0:0:0:0:
256,192,58644,1,8,0:0:0:0:
256,192,58747,1,0,0:0:0:0:
256,192,58954,1,0,0:0:0:0:
256,192,59057,1,8,0:0:0:0:
256,192,59161,1,0,0:0:0:0:
256,192,59264,1,8,0:0:0:0:
256,192,59471,1,8,0:0:0:0:
256,192,59678,1,0,0:0:0:0:
256,192,59885,1,8,0:0:0:0:
256,192,59988,1,0,0:0:0:0:
256,192,60092,1,0,0:0:0:0:
256,192,60299,1,0,0:0:0:0:
256,192,60402,1,8,0:0:0:0:
256,192,60609,1,8,0:0:0:0:
256,192,60713,1,8,0:0:0:0:
256,192,60816,1,0,0:0:0:0:
256,192,60919,1,8,0:0:0:0:
256,192,61126,1,8,0:0:0:0:
256,192,61333,1,0,0:0:0:0:
256,192,61540,1,8,0:0:0:0:
256,192,61644,1,0,0:0:0:0:
256,192,61747,1,8,0:0:0:0:
256,192,61954,1,0,0:0:0:0:
256,192,62057,1,8,0:0:0:0:
256,192,62264,1,8,0:0:0:0:
256,192,62471,1,8,0:0:0:0:
256,192,62575,1,8,0:0:0:0:
256,192,62782,1,8,0:0:0:0:
256,192,62988,1,0,0:0:0:0:
256,192,63195,1,8,0:0:0:0:
256,192,63299,1,8,0:0:0:0:
256,192,63402,1,0,0:0:0:0:
256,192,63609,1,8,0:0:0:0:
256,192,63816,1,0,0:0:0:0:
256,192,64023,1,8,0:0:0:0:
256,192,64230,1,8,0:0:0:0:
256,192,64644,1,0,0:0:0:0:
256,192,64850,1,8,0:0:0:0:
256,192,64954,1,0,0:0:0:0:
256,192,65057,1,8,0:0:0:0:
256,192,65264,1,0,0:0:0:0:
256,192,65368,1,8,0:0:0:0:
256,192,65575,1,8,0:0:0:0:
256,192,65678,1,8,0:0:0:0:
256,192,65782,1,0,0:0:0:0:
256,192,65885,1,8,0:0:0:0:
256,192,66092,1,8,0:0:0:0:
256,192,66299,1,0,0:0:0:0:
256,192,66506,1,0,0:0:0:0:
256,192,66609,1,0,0:0:0:0:
256,192,66713,1,8,0:0:0:0:
256,192,66919,1,8,0:0:0:0:
256,192,67023,1,0,0:0:0:0:
256,192,67230,1,8,0:0:0:0:
256,192,67437,1,8,0:0:0:0:
256,192,67540,1,8,0:0:0:0:
256,192,67747,1,8,0:0:0:0:
256,192,67954,1,0,0:0:0:0:
256,192,68161,1,8,0:0:0:0:
256,192,68264,1,8,0:0:0:0:
256,192,68368,1,0,0:0:0:0:
256,192,68575,1,8,0:0:0:0:
256,192,68678,1,0,0:0:0:0:
256,192,68885,1,8,0:0:0:0:
256,192,69092,1,0,0:0:0:0:
256,192,69195,1,8,0:0:0:0:
256,192,69402,1,0,0:0:0:0:
256,192,69609,1,8,0:0:0:0:
256,192,69816,1,0,0:0:0:0:
256,192,70023,1,8,0:0:0:0:
256,192,70230,1,0,0:0:0:0:
256,192,70437,1,0,0:0:0:0:
256,192,70575,1,0,0:0:0:0:
256,192,70713,1,0,0:0:0:0:
256,192,70850,1,8,0:0:0:0:
256,192,71264,1,4,0:0:0:0:
256,192,71678,1,8,0:0:0:0:
256,192,71885,1,0,0:0:0:0:
256,192,72092,1,8,0:0:0:0:
256,192,72195,1,8,0:0:0:0:
256,192,72402,1,8,0:0:0:0:
256,192,72506,1,0,0:0:0:0:
256,192,72713,1,0,0:0:0:0:
256,192,72919,1,0,0:0:0:0:
256,192,73333,1,8,0:0:0:0:
256,192,73747,1,8,0:0:0:0:
256,192,73954,1,0,0:0:0:0:
256,192,74161,1,8,0:0:0:0:
256,192,74368,1,0,0:0:0:0:
256,192,74575,1,0,0:0:0:0:
256,192,74988,1,8,0:0:0:0:
256,192,75195,1,0,0:0:0:0:
256,192,75402,1,8,0:0:0:0:
256,192,75506,1,0,0:0:0:0:
256,192,75713,1,8,0:0:0:0:
256,192,75816,1,0,0:0:0:0:
256,192,76023,1,0,0:0:0:0:
256,192,76230,1,0,0:0:0:0:
256,192,76644,1,8,0:0:0:0:
256,192,76850,1,0,0:0:0:0:
256,192,76954,1,0,0:0:0:0:
256,192,77057,1,8,0:0:0:0:
256,192,77264,1,0,0:0:0:0:
256,192,77471,1,8,0:0:0:0:
256,192,77575,1,0,0:0:0:0:
256,192,77678,1,8,0:0:0:0:
256,192,77782,1,8,0:0:0:0:
256,192,77885,1,0,0:0:0:0:
256,192,78092,1,8,0:0:0:0:
256,192,78299,1,8,0:0:0:0:
256,192,78609,1,0,0:0:0:0:
256,192,78713,1,8,0:0:0:0:
256,192,78919,1,8,0:0:0:0:
256,192,79126,1,8,0:0:0:0:
256,192,79333,1,0,0:0:0:0:
256,192,79540,1,0,0:0:0:0:
256,192,79747,1,8,0:0:0:0:
256,192,79954,1,8,0:0:0:0:
256,192,80264,1,8,0:0:0:0:
256,192,80368,1,0,0:0:0:0:
256,192,80575,1,0,0:0:0:0:
256,192,80678,1,0,0:0:0:0:
256,192,80782,1,8,0:0:0:0:
256,192,80988,1,0,0:0:0:0:
256,192,81195,1,4,0:0:0:0:
256,192,81402,1,0,0:0:0:0:
256,192,81609,1,8,0:0:0:0:
256,192,81816,1,0,0:0:0:0:
256,192,82023,1,8,0:0:0:0:
256,192,82126,1,8,0:0:0:0:
256,192,82230,1,0,0:0:0:0:
256,192,82333,1,0,0:0:0:0:
256,192,82437,1,8,0:0:0:0:
256,192,82644,1,8,0:0:0:0:
256,192,82850,1,0,0:0:0:0:
256,192,84092,1,12,0:0:0:0:
256,192,84506,1,4,0:0:0:0:
256,192,84816,1,8,0:0:0:0:
256,192,84919,1,0,0:0:0:0:
256,192,85126,1,8,0:0:0:0:
256,192,85333,1,0,0:0:0:0:
256,192,85437,1,0,0:0:0:0:
256,192,85540,1,0,0:0:0:0:
256,192,85747,1,8,0:0:0:0:
256,192,85954,1,0,0:0:0:0:
256,192,86161,1,0,0:0:0:0:
256,192,86368,1,8,0:0:0:0:
256,192,86471,1,8,0:0:0:0:
256,192,86575,1,0,0:0:0:0:
256,192,86782,1,8,0:0:0:0:
256,192,86988,1,0,0:0:0:0:
256,192,87092,1,8,0:0:0:0:
256,192,87195,1,0,0:0:0:0:
256,192,87299,1,0,0:0:0:0:
256,192,87402,1,8,0:0:0:0:
256,192,87609,1,8,0:0:0:0:
256,192,87816,1,4,0:0:0:0:
256,192,88126,1,8,0:0:0:0:
256,192,88230,1,0,0:0:0:0:
256,192,88437,1,8,0:0:0:0:
256,192,88644,1,0,0:0:0:0:
256,192,88747,1,0,0:0:0:0:
256,192,88850,1,0,0:0:0:0:
256,192,89057,1,8,0:0:0:0:
256,192,89264,1,8,0:0:0:0:
256,192,89471,1,0,0:0:0:0:
256,192,89678,1,8,0:0:0:0:
256,192,89782,1,8,0:0:0:0:
256,192,89885,1,0,0:0:0:0:
256,192,90092,1,8,0:0:0:0:
256,192,90299,1,8,0:0:0:0:
256,192,90402,1,8,0:0:0:0:
256,192,90506,1,0,0:0:0:0:
256,192,90609,1,0,0:0:0:0:
256,192,90713,1,8,0:0:0:0:
256,192,91126,1,0,0:0:0:0:
256,192,91333,1,8,0:0:0:0:
256,192,91437,1,8,0:0:0:0:
256,192,91540,1,0,0:0:0:0:
256,192,91747,1,8,0:0:0:0:
256,192,91954,1,12,0:0:0:0:
256,192,92161,1,12,0:0:0:0:
256,192,92368,1,12,0:0:0:0:
256,192,92575,1,0,0:0:0:0:
256,192,92678,1,0,0:0:0:0:
256,192,92782,1,8,0:0:0:0:
256,192,92988,1,8,0:0:0:0:
256,192,93195,1,0,0:0:0:0:
256,192,93402,1,8,0:0:0:0:
256,192,93609,1,12,0:0:0:0:
256,192,93816,1,12,0:0:0:0:
256,192,94023,1,12,0:0:0:0:
256,192,94437,1,0,0:0:0:0:
256,192,94644,1,8,0:0:0:0:
256,192,94747,1,0,0:0:0:0:
256,192,94850,1,8,0:0:0:0:
256,192,95057,1,8,0:0:0:0:
256,192,95264,1,0,0:0:0:0:
256,192,95368,1,8,0:0:0:0:
256,192,95471,1,0,0:0:0:0:
256,192,95575,1,0,0:0:0:0:
256,192,95678,1,8,0:0:0:0:
256,192,95885,1,0,0:0:0:0:
256,192,96092,1,0,0:0:0:0:
256,192,96299,1,8,0:0:0:0:
256,192,96402,1,8,0:0:0:0:
256,192,96506,1,8,0:0:0:0:
256,192,96713,1,8,0:0:0:0:
256,192,96919,1,8,0:0:0:0:
256,192,97023,1,8,0:0:0:0:
256,192,97126,1,0,0:0:0:0:
256,192,97230,1,0,0:0:0:0:
256,192,97333,1,8,0:0:0:0:
256,192,97540,1,8,0:0:0:0:
256,192,97747,1,4,0:0:0:0:
256,192,98057,1,8,0:0:0:0:
256,192,98161,1,0,0:0:0:0:
256,192,98368,1,8,0:0:0:0:
256,192,98575,1,0,0:0:0:0:
256,192,98678,1,0,0:0:0:0:
256,192,98782,1,0,0:0:0:0:
256,192,98988,1,8,0:0:0:0:
256,192,99195,1,0,0:0:0:0:
256,192,99402,1,8,0:0:0:0:
256,192,99609,1,0,0:0:0:0:
256,192,99713,1,0,0:0:0:0:
256,192,99816,1,8,0:0:0:0:
256,192,100023,1,0,0:0:0:0:
256,192,100230,1,0,0:0:0:0:
256,192,100333,1,8,0:0:0:0:
256,192,100437,1,8,0:0:0:0:
256,192,100540,1,0,0:0:0:0:
256,192,100644,1,8,0:0:0:0:
256,192,100850,1,8,0:0:0:0:
256,192,101057,1,4,0:0:0:0:
256,192,101368,1,8,0:0:0:0:
256,192,101471,1,0,0:0:0:0:
256,192,101678,1,8,0:0:0:0:
256,192,101885,1,0,0:0:0:0:
256,192,101988,1,0,0:0:0:0:
256,192,102092,1,0,0:0:0:0:
256,192,102299,1,8,0:0:0:0:
256,192,102506,1,0,0:0:0:0:
256,192,102713,1,8,0:0:0:0:
256,192,102919,1,8,0:0:0:0:
256,192,103023,1,8,0:0:0:0:
256,192,103126,1,0,0:0:0:0:
256,192,103333,1,8,0:0:0:0:
256,192,103540,1,8,0:0:0:0:
256,192,103644,1,0,0:0:0:0:
256,192,103747,1,0,0:0:0:0:
256,192,103850,1,0,0:0:0:0:
256,192,103954,1,8,0:0:0:0:
256,192,104368,1,0,0:0:0:0:
256,192,104575,1,8,0:0:0:0:
256,192,104678,1,8,0:0:0:0:
256,192,104782,1,0,0:0:0:0:
256,192,104988,1,8,0:0:0:0:
256,192,105195,1,12,0:0:0:0:
256,192,105402,1,12,0:0:0:0:
256,192,105609,1,12,0:0:0:0:
256,192,105816,1,0,0:0:0:0:
256,192,105919,1,0,0:0:0:0:
256,192,106023,1,8,0:0:0:0:
256,192,106230,1,8,0:0:0:0:
256,192,106437,1,0,0:0:0:0:
256,192,106644,1,8,0:0:0:0:
256,192,106850,1,12,0:0:0:0:
256,192,107057,1,12,0:0:0:0:
256,192,107264,1,12,0:0:0:0:
256,192,107678,1,0,0:0:0:0:
256,192,107885,1,0,0:0:0:0:
256,192,108092,1,8,0:0:0:0:
256,192,108299,1,8,0:0:0:0:
256,192,108506,1,8,0:0:0:0:
256,192,108609,1,8,0:0:0:0:
256,192,108713,1,0,0:0:0:0:
256,192,108816,1,0,0:0:0:0:
256,192,108919,1,8,0:0:0:0:
256,192,109023,1,8,0:0:0:0:
256,192,109126,1,8,0:0:0:0:
256,192,109230,1,8,0:0:0:0:
256,192,109333,1,0,0:0:0:0:
256,192,110575,1,12,0:0:0:0:
256,192,110988,1,0,0:0:0:0:
256,192,111195,1,8,0:0:0:0:
256,192,111299,1,0,0:0:0:0:
256,192,111506,1,8,0:0:0:0:
256,192,111713,1,8,0:0:0:0:
256,192,111816,1,8,0:0:0:0:
256,192,112023,1,8,0:0:0:0:
256,192,112230,1,8,0:0:0:0:
256,192,112333,1,0,0:0:0:0:
256,192,112437,1,8,0:0:0:0:
256,192,112540,1,8,0:0:0:0:
256,192,112644,1,0,0:0:0:0:
256,192,112850,1,8,0:0:0:0:
256,192,112954,1,0,0:0:0:0:
256,192,113161,1,8,0:0:0:0:
256,192,113368,1,0,0:0:0:0:
256,192,113471,1,8,0:0:0:0:
256,192,113678,1,8,0:0:0:0:
256,192,113885,1,8,0:0:0:0:
256,192,113988,1,8,0:0:0:0:
256,192,114092,1,0,0:0:0:0:
256,192,114195,1,8,0:0:0:0:
256,192,114299,1,0,0:0:0:0:
256,192,114506,1,8,0:0:0:0:
256,192,114609,1,0,0:0:0:0:
256,192,114816,1,8,0:0:0:0:
256,192,115023,1,0,0:0:0:0:
256,192,115126,1,8,0:0:0:0:
256,192,115333,1,0,0:0:0:0:
256,192,115540,1,8,0:0:0:0:
256,192,115644,1,0,0:0:0:0:
256,192,115747,1,8,0:0:0:0:
256,192,115850,1,8,0:0:0:0:
256,192,115954,1,0,0:0:0:0:
256,192,116161,1,8,0:0:0:0:
256,192,116264,1,8,0:0:0:0:
256,192,116471,1,0,0:0:0:0:
256,192,116678,1,8,0:0:0:0:
256,192,116782,1,0,0:0:0:0:
256,192,116988,1,0,0:0:0:0:
256,192,117195,1,8,0:0:0:0:
256,192,117609,1,0,0:0:0:0:
256,192,117816,1,8,0:0:0:0:
256,192,117919,1,8,0:0:0:0:
256,192,118126,1,8,0:0:0:0:
256,192,118333,1,8,0:0:0:0:
256,192,118437,1,0,0:0:0:0:
256,192,118540,1,8,0:0:0:0:
256,192,118644,1,0,0:0:0:0:
256,192,118747,1,0,0:0:0:0:
256,192,118850,1,8,0:0:0:0:
256,192,119057,1,0,0:0:0:0:
256,192,119264,1,0,0:0:0:0:
256,192,119471,1,8,0:0:0:0:
256,192,119575,1,0,0:0:0:0:
256,192,119782,1,8,0:0:0:0:
256,192,119988,1,0,0:0:0:0:
256,192,120092,1,8,0:0:0:0:
256,192,120195,1,0,0:0:0:0:
256,192,120299,1,0,0:0:0:0:
256,192,120402,1,0,0:0:0:0:
256,192,120506,1,8,0:0:0:0:
256,192,120713,1,0,0:0:0:0:
256,192,120919,1,0,0:0:0:0:
256,192,121126,1,8,0:0:0:0:
256,192,121230,1,8,0:0:0:0:
256,192,121437,1,8,0:0:0:0:
256,192,121644,1,8,0:0:0:0:
256,192,121747,1,0,0:0:0:0:
256,192,121850,1,8,0:0:0:0:
256,192,121954,1,8,0:0:0:0:
256,192,122057,1,0,0:0:0:0:
256,192,122161,1,8,0:0:0:0:
256,192,122368,1,0,0:0:0:0:
256,192,122575,1,0,0:0:0:0:
256,192,122988,1,0,0:0:0:0:
256,192,123402,1,8,0:0:0:0:
256,192,123506,1,8,0:0:0:0:
256,192,123609,1,0,0:0:0:0:
256,192,123713,1,0,0:0:0:0:
256,192,123816,1,8,0:0:0:0:
256,192,124023,1,0,0:0:0:0:
256,192,124230,1,0,0:0:0:0:
256,192,124437,1,0,0:0:0:0:
256,192,124540,1,0,0:0:0:0:
256,192,124644,1,8,0:0:0:0:
256,192,124850,1,0,0:0:0:0:
256,192,124954,1,8,0:0:0:0:
256,192,125161,1,8,0:0:0:0:
256,192,125368,1,8,0:0:0:0:
256,192,125471,1,8,0:0:0:0:
256,192,125678,1,0,0:0:0:0:
256,192,125885,1,8,0:0:0:0:
256,192,126092,1,8,0:0:0:0:
256,192,126195,1,8,0:0:0:0:
256,192,126299,1,0,0:0:0:0:
256,192,126506,1,0,0:0:0:0:
256,192,126609,1,8,0:0:0:0:
256,192,126816,1,8,0:0:0:0:
256,192,127023,1,0,0:0:0:0:
256,192,127126,1,8,0:0:0:0:
256,192,127333,1,8,0:0:0:0:
256,192,127540,1,0,0:0:0:0:
256,192,127747,1,8,0:0:0:0:
256,192,127850,1,0,0:0:0:0:
256,192,127954,1,8,0:0:0:0:
256,192,128161,1,0,0:0:0:0:
256,192,128264,1,8,0:0:0:0:
256,192,128471,1,8,0:0:0:0:
256,192,128678,1,0,0:0:0:0:
256,192,128782,1,8,0:0:0:0:
256,192,128988,1,0,0:0:0:0:
256,192,129195,1,8,0:0:0:0:
256,192,129402,1,0,0:0:0:0:
256,192,129506,1,0,0:0:0:0:
256,192,129609,1,8,0:0:0:0:
256,192,129816,1,8,0:0:0:0:
256,192,130023,1,0,0:0:0:0:
256,192,130126,1,8,0:0:0:0:
256,192,130230,1,0,0:0:0:0:
256,192,130333,1,0,0:0:0:0:
256,192,130437,1,8,0:0:0:0:
256,192,130850,1,0,0:0:0:0:
256,192,131057,1,8,0:0:0:0:
256,192,131161,1,0,0:0:0:0:
256,192,131264,1,8,0:0:0:0:
256,192,131471,1,0,0:0:0:0:
256,192,131575,1,8,0:0:0:0:
256,192,131782,1,8,0:0:0:0:
256,192,131885,1,0,0:0:0:0:
256,192,132092,1,8,0:0:0:0:
256,192,132299,1,0,0:0:0:0:
256,192,132506,1,0,0:0:0:0:
256,192,132713,1,8,0:0:0:0:
256,192,132816,1,8,0:0:0:0:
256,192,132919,1,0,0:0:0:0:
256,192,133126,1,0,0:0:0:0:
256,192,133230,1,8,0:0:0:0:
256,192,133437,1,8,0:0:0:0:
256,192,133644,1,8,0:0:0:0:
256,192,133747,1,8,0:0:0:0:
256,192,133954,1,0,0:0:0:0:
256,192,134161,1,0,0:0:0:0:
256,192,134368,1,8,0:0:0:0:
256,192,134575,1,8,0:0:0:0:
256,192,134782,1,8,0:0:0:0:
256,192,134885,1,0,0:0:0:0:
256,192,135092,1,8,0:0:0:0:
256,192,135299,1,0,0:0:0:0:
256,192,135402,1,8,0:0:0:0:
256,192,135609,1,0,0:0:0:0:
256,192,135816,1,8,0:0:0:0:
256,192,136023,1,0,0:0:0:0:
256,192,136126,1,0,0:0:0:0:
256,192,136230,1,8,0:0:0:0:
256,192,136437,1,0,0:0:0:0:
256,192,136644,1,8,0:0:0:0:
256,192,136782,1,8,0:0:0:0:
256,192,136919,1,8,0:0:0:0:
256,192,137057,1,0,0:0:0:0:
256,192,137471,1,4,0:0:0:0:
256,192,137885,1,8,0:0:0:0:
256,192,138092,1,0,0:0:0:0:
256,192,138299,1,8,0:0:0:0:
256,192,138402,1,8,0:0:0:0:
256,192,138609,1,8,0:0:0:0:
256,192,138713,1,0,0:0:0:0:
256,192,138919,1,0,0:0:0:0:
256,192,139126,1,0,0:0:0:0:
256,192,139540,1,8,0:0:0:0:
256,192,139954,1,8,0:0:0:0:
256,192,140161,1,0,0:0:0:0:
256,192,140368,1,8,0:0:0:0:
256,192,140575,1,0,0:0:0:0:
256,192,140782,1,0,0:0:0:0:
256,192,141195,1,8,0:0:0:0:
256,192,141402,1,0,0:0:0:0:
256,192,141609,1,8,0:0:0:0:
256,192,141713,1,0,0:0:0:0:
256,192,141919,1,8,0:0:0:0:
256,192,142023,1,0,0:0:0:0:
256,192,142230,1,0,0:0:0:0:
256,192,142437,1,0,0:0:0:0:
256,192,142850,1,8,0:0:0:0:
256,192,143057,1,0,0:0:0:0:
256,192,143161,1,0,0:0:0:0:
256,192,143264,1,8,0:0:0:0:
256,192,143471,1,0,0:0:0:0:
256,192,143678,1,8,0:0:0:0:
256,192,143782,1,0,0:0:0:0:
256,192,143885,1,8,0:0:0:0:
256,192,143988,1,8,0:0:0:0:
256,192,144092,1,0,0:0:0:0:
256,192,144299,1,8,0:0:0:0:
256,192,144506,1,8,0:0:0:0:
256,192,144816,1,8,0:0:0:0:
256,192,144919,1,0,0:0:0:0:
256,192,145126,1,0,0:0:0:0:
256,192,145333,1,8,0:0:0:0:
256,192,145540,1,0,0:0:0:0:
256,192,145747,1,0,0:0:0:0:
256,192,145954,1,8,0:0:0:0:
256,192,146161,1,0,0:0:0:0:
256,192,146471,1,0,0:0:0:0:
256,192,146575,1,8,0:0:0:0:
256,192,146782,1,8,0:0:0:0:
256,192,146885,1,8,0:0:0:0:
256,192,146988,1,0,0:0:0:0:
256,192,147195,1,0,0:0:0:0:
256,192,147402,1,4,0:0:0:0:
256,192,147609,1,0,0:0:0:0:
256,192,147816,1,8,0:0:0:0:
256,192,148023,1,0,0:0:0:0:
256,192,148230,1,8,0:0:0:0:
256,192,148333,1,8,0:0:0:0:
256,192,148437,1,0,0:0:0:0:
256,192,148540,1,0,0:0:0:0:
256,192,148644,1,8,0:0:0:0:
256,192,148850,1,8,0:0:0:0:
256,192,149057,1,0,0:0:0:0:
256,192,150299,5,12,0:0:0:0:
256,192,150713,1,4,0:0:0:0:
256,192,151023,1,8,0:0:0:0:
256,192,151126,1,0,0:0:0:0:
256,192,151333,1,8,0:0:0:0:
256,192,151540,1,0,0:0:0:0:
256,192,151644,1,8,0:0:0:0:
256,192,151747,1,0,0:0:0:0:
256,192,151954,1,8,0:0:0:0:
256,192,152161,1,0,0:0:0:0:
256,192,152368,1,0,0:0:0:0:
256,192,152575,1,8,0:0:0:0:
256,192,152678,1,0,0:0:0:0:
256,192,152782,1,8,0:0:0:0:
256,192,152988,1,8,0:0:0:0:
256,192,153195,1,0,0:0:0:0:
256,192,153299,1,8,0:0:0:0:
256,192,153402,1,0,0:0:0:0:
256,192,153506,1,0,0:0:0:0:
256,192,153609,1,8,0:0:0:0:
256,192,153816,1,8,0:0:0:0:
256,192,154023,1,4,0:0:0:0:
256,192,154333,1,8,0:0:0:0:
256,192,154437,1,0,0:0:0:0:
256,192,154644,1,8,0:0:0:0:
256,192,154850,1,0,0:0:0:0:
256,192,154954,1,8,0:0:0:0:
256,192,155057,1,0,0:0:0:0:
256,192,155264,1,8,0:0:0:0:
256,192,155471,1,0,0:0:0:0:
256,192,155678,1,0,0:0:0:0:
256,192,155885,1,8,0:0:0:0:
256,192,155988,1,8,0:0:0:0:
256,192,156092,1,8,0:0:0:0:
256,192,156299,1,8,0:0:0:0:
256,192,156506,1,0,0:0:0:0:
256,192,156609,1,8,0:0:0:0:
256,192,156713,1,8,0:0:0:0:
256,192,156816,1,0,0:0:0:0:
256,192,156919,1,8,0:0:0:0:
256,192,157126,1,0,0:0:0:0:
256,192,157230,1,0,0:0:0:0:
256,192,157333,1,8,0:0:0:0:
256,192,157540,1,8,0:0:0:0:
256,192,157747,1,0,0:0:0:0:
256,192,157954,1,8,0:0:0:0:
256,192,158161,1,12,0:0:0:0:
256,192,158368,1,12,0:0:0:0:
256,192,158575,1,12,0:0:0:0:
256,192,158782,1,0,0:0:0:0:
256,192,158885,1,0,0:0:0:0:
256,192,158988,1,8,0:0:0:0:
256,192,159195,1,8,0:0:0:0:
256,192,159402,1,0,0:0:0:0:
256,192,159609,1,8,0:0:0:0:
256,192,159816,1,12,0:0:0:0:
256,192,160023,1,12,0:0:0:0:
256,192,160230,1,12,0:0:0:0:
256,192,160437,1,0,0:0:0:0:
256,192,160644,1,8,0:0:0:0:
256,192,160850,1,0,0:0:0:0:
256,192,160954,1,0,0:0:0:0:
256,192,161057,1,8,0:0:0:0:
256,192,161264,1,0,0:0:0:0:
256,192,161368,1,0,0:0:0:0:
256,192,161471,1,8,0:0:0:0:
256,192,161575,1,0,0:0:0:0:
256,192,161782,1,8,0:0:0:0:
256,192,161885,1,0,0:0:0:0:
256,192,162092,1,8,0:0:0:0:
256,192,162299,1,0,0:0:0:0:
256,192,162506,1,8,0:0:0:0:
256,192,162609,1,0,0:0:0:0:
256,192,162713,1,8,0:0:0:0:
256,192,162919,1,0,0:0:0:0:
256,192,163126,1,8,0:0:0:0:
256,192,163333,1,0,0:0:0:0:
256,192,163540,1,8,0:0:0:0:
256,192,163644,1,8,0:0:0:0:
256,192,163747,1,8,0:0:0:0:
256,192,163954,1,4,0:0:0:0:
256,192,164264,1,8,0:0:0:0:
256,192,164368,1,0,0:0:0:0:
256,192,164575,1,8,0:0:0:0:
256,192,164782,1,0,0:0:0:0:
256,192,164885,1,8,0:0:0:0:
256,192,164988,1,0,0:0:0:0:
256,192,165195,1,8,0:0:0:0:
256,192,165402,1,0,0:0:0:0:
256,192,165609,1,0,0:0:0:0:
256,192,165816,1,8,0:0:0:0:
256,192,165919,1,8,0:0:0:0:
256,192,166023,1,8,0:0:0:0:
256,192,166230,1,8,0:0:0:0:
256,192,166437,1,8,0:0:0:0:
256,192,166540,1,8,0:0:0:0:
256,192,166644,1,0,0:0:0:0:
256,192,166747,1,0,0:0:0:0:
256,192,166850,1,8,0:0:0:0:
256,192,167057,1,8,0:0:0:0:
256,192,167264,1,4,0:0:0:0:
256,192,167575,1,8,0:0:0:0:
256,192,167678,1,0,0:0:0:0:
256,192,167885,1,8,0:0:0:0:
256,192,168092,1,0,0:0:0:0:
256,192,168195,1,8,0:0:0:0:
256,192,168299,1,0,0:0:0:0:
256,192,168506,1,8,0:0:0:0:
256,192,168713,1,0,0:0:0:0:
256,192,168919,1,8,0:0:0:0:
256,192,169126,1,8,0:0:0:0:
256,192,169230,1,8,0:0:0:0:
256,192,169333,1,0,0:0:0:0:
256,192,169540,1,8,0:0:0:0:
256,192,169747,1,0,0:0:0:0:
256,192,169850,1,8,0:0:0:0:
256,192,169954,1,0,0:0:0:0:
256,192,170057,1,0,0:0:0:0:
256,192,170161,1,8,0:0:0:0:
256,192,170368,1,0,0:0:0:0:
256,192,170471,1,0,0:0:0:0:
256,192,170575,1,8,0:0:0:0:
256,192,170782,1,8,0:0:0:0:
256,192,170988,1,0,0:0:0:0:
256,192,171195,1,8,0:0:0:0:
256,192,171402,1,12,0:0:0:0:
256,192,171609,1,12,0:0:0:0:
256,192,171816,1,12,0:0:0:0:
256,192,172023,1,0,0:0:0:0:
256,192,172126,1,0,0:0:0:0:
256,192,172230,1,8,0:0:0:0:
256,192,172437,1,8,0:0:0:0:
256,192,172644,1,0,0:0:0:0:
256,192,172850,1,8,0:0:0:0:
256,192,173057,1,12,0:0:0:0:
256,192,173264,1,12,0:0:0:0:
256,192,173471,1,12,0:0:0:0:
256,192,173678,1,0,0:0:0:0:
256,192,173885,1,8,0:0:0:0:
256,192,174092,1,8,0:0:0:0:
256,192,174299,1,0,0:0:0:0:
256,192,174506,1,0,0:0:0:0:
256,192,174713,1,8,0:0:0:0:
256,192,174816,1,8,0:0:0:0:
256,192,174919,1,0,0:0:0:0:
256,192,175023,1,0,0:0:0:0:
256,192,175126,1,8,0:0:0:0:
256,192,175333,1,0,0:0:0:0:
256,192,175540,1,0,0:0:0:0:
256,192,177195,1,4,0:0:0:0:
256,192,177506,1,8,0:0:0:0:
256,192,177609,1,0,0:0:0:0:
256,192,177816,1,8,0:0:0:0:
256,192,178023,1,0,0:0:0:0:
256,192,178230,1,8,0:0:0:0:
256,192,178333,1,8,0:0:0:0:
256,192,178437,1,8,0:0:0:0:
256,192,178644,1,0,0:0:0:0:
256,192,178850,1,4,0:0:0:0:
256,192,179161,1,8,0:0:0:0:
256,192,179264,1,8,0:0:0:0:
256,192,179471,1,8,0:0:0:0:
256,192,179678,1,0,0:0:0:0:
256,192,179782,1,8,0:0:0:0:
256,192,179885,1,0,0:0:0:0:
256,192,179988,1,0,0:0:0:0:
256,192,180092,1,8,0:0:0:0:
256,192,180299,1,0,0:0:0:0:
256,192,180506,1,4,0:0:0:0:
256,192,180816,1,8,0:0:0:0:
256,192,180919,1,0,0:0:0:0:
256,192,181126,1,8,0:0:0:0:
256,192,181333,1,8,0:0:0:0:
256,192,181437,1,8,0:0:0:0:
256,192,181540,1,0,0:0:0:0:
256,192,181644,1,0,0:0:0:0:
256,192,181747,1,8,0:0:0:0:
256,192,181954,1,8,0:0:0:0:
256,192,182161,1,4,0:0:0:0:
256,192,182471,1,8,0:0:0:0:
256,192,182575,1,8,0:0:0:0:
256,192,182782,1,8,0:0:0:0:
256,192,182988,1,0,0:0:0:0:
256,192,183092,1,8,0:0:0:0:
256,192,183195,1,8,0:0:0:0:
256,192,183299,1,0,0:0:0:0:
256,192,183402,1,8,0:0:0:0:
256,192,183609,1,8,0:0:0:0:
256,192,183816,1,4,0:0:0:0:
256,192,184126,1,8,0:0:0:0:
256,192,184230,1,0,0:0:0:0:
256,192,184437,1,8,0:0:0:0:
256,192,184644,1,0,0:0:0:0:
256,192,184850,1,8,0:0:0:0:
256,192,184954,1,8,0:0:0:0:
256,192,185057,1,8,0:0:0:0:
256,192,185264,1,8,0:0:0:0:
256,192,185471,1,4,0:0:0:0:
256,192,185782,1,8,0:0:0:0:
256,192,185885,1,8,0:0:0:0:
256,192,186092,1,0,0:0:0:0:
256,192,186299,1,8,0:0:0:0:
256,192,186402,1,8,0:0:0:0:
256,192,186506,1,0,0:0:0:0:
256,192,186609,1,0,0:0:0:0:
256,192,186713,1,8,0:0:0:0:
256,192,186919,1,8,0:0:0:0:
256,192,187126,1,4,0:0:0:0:
256,192,187437,1,8,0:0:0:0:
256,192,187540,1,0,0:0:0:0:
256,192,187747,1,8,0:0:0:0:
256,192,187954,1,0,0:0:0:0:
256,192,188057,1,8,0:0:0:0:
256,192,188161,1,0,0:0:0:0:
256,192,188264,1,0,0:0:0:0:
256,192,188368,1,8,0:0:0:0:
256,192,188575,1,8,0:0:0:0:
256,192,188782,1,4,0:0:0:0:
256,192,188988,1,8,0:0:0:0:
256,192,189195,1,8,0:0:0:0:
256,192,189402,1,0,0:0:0:0:
256,192,189609,1,8,0:0:0:0:
256,192,189713,1,8,0:0:0:0:
256,192,189816,1,0,0:0:0:0:
256,192,190023,1,8,0:0:0:0:
256,192,190437,1,4,0:0:0:0:
256,192,190850,1,8,0:0:0:0:
256,192,191057,1,0,0:0:0:0:
256,192,191161,1,0,0:0:0:0:
256,192,191264,1,8,0:0:0:0:
256,192,191471,1,8,0:0:0:0:
256,192,191678,1,8,0:0:0:0:
256,192,191885,1,0,0:0:0:0:
256,192,192092,1,8,0:0:0:0:
256,192,192299,1,0,0:0:0:0:
256,192,192402,1,0,0:0:0:0:
256,192,192506,1,8,0:0:0:0:
256,192,192713,1,0,0:0:0:0:
256,192,192919,1,8,0:0:0:0:
256,192,193057,1,0,0:0:0:0:
256,192,193195,1,0,0:0:0:0:
256,192,193333,1,8,0:0:0:0:
256,192,193540,1,8,0:0:0:0:
256,192,193747,1,0,0:0:0:0:
256,192,194161,1,8,0:0:0:0:
256,192,194368,1,0,0:0:0:0:
256,192,194575,1,8,0:0:0:0:
256,192,194782,1,0,0:0:0:0:
256,192,194885,1,0,0:0:0:0:
256,192,194988,1,8,0:0:0:0:
256,192,195195,1,0,0:0:0:0:
256,192,195402,1,8,0:0:0:0:
256,192,195609,1,0,0:0:0:0:
256,192,195816,1,8,0:0:0:0:
256,192,196023,1,0,0:0:0:0:
256,192,196230,1,8,0:0:0:0:
256,192,196368,1,8,0:0:0:0:
256,192,196506,1,8,0:0:0:0:
256,192,196644,1,0,0:0:0:0:
256,192,197057,1,4,0:0:0:0:
256,192,197368,1,8,0:0:0:0:
256,192,197471,1,0,0:0:0:0:
256,192,197678,1,8,0:0:0:0:
256,192,197885,1,0,0:0:0:0:
256,192,197988,1,8,0:0:0:0:
256,192,198092,1,0,0:0:0:0:
256,192,198195,1,0,0:0:0:0:
256,192,198299,1,8,0:0:0:0:
256,192,198506,1,8,0:0:0:0:
256,192,198713,1,4,0:0:0:0:
256,192,199023,1,8,0:0:0:0:
256,192,199126,1,8,0:0:0:0:
256,192,199333,1,8,0:0:0:0:
256,192,199540,1,8,0:0:0:0:
256,192,199747,1,0,0:0:0:0:
256,192,199954,1,8,0:0:0:0:
256,192,200057,1,8,0:0:0:0:
256,192,200161,1,8,0:0:0:0:
256,192,200368,1,4,0:0:0:0:
256,192,200575,1,0,0:0:0:0:
256,192,200782,1,8,0:0:0:0:
256,192,200988,1,0,0:0:0:0:
256,192,201195,1,8,0:0:0:0:
256,192,201402,1,8,0:0:0:0:
256,192,201609,1,0,0:0:0:0:
256,192,201816,1,8,0:0:0:0:
256,192,202023,1,0,0:0:0:0:
256,192,202161,1,0,0:0:0:0:
256,192,202299,1,0,0:0:0:0:
256,192,202437,1,8,0:0:0:0:
256,192,202575,1,8,0:0:0:0:
256,192,202713,1,8,0:0:0:0:
256,192,202850,1,0,0:0:0:0:
256,192,202988,1,0,0:0:0:0:
256,192,203126,1,0,0:0:0:0:
256,192,203264,1,8,0:0:0:0:
256,192,203678,1,4,0:0:0:0:
256,192,206988,5,4,0:0:0:0:
256,192,207401,1,8,0:0:0:0:
256,192,207815,1,0,0:0:0:0:
256,192,208229,1,0,0:0:0:0:
256,192,208436,1,0,0:0:0:0:
256,192,208643,1,8,0:0:0:0:
256,192,208850,1,0,0:0:0:0:
256,192,209056,1,8,0:0:0:0:
256,192,209263,1,8,0:0:0:0:
256,192,209470,1,0,0:0:0:0:
256,192,209884,1,8,0:0:0:0:
256,192,210298,1,0,0:0:0:0:
256,192,210712,1,8,0:0:0:0:
256,192,211125,1,0,0:0:0:0:
256,192,211539,1,8,0:0:0:0:
256,192,211746,1,0,0:0:0:0:
256,192,211953,1,8,0:0:0:0:
256,192,212160,1,8,0:0:0:0:
256,192,212367,1,0,0:0:0:0:
256,192,212574,1,8,0:0:0:0:
256,192,212781,1,0,0:0:0:0:
256,192,213401,1,0,0:0:0:0:
256,192,213505,1,0,0:0:0:0:
256,192,213608,1,8,0:0:0:0:
256,192,213815,1,8,0:0:0:0:
256,192,214022,1,0,0:0:0:0:
256,192,214436,1,8,0:0:0:0:
256,192,214643,1,8,0:0:0:0:
256,192,214850,1,8,0:0:0:0:
256,192,215056,1,0,0:0:0:0:
256,192,215263,1,4,0:0:0:0:
256,192,215470,1,8,0:0:0:0:
256,192,215677,1,0,0:0:0:0:
256,192,216091,1,8,0:0:0:0:
256,192,216298,1,8,0:0:0:0:
256,192,216505,1,8,0:0:0:0:
256,192,216919,1,0,0:0:0:0:
256,192,217332,1,8,0:0:0:0:
256,192,217746,1,0,0:0:0:0:
256,192,218056,1,8,0:0:0:0:
256,192,218367,1,0,0:0:0:0:
256,192,218574,5,0,0:0:0:0:
256,192,218677,1,8,0:0:0:0:
256,192,218884,1,0,0:0:0:0:
256,192,218988,1,8,0:0:0:0:
256,192,219194,1,0,0:0:0:0:
256,192,219401,1,8,0:0:0:0:
256,192,219505,1,8,0:0:0:0:
256,192,219608,1,0,0:0:0:0:
256,192,219712,1,0,0:0:0:0:
256,192,219815,1,8,0:0:0:0:
256,192,220022,1,0,0:0:0:0:
256,192,220229,1,4,0:0:0:0:
256,192,220539,1,8,0:0:0:0:
256,192,220643,1,0,0:0:0:0:
256,192,220850,1,8,0:0:0:0:
256,192,221056,1,0,0:0:0:0:
256,192,221160,1,8,0:0:0:0:
256,192,221263,1,0,0:0:0:0:
256,192,221367,1,0,0:0:0:0:
256,192,221470,1,8,0:0:0:0:
256,192,221677,1,0,0:0:0:0:
256,192,221884,1,0,0:0:0:0:
256,192,222091,1,8,0:0:0:0:
256,192,222194,1,8,0:0:0:0:
256,192,222298,1,8,0:0:0:0:
256,192,222505,1,8,0:0:0:0:
256,192,222712,1,8,0:0:0:0:
256,192,222815,1,8,0:0:0:0:
256,192,222919,1,0,0:0:0:0:
256,192,223022,1,0,0:0:0:0:
256,192,223125,1,8,0:0:0:0:
256,192,223332,1,8,0:0:0:0:
256,192,223539,1,4,0:0:0:0:
256,192,223850,1,8,0:0:0:0:
256,192,223953,1,0,0:0:0:0:
256,192,224160,1,8,0:0:0:0:
256,192,224367,1,0,0:0:0:0:
256,192,224470,1,8,0:0:0:0:
256,192,224574,1,0,0:0:0:0:
256,192,224677,1,0,0:0:0:0:
256,192,224781,1,8,0:0:0:0:
256,192,224988,1,0,0:0:0:0:
256,192,225194,1,0,0:0:0:0:
256,192,225401,1,8,0:0:0:0:
256,192,225505,1,8,0:0:0:0:
256,192,225608,1,0,0:0:0:0:
256,192,225815,1,8,0:0:0:0:
256,192,226022,1,0,0:0:0:0:
256,192,226125,1,8,0:0:0:0:
256,192,226229,1,8,0:0:0:0:
256,192,226332,1,0,0:0:0:0:
256,192,226436,1,8,0:0:0:0:
256,192,226643,1,0,0:0:0:0:
256,192,226746,1,0,0:0:0:0:
256,192,226850,1,8,0:0:0:0:
256,192,227056,1,8,0:0:0:0:
256,192,227263,1,0,0:0:0:0:
256,192,227470,1,8,0:0:0:0:
256,192,227677,1,12,0:0:0:0:
256,192,227884,1,12,0:0:0:0:
256,192,228091,1,12,0:0:0:0:
256,192,228298,1,0,0:0:0:0:
256,192,228401,1,0,0:0:0:0:
256,192,228505,1,8,0:0:0:0:
256,192,228712,1,8,0:0:0:0:
256,192,228919,1,0,0:0:0:0:
256,192,229125,1,8,0:0:0:0:
256,192,229332,1,12,0:0:0:0:
256,192,229539,1,12,0:0:0:0:
256,192,229746,1,12,0:0:0:0:
256,192,229953,1,0,0:0:0:0:
256,192,230160,1,8,0:0:0:0:
256,192,230367,1,0,0:0:0:0:
256,192,230470,1,0,0:0:0:0:
256,192,230574,1,8,0:0:0:0:
256,192,230781,1,8,0:0:0:0:
256,192,230988,1,8,0:0:0:0:
256,192,231091,1,8,0:0:0:0:
256,192,231194,1,0,0:0:0:0:
256,192,231298,1,0,0:0:0:0:
256,192,231401,1,8,0:0:0:0:
256,192,231608,1,8,0:0:0:0:
256,192,231815,1,0,0:0:0:0:
256,192,233056,1,12,0:0:0:0:
256,192,233470,1,0,0:0:0:0:
256,192,233677,1,8,0:0:0:0:
256,192,233781,1,0,0:0:0:0:
256,192,233988,1,8,0:0:0:0:
256,192,234195,1,8,0:0:0:0:
256,192,234298,1,8,0:0:0:0:
256,192,234505,1,8,0:0:0:0:
256,192,234712,1,8,0:0:0:0:
256,192,234815,1,0,0:0:0:0:
256,192,234919,1,8,0:0:0:0:
256,192,235022,1,8,0:0:0:0:
256,192,235126,1,0,0:0:0:0:
256,192,235332,1,8,0:0:0:0:
256,192,235436,1,0,0:0:0:0:
256,192,235643,1,8,0:0:0:0:
256,192,235850,1,0,0:0:0:0:
256,192,235953,1,8,0:0:0:0:
256,192,236160,1,8,0:0:0:0:
256,192,236367,1,8,0:0:0:0:
256,192,236470,1,8,0:0:0:0:
256,192,236574,1,0,0:0:0:0:
256,192,236677,1,8,0:0:0:0:
256,192,236781,1,0,0:0:0:0:
256,192,236988,1,8,0:0:0:0:
256,192,237091,1,0,0:0:0:0:
256,192,237298,1,8,0:0:0:0:
256,192,237505,1,0,0:0:0:0:
256,192,237608,1,8,0:0:0:0:
256,192,237815,1,0,0:0:0:0:
256,192,238022,1,8,0:0:0:0:
256,192,238126,1,0,0:0:0:0:
256,192,238229,1,8,0:0:0:0:
256,192,238332,1,8,0:0:0:0:
256,192,238436,1,0,0:0:0:0:
256,192,238643,1,8,0:0:0:0:
256,192,238746,1,8,0:0:0:0:
256,192,238953,1,0,0:0:0:0:
256,192,239160,1,8,0:0:0:0:
256,192,239264,1,0,0:0:0:0:
256,192,239470,1,0,0:0:0:0:
256,192,239677,1,8,0:0:0:0:
256,192,240091,5,0,0:0:0:0:
256,192,240298,1,8,0:0:0:0:
256,192,240401,1,0,0:0:0:0:
256,192,240608,1,8,0:0:0:0:
256,192,240712,1,0,0:0:0:0:
256,192,240815,1,0,0:0:0:0:
256,192,240919,1,8,0:0:0:0:
256,192,241022,1,0,0:0:0:0:
256,192,241125,1,0,0:0:0:0:
256,192,241229,1,0,0:0:0:0:
256,192,241332,1,8,0:0:0:0:
256,192,241539,1,0,0:0:0:0:
256,192,241746,1,0,0:0:0:0:
256,192,241953,1,8,0:0:0:0:
256,192,242056,1,0,0:0:0:0:
256,192,242263,1,8,0:0:0:0:
256,192,242367,1,0,0:0:0:0:
256,192,242470,1,0,0:0:0:0:
256,192,242574,1,8,0:0:0:0:
256,192,242677,1,8,0:0:0:0:
256,192,242781,1,0,0:0:0:0:
256,192,242884,1,0,0:0:0:0:
256,192,242988,1,8,0:0:0:0:
256,192,243194,1,0,0:0:0:0:
256,192,243401,1,0,0:0:0:0:
256,192,243608,1,8,0:0:0:0:
256,192,243712,1,0,0:0:0:0:
256,192,243919,1,8,0:0:0:0:
256,192,244022,1,0,0:0:0:0:
256,192,244125,1,0,0:0:0:0:
256,192,244229,1,8,0:0:0:0:
256,192,244332,1,0,0:0:0:0:
256,192,244436,1,0,0:0:0:0:
256,192,244539,1,0,0:0:0:0:
256,192,244643,1,8,0:0:0:0:
256,192,244850,1,0,0:0:0:0:
256,192,245056,1,0,0:0:0:0:
256,192,245160,1,8,0:0:0:0:
256,192,245367,1,0,0:0:0:0:
256,192,245470,1,8,0:0:0:0:
256,192,245677,1,0,0:0:0:0:
256,192,245884,1,8,0:0:0:0:
256,192,245988,1,8,0:0:0:0:
256,192,246091,1,0,0:0:0:0:
256,192,246194,1,0,0:0:0:0:
256,192,246298,1,8,0:0:0:0:
256,192,246505,1,8,0:0:0:0:
256,192,246712,1,4,0:0:0:0:
