osu file format v14

[General]
AudioFilename: audio.mp3
AudioLeadIn: 0
PreviewTime: 83368
Countdown: 0
SampleSet: Normal
StackLeniency: 0.7
Mode: 1
LetterboxInBreaks: 0
WidescreenStoryboard: 1

[Editor]
DistanceSpacing: 2
BeatDivisor: 4
GridSize: 32
TimelineZoom: 1.4

[Metadata]
Title:BLUE CLAPPER
TitleUnicode:BLUE CLAPPER
Artist:hololive IDOL PROJECT
ArtistUnicode:hololive IDOL PROJECT
Creator:Jerry
Version:Muzukashii
Source:
Tags:ulqui japanese electronic jpop j-pop pop floral circlet vtuber virtual バーチャルyoutuber ホロライブ pandaboy 5期生 5th generation gen holofive cover corp 雪花ラミィ 桃鈴ねね 獅白ぼたん 尾丸ポルカ 魔乃アロエ Yukihana Lamy Momosuzu Nene Shishiro Botan Omaru Polka Mano Aloe original clap your hands
BeatmapID:2755468
BeatmapSetID:1329875

[Difficulty]
HPDrainRate:5
CircleSize:5
OverallDifficulty:5
ApproachRate:5
SliderMultiplier:1.4
SliderTickRate:1

[Events]
//Background and Video events
0,0,"HOLOFIVE.png",0,175
//Break Periods
2,203878,205788
//Storyboard Layer 0 (Background)
Sprite,Background,TopLeft,"HOLOFIVE.png",0,0
//Storyboard Layer 1 (Fail)
//Storyboard Layer 2 (Pass)
//Storyboard Layer 3 (Foreground)
Sprite,Foreground,Centre,"SB\credits\jerry.png",320,85 L,117609,2 F,0,0,46,0,0.65 F,0,46,92,0.65,0 F,0,92,138,0,0.65 L,122575,2 F,0,0,46,0.65,0 F,0,46,92,0,0.65 F,0,92,138,0.65,0 S,0,117609,120919,0.75
//Storyboard Layer 4 (Overlay)
//Storyboard Sound Samples

[TimingPoints]
1748,413.793103448276,4,1,0,80,1,0
3403,413.793103448276,4,1,0,80,1,0
44782,413.793103448276,4,1,0,80,1,0
84506,-100,4,1,0,80,0,1
96092,-100,4,1,0,80,0,0
97747,-100,4,1,0,80,0,1
109333,-100,4,1,0,80,0,0
150713,-100,4,1,0,80,0,1
162299,-100,4,1,0,80,0,0
163954,-100,4,1,0,80,0,1
175540,-100,4,1,0,80,0,0
190437,-100,4,1,0,80,0,1
203678,-100,4,1,0,80,0,0
206988,413.793103448276,4,1,0,80,1,0
220229,-100,4,1,0,80,0,1
231815,-100,4,1,0,80,0,0

[HitObjects]
256,192,1748,5,12,0:0:0:0:
256,192,3403,1,4,0:0:0:0:
256,192,3713,1,8,0:0:0:0:
256,192,3816,1,0,0:0:0:0:
256,192,4023,1,8,0:0:0:0:
256,192,4230,1,0,0:0:0:0:
256,192,4437,1,0,0:0:0:0:
256,192,4644,1,8,0:0:0:0:
256,192,5058,1,0,0:0:0:0:
256,192,5368,1,8,0:0:0:0:
256,192,5471,1,8,0:0:0:0:
256,192,5678,1,0,0:0:0:0:
256,192,5885,1,0,0:0:0:0:
256,192,6092,1,8,0:0:0:0:
256,192,6299,1,8,0:0:0:0:
256,192,6713,1,0,0:0:0:0:
256,192,7023,1,8,0:0:0:0:
256,192,7127,1,0,0:0:0:0:
256,192,7334,1,8,0:0:0:0:
256,192,7540,1,0,0:0:0:0:
256,192,7747,1,0,0:0:0:0:
256,192,7954,1,8,0:0:0:0:
256,192,8368,1,0,0:0:0:0:
256,192,8678,1,8,0:0:0:0:
256,192,8782,1,8,0:0:0:0:
256,192,8989,1,8,0:0:0:0:
256,192,9196,1,0,0:0:0:0:
256,192,9816,1,0,0:0:0:0:
256,192,10023,1,8,0:0:0:0:
256,192,10230,1,8,0:0:0:0:
256,192,10437,1,0,0:0:0:0:
256,192,10851,1,12,0:0:0:0:
256,192,11058,1,12,0:0:0:0:
256,192,11265,1,12,0:0:0:0:
256,192,11678,1,8,0:0:0:0:
256,192,11885,1,8,0:0:0:0:
256,192,12092,1,0,0:0:0:0:
256,192,12506,1,12,0:0:0:0:
256,192,12713,1,12,0:0:0:0:
256,192,12920,1,12,0:0:0:0:
256,192,13334,1,0,0:0:0:0:
256,192,13747,1,8,0:0:0:0:
256,192,13954,1,8,0:0:0:0:
256,192,14161,1,0,0:0:0:0:
256,192,14265,1,0,0:0:0:0:
256,192,14368,1,0,0:0:0:0:
256,192,14575,1,8,0:0:0:0:
256,192,14782,1,0,0:0:0:0:
256,192,14989,1,0,0:0:0:0:
256,192,15403,1,8,0:0:0:0:
256,192,15609,1,8,0:0:0:0:
256,192,15816,1,0,0:0:0:0:
256,192,16023,1,8,0:0:0:0:
256,192,16230,1,8,0:0:0:0:
256,192,16644,1,4,0:0:0:0:
256,192,16954,1,8,0:0:0:0:
256,192,17058,1,0,0:0:0:0:
256,192,17265,1,8,0:0:0:0:
256,192,17471,1,0,0:0:0:0:
256,192,17678,1,0,0:0:0:0:
256,192,17885,1,8,0:0:0:0:
256,192,18299,1,0,0:0:0:0:
256,192,18609,1,8,0:0:0:0:
256,192,18713,1,8,0:0:0:0:
256,192,18920,1,8,0:0:0:0:
256,192,19127,1,0,0:0:0:0:
256,192,19334,1,8,0:0:0:0:
256,192,19540,1,8,0:0:0:0:
256,192,19954,1,0,0:0:0:0:
256,192,20265,1,8,0:0:0:0:
256,192,20368,1,0,0:0:0:0:
256,192,20575,1,8,0:0:0:0:
256,192,20782,1,0,0:0:0:0:
256,192,20989,1,0,0:0:0:0:
256,192,21196,1,8,0:0:0:0:
256,192,21609,1,0,0:0:0:0:
256,192,21920,1,8,0:0:0:0:
256,192,22023,1,8,0:0:0:0:
256,192,22230,1,8,0:0:0:0:
256,192,22437,1,0,0:0:0:0:
256,192,23058,1,0,0:0:0:0:
256,192,23265,1,8,0:0:0:0:
256,192,23471,1,8,0:0:0:0:
256,192,23678,1,0,0:0:0:0:
256,192,24092,1,12,0:0:0:0:
256,192,24299,1,12,0:0:0:0:
256,192,24506,1,12,0:0:0:0:
256,192,24920,1,8,0:0:0:0:
256,192,25127,1,8,0:0:0:0:
256,192,25334,1,0,0:0:0:0:
256,192,25747,1,12,0:0:0:0:
256,192,25954,1,12,0:0:0:0:
256,192,26161,1,12,0:0:0:0:
256,192,26575,1,0,0:0:0:0:
256,192,26989,1,8,0:0:0:0:
256,192,27403,1,0,0:0:0:0:
256,192,27816,1,8,0:0:0:0:
256,192,28230,1,0,0:0:0:0:
256,192,29885,1,0,0:0:0:0:
256,192,30299,1,0,0:0:0:0:
256,192,30713,1,0,0:0:0:0:
256,192,31023,1,8,0:0:0:0:
256,192,31127,1,0,0:0:0:0:
256,192,31334,1,8,0:0:0:0:
256,192,31540,1,8,0:0:0:0:
256,192,31954,1,8,0:0:0:0:
256,192,32368,1,8,0:0:0:0:
256,192,32678,1,8,0:0:0:0:
256,192,32782,1,0,0:0:0:0:
256,192,32989,1,8,0:0:0:0:
256,192,33196,1,0,0:0:0:0:
256,192,33609,1,0,0:0:0:0:
256,192,34023,1,0,0:0:0:0:
256,192,34334,1,8,0:0:0:0:
256,192,34437,1,0,0:0:0:0:
256,192,34644,1,8,0:0:0:0:
256,192,34851,1,8,0:0:0:0:
256,192,35265,1,8,0:0:0:0:
256,192,35678,1,8,0:0:0:0:
256,192,35989,1,8,0:0:0:0:
256,192,36092,1,0,0:0:0:0:
256,192,36299,1,8,0:0:0:0:
256,192,36506,1,0,0:0:0:0:
256,192,36920,1,8,0:0:0:0:
256,192,37127,1,8,0:0:0:0:
256,192,37334,1,0,0:0:0:0:
256,192,37747,1,8,0:0:0:0:
256,192,38161,1,0,0:0:0:0:
256,192,38575,1,8,0:0:0:0:
256,192,38782,1,8,0:0:0:0:
256,192,38989,1,0,0:0:0:0:
256,192,39403,5,8,0:0:0:0:
256,192,39816,12,0,43127,0:0:0:0:
256,192,44368,5,12,0:0:0:0:
256,192,44782,1,0,0:0:0:0:
256,192,44988,1,8,0:0:0:0:
256,192,45195,1,0,0:0:0:0:
256,192,45402,1,0,0:0:0:0:
256,192,45506,1,8,0:0:0:0:
256,192,45713,1,8,0:0:0:0:
256,192,46023,1,8,0:0:0:0:
256,192,46230,1,0,0:0:0:0:
256,192,46644,1,8,0:0:0:0:
256,192,46850,1,8,0:0:0:0:
256,192,47057,1,0,0:0:0:0:
256,192,47161,1,8,0:0:0:0:
256,192,47368,1,8,0:0:0:0:
256,192,47471,1,0,0:0:0:0:
256,192,47678,1,8,0:0:0:0:
256,192,47885,1,8,0:0:0:0:
256,192,48299,1,8,0:0:0:0:
256,192,48506,1,0,0:0:0:0:
256,192,48713,1,8,0:0:0:0:
256,192,48816,1,8,0:0:0:0:
256,192,49023,1,8,0:0:0:0:
256,192,49333,1,0,0:0:0:0:
256,192,49540,1,8,0:0:0:0:
256,192,49747,1,0,0:0:0:0:
256,192,50161,1,8,0:0:0:0:
256,192,50575,1,0,0:0:0:0:
256,192,51402,1,0,0:0:0:0:
256,192,51609,1,8,0:0:0:0:
256,192,51816,1,8,0:0:0:0:
256,192,52023,1,0,0:0:0:0:
256,192,52126,1,8,0:0:0:0:
256,192,52333,1,8,0:0:0:0:
256,192,52644,1,8,0:0:0:0:
256,192,52850,1,0,0:0:0:0:
256,192,53264,1,8,0:0:0:0:
256,192,53471,1,8,0:0:0:0:
256,192,53678,1,0,0:0:0:0:
256,192,53782,1,8,0:0:0:0:
256,192,53988,1,8,0:0:0:0:
256,192,54092,1,8,0:0:0:0:
256,192,54299,1,8,0:0:0:0:
256,192,54506,1,0,0:0:0:0:
256,192,54919,1,8,0:0:0:0:
256,192,55126,1,0,0:0:0:0:
256,192,55333,1,8,0:0:0:0:
256,192,55437,1,8,0:0:0:0:
256,192,55644,1,8,0:0:0:0:
256,192,55954,1,0,0:0:0:0:
256,192,56161,1,8,0:0:0:0:
256,192,56368,1,0,0:0:0:0:
256,192,56782,1,8,0:0:0:0:
256,192,57195,1,0,0:0:0:0:
256,192,58023,1,4,0:0:0:0:
256,192,58230,1,8,0:0:0:0:
256,192,58437,1,0,0:0:0:0:
256,192,58644,1,8,0:0:0:0:
256,192,58747,1,0,0:0:0:0:
256,192,58954,1,8,0:0:0:0:
256,192,59161,1,0,0:0:0:0:
256,192,59264,1,8,0:0:0:0:
256,192,59471,1,0,0:0:0:0:
256,192,59885,1,8,0:0:0:0:
256,192,59988,1,8,0:0:0:0:
256,192,60092,1,8,0:0:0:0:
256,192,60299,1,0,0:0:0:0:
256,192,60402,1,8,0:0:0:0:
256,192,60609,1,8,0:0:0:0:
256,192,60816,1,8,0:0:0:0:
256,192,60919,1,0,0:0:0:0:
256,192,61126,1,8,0:0:0:0:
256,192,61540,1,0,0:0:0:0:
256,192,61747,1,8,0:0:0:0:
256,192,61954,1,0,0:0:0:0:
256,192,62057,1,8,0:0:0:0:
256,192,62264,1,8,0:0:0:0:
256,192,62471,1,8,0:0:0:0:
256,192,62575,1,0,0:0:0:0:
256,192,62782,1,8,0:0:0:0:
256,192,62988,1,0,0:0:0:0:
256,192,63402,1,8,0:0:0:0:
256,192,63816,1,0,0:0:0:0:
256,192,64644,1,0,0:0:0:0:
256,192,64850,1,8,0:0:0:0:
256,192,65057,1,8,0:0:0:0:
256,192,65264,1,0,0:0:0:0:
256,192,65368,1,8,0:0:0:0:
256,192,65575,1,8,0:0:0:0:
256,192,65678,1,0,0:0:0:0:
256,192,65885,1,8,0:0:0:0:
256,192,66092,1,8,0:0:0:0:
256,192,66506,1,0,0:0:0:0:
256,192,66609,1,0,0:0:0:0:
256,192,66713,1,0,0:0:0:0:
256,192,66919,1,8,0:0:0:0:
256,192,67023,1,0,0:0:0:0:
256,192,67230,1,8,0:0:0:0:
256,192,67437,1,0,0:0:0:0:
256,192,67540,1,8,0:0:0:0:
256,192,67747,1,8,0:0:0:0:
256,192,68161,1,0,0:0:0:0:
256,192,68368,1,8,0:0:0:0:
256,192,68575,1,0,0:0:0:0:
256,192,68678,1,8,0:0:0:0:
256,192,68885,1,8,0:0:0:0:
256,192,69092,1,8,0:0:0:0:
256,192,69195,1,8,0:0:0:0:
256,192,69402,1,8,0:0:0:0:
256,192,69609,1,0,0:0:0:0:
256,192,70023,1,8,0:0:0:0:
256,192,70437,1,0,0:0:0:0:
256,192,71264,1,4,0:0:0:0:
256,192,71678,1,0,0:0:0:0:
256,192,72092,1,8,0:0:0:0:
256,192,72402,1,8,0:0:0:0:
256,192,72713,1,0,0:0:0:0:
256,192,72919,1,0,0:0:0:0:
256,192,73333,1,8,0:0:0:0:
256,192,73747,1,0,0:0:0:0:
256,192,73954,1,0,0:0:0:0:
256,192,74161,1,8,0:0:0:0:
256,192,74368,1,0,0:0:0:0:
256,192,74575,1,0,0:0:0:0:
256,192,74988,1,0,0:0:0:0:
256,192,75402,1,8,0:0:0:0:
256,192,75713,1,8,0:0:0:0:
256,192,76023,1,0,0:0:0:0:
256,192,76230,1,0,0:0:0:0:
256,192,76644,1,8,0:0:0:0:
256,192,77057,1,0,0:0:0:0:
256,192,77264,1,8,0:0:0:0:
256,192,77471,1,8,0:0:0:0:
256,192,77885,1,4,0:0:0:0:
256,192,78299,1,8,0:0:0:0:
256,192,78713,1,0,0:0:0:0:
256,192,78919,1,0,0:0:0:0:
256,192,79126,1,8,0:0:0:0:
256,192,79540,1,0,0:0:0:0:
256,192,79954,1,8,0:0:0:0:
256,192,80368,1,8,0:0:0:0:
256,192,80575,1,8,0:0:0:0:
256,192,80782,1,0,0:0:0:0:
256,192,80988,1,0,0:0:0:0:
256,192,81195,1,12,0:0:0:0:
256,192,81402,1,8,0:0:0:0:
256,192,81609,1,8,0:0:0:0:
256,192,81816,1,8,0:0:0:0:
256,192,82023,1,8,0:0:0:0:
256,192,82126,1,8,0:0:0:0:
256,192,82230,1,8,0:0:0:0:
256,192,82333,1,8,0:0:0:0:
256,192,82437,1,8,0:0:0:0:
256,192,82644,1,8,0:0:0:0:
256,192,82850,1,0,0:0:0:0:
256,192,84092,1,12,0:0:0:0:
256,192,84506,1,4,0:0:0:0:
256,192,84919,1,12,0:0:0:0:
256,192,85333,1,4,0:0:0:0:
256,192,85747,1,8,0:0:0:0:
256,192,85954,1,0,0:0:0:0:
256,192,86161,1,8,0:0:0:0:
256,192,86368,1,0,0:0:0:0:
256,192,86471,1,0,0:0:0:0:
256,192,86575,1,0,0:0:0:0:
256,192,86782,1,8,0:0:0:0:
256,192,86988,1,0,0:0:0:0:
256,192,87402,1,8,0:0:0:0:
256,192,87816,1,4,0:0:0:0:
256,192,88230,1,12,0:0:0:0:
256,192,88644,1,4,0:0:0:0:
256,192,89057,1,8,0:0:0:0:
256,192,89264,1,0,0:0:0:0:
256,192,89471,1,0,0:0:0:0:
256,192,89678,1,8,0:0:0:0:
256,192,89782,1,8,0:0:0:0:
256,192,89885,1,8,0:0:0:0:
256,192,90092,1,8,0:0:0:0:
256,192,90299,1,0,0:0:0:0:
256,192,90919,1,0,0:0:0:0:
256,192,91126,1,8,0:0:0:0:
256,192,91333,1,8,0:0:0:0:
256,192,91540,1,0,0:0:0:0:
256,192,91954,1,12,0:0:0:0:
256,192,92161,1,12,0:0:0:0:
256,192,92368,1,12,0:0:0:0:
256,192,92782,1,8,0:0:0:0:
256,192,92988,1,8,0:0:0:0:
256,192,93195,1,0,0:0:0:0:
256,192,93609,1,12,0:0:0:0:
256,192,93816,1,12,0:0:0:0:
256,192,94023,1,12,0:0:0:0:
256,192,94437,1,0,0:0:0:0:
256,192,94850,1,8,0:0:0:0:
256,192,95264,1,0,0:0:0:0:
256,192,95575,1,8,0:0:0:0:
256,192,95885,1,0,0:0:0:0:
256,192,96092,1,0,0:0:0:0:
256,192,96299,1,8,0:0:0:0:
256,192,96402,1,8,0:0:0:0:
256,192,96506,1,8,0:0:0:0:
256,192,96713,1,8,0:0:0:0:
256,192,96919,1,0,0:0:0:0:
256,192,97747,1,4,0:0:0:0:
256,192,98161,1,12,0:0:0:0:
256,192,98575,1,4,0:0:0:0:
256,192,98988,1,8,0:0:0:0:
256,192,99195,1,0,0:0:0:0:
256,192,99402,1,0,0:0:0:0:
256,192,99609,1,8,0:0:0:0:
256,192,99713,1,8,0:0:0:0:
256,192,99816,1,8,0:0:0:0:
256,192,100023,1,8,0:0:0:0:
256,192,100230,1,0,0:0:0:0:
256,192,100333,1,0,0:0:0:0:
256,192,100437,1,0,0:0:0:0:
256,192,100644,1,8,0:0:0:0:
256,192,101057,1,4,0:0:0:0:
256,192,101471,1,12,0:0:0:0:
256,192,101885,1,4,0:0:0:0:
256,192,102299,1,8,0:0:0:0:
256,192,102506,1,0,0:0:0:0:
256,192,102713,1,0,0:0:0:0:
256,192,102919,1,8,0:0:0:0:
256,192,103023,1,8,0:0:0:0:
256,192,103126,1,8,0:0:0:0:
256,192,103333,1,8,0:0:0:0:
256,192,103540,1,0,0:0:0:0:
256,192,104161,1,8,0:0:0:0:
256,192,104368,1,0,0:0:0:0:
256,192,104575,1,0,0:0:0:0:
256,192,104782,1,8,0:0:0:0:
256,192,105195,1,12,0:0:0:0:
256,192,105402,1,12,0:0:0:0:
256,192,105609,1,12,0:0:0:0:
256,192,106023,1,0,0:0:0:0:
256,192,106230,1,0,0:0:0:0:
256,192,106437,1,8,0:0:0:0:
256,192,106850,1,12,0:0:0:0:
256,192,107057,1,12,0:0:0:0:
256,192,107264,1,12,0:0:0:0:
256,192,107678,1,0,0:0:0:0:
256,192,107885,1,0,0:0:0:0:
256,192,108092,1,8,0:0:0:0:
256,192,108299,1,8,0:0:0:0:
256,192,108506,1,0,0:0:0:0:
256,192,108609,1,0,0:0:0:0:
256,192,108713,1,0,0:0:0:0:
256,192,108816,1,0,0:0:0:0:
256,192,108919,1,0,0:0:0:0:
256,192,109126,1,8,0:0:0:0:
256,192,109333,1,0,0:0:0:0:
256,192,110575,1,12,0:0:0:0:
256,192,110988,1,0,0:0:0:0:
256,192,111195,1,0,0:0:0:0:
256,192,111299,1,8,0:0:0:0:
256,192,111506,1,8,0:0:0:0:
256,192,111816,1,8,0:0:0:0:
256,192,112023,1,8,0:0:0:0:
256,192,112230,1,0,0:0:0:0:
256,192,112644,1,0,0:0:0:0:
256,192,112850,1,8,0:0:0:0:
256,192,112954,1,8,0:0:0:0:
256,192,113161,1,8,0:0:0:0:
256,192,113471,1,8,0:0:0:0:
256,192,113678,1,0,0:0:0:0:
256,192,113885,1,8,0:0:0:0:
256,192,114299,1,0,0:0:0:0:
256,192,114506,1,0,0:0:0:0:
256,192,114609,1,8,0:0:0:0:
256,192,114816,1,8,0:0:0:0:
256,192,115126,1,8,0:0:0:0:
256,192,115333,1,8,0:0:0:0:
256,192,115540,1,8,0:0:0:0:
256,192,115954,1,0,0:0:0:0:
256,192,116161,1,8,0:0:0:0:
256,192,116264,1,8,0:0:0:0:
256,192,116471,1,8,0:0:0:0:
256,192,116782,1,8,0:0:0:0:
256,192,117609,1,0,0:0:0:0:
256,192,117816,1,0,0:0:0:0:
256,192,117919,1,8,0:0:0:0:
256,192,118126,1,8,0:0:0:0:
256,192,118333,1,8,0:0:0:0:
256,192,118437,1,0,0:0:0:0:
256,192,118644,1,0,0:0:0:0:
256,192,118850,1,8,0:0:0:0:
256,192,119264,1,0,0:0:0:0:
256,192,119471,1,8,0:0:0:0:
256,192,119575,1,8,0:0:0:0:
256,192,119782,1,8,0:0:0:0:
256,192,119988,1,0,0:0:0:0:
256,192,120092,1,8,0:0:0:0:
256,192,120299,1,8,0:0:0:0:
256,192,120506,1,8,0:0:0:0:
256,192,120919,1,0,0:0:0:0:
256,192,121126,1,0,0:0:0:0:
256,192,121230,1,8,0:0:0:0:
256,192,121437,1,8,0:0:0:0:
256,192,121644,1,8,0:0:0:0:
256,192,121747,1,0,0:0:0:0:
256,192,121954,1,0,0:0:0:0:
256,192,122161,1,8,0:0:0:0:
256,192,122575,1,0,0:0:0:0:
256,192,122988,1,0,0:0:0:0:
256,192,123402,1,8,0:0:0:0:
256,192,124230,5,0,0:0:0:0:
256,192,124540,1,0,0:0:0:0:
256,192,124850,1,0,0:0:0:0:
256,192,125161,1,0,0:0:0:0:
256,192,125471,1,0,0:0:0:0:
256,192,125678,1,0,0:0:0:0:
256,192,125885,1,8,0:0:0:0:
256,192,126195,1,8,0:0:0:0:
256,192,126506,1,8,0:0:0:0:
256,192,126816,1,8,0:0:0:0:
256,192,127126,1,8,0:0:0:0:
256,192,127333,1,0,0:0:0:0:
256,192,127540,1,0,0:0:0:0:
256,192,127850,1,0,0:0:0:0:
256,192,128161,1,0,0:0:0:0:
256,192,128471,1,0,0:0:0:0:
256,192,128782,1,0,0:0:0:0:
256,192,128988,1,0,0:0:0:0:
256,192,129195,1,8,0:0:0:0:
256,192,129609,1,0,0:0:0:0:
256,192,130023,1,8,0:0:0:0:
256,192,130850,5,0,0:0:0:0:
256,192,131161,1,0,0:0:0:0:
256,192,131471,1,0,0:0:0:0:
256,192,131782,1,0,0:0:0:0:
256,192,132092,1,0,0:0:0:0:
256,192,132299,1,0,0:0:0:0:
256,192,132506,1,8,0:0:0:0:
256,192,132816,1,8,0:0:0:0:
256,192,133126,1,8,0:0:0:0:
256,192,133437,1,8,0:0:0:0:
256,192,133747,1,8,0:0:0:0:
256,192,133954,1,0,0:0:0:0:
256,192,134161,1,0,0:0:0:0:
256,192,134471,1,0,0:0:0:0:
256,192,134782,1,0,0:0:0:0:
256,192,135092,1,0,0:0:0:0:
256,192,135402,1,0,0:0:0:0:
256,192,135609,1,0,0:0:0:0:
256,192,135816,1,8,0:0:0:0:
256,192,136230,1,8,0:0:0:0:
256,192,136644,1,0,0:0:0:0:
256,192,137471,5,4,0:0:0:0:
256,192,137885,1,8,0:0:0:0:
256,192,138299,1,8,0:0:0:0:
256,192,138609,1,8,0:0:0:0:
256,192,138919,1,0,0:0:0:0:
256,192,139126,1,0,0:0:0:0:
256,192,139540,1,8,0:0:0:0:
256,192,139954,1,0,0:0:0:0:
256,192,140161,1,0,0:0:0:0:
256,192,140368,1,8,0:0:0:0:
256,192,140575,1,8,0:0:0:0:
256,192,140782,1,0,0:0:0:0:
256,192,141195,1,8,0:0:0:0:
256,192,141609,1,8,0:0:0:0:
256,192,141919,1,8,0:0:0:0:
256,192,142230,1,0,0:0:0:0:
256,192,142437,1,0,0:0:0:0:
256,192,142850,1,8,0:0:0:0:
256,192,143264,1,0,0:0:0:0:
256,192,143471,1,8,0:0:0:0:
256,192,143678,1,8,0:0:0:0:
256,192,144092,1,4,0:0:0:0:
256,192,144506,1,8,0:0:0:0:
256,192,144816,1,8,0:0:0:0:
256,192,144919,1,0,0:0:0:0:
256,192,145126,1,0,0:0:0:0:
256,192,145333,1,8,0:0:0:0:
256,192,145747,1,0,0:0:0:0:
256,192,146161,1,8,0:0:0:0:
256,192,146471,1,0,0:0:0:0:
256,192,146575,1,8,0:0:0:0:
256,192,146782,1,8,0:0:0:0:
256,192,146988,1,0,0:0:0:0:
256,192,147195,1,0,0:0:0:0:
256,192,147402,1,12,0:0:0:0:
256,192,147609,1,8,0:0:0:0:
256,192,147816,1,8,0:0:0:0:
256,192,148023,1,8,0:0:0:0:
256,192,148230,1,8,0:0:0:0:
256,192,148333,1,8,0:0:0:0:
256,192,148437,1,8,0:0:0:0:
256,192,148540,1,8,0:0:0:0:
256,192,148644,1,8,0:0:0:0:
256,192,148850,1,8,0:0:0:0:
256,192,149057,1,0,0:0:0:0:
256,192,150299,1,12,0:0:0:0:
256,192,150713,1,4,0:0:0:0:
256,192,151126,1,12,0:0:0:0:
256,192,151540,1,4,0:0:0:0:
256,192,151954,1,8,0:0:0:0:
256,192,152161,1,0,0:0:0:0:
256,192,152368,1,8,0:0:0:0:
256,192,152575,1,0,0:0:0:0:
256,192,152678,1,0,0:0:0:0:
256,192,152782,1,0,0:0:0:0:
256,192,152988,1,8,0:0:0:0:
256,192,153195,1,0,0:0:0:0:
256,192,153609,1,8,0:0:0:0:
256,192,154023,1,4,0:0:0:0:
256,192,154437,1,12,0:0:0:0:
256,192,154850,1,4,0:0:0:0:
256,192,155264,1,0,0:0:0:0:
256,192,155471,1,8,0:0:0:0:
256,192,155575,1,8,0:0:0:0:
256,192,155678,1,8,0:0:0:0:
256,192,155885,1,8,0:0:0:0:
256,192,156092,1,0,0:0:0:0:
256,192,156299,1,8,0:0:0:0:
256,192,156506,1,0,0:0:0:0:
256,192,157126,1,0,0:0:0:0:
256,192,157333,1,8,0:0:0:0:
256,192,157540,1,8,0:0:0:0:
256,192,157747,1,0,0:0:0:0:
256,192,158161,1,12,0:0:0:0:
256,192,158368,1,12,0:0:0:0:
256,192,158575,1,12,0:0:0:0:
256,192,158988,1,8,0:0:0:0:
256,192,159195,1,8,0:0:0:0:
256,192,159402,1,0,0:0:0:0:
256,192,159816,1,12,0:0:0:0:
256,192,160023,1,12,0:0:0:0:
256,192,160230,1,12,0:0:0:0:
256,192,160644,1,0,0:0:0:0:
256,192,160954,1,8,0:0:0:0:
256,192,161057,1,0,0:0:0:0:
256,192,161264,1,8,0:0:0:0:
256,192,161471,1,0,0:0:0:0:
256,192,161782,1,8,0:0:0:0:
256,192,162092,1,0,0:0:0:0:
256,192,162299,1,0,0:0:0:0:
256,192,162609,1,8,0:0:0:0:
256,192,162713,1,8,0:0:0:0:
256,192,162919,1,8,0:0:0:0:
256,192,163126,1,0,0:0:0:0:
256,192,163954,1,4,0:0:0:0:
256,192,164368,1,12,0:0:0:0:
256,192,164782,1,4,0:0:0:0:
256,192,165195,1,0,0:0:0:0:
256,192,165402,1,8,0:0:0:0:
256,192,165609,1,0,0:0:0:0:
256,192,165816,1,8,0:0:0:0:
256,192,165919,1,8,0:0:0:0:
256,192,166023,1,8,0:0:0:0:
256,192,166230,1,8,0:0:0:0:
256,192,166437,1,0,0:0:0:0:
256,192,166540,1,0,0:0:0:0:
256,192,166644,1,0,0:0:0:0:
256,192,166850,1,8,0:0:0:0:
256,192,167264,1,4,0:0:0:0:
256,192,167678,1,12,0:0:0:0:
256,192,168092,1,4,0:0:0:0:
256,192,168506,1,0,0:0:0:0:
256,192,168713,1,0,0:0:0:0:
256,192,168919,1,8,0:0:0:0:
256,192,169126,1,0,0:0:0:0:
256,192,169230,1,0,0:0:0:0:
256,192,169333,1,0,0:0:0:0:
256,192,169540,1,8,0:0:0:0:
256,192,169747,1,0,0:0:0:0:
256,192,170368,1,0,0:0:0:0:
256,192,170575,1,8,0:0:0:0:
256,192,170782,1,8,0:0:0:0:
256,192,170988,1,0,0:0:0:0:
256,192,171402,1,12,0:0:0:0:
256,192,171609,1,12,0:0:0:0:
256,192,171816,1,12,0:0:0:0:
256,192,172230,1,8,0:0:0:0:
256,192,172437,1,8,0:0:0:0:
256,192,172644,1,0,0:0:0:0:
256,192,173057,1,12,0:0:0:0:
256,192,173264,1,12,0:0:0:0:
256,192,173471,1,12,0:0:0:0:
256,192,173885,1,0,0:0:0:0:
256,192,174092,1,0,0:0:0:0:
256,192,174299,1,8,0:0:0:0:
256,192,174506,1,8,0:0:0:0:
256,192,174713,1,0,0:0:0:0:
256,192,174816,1,0,0:0:0:0:
256,192,174919,1,0,0:0:0:0:
256,192,175023,1,0,0:0:0:0:
256,192,175126,1,0,0:0:0:0:
256,192,175333,1,8,0:0:0:0:
256,192,175540,1,0,0:0:0:0:
256,192,177195,1,4,0:0:0:0:
256,192,177609,1,8,0:0:0:0:
256,192,178023,1,0,0:0:0:0:
256,192,178230,1,8,0:0:0:0:
256,192,178333,1,8,0:0:0:0:
256,192,178437,1,8,0:0:0:0:
256,192,178644,1,0,0:0:0:0:
256,192,178850,1,4,0:0:0:0:
256,192,179264,1,8,0:0:0:0:
256,192,179678,1,0,0:0:0:0:
256,192,179885,1,0,0:0:0:0:
256,192,180092,1,8,0:0:0:0:
256,192,180195,1,8,0:0:0:0:
256,192,180299,1,8,0:0:0:0:
256,192,180506,1,4,0:0:0:0:
256,192,180919,1,8,0:0:0:0:
256,192,181333,1,0,0:0:0:0:
256,192,181540,1,8,0:0:0:0:
256,192,181747,1,0,0:0:0:0:
256,192,181850,1,0,0:0:0:0:
256,192,181954,1,0,0:0:0:0:
256,192,182161,1,4,0:0:0:0:
256,192,182575,1,8,0:0:0:0:
256,192,182988,1,4,0:0:0:0:
256,192,183816,1,4,0:0:0:0:
256,192,184230,1,8,0:0:0:0:
256,192,184644,1,0,0:0:0:0:
256,192,184850,1,8,0:0:0:0:
256,192,184954,1,8,0:0:0:0:
256,192,185057,1,8,0:0:0:0:
256,192,185264,1,0,0:0:0:0:
256,192,185471,1,4,0:0:0:0:
256,192,185885,1,8,0:0:0:0:
256,192,186299,1,0,0:0:0:0:
256,192,186506,1,0,0:0:0:0:
256,192,186713,1,8,0:0:0:0:
256,192,186816,1,8,0:0:0:0:
256,192,186919,1,8,0:0:0:0:
256,192,187126,1,4,0:0:0:0:
256,192,187540,1,0,0:0:0:0:
256,192,187954,1,0,0:0:0:0:
256,192,188161,1,8,0:0:0:0:
256,192,188368,1,0,0:0:0:0:
256,192,188471,1,0,0:0:0:0:
256,192,188575,1,0,0:0:0:0:
256,192,188782,1,4,0:0:0:0:
256,192,189195,1,8,0:0:0:0:
256,192,189609,1,0,0:0:0:0:
256,192,189816,1,0,0:0:0:0:
256,192,190023,1,8,0:0:0:0:
256,192,190437,1,4,0:0:0:0:
256,192,191264,1,8,0:0:0:0:
256,192,191678,1,0,0:0:0:0:
256,192,192092,1,0,0:0:0:0:
256,192,192299,1,0,0:0:0:0:
256,192,192506,1,8,0:0:0:0:
256,192,192713,1,8,0:0:0:0:
256,192,192919,1,0,0:0:0:0:
256,192,193333,1,8,0:0:0:0:
256,192,193747,1,0,0:0:0:0:
256,192,194575,1,8,0:0:0:0:
256,192,194988,1,0,0:0:0:0:
256,192,195195,1,0,0:0:0:0:
256,192,195402,1,0,0:0:0:0:
256,192,195816,1,8,0:0:0:0:
256,192,196023,1,0,0:0:0:0:
256,192,196230,1,0,0:0:0:0:
256,192,196644,1,8,0:0:0:0:
256,192,197057,1,4,0:0:0:0:
256,192,197368,1,0,0:0:0:0:
256,192,197471,1,8,0:0:0:0:
256,192,197678,1,0,0:0:0:0:
256,192,197885,1,0,0:0:0:0:
256,192,198299,1,8,0:0:0:0:
256,192,198713,1,4,0:0:0:0:
256,192,199023,1,8,0:0:0:0:
256,192,199126,1,8,0:0:0:0:
256,192,199333,1,8,0:0:0:0:
256,192,199540,1,0,0:0:0:0:
256,192,199954,1,8,0:0:0:0:
256,192,200368,1,4,0:0:0:0:
256,192,200782,1,0,0:0:0:0:
256,192,200988,1,0,0:0:0:0:
256,192,201195,1,8,0:0:0:0:
256,192,201402,1,8,0:0:0:0:
256,192,201609,1,0,0:0:0:0:
256,192,202023,1,8,0:0:0:0:
256,192,202230,1,0,0:0:0:0:
256,192,202437,1,8,0:0:0:0:
256,192,202644,1,0,0:0:0:0:
256,192,202850,1,8,0:0:0:0:
256,192,203264,1,8,0:0:0:0:
256,192,203678,1,4,0:0:0:0:
256,192,206988,5,4,0:0:0:0:
256,192,207401,1,8,0:0:0:0:
256,192,207815,1,0,0:0:0:0:
256,192,208643,1,0,0:0:0:0:
256,192,209470,1,8,0:0:0:0:
256,192,210298,1,0,0:0:0:0:
256,192,210712,1,8,0:0:0:0:
256,192,211125,1,0,0:0:0:0:
256,192,211953,1,8,0:0:0:0:
256,192,212781,1,0,0:0:0:0:
256,192,213608,1,0,0:0:0:0:
256,192,214022,1,0,0:0:0:0:
256,192,214436,1,8,0:0:0:0:
256,192,214643,1,8,0:0:0:0:
256,192,214850,1,8,0:0:0:0:
256,192,215263,1,4,0:0:0:0:
256,192,216091,1,8,0:0:0:0:
256,192,216298,1,8,0:0:0:0:
256,192,216505,1,8,0:0:0:0:
256,192,216919,1,0,0:0:0:0:
256,192,217332,1,8,0:0:0:0:
256,192,217746,1,0,0:0:0:0:
256,192,218056,1,0,0:0:0:0:
256,192,218367,1,8,0:0:0:0:
256,192,218574,1,8,0:0:0:0:
256,192,218677,1,8,0:0:0:0:
256,192,218884,1,8,0:0:0:0:
256,192,218988,1,8,0:0:0:0:
256,192,219194,1,8,0:0:0:0:
256,192,219401,1,0,0:0:0:0:
256,192,220229,1,4,0:0:0:0:
256,192,220643,1,12,0:0:0:0:
256,192,221056,1,4,0:0:0:0:
256,192,221470,1,0,0:0:0:0:
256,192,221677,1,8,0:0:0:0:
256,192,221884,1,0,0:0:0:0:
256,192,222091,1,8,0:0:0:0:
256,192,222194,1,8,0:0:0:0:
256,192,222298,1,8,0:0:0:0:
256,192,222505,1,8,0:0:0:0:
256,192,222712,1,0,0:0:0:0:
256,192,222815,1,0,0:0:0:0:
256,192,222919,1,0,0:0:0:0:
256,192,223125,1,8,0:0:0:0:
256,192,223539,1,4,0:0:0:0:
256,192,223953,1,12,0:0:0:0:
256,192,224367,1,4,0:0:0:0:
256,192,224781,1,0,0:0:0:0:
256,192,224988,1,0,0:0:0:0:
256,192,225194,1,8,0:0:0:0:
256,192,225401,1,0,0:0:0:0:
256,192,225505,1,0,0:0:0:0:
256,192,225608,1,0,0:0:0:0:
256,192,225815,1,8,0:0:0:0:
256,192,226022,1,0,0:0:0:0:
256,192,226643,1,0,0:0:0:0:
256,192,226850,1,8,0:0:0:0:
256,192,227056,1,8,0:0:0:0:
256,192,227263,1,0,0:0:0:0:
256,192,227677,1,12,0:0:0:0:
256,192,227884,1,12,0:0:0:0:
256,192,228091,1,12,0:0:0:0:
256,192,228505,1,8,0:0:0:0:
256,192,228712,1,8,0:0:0:0:
256,192,228919,1,0,0:0:0:0:
256,192,229332,1,12,0:0:0:0:
256,192,229539,1,12,0:0:0:0:
256,192,229746,1,12,0:0:0:0:
256,192,230160,1,0,0:0:0:0:
256,192,230367,1,0,0:0:0:0:
256,192,230574,1,8,0:0:0:0:
256,192,230781,1,8,0:0:0:0:
256,192,230988,1,0,0:0:0:0:
256,192,231091,1,0,0:0:0:0:
256,192,231194,1,0,0:0:0:0:
256,192,231298,1,0,0:0:0:0:
256,192,231401,1,0,0:0:0:0:
256,192,231608,1,8,0:0:0:0:
256,192,231815,1,0,0:0:0:0:
256,192,233056,1,12,0:0:0:0:
256,192,233470,1,0,0:0:0:0:
256,192,233677,1,0,0:0:0:0:
256,192,233781,1,8,0:0:0:0:
256,192,233988,1,8,0:0:0:0:
256,192,234298,1,8,0:0:0:0:
256,192,234505,1,8,0:0:0:0:
256,192,234712,1,0,0:0:0:0:
256,192,235125,1,0,0:0:0:0:
256,192,235332,1,8,0:0:0:0:
256,192,235436,1,8,0:0:0:0:
256,192,235643,1,8,0:0:0:0:
256,192,235953,1,8,0:0:0:0:
256,192,236160,1,0,0:0:0:0:
256,192,236367,1,8,0:0:0:0:
256,192,236781,1,0,0:0:0:0:
256,192,236988,1,0,0:0:0:0:
256,192,237091,1,8,0:0:0:0:
256,192,237298,1,8,0:0:0:0:
256,192,237608,1,8,0:0:0:0:
256,192,237815,1,8,0:0:0:0:
256,192,238022,1,8,0:0:0:0:
256,192,238436,1,0,0:0:0:0:
256,192,238643,1,8,0:0:0:0:
256,192,238746,1,8,0:0:0:0:
256,192,238953,1,8,0:0:0:0:
256,192,239263,1,8,0:0:0:0:
256,192,240091,1,0,0:0:0:0:
256,192,240298,1,0,0:0:0:0:
256,192,240401,1,8,0:0:0:0:
256,192,240608,1,8,0:0:0:0:
256,192,240815,1,8,0:0:0:0:
256,192,240919,1,0,0:0:0:0:
256,192,241125,1,0,0:0:0:0:
256,192,241332,1,8,0:0:0:0:
256,192,241746,1,0,0:0:0:0:
256,192,241953,1,8,0:0:0:0:
256,192,242056,1,8,0:0:0:0:
256,192,242263,1,8,0:0:0:0:
256,192,242470,1,0,0:0:0:0:
256,192,242574,1,8,0:0:0:0:
256,192,242781,1,8,0:0:0:0:
256,192,242988,1,8,0:0:0:0:
256,192,243401,1,0,0:0:0:0:
256,192,243608,1,0,0:0:0:0:
256,192,243712,1,8,0:0:0:0:
256,192,243919,1,8,0:0:0:0:
256,192,244125,1,8,0:0:0:0:
256,192,244229,1,0,0:0:0:0:
256,192,244436,1,0,0:0:0:0:
256,192,244643,1,8,0:0:0:0:
256,192,245056,1,0,0:0:0:0:
256,192,245470,1,0,0:0:0:0:
256,192,245884,1,8,0:0:0:0:
256,192,246712,5,4,0:0:0:0:
