osu file format v14

[General]
AudioFilename: audio.ogg
AudioLeadIn: 0
PreviewTime: 87524
Countdown: 0
SampleSet: Soft
StackLeniency: 0.4
Mode: 0
LetterboxInBreaks: 0
WidescreenStoryboard: 1

[Editor]
Bookmarks: 19767,42355,64943,87531,111002,132708,148237,155296,177884,200472
DistanceSpacing: 1.4
BeatDivisor: 4
GridSize: 16
TimelineZoom: 1.4

[Metadata]
Title:Bebas
TitleUnicode:Bebas
Artist:hololive ID
ArtistUnicode:hololive ID
Creator:Rittoru
Version:arutama's Sedang
Source:
Tags:holoid hololive-id ホロライブ female vocalist vocals pop virtual youtuber vtuber Iwa K Kusuma R Yudis Dwikorana Toriawan Sudarsono Farhan Sarasin Bpk. Sutirto Raditya Mahendra Hievasp Kuli Komis Whyusan Maad Alvito idol indonesian indonesia bahasa cover Ayunda Risu Moona Hoshinova Airani Iofifteen Kureiji Ollie Anya Melfissa Pavolia Reine Kobo Kanaeru Vestia Zeta Kaela Kovalskia arutama
BeatmapID:4438564
BeatmapSetID:1944544

[Difficulty]
HPDrainRate:4
CircleSize:3.2
OverallDifficulty:4
ApproachRate:5
SliderMultiplier:2
SliderTickRate:1

[Events]
//Background and Video events
0,0,"bg.jpg",0,0
Video,0,"Bebas.mp4"
//Break Periods
2,144195,147030
//Storyboard Layer 0 (Background)
//Storyboard Layer 1 (Fail)
//Storyboard Layer 2 (Pass)
//Storyboard Layer 3 (Foreground)
//Storyboard Layer 4 (Overlay)
//Storyboard Sound Samples

[TimingPoints]
19760,705.882352941176,4,2,2,40,1,0
19760,-111.111111111111,4,2,2,40,0,0
31054,-111.111111111111,4,2,2,50,0,0
42348,-100,4,2,1,65,0,0
64936,-111.111111111111,4,2,3,50,0,0
76230,-100,4,2,2,60,0,0
83289,-100,4,2,2,65,0,0
84701,-100,4,2,2,50,0,0
85054,-100,4,2,2,50,0,0
86112,-100,4,2,2,55,0,0
87524,-90.9090909090909,4,2,1,75,0,1
110112,-100,4,2,2,65,0,0
143995,-100,4,2,2,60,0,0
148230,-100,4,2,1,60,0,0
148936,-100,4,2,1,50,0,0
149642,-100,4,2,1,65,0,0
152465,-100,4,2,1,60,0,0
153171,-100,4,2,1,50,0,0
153877,-100,4,2,1,65,0,0
154407,-100,4,2,1,65,0,0
155289,-90.9090909090909,4,2,1,75,0,1
177877,-90.9090909090909,4,2,1,80,0,1
200465,-100,4,2,1,65,0,0

[Colours]
Combo1 : 214,169,254
Combo2 : 234,134,167
Combo3 : 128,185,255
Combo4 : 235,154,120

[HitObjects]
480,370,19760,6,0,P|498:318|431:212,1,179.999994506836,2|10,0:0|0:0,0:0:0:0:
357,179,20818,1,2,0:0:0:0:
357,179,20995,2,0,B|278:168|300:234|205:227,1,134.999995880127,2|2,0:0|0:0,0:0:0:0:
173,291,21877,1,10,0:0:0:0:
33,176,22583,2,0,P|16:112|116:37,1,179.999994506836,2|10,0:0|0:0,0:0:0:0:
179,65,23642,1,2,0:0:0:0:
179,65,23818,2,0,P|250:54|320:35,1,134.999995880127,2|2,0:0|0:0,0:0:0:0:
401,42,24701,2,0,P|440:72|453:118,1,89.9999972534181,10|2,0:0|0:0,0:0:0:0:
440,198,25407,6,0,P|372:223|257:188,1,179.999994506836,0|10,0:0|0:0,0:0:0:0:
210,130,26465,2,0,P|145:112|81:130,1,134.999995880127,2|2,0:0|0:0,0:0:0:0:
40,149,27171,1,2,0:0:0:0:
11,234,27524,1,10,0:0:0:0:
124,373,28230,2,0,B|228:369|179:328|302:318,1,179.999994506836,2|10,0:0|0:0,0:0:0:0:
372,360,29289,1,2,0:0:0:0:
454,323,29642,2,0,P|485:283|452:190,1,134.999995880127,2|2,0:0|0:0,0:0:0:0:
394,154,30524,1,2,0:0:0:0:
271,215,31054,6,0,L|153:226,1,89.9999972534181,6|0,0:0|0:0,0:0:0:0:
147,252,31583,1,2,0:0:0:0:
147,252,31759,2,0,P|106:211|114:163,1,89.9999972534181,10|2,0:0|0:0,0:0:0:0:
106,91,32465,1,2,0:0:0:0:
174,32,32818,1,2,0:0:0:0:
259,60,33171,2,0,P|325:72|379:85,1,89.9999972534181,10|2,0:0|0:0,0:0:0:0:
436,93,33877,6,0,L|423:201,1,89.9999972534181,2|2,0:0|0:0,0:0:0:0:
417,230,34407,1,2,0:0:0:0:
417,230,34583,2,0,P|379:232|327:241,1,89.9999972534181,10|2,0:0|0:0,0:0:0:0:
239,224,35289,2,0,P|222:160|257:107,1,89.9999972534181,2|2,0:0|0:0,0:0:0:0:
269,118,35818,2,0,P|279:52|254:13,1,89.9999972534181,2|2,0:0|0:0,0:0:0:0:
228,14,36348,1,2,0:0:0:0:
154,65,36701,6,0,P|114:73|27:88,1,89.9999972534181,4|2,0:0|0:0,0:0:0:0:
34,114,37230,2,0,P|19:169|59:238,1,134.999995880127,2|2,0:0|0:0,0:0:0:0:
112,303,38112,2,0,P|106:324|91:357,2,44.999998626709,2|2|2,0:0|0:0|0:0,0:0:0:0:
148,276,38642,2,0,B|224:282|183:320|278:337,1,134.999995880127,2|2,0:0|0:0,0:0:0:0:
346,374,39524,6,0,P|411:353|453:353,1,89.9999972534181,2|2,0:0|0:0,0:0:0:0:
473,332,40054,2,0,P|483:266|445:200,1,134.999995880127,2|0,0:0|0:0,0:0:0:0:
391,141,40936,2,0,P|399:102|402:72,2,44.999998626709,2|2|10,0:0|0:0|0:0,0:0:0:0:
306,171,41642,2,0,P|267:153|241:145,1,44.999998626709,10|2,0:0|0:0,0:0:0:0:
224,133,41995,1,2,0:0:0:0:
134,88,42348,6,0,P|73:86|27:104,1,100,4|2,3:2|0:0,0:0:0:0:
13,144,42877,1,0,3:0:0:0:
13,144,43054,2,0,L|25:254,1,100,10|0,0:0|0:0,0:0:0:0:
76,327,43760,1,0,0:0:0:0:
166,285,44112,2,0,L|229:297,1,50,2|0,3:2|0:0,0:0:0:0:
254,325,44465,2,0,P|311:332|367:309,1,100,10|0,0:0|0:0,0:0:0:0:
427,253,45171,5,0,3:0:0:0:
367,172,45524,2,0,L|376:95,1,50,2|2,0:0|3:2,0:0:0:0:
366,72,45877,2,0,P|335:45|255:46,1,100,10|2,0:0|0:0,0:0:0:0:
230,53,46407,1,2,0:0:0:0:
230,53,46583,1,2,0:0:0:0:
142,4,46936,1,2,3:2:0:0:
71,75,47289,2,0,L|84:155,1,50,10|2,0:0|3:2,0:0:0:0:
91,172,47642,1,2,0:0:0:0:
189,190,47995,6,0,P|255:157|312:157,1,100,2|2,3:2|0:0,0:0:0:0:
377,179,48701,2,0,L|396:247,1,50,10|2,0:0|0:0,0:0:0:0:
408,273,49054,1,2,0:0:0:0:
352,356,49407,2,0,P|301:359|244:334,1,100,2|2,0:0|3:2,0:0:0:0:
222,304,49936,2,0,L|239:189,1,100,2|2,0:0|0:0,0:0:0:0:
280,116,50642,1,2,0:0:0:0:
280,116,50818,6,0,P|250:58|208:34,1,100,2|0,3:2|0:0,0:0:0:0:
123,23,51524,2,0,L|43:35,1,50,10|2,0:0|0:0,0:0:0:0:
35,63,51877,1,2,0:0:0:0:
12,160,52230,2,0,L|31:267,1,100,2|2,0:0|3:2,0:0:0:0:
64,293,52759,2,0,L|128:282,1,50,2|8,0:0|0:0,0:0:0:0:
153,254,53112,1,0,3:0:0:0:
234,321,53465,1,0,0:0:0:0:
234,321,53642,6,0,P|281:347|356:337,1,100,4|2,3:2|0:0,0:0:0:0:
376,331,54171,1,0,3:0:0:0:
376,331,54348,2,0,P|402:284|394:221,1,100,10|0,0:0|0:0,0:0:0:0:
353,150,55054,1,0,0:0:0:0:
263,195,55407,2,0,L|191:186,1,50,2|0,3:2|0:0,0:0:0:0:
172,217,55759,2,0,P|126:226|70:207,1,100,10|0,0:0|0:0,0:0:0:0:
18,129,56465,5,0,3:0:0:0:
72,45,56818,2,0,L|140:33,1,50,2|2,0:0|3:2,0:0:0:0:
170,28,57171,1,10,0:0:0:0:
269,14,57524,1,2,0:0:0:0:
338,85,57877,2,0,P|345:139|309:179,1,100,2|2,0:0|3:2,0:0:0:0:
282,207,58407,1,2,0:0:0:0:
282,207,58583,2,0,L|226:200,1,50,10|2,0:0|3:2,0:0:0:0:
188,177,58936,1,2,0:0:0:0:
109,238,59289,6,0,P|104:287|131:339,1,100,2|0,3:2|0:0,0:0:0:0:
215,375,59995,2,0,L|274:365,1,50,10|2,0:0|0:0,0:0:0:0:
313,356,60348,1,2,0:0:0:0:
413,367,60701,2,0,P|448:330|447:280,1,100,2|2,0:0|3:2,0:0:0:0:
438,233,61230,1,2,0:0:0:0:
364,165,61583,1,2,0:0:0:0:
284,224,61936,1,2,0:0:0:0:
284,224,62112,6,0,P|223:225|173:196,1,100,2|0,3:2|0:0,0:0:0:0:
113,142,62818,2,0,L|123:87,1,50,10|2,0:0|0:0,0:0:0:0:
128,43,63171,1,2,0:0:0:0:
223,13,63524,2,0,L|337:33,1,100,2|2,0:0|3:2,0:0:0:0:
358,64,64054,2,0,L|424:75,1,50,2|8,0:0|0:0,0:0:0:0:
451,48,64407,1,2,3:2:0:0:
497,143,64759,1,2,0:0:0:0:
497,143,64936,6,0,P|494:189|447:248,1,89.9999972534181,6|2,0:0|0:0,0:0:0:0:
433,247,65465,2,0,P|388:229|286:200,1,134.999995880127,2|2,0:0|0:0,0:0:0:0:
237,145,66348,2,0,L|223:94,2,44.999998626709,2|2|2,0:0|0:0|0:0,0:0:0:0:
211,182,66877,1,2,0:0:0:0:
147,245,67230,2,0,P|136:299|170:352,1,89.9999972534181,2|2,0:0|0:0,0:0:0:0:
181,360,67759,6,0,P|245:344|303:338,1,89.9999972534181,2|2,0:0|0:0,0:0:0:0:
351,376,68465,1,10,0:0:0:0:
407,306,68818,1,2,0:0:0:0:
359,229,69171,2,0,P|349:184|361:119,1,89.9999972534181,2|2,0:0|0:0,0:0:0:0:
376,53,69877,1,10,0:0:0:0:
376,53,70054,1,2,0:0:0:0:
203,0,70583,6,0,P|147:22|87:37,1,89.9999972534181,0|2,0:0|0:0,0:0:0:0:
84,60,71112,1,2,0:0:0:0:
84,60,71289,2,0,P|69:116|107:175,1,89.9999972534181,10|2,0:0|0:0,0:0:0:0:
162,178,71995,1,2,0:0:0:0:
236,126,72348,1,2,0:0:0:0:
314,170,72701,2,0,P|327:234|337:270,1,89.9999972534181,10|2,0:0|0:0,0:0:0:0:
294,339,73407,6,0,L|176:323,1,89.9999972534181,2|2,0:0|0:0,0:0:0:0:
160,335,73936,1,2,0:0:0:0:
160,335,74112,1,10,0:0:0:0:
109,260,74465,1,2,0:0:0:0:
160,186,74818,2,0,P|162:127|146:72,1,89.9999972534181,2|2,0:0|0:0,0:0:0:0:
178,58,75348,2,0,P|230:22|294:31,1,89.9999972534181,10|2,0:0|0:0,0:0:0:0:
298,31,75877,1,2,0:0:0:0:
393,60,76230,6,0,L|407:165,1,100,2|2,3:2|0:0,0:0:0:0:
330,225,76936,2,0,P|257:193|165:159,1,150,10|2,0:0|0:0,0:0:0:0:
94,177,77818,1,2,0:0:0:0:
94,177,77995,1,2,0:0:0:0:
42,262,78348,2,0,P|39:317|77:356,1,100,10|2,0:0|0:0,0:0:0:0:
114,363,78877,6,0,P|173:353|224:346,1,100,2|2,0:0|0:0,0:0:0:0:
259,365,79407,1,2,0:0:0:0:
329,293,79759,2,0,P|346:254|306:193,1,100,10|2,0:0|0:0,0:0:0:0:
283,173,80289,1,2,0:0:0:0:
195,222,80642,2,0,P|204:265|204:275,2,50,2|2|2,0:0|3:2|0:0,0:0:0:0:
151,196,81171,2,0,P|117:134|154:75,1,100,2|2,0:0|0:0,0:0:0:0:
132,59,81701,1,2,0:0:0:0:
219,8,82054,5,2,0:0:0:0:
219,8,82231,2,0,P|243:14|267:21,1,50,2|2,0:0|0:0,0:0:0:0:
306,52,82583,2,0,P|369:25|416:16,1,100,10|2,0:0|0:0,0:0:0:0:
491,58,83289,2,0,P|490:119|488:199,1,100,2|2,0:0|0:0,0:0:0:0:
508,209,83818,1,2,0:0:0:0:
508,209,83995,1,10,0:0:0:0:
484,306,84348,2,0,P|459:309|419:316,1,50,2|2,0:0|0:0,0:0:0:0:
398,347,84701,6,0,P|349:354|278:299,1,100,14|2,3:2|0:0,0:0:0:0:
266,300,85230,1,2,0:0:0:0:
266,300,85407,2,0,L|260:222,1,50,2|2,0:0|0:0,0:0:0:0:
237,206,85759,1,2,0:0:0:0:
272,112,86112,2,0,L|336:103,1,50,2|2,0:0|0:0,0:0:0:0:
361,75,86465,2,0,P|428:76|474:112,1,100,10|2,0:0|0:0,0:0:0:0:
477,142,86995,1,2,0:0:0:0:
477,142,87171,1,10,0:0:0:0:
467,251,87524,6,0,L|326:271,1,110.000003356934,4|2,3:2|0:0,0:0:0:0:
320,307,88054,1,0,3:0:0:0:
320,307,88230,2,0,B|258:310|258:310|193:276,1,110.000003356934,10|0,0:0|0:0,0:0:0:0:
108,260,88936,2,0,L|119:179,1,55.0000016784668,0|0,0:0|3:0,0:0:0:0:
123,150,89289,1,2,3:2:0:0:
212,84,89642,2,0,P|273:79|335:126,1,110.000003356934,10|0,0:0|0:0,0:0:0:0:
379,190,90348,5,0,3:0:0:0:
485,163,90701,2,0,L|499:85,1,55.0000016784668,2|2,0:0|3:2,0:0:0:0:
480,55,91054,2,0,B|437:23|437:23|367:31,1,110.000003356934,10|2,0:0|0:0,0:0:0:0:
332,49,91583,1,2,0:0:0:0:
332,49,91759,1,2,0:0:0:0:
273,142,92112,2,0,L|283:216,1,55.0000016784668,2|2,3:2|0:0,0:0:0:0:
318,236,92465,2,0,L|311:323,1,55.0000016784668,10|2,0:0|3:2,0:0:0:0:
298,343,92818,1,2,0:0:0:0:
191,369,93171,6,0,P|131:365|79:332,1,110.000003356934,2|0,3:2|0:0,0:0:0:0:
26,249,93877,2,0,L|32:187,1,55.0000016784668,10|2,0:0|0:0,0:0:0:0:
4,145,94230,2,0,L|10:83,1,55.0000016784668,2|2,0:0|0:0,0:0:0:0:
40,45,94583,2,0,B|99:30|99:30|151:59,1,110.000003356934,2|2,0:0|3:2,0:0:0:0:
167,102,95112,1,2,0:0:0:0:
119,201,95465,2,0,P|110:254|138:312,1,110.000003356934,2|2,0:0|0:0,0:0:0:0:
175,337,95995,6,0,L|286:314,1,110.000003356934,2|0,3:2|0:0,0:0:0:0:
382,267,96701,2,0,L|454:280,2,55.0000016784668,10|2|2,0:0|0:0|0:0,0:0:0:0:
342,236,97230,1,2,0:0:0:0:
342,236,97407,2,0,B|329:179|329:179|371:121,1,110.000003356934,2|2,0:0|3:2,0:0:0:0:
405,107,97936,2,0,L|405:39,1,55.0000016784668,2|8,0:0|0:0,0:0:0:0:
364,14,98289,1,0,3:0:0:0:
261,57,98642,1,0,0:0:0:0:
261,57,98818,6,0,L|130:40,1,110.000003356934,4|2,3:2|0:0,0:0:0:0:
105,69,99348,1,0,3:0:0:0:
105,69,99524,2,0,B|77:119|77:119|96:173,1,110.000003356934,10|0,0:0|0:0,0:0:0:0:
163,254,100230,2,0,L|230:239,1,55.0000016784668,0|0,0:0|3:0,0:0:0:0:
268,222,100583,1,2,3:2:0:0:
360,163,100936,2,0,P|422:158|479:193,1,110.000003356934,10|0,0:0|0:0,0:0:0:0:
496,283,101642,5,0,3:0:0:0:
409,351,101995,2,0,L|318:365,1,55.0000016784668,2|2,0:0|3:2,0:0:0:0:
299,363,102348,1,10,0:0:0:0:
210,297,102701,2,0,L|216:230,1,55.0000016784668,2|2,0:0|0:0,0:0:0:0:
259,210,103054,2,0,B|274:152|274:152|237:75,1,110.000003356934,2|2,0:0|3:2,0:0:0:0:
211,78,103583,1,2,0:0:0:0:
211,78,103759,2,0,L|139:90,1,55.0000016784668,10|2,0:0|3:2,0:0:0:0:
102,95,104112,1,2,0:0:0:0:
47,190,104465,6,0,P|45:255|90:311,1,110.000003356934,2|0,3:2|0:0,0:0:0:0:
149,365,105171,2,0,L|212:347,1,55.0000016784668,10|2,0:0|0:0,0:0:0:0:
243,313,105524,2,0,L|323:318,1,55.0000016784668,2|2,0:0|0:0,0:0:0:0:
338,353,105877,2,0,B|392:377|392:377|465:359,1,110.000003356934,2|2,0:0|3:2,0:0:0:0:
486,332,106407,1,2,0:0:0:0:
439,232,106759,2,0,L|456:109,1,110.000003356934,2|2,0:0|0:0,0:0:0:0:
463,67,107289,5,2,3:2:0:0:
372,3,107642,1,0,0:0:0:0:
281,65,107995,2,0,L|208:51,2,55.0000016784668,10|2|2,0:0|0:0|0:0,0:0:0:0:
316,107,108524,1,2,0:0:0:0:
316,107,108701,2,0,B|327:163|327:163|298:216,1,110.000003356934,2|2,0:0|3:2,0:0:0:0:
256,241,109230,2,0,L|179:225,1,55.0000016784668,2|8,0:0|0:0,0:0:0:0:
164,189,109583,1,0,3:0:0:0:
60,217,109936,5,0,0:0:0:0:
60,217,110112,2,0,P|52:284|94:337,1,100,4|0,0:0|3:0,0:0:0:0:
158,348,110818,1,0,0:0:0:0:
158,348,110995,2,0,B|211:326|211:326|257:341,1,100,0|0,3:0|0:0,0:0:0:0:
299,354,111524,2,0,P|341:314|294:198,1,200,0|8,3:0|0:0,0:0:0:0:
30,89,113289,6,0,B|72:77|72:77|82:67|82:67|128:56,1,100,0|0,3:0|0:0,0:0:0:0:
158,21,113818,2,0,B|199:30|199:30|209:40|209:40|251:52,1,100,0|0,3:0|0:0,0:0:0:0:
289,85,114348,2,0,B|299:140|299:140|259:183,1,100,0|0,3:0|3:0,0:0:0:0:
187,230,115054,1,8,0:0:0:0:
466,339,116112,6,0,L|479:237,1,100,0|0,3:0|0:0,0:0:0:0:
446,200,116642,2,0,L|344:187,1,100,0|0,3:0|0:0,0:0:0:0:
303,213,117171,2,0,P|249:237|171:198,1,150,0|0,3:0|3:0,0:0:0:0:
144,157,117877,1,8,0:0:0:0:
407,13,118936,6,0,B|400:54|400:54|390:65|390:65|381:108,1,100,0|0,3:0|0:0,0:0:0:0:
350,146,119465,2,0,B|356:187|356:187|366:198|366:198|375:241,1,100,0|0,3:0|0:0,0:0:0:0:
390,289,119995,1,0,3:0:0:0:
319,360,120348,1,0,3:0:0:0:
224,328,120701,2,0,P|177:316|110:330,1,100,8|2,0:0|0:0,0:0:0:0:
91,358,121230,1,2,0:0:0:0:
91,358,121407,5,6,0:0:0:0:
23,284,121759,2,0,P|37:236|33:183,1,100,2|0,3:2|0:0,0:0:0:0:
61,144,122289,2,0,P|110:138|157:113,1,100,2|2,3:2|0:0,0:0:0:0:
199,92,122818,1,2,3:2:0:0:
289,135,123171,1,2,0:0:0:0:
251,229,123524,1,10,0:0:0:0:
251,229,123701,2,0,L|267:360,1,100,2|2,0:0|0:0,0:0:0:0:
300,361,124230,6,0,P|366:365|415:332,1,100,2|2,0:0|3:2,0:0:0:0:
477,292,124936,1,2,0:0:0:0:
477,292,125112,2,0,L|485:191,1,100,2|2,3:2|0:0,0:0:0:0:
487,141,125642,1,0,3:0:0:0:
453,46,125995,1,2,3:2:0:0:
357,56,126348,1,10,0:0:0:0:
357,56,126524,6,0,P|298:55|229:31,1,100,2|2,0:0|0:0,0:0:0:0:
162,55,127230,1,2,0:0:0:0:
162,55,127407,2,0,L|178:169,1,100,2|2,3:2|0:0,0:0:0:0:
208,192,127936,2,0,P|256:182|312:159,1,100,2|2,3:2|0:0,0:0:0:0:
335,125,128465,1,2,3:2:0:0:
433,109,128818,1,2,0:0:0:0:
484,201,129171,1,10,0:0:0:0:
484,201,129348,2,0,L|463:333,1,100,2|2,0:0|0:2,0:0:0:0:
437,339,129877,6,0,P|379:337|341:309,1,100,2|2,0:2|3:2,0:0:0:0:
251,297,130583,1,2,0:0:0:0:
251,297,130759,2,0,L|129:312,1,100,0|0,3:0|0:0,0:0:0:0:
105,289,131289,2,0,B|77:244|77:244|91:168,1,100,0|2,3:0|3:2,0:0:0:0:
124,104,131995,2,0,L|208:118,1,50,10|2,0:0|0:0,0:0:0:0:
216,147,132348,1,2,3:2:0:0:
216,147,132524,1,2,0:0:0:0:
305,101,132877,6,0,L|292:18,2,50,2|2|2,0:0|3:2|0:0,0:0:0:0:
342,134,133407,2,0,P|351:185|310:250,1,100,2|2,0:0|0:0,0:0:0:0:
309,274,133936,1,2,0:0:0:0:
309,274,134112,1,2,3:2:0:0:
377,346,134465,1,2,0:0:0:0:
469,308,134818,2,0,L|472:232,1,50,10|2,0:0|0:0,0:0:0:0:
472,211,135171,1,2,0:0:0:0:
472,211,135348,1,2,0:0:0:0:
424,123,135701,6,0,L|438:41,2,50,2|2|2,0:0|3:2|0:0,0:0:0:0:
382,151,136230,2,0,P|333:153|275:110,1,100,2|2,0:0|0:0,0:0:0:0:
259,88,136759,1,2,0:0:0:0:
259,88,136936,1,2,3:2:0:0:
176,31,137289,2,0,L|92:43,1,50,2|2,0:0|3:2,0:0:0:0:
76,44,137642,1,10,0:0:0:0:
17,125,137995,1,2,0:0:0:0:
17,125,138171,6,0,P|10:177|49:237,1,100,2|2,0:0|0:0,0:0:0:0:
64,255,138701,1,2,3:2:0:0:
148,201,139054,1,2,0:0:0:0:
148,201,139230,2,0,L|276:195,1,100,2|2,3:2|0:0,0:0:0:0:
291,221,139759,1,2,3:2:0:0:
382,262,140112,2,0,L|456:251,1,50,2|2,0:0|3:2,0:0:0:0:
466,218,140465,2,0,L|458:168,1,50,10|2,0:0|0:0,0:0:0:0:
447,119,140818,1,2,0:0:0:0:
374,49,141171,6,0,L|301:47,1,50,2|2,3:2|0:0,0:0:0:0:
273,48,141524,1,2,3:2:0:0:
180,10,141877,1,8,0:0:0:0:
121,90,142230,2,0,L|129:139,1,50,2|2,0:0|0:0,0:0:0:0:
161,178,142583,2,0,L|220:167,1,50,2|2,3:2|0:0,0:0:0:0:
259,158,142936,1,2,3:2:0:0:
358,163,143289,2,0,P|377:204|352:266,1,100,10|2,0:0|0:0,0:0:0:0:
349,305,143818,1,2,0:0:0:0:
349,305,143995,5,4,0:0:0:0:
57,358,148230,6,0,L|8:368,2,50,4|4|4,0:3|0:3|0:3,0:0:0:0:
93,323,148759,1,4,0:3:0:0:
93,323,148936,2,0,L|186:323,1,50,4|4,0:3|0:3,0:0:0:0:
186,347,149289,1,4,0:3:0:0:
270,293,149642,6,0,B|292:247|292:247|253:174,1,100,0|0,3:0|0:0,0:0:0:0:
198,132,150348,2,0,B|176:86|176:86|215:13,1,100,0|0,3:0|0:0,0:0:0:0:
241,16,150877,1,0,0:0:0:0:
241,16,151054,2,0,L|361:29,1,100,0|0,3:0|0:0,0:0:0:0:
378,58,151583,2,0,L|373:111,1,50,0|0,0:0|3:0,0:0:0:0:
371,157,151935,1,0,0:0:0:0:
277,183,152289,1,0,0:0:0:0:
277,183,152465,6,0,P|226:151|161:143,1,100,0|4,3:0|0:3,0:0:0:0:
89,161,153171,2,0,L|82:239,1,50,4|4,3:3|0:3,0:0:0:0:
61,255,153524,2,0,L|72:320,1,50,4|4,0:3|0:3,0:0:0:0:
92,348,153877,2,0,P|152:357|211:323,1,100,4|0,0:0|0:0,0:0:0:0:
212,301,154407,1,2,0:0:0:0:
212,301,154583,2,0,P|259:286|307:296,1,100,2|2,0:0|0:0,0:0:0:0:
399,357,155289,6,0,P|429:305|403:226,1,110.000003356934,4|2,3:2|0:0,0:0:0:0:
427,205,155818,1,0,3:0:0:0:
427,205,155995,2,0,P|378:164|315:164,1,110.000003356934,10|0,0:0|0:0,0:0:0:0:
245,224,156701,2,0,L|182:234,1,55.0000016784668,0|0,0:0|3:0,0:0:0:0:
135,238,157054,1,2,3:2:0:0:
42,178,157407,2,0,P|20:123|70:60,1,110.000003356934,10|0,0:0|0:0,0:0:0:0:
122,7,158112,5,0,3:0:0:0:
217,62,158465,2,0,L|292:52,1,55.0000016784668,2|2,0:0|3:2,0:0:0:0:
325,44,158818,1,10,0:0:0:0:
434,39,159171,2,0,L|443:117,1,55.0000016784668,2|2,0:0|0:0,0:0:0:0:
478,133,159524,2,0,B|485:194|485:194|443:230,1,110.000003356934,2|2,0:0|3:2,0:0:0:0:
408,264,160054,1,2,0:0:0:0:
408,264,160230,2,0,L|322:242,1,55.0000016784668,10|2,0:0|3:2,0:0:0:0:
306,224,160583,1,2,0:0:0:0:
197,242,160936,6,0,P|211:317|178:360,1,110.000003356934,2|0,3:2|0:0,0:0:0:0:
148,365,161465,1,0,3:0:0:0:
148,365,161642,2,0,L|76:352,1,55.0000016784668,10|2,0:0|0:0,0:0:0:0:
40,339,161995,1,2,0:0:0:0:
61,231,162348,2,0,L|37:106,1,110.000003356934,2|2,0:0|3:2,0:0:0:0:
43,67,162877,2,0,L|118:54,1,55.0000016784668,2|8,0:0|0:0,0:0:0:0:
151,46,163230,1,2,0:0:0:0:
238,112,163583,1,2,0:0:0:0:
238,112,163759,6,0,B|297:106|297:106|349:48,1,110.000003356934,2|0,3:2|0:0,0:0:0:0:
369,29,164289,1,0,3:0:0:0:
369,29,164465,2,0,L|445:36,1,55.0000016784668,10|2,0:0|0:0,0:0:0:0:
474,56,164818,1,2,0:0:0:0:
459,164,165171,2,0,L|481:242,2,55.0000016784668,8|8|8,0:3|3:0|3:0,0:0:0:0:
408,140,165701,2,0,L|336:149,1,55.0000016784668,2|10,0:0|0:0,0:0:0:0:
319,190,166054,1,0,3:0:0:0:
233,130,166407,5,2,0:0:0:0:
233,130,166583,2,0,P|192:116|107:127,1,110.000003356934,4|2,3:2|0:0,0:0:0:0:
83,152,167112,1,0,3:0:0:0:
83,152,167289,2,0,B|65:208|65:208|97:278,1,110.000003356934,10|0,0:0|0:0,0:0:0:0:
141,350,167995,2,0,L|208:358,1,55.0000016784668,0|0,0:0|3:0,0:0:0:0:
250,363,168348,1,2,3:2:0:0:
338,309,168701,2,0,B|345:190,1,110.000003356934,10|0,0:0|0:0,0:0:0:0:
271,116,169407,5,0,3:0:0:0:
197,197,169759,2,0,P|152:207|110:204,1,55.0000016784668,2|2,0:0|3:2,0:0:0:0:
91,188,170112,2,0,P|62:125|91:72,1,110.000003356934,10|2,0:0|0:0,0:0:0:0:
102,42,170642,1,2,0:0:0:0:
102,42,170818,1,2,0:0:0:0:
208,12,171171,2,0,L|296:18,1,55.0000016784668,2|2,3:2|0:0,0:0:0:0:
305,50,171524,2,0,L|391:43,1,55.0000016784668,10|2,0:0|3:2,0:0:0:0:
407,17,171877,1,2,0:0:0:0:
499,76,172230,6,0,B|514:130|514:130|483:188,1,110.000003356934,2|0,3:2|0:0,0:0:0:0:
446,212,172759,1,0,3:0:0:0:
446,212,172936,2,0,L|379:197,1,55.0000016784668,10|2,0:0|0:0,0:0:0:0:
349,165,173289,1,2,0:0:0:0:
246,206,173642,2,0,L|260:324,1,110.000003356934,2|2,0:0|3:2,0:0:0:0:
222,356,174171,2,0,L|139:364,1,55.0000016784668,2|8,0:0|0:0,0:0:0:0:
112,362,174524,1,2,0:0:0:0:
22,283,174877,1,2,0:0:0:0:
22,283,175054,6,0,P|12:202|48:169,1,110.000003356934,2|0,3:2|0:0,0:0:0:0:
67,147,175583,1,0,3:0:0:0:
67,147,175759,2,0,L|139:158,1,55.0000016784668,10|2,0:0|0:0,0:0:0:0:
162,191,176112,1,2,0:0:0:0:
241,267,176465,2,0,B|296:287|296:287|356:262,1,110.000003356934,8|8,0:3|3:0,0:0:0:0:
391,238,176995,2,0,L|395:161,1,55.0000016784668,2|8,0:0|0:0,0:0:0:0:
434,146,177348,2,0,P|436:90|359:25,1,110.000003356934,0|0,3:0|0:0,0:0:0:0:
355,27,177877,5,4,3:2:0:0:
252,67,178230,2,0,L|175:59,1,55.0000016784668,2|0,0:0|3:0,0:0:0:0:
153,27,178583,2,0,P|101:36|61:92,1,110.000003356934,10|2,0:0|0:0,0:0:0:0:
17,177,179289,2,0,L|24:270,1,55.0000016784668,2|0,0:0|3:0,0:0:0:0:
31,285,179642,1,2,3:2:0:0:
116,353,179995,2,0,P|183:356|225:340,1,110.000003356934,10|2,0:0|0:0,0:0:0:0:
316,283,180701,5,2,3:2:0:0:
275,180,181054,2,0,L|283:110,1,55.0000016784668,2|2,0:0|3:2,0:0:0:0:
293,71,181407,1,10,0:0:0:0:
383,9,181759,2,0,P|419:17|460:40,1,55.0000016784668,2|2,0:0|0:0,0:0:0:0:
477,64,182112,2,0,B|480:124|480:124|438:163,1,110.000003356934,2|2,0:0|3:2,0:0:0:0:
420,210,182642,1,2,0:0:0:0:
420,210,182818,2,0,L|430:300,1,55.0000016784668,10|2,0:0|3:2,0:0:0:0:
434,319,183171,1,2,0:0:0:0:
340,377,183524,6,0,P|287:382|230:344,1,110.000003356934,2|0,3:2|0:0,0:0:0:0:
210,313,184054,1,0,3:0:0:0:
210,313,184230,2,0,L|223:244,1,55.0000016784668,10|2,0:0|0:0,0:0:0:0:
227,204,184583,1,2,0:0:0:0:
332,162,184936,2,0,P|405:187|463:172,1,110.000003356934,2|2,0:0|3:2,0:0:0:0:
487,163,185465,2,0,L|497:100,1,55.0000016784668,2|8,0:0|0:0,0:0:0:0:
477,56,185818,1,2,0:0:0:0:
374,15,186171,1,2,0:0:0:0:
374,15,186348,6,0,L|245:33,1,110.000003356934,2|0,3:2|0:0,0:0:0:0:
223,65,186877,1,0,3:0:0:0:
223,65,187054,2,0,L|234:152,1,55.0000016784668,10|2,0:0|0:0,0:0:0:0:
236,174,187407,1,2,0:0:0:0:
306,258,187759,2,0,B|382:242,2,55.0000016784668,8|8|8,0:3|3:0|3:0,0:0:0:0:
273,303,188289,2,0,L|185:290,1,55.0000016784668,2|8,0:0|0:0,0:0:0:0:
170,267,188642,1,0,3:0:0:0:
86,337,188995,1,0,0:0:0:0:
86,337,189171,6,0,P|45:310|16:232,1,110.000003356934,4|2,3:2|0:0,0:0:0:0:
17,205,189701,1,0,3:0:0:0:
17,205,189877,2,0,L|29:133,1,55.0000016784668,10|0,0:0|0:0,0:0:0:0:
44,98,190230,1,2,0:0:0:0:
125,23,190583,2,0,P|164:22|196:33,1,55.0000016784668,2|0,0:0|3:0,0:0:0:0:
225,56,190936,1,2,3:2:0:0:
308,127,191289,2,0,P|378:123|419:84,1,110.000003356934,10|2,0:0|0:0,0:0:0:0:
326,25,191995,5,2,3:2:0:0:
225,56,192348,2,0,L|166:39,1,55.0000016784668,2|2,0:0|3:2,0:0:0:0:
117,48,192701,2,0,B|75:92|75:92|89:168,1,110.000003356934,10|2,0:0|0:0,0:0:0:0:
99,198,193230,1,2,0:0:0:0:
99,198,193407,1,2,0:0:0:0:
205,217,193759,2,0,L|285:198,1,55.0000016784668,2|2,3:2|0:0,0:0:0:0:
301,169,194112,2,0,L|376:175,1,55.0000016784668,10|2,0:0|3:2,0:0:0:0:
400,205,194465,1,2,0:0:0:0:
387,314,194818,6,0,P|339:341|250:315,1,110.000003356934,2|2,3:2|0:0,0:0:0:0:
243,310,195348,1,0,3:0:0:0:
243,310,195524,2,0,L|171:319,1,55.0000016784668,10|2,0:0|0:0,0:0:0:0:
145,350,195877,1,2,0:0:0:0:
57,283,196230,2,0,P|79:209|52:164,1,110.000003356934,2|2,0:0|3:2,0:0:0:0:
29,141,196759,2,0,L|38:79,1,55.0000016784668,2|8,0:0|0:0,0:0:0:0:
49,32,197112,1,2,0:0:0:0:
162,44,197465,1,0,0:0:0:0:
162,44,197642,6,0,L|290:56,1,110.000003356934,2|0,3:2|0:0,0:0:0:0:
309,93,198171,1,0,3:0:0:0:
309,93,198348,2,0,L|302:170,1,55.0000016784668,10|2,0:0|0:0,0:0:0:0:
274,194,198701,1,2,0:0:0:0:
169,160,199054,2,0,P|120:164|66:210,1,110.000003356934,8|8,0:3|3:0,0:0:0:0:
56,252,199583,2,0,L|76:323,1,55.0000016784668,2|8,0:0|0:0,0:0:0:0:
113,340,199936,1,8,3:0:0:0:
113,340,200112,1,8,0:3:0:0:
201,292,200465,5,4,0:0:0:0:
