osu file format v14

[General]
AudioFilename: audio.mp3
AudioLeadIn: 0
PreviewTime: 52077
Countdown: 0
SampleSet: Soft
StackLeniency: 0.4
Mode: 0
LetterboxInBreaks: 0
WidescreenStoryboard: 0

[Editor]
Bookmarks: 66141
DistanceSpacing: 1.2
BeatDivisor: 4
GridSize: 4
TimelineZoom: 2.7

[Metadata]
Title:one-Me two-Hearts (TV Size)
TitleUnicode:ワンミーツハー (TV Size)
Artist:hitorie
ArtistUnicode:ヒトリエ
Creator:Flake
Version:Light Insane
Source:ディバインゲート
Tags:wowaka divine gate anime japanese jp op opening GungHo Online j-rock jrock rock edit
BeatmapID:2458708
BeatmapSetID:1179039

[Difficulty]
HPDrainRate:5
CircleSize:4.1
OverallDifficulty:8
ApproachRate:9
SliderMultiplier:1.3
SliderTickRate:1

[Events]
//Background and Video events
0,0,"wp.jpg",0,0
Video,357,"d.mp4"
//Break Periods
2,11427,15024
//Storyboard Layer 0 (Background)
//Storyboard Layer 1 (Fail)
//Storyboard Layer 2 (Pass)
//Storyboard Layer 3 (Foreground)
//Storyboard Layer 4 (Overlay)
//Storyboard Sound Samples

[TimingPoints]
1199,317.460317460317,4,2,1,50,1,0
3103,-100,4,2,1,50,0,0
3183,-100,4,2,1,5,0,0
3262,-100,4,2,1,50,0,0
3698,315.78947368421,4,2,1,50,1,0
5592,-100,4,2,1,50,0,0
5671,-100,4,2,1,5,0,0
5750,-100,4,2,1,50,0,0
8750,310.880829015544,4,2,1,50,1,0
10429,314.13612565445,4,2,1,50,1,0
11227,314.13612565445,4,2,1,50,1,0
11227,-100,4,2,1,70,0,0
15624,-100,4,2,1,70,0,0
16265,314.13612565445,4,2,1,50,1,0
16265,-80,4,2,1,70,0,0
21134,-100,4,2,1,50,0,0
31186,-100,4,2,1,60,0,0
37469,-100,4,2,1,60,0,0
37704,-100,4,2,1,5,0,0
37783,-100,4,2,1,60,0,0
38725,-100,4,2,1,60,0,0
41710,-100,4,2,1,40,0,0
43280,-80,4,2,1,70,0,0
43908,-100,4,2,1,70,0,0
44223,-100,4,2,1,40,0,0
45793,-80,4,2,1,50,0,0
46107,-80,4,2,1,70,0,0
46422,-100,4,2,1,70,0,0
46736,-100,4,2,1,40,0,0
47050,-100,4,2,1,45,0,0
47364,-100,4,2,1,50,0,0
47678,-100,4,2,1,55,0,0
47992,-100,4,2,1,60,0,0
48306,-100,4,2,1,65,0,0
48935,-100,4,2,1,45,0,0
49249,-100,4,2,1,50,0,0
49563,-100,4,2,1,55,0,0
49877,-100,4,2,1,60,0,0
50191,-100,4,2,1,65,0,0
52077,314.13612565445,4,2,1,70,1,1
52077,-80,4,2,1,70,0,1
53176,-100,4,2,1,70,0,1
53804,-80,4,2,1,70,0,1
54825,-80,4,2,1,5,0,1
54904,-80,4,2,1,70,0,1
55689,-100,4,2,1,70,0,1
56317,-80,4,2,1,70,0,1
57338,-80,4,2,1,5,0,1
57417,-80,4,2,1,70,0,1
58830,-80,4,2,1,70,0,1
59222,-80,4,2,1,5,0,1
59301,-80,4,2,1,70,0,1
60086,-80,4,2,1,70,0,1
60715,-80,4,2,1,70,0,1
63228,-100,4,2,1,70,0,1
63856,-80,4,2,1,70,0,1
64877,-80,4,2,1,5,0,1
64956,-80,4,2,1,70,0,1
65741,-100,4,2,1,70,0,1
66369,-80,4,2,1,70,0,1
67155,-100,4,2,1,70,0,1
69590,-100,4,2,1,5,0,1
69668,-80,4,2,1,70,0,1
72181,-80,4,2,1,80,0,1
77207,-100,4,2,1,70,0,0
78462,301.507537688442,4,2,1,70,1,0
79708,314.13612565445,4,2,1,70,1,0
79708,-100,4,2,1,70,0,0
84106,-100,4,2,1,70,0,0
84734,-80,4,2,1,70,0,0
88503,-80,4,2,1,70,0,0

[Colours]
Combo1 : 198,205,173
Combo2 : 213,179,134
Combo3 : 213,205,125
Combo4 : 176,132,133

[HitObjects]
23,89,1199,6,0,P|51:109|71:136,1,65,2|2,0:0|0:0,0:0:0:0:
134,175,1516,1,2,0:0:0:0:
59,153,1675,1,2,0:0:0:0:
59,153,1992,2,0,P|31:173|11:200,1,65,2|2,0:0|0:0,0:0:0:0:
104,375,2310,2,0,L|84:243,2,130,2|2|2,0:0|0:0|0:0,0:0:0:0:
174,271,3103,2,0,L|178:303,1,32.5,2|0,0:0|0:0,0:0:0:0:
178,303,3698,6,0,P|206:283|226:256,1,65,2|0,0:0|0:0,0:0:0:0:
289,217,4013,1,2,0:0:0:0:
214,239,4171,1,2,0:0:0:0:
214,239,4487,2,0,P|186:219|166:192,1,65,2|2,0:0|0:0,0:0:0:0:
231,0,4803,2,0,L|251:128,2,130,2|2|2,0:0|0:0|0:0,0:0:0:0:
325,56,5592,2,0,L|321:24,1,32.5,2|0,0:0|0:0,0:0:0:0:
320,23,6224,6,0,P|356:22|443:71,1,130,2|2,0:0|0:0,0:0:0:0:
507,101,6697,2,0,P|471:100|384:149,1,130,2|2,0:0|0:0,0:0:0:0:
307,168,7171,1,2,0:0:0:0:
307,168,7329,1,2,0:0:0:0:
307,168,7645,2,0,P|343:167|430:216,1,130,2|2,0:0|0:0,0:0:0:0:
494,246,8119,2,0,P|458:245|371:294,1,130,2|2,0:0|0:0,0:0:0:0:
315,343,8592,5,2,0:0:0:0:
280,273,8750,1,2,0:0:0:0:
177,346,8905,2,0,P|183:314|203:289,1,65,2|0,0:0|0:0,0:0:0:0:
231,207,9216,5,2,0:0:0:0:
196,277,9371,1,2,0:0:0:0:
93,203,9527,2,0,P|99:234|118:260,1,65,2|0,0:0|0:0,0:0:0:0:
280,273,9838,1,2,0:0:0:0:
280,273,9993,2,0,L|352:264,1,65,2|2,0:0|0:0,0:0:0:0:
485,247,10429,2,0,L|356:263,1,130,2|2,0:0|0:0,0:0:0:0:
280,273,10900,1,2,0:0:0:0:
438,137,11227,5,6,3:2:0:0:
136,326,15624,5,2,0:0:0:0:
126,322,15703,1,2,0:0:0:0:
126,313,15781,1,2,0:0:0:0:
136,310,15860,1,2,0:0:0:0:
141,318,15939,1,2,0:0:0:0:
60,367,16265,6,0,L|223:341,1,162.5,6|0,0:0|1:0,0:0:0:0:
292,262,16736,1,2,0:0:0:0:
292,262,16814,1,2,0:0:0:0:
292,262,16893,1,2,3:2:0:0:
234,340,17050,2,0,L|315:353,1,81.25,2|0,0:0|1:0,0:0:0:0:
411,368,17364,6,0,B|449:348|465:302|465:302|452:228,1,162.5,2|2,0:0|0:0,0:0:0:0:
486,136,17835,2,0,P|443:129|404:111,1,81.25,0|2,1:0|0:0,0:0:0:0:
322,68,18149,2,0,P|279:75|240:93,2,81.25,2|2|0,3:2|0:0|1:0,0:0:0:0:
90,2,18621,6,0,B|129:17|149:62|149:62|142:137,1,162.5,2|2,0:0|0:0,0:0:0:0:
43,198,19092,1,2,1:2:0:0:
43,198,19170,1,2,0:0:0:0:
43,198,19249,1,2,0:0:0:0:
131,157,19406,2,0,L|122:240,1,81.25,2|2,3:2|0:0,0:0:0:0:
112,335,19720,2,0,P|147:353|187:358,1,81.25,0|2,1:0|0:0,0:0:0:0:
283,339,20034,1,0,3:0:0:0:
218,265,20191,5,0,1:0:0:0:
283,339,20348,2,0,P|320:320|369:317,1,81.25,0|0,1:0|3:0,0:0:0:0:
466,380,20662,1,0,1:0:0:0:
466,380,20741,1,0,1:0:0:0:
466,380,20819,1,8,0:3:0:0:
466,380,20898,1,8,0:3:0:0:
466,380,20977,2,0,L|470:335,1,40.625,4|4,0:3|0:3,0:0:0:0:
505,265,21134,6,0,L|484:127,1,130,6|0,3:2|3:0,0:0:0:0:
478,58,21605,2,0,P|441:66|415:92,1,65,2|0,1:2|0:0,0:0:0:0:
322,121,21919,1,2,3:2:0:0:
385,231,22076,2,0,B|398:203|398:203|392:169,1,65,2|2,3:2|1:2,0:0:0:0:
336,33,22390,6,0,P|291:34|237:102,1,130,2|0,3:2|3:0,0:0:0:0:
259,200,22861,2,0,P|228:180|189:179,1,65,2|0,1:2|0:0,0:0:0:0:
129,299,23175,1,2,3:2:0:0:
118,224,23333,2,0,L|109:159,1,65,2|2,3:2|1:2,0:0:0:0:
0,81,23647,6,0,B|12:95|12:95|133:74,1,130,2|0,3:2|3:0,0:0:0:0:
177,17,24118,2,0,P|214:17|244:39,1,65,2|2,1:2|0:0,0:0:0:0:
294,85,24432,1,2,3:2:0:0:
395,22,24589,2,0,L|459:31,1,65,2|2,3:2|1:2,0:0:0:0:
505,105,24903,2,0,L|486:233,1,130,2|2,3:2|3:2,0:0:0:0:
383,216,25374,2,0,L|394:280,1,65,2|2,1:2|0:0,0:0:0:0:
407,357,25689,1,2,3:2:0:0:
273,248,25846,2,0,P|242:255|218:278,1,65,2|2,3:2|1:2,0:0:0:0:
145,324,26160,6,0,B|129:245|129:245|163:198,1,130,2|0,3:2|3:0,0:0:0:0:
231,146,26631,2,0,P|263:149|291:164,1,65,2|2,1:2|0:0,0:0:0:0:
348,226,26945,1,2,3:2:0:0:
497,156,27259,1,2,1:2:0:0:
490,78,27416,2,0,P|440:38|377:49,1,130,2|2,3:2|3:2,0:0:0:0:
317,98,27888,2,0,L|249:91,1,65,2|2,1:2|0:0,0:0:0:0:
226,17,28202,1,2,3:2:0:0:
103,45,28359,2,0,L|89:110,1,65,0|2,3:0|1:2,0:0:0:0:
0,230,28673,6,0,B|53:193|53:193|101:259,1,130,2|0,3:2|3:0,0:0:0:0:
168,254,29144,2,0,L|154:319,1,65,2|0,1:2|0:0,0:0:0:0:
213,367,29458,1,2,3:2:0:0:
319,262,29615,2,0,L|387:266,1,65,2|2,0:2|1:2,0:0:0:0:
473,322,29929,2,0,B|499:308|499:308|514:189,1,130,2|0,3:2|3:0,0:0:0:0:
501,128,30401,2,0,L|493:50,1,65,2|2,1:2|0:0,0:0:0:0:
439,7,30715,1,2,3:2:0:0:
289,86,30872,2,0,L|295:150,1,65,2|2,3:2|1:2,0:0:0:0:
399,177,31186,6,0,B|371:202|371:202|384:299,1,130,4|0,3:2|3:0,0:0:0:0:
396,370,31657,1,2,1:2:0:0:
305,308,31814,1,2,0:0:0:0:
305,308,31893,1,2,0:0:0:0:
305,308,31971,2,0,L|296:268,2,32.5,2|2|2,3:2|0:0|0:0,0:0:0:0:
226,381,32285,1,2,1:2:0:0:
221,252,32443,2,0,B|203:227|203:227|101:216,1,130,2|0,3:2|3:0,0:0:0:0:
36,255,32914,1,2,1:2:0:0:
27,141,33071,1,2,0:0:0:0:
27,141,33149,1,2,0:0:0:0:
27,141,33228,2,0,L|-5:118,2,32.5,2|2|2,3:2|0:0|3:2,0:0:0:0:
132,115,33542,1,0,1:0:0:0:
269,174,33699,6,0,B|362:162|362:162|386:129,1,130,2|0,3:2|3:0,0:0:0:0:
401,56,34170,1,2,1:2:0:0:
482,125,34327,1,2,0:0:0:0:
482,125,34406,1,2,0:0:0:0:
482,125,34484,2,0,L|519:112,2,32.5,2|2|2,3:2|0:0|0:0,0:0:0:0:
445,209,34799,1,2,1:2:0:0:
512,363,34956,2,0,B|490:333|490:333|397:321,1,130,2|0,3:2|3:0,0:0:0:0:
340,374,35427,1,2,1:2:0:0:
274,290,35584,1,2,0:0:0:0:
274,290,35662,1,2,0:0:0:0:
274,290,35741,2,0,L|275:250,2,32.5,2|2|2,3:2|0:0|3:2,0:0:0:0:
175,348,36055,1,2,1:2:0:0:
207,182,36212,6,0,B|185:211|185:211|92:223,1,130,2|0,3:2|3:0,0:0:0:0:
25,184,36683,1,2,1:2:0:0:
58,66,36840,1,2,0:0:0:0:
58,66,36919,1,2,0:0:0:0:
58,66,36997,2,0,L|44:36,2,32.5,2|2|2,3:2|0:0|0:0,0:0:0:0:
174,102,37312,1,2,1:2:0:0:
282,52,37469,6,0,L|366:42,1,65,2|0,3:3|0:0,0:0:0:0:
431,13,37783,1,2,3:3:0:0:
414,98,37940,1,0,1:0:0:0:
498,191,38097,6,0,L|414:181,1,65,2|2,0:0|0:0,0:0:0:0:
349,152,38411,1,2,3:3:0:0:
366,237,38568,1,0,1:0:0:0:
296,317,38725,6,0,P|277:288|180:263,1,130,6|0,3:2|3:0,0:0:0:0:
115,286,39196,1,8,0:0:0:0:
115,286,39511,2,0,P|109:319|93:350,1,65,0|0,3:0|0:0,0:0:0:0:
13,366,39825,1,8,0:0:0:0:
63,201,39982,6,0,B|48:117|48:117|2:90,1,130,2|2,3:2|3:2,0:0:0:0:
135,19,40453,2,0,P|165:31|183:59,1,65,10|0,0:0|0:0,0:0:0:0:
154,148,40767,2,0,P|176:124|180:91,1,65,2|0,3:2|3:2,0:0:0:0:
59,76,41081,1,0,1:0:0:0:
59,76,41160,1,0,1:0:0:0:
59,76,41238,1,8,0:3:0:0:
270,40,41395,1,4,3:2:0:0:
382,97,41710,5,2,3:2:0:0:
382,97,41867,2,0,P|349:97|320:109,1,65,2|0,0:3|3:0,0:0:0:0:
256,166,42181,5,2,0:3:0:0:
256,166,42338,2,0,P|248:198|253:230,1,65,2|2,3:2|0:3,0:0:0:0:
290,304,42652,5,0,3:0:0:0:
290,304,42809,2,0,P|318:320|351:325,1,65,2|2,0:3|3:2,0:0:0:0:
473,232,43123,5,2,0:3:0:0:
432,306,43280,2,0,P|461:276|477:237,1,81.25,2|2,3:2|0:3,0:0:0:0:
432,78,43594,2,0,P|461:107|477:146,1,81.25,2|2,3:2|0:3,0:0:0:0:
337,235,43908,1,2,3:2:0:0:
95,124,44223,5,0,3:0:0:0:
95,124,44380,2,0,L|160:113,1,65,2|2,0:3|3:2,0:0:0:0:
234,141,44694,5,2,0:3:0:0:
234,141,44851,2,0,L|262:200,1,65,0|2,3:0|0:3,0:0:0:0:
253,278,45165,5,2,3:2:0:0:
253,278,45322,2,0,L|204:321,1,65,2|2,0:3|3:2,0:0:0:0:
33,275,45636,5,2,0:3:0:0:
110,328,45793,2,0,B|83:292|83:292|40:279,1,81.25,2|2,3:2|0:3,0:0:0:0:
166,191,46107,2,0,B|122:197|122:197|89:180,1,81.25,6|0,3:2|0:0,0:0:0:0:
34,124,46422,5,4,3:2:0:0:
169,23,46736,2,0,L|202:27,3,32.5,2|0|0|0,3:1|1:0|1:0|1:0,0:0:0:0:
239,46,47050,2,0,L|272:50,3,32.5,2|0|0|0,3:1|1:0|1:0|1:0,0:0:0:0:
313,42,47364,2,0,L|346:46,3,32.5,2|0|0|0,3:1|1:0|1:0|1:0,0:0:0:0:
386,34,47678,5,2,3:1:0:0:
381,62,47757,1,0,1:0:0:0:
376,91,47835,1,0,1:0:0:0:
371,119,47914,1,0,1:0:0:0:
365,147,47992,2,0,L|369:180,3,32.5,2|0|0|0,3:1|1:0|1:0|1:0,0:0:0:0:
383,219,48306,2,0,L|379:252,3,32.5,2|0|0|0,3:1|1:0|1:0|1:0,0:0:0:0:
343,274,48621,2,0,L|347:307,3,32.5,2|0|0|0,3:1|1:0|1:0|1:0,0:0:0:0:
333,346,48935,5,0,3:0:0:0:
308,325,49013,1,0,1:0:0:0:
278,312,49092,1,0,1:0:0:0:
246,308,49170,1,0,1:0:0:0:
213,311,49249,2,0,L|170:317,3,32.5,2|0|0|0,3:1|1:0|1:0|1:0,0:0:0:0:
142,332,49563,2,0,L|99:326,3,32.5,2|0|0|0,3:1|1:0|1:0|1:0,0:0:0:0:
73,305,49877,2,0,L|30:311,3,32.5,2|0|0|0,3:1|1:0|1:0|1:0,0:0:0:0:
1,318,50191,5,2,3:2:0:0:
1,318,50505,1,2,3:2:0:0:
1,318,50819,1,2,3:2:0:0:
1,318,51134,1,2,3:2:0:0:
1,318,52077,6,0,L|9:230,1,81.25,6|0,3:2|0:0,0:0:0:0:
107,117,52391,1,10,0:0:0:0:
0,52,52548,2,0,B|33:87|33:87|149:69,1,162.5,2|2,0:2|3:2,0:0:0:0:
276,132,53019,1,10,0:0:0:0:
238,38,53176,6,0,P|220:22|232:43,1,65,6|0,3:2|0:0,0:0:0:0:
234,204,53490,2,0,P|216:220|228:199,1,65,6|8,3:2|0:0,0:0:0:0:
319,60,53804,1,2,0:0:0:0:
431,152,53961,2,0,L|516:142,1,81.25,2|2,3:2|3:0,0:0:0:0:
392,256,54275,2,0,L|307:246,1,81.25,8|2,0:0|0:3,0:0:0:0:
141,213,54590,6,0,B|213:170|213:170|212:257,1,162.5,2|10,3:2|0:0,0:0:0:0:
55,337,55061,2,0,B|-17:295|-17:295|57:252,1,162.5,2|2,0:2|3:2,0:0:0:0:
133,299,55532,1,10,0:0:0:0:
1,183,55689,6,0,P|-22:190|1:190,1,65,6|0,3:2|0:0,0:0:0:0:
106,123,56003,2,0,P|126:110|114:131,1,65,6|8,3:2|0:0,0:0:0:0:
141,213,56317,1,2,0:0:0:0:
188,63,56474,2,0,P|228:61|266:83,1,81.25,2|2,3:2|3:0,0:0:0:0:
324,148,56789,2,0,P|364:150|403:128,1,81.25,8|2,0:0|0:3,0:0:0:0:
504,74,57103,6,0,B|439:25|439:25|418:110,1,162.5,2|10,3:2|0:0,0:0:0:0:
506,210,57574,2,0,B|458:191|458:191|491:299,1,162.5,2|2,0:2|0:2,0:0:0:0:
503,382,58045,1,10,0:0:0:0:
397,377,58202,2,0,L|377:290,1,81.25,2|0,3:2|0:0,0:0:0:0:
282,231,58516,6,0,P|249:258|198:261,1,81.25,2|8,3:2|0:0,0:0:0:0:
211,263,58830,1,2,0:0:0:0:
236,60,58987,2,0,P|276:75|304:117,1,81.25,2|0,3:2|3:2,0:0:0:0:
121,94,59302,1,8,0:0:0:0:
214,168,59459,1,2,0:0:0:0:
111,185,59616,6,0,P|102:145|116:108,1,81.25,2|2,3:0|0:0,0:0:0:0:
214,168,59930,1,8,0:0:0:0:
105,208,60087,1,2,3:2:0:0:
134,295,60244,6,0,B|169:315|169:315|209:309,1,81.25,2|2,0:3|3:2,0:0:0:0:
293,368,60558,1,8,0:0:0:0:
293,368,60715,1,2,3:2:0:0:
270,249,60872,2,0,L|353:258,1,81.25,2|0,0:0|0:0,0:0:0:0:
394,329,61186,5,8,0:0:0:0:
195,344,61344,2,0,B|168:312|168:312|210:308,1,81.25,6|2,0:0|3:2,0:0:0:0:
293,368,61658,1,2,3:0:0:0:
242,230,61815,2,0,B|246:189|246:189|278:216,1,81.25,12|0,0:0|0:0,0:0:0:0:
431,248,62129,6,0,L|514:239,1,81.25,6|2,3:2|0:0,0:0:0:0:
418,143,62443,1,8,0:0:0:0:
512,60,62600,2,0,B|485:103|485:103|372:116,1,162.5,2|2,0:2|3:2,0:0:0:0:
282,48,63071,1,8,0:0:0:0:
299,180,63228,6,0,P|309:157|284:170,1,65,6|0,3:2|0:0,0:0:0:0:
219,291,63542,2,0,P|233:311|235:283,1,65,6|8,3:2|0:0,0:0:0:0:
206,205,63857,1,2,0:0:0:0:
395,334,64014,2,0,L|312:353,1,81.25,2|2,3:2|3:0,0:0:0:0:
410,200,64328,2,0,L|489:181,1,81.25,8|2,0:0|0:3,0:0:0:0:
342,258,64642,6,0,B|298:238|287:191|287:191|306:108,1,162.5,2|10,3:2|0:0,0:0:0:0:
511,98,65113,2,0,B|515:146|480:179|480:179|399:204,1,162.5,2|2,3:2|3:2,0:0:0:0:
333,40,65584,1,8,0:0:0:0:
284,164,65741,6,0,P|299:173|297:169,1,65,6|0,3:2|0:0,0:0:0:0:
346,45,66056,2,0,P|330:35|332:39,1,65,6|8,3:2|0:0,0:0:0:0:
391,109,66370,1,2,0:0:0:0:
224,45,66527,2,0,L|126:58,1,81.25,2|2,3:2|3:0,0:0:0:0:
78,146,66841,2,0,L|176:159,1,81.25,8|2,0:0|0:3,0:0:0:0:
266,187,67155,6,0,B|328:177|328:177|369:242,1,130,2|10,3:2|0:0,0:0:0:0:
160,355,67626,2,0,B|120:305|120:305|156:237,1,130,2|2,0:3|3:2,0:0:0:0:
171,137,68097,1,8,0:0:0:0:
226,258,68255,1,2,3:2:0:0:
226,258,68569,5,2,0:3:0:0:
250,331,68726,2,0,P|287:339|320:357,1,65,8|2,0:0|0:3,0:0:0:0:
390,380,69040,2,0,P|427:372|460:354,1,65,0|2,3:2|3:0,0:0:0:0:
507,296,69354,1,8,0:0:0:0:
507,296,69668,6,0,P|480:314|491:284,1,81.25,2|0,3:2|0:0,0:0:0:0:
507,88,69982,2,0,P|480:70|491:100,1,81.25,14|2,0:0|0:0,0:0:0:0:
371,302,70296,6,0,P|350:301|343:247,1,81.25,2|0,3:2|3:2,0:0:0:0:
371,82,70611,2,0,P|350:83|343:137,1,81.25,14|2,0:0|3:2,0:0:0:0:
245,268,70925,6,0,P|209:264|176:220,1,81.25,2|6,0:0|0:3,0:0:0:0:
236,101,71239,5,12,0:0:0:0:
155,151,71396,1,0,3:2:0:0:
96,63,71553,2,0,P|57:65|20:98,1,81.25,8|4,0:3|0:3,0:0:0:0:
76,206,71867,1,6,1:0:0:0:
488,348,72181,5,6,3:2:0:0:
488,348,72495,2,0,P|468:314|434:292,1,81.25,2|2,1:2|3:0,0:0:0:0:
363,226,72809,2,0,P|323:226|288:245,1,81.25,2|2,1:2|3:0,0:0:0:0:
119,292,73124,6,0,P|160:293|195:274,1,81.25,2|2,1:2|3:0,0:0:0:0:
288,245,73438,2,0,P|309:211|310:170,1,81.25,2|2,1:2|0:3,0:0:0:0:
353,0,73752,6,0,P|333:35|332:76,1,81.25,2|2,1:2|3:0,0:0:0:0:
310,170,74066,2,0,P|331:205|365:227,2,81.25,2|2|2,1:2|3:0|1:2,0:0:0:0:
231,114,74537,1,2,3:0:0:0:
145,158,74694,1,2,1:2:0:0:
145,158,75008,6,0,P|135:200|106:236,1,81.25,2|2,1:2|3:0,0:0:0:0:
93,375,75323,2,0,P|83:333|54:297,1,81.25,2|2,1:2|3:0,0:0:0:0:
111,87,75637,6,0,P|137:122|146:168,1,81.25,2|2,1:2|3:0,0:0:0:0:
245,268,75951,2,0,P|207:249|161:248,1,81.25,2|2,1:2|0:3,0:0:0:0:
35,68,76265,6,0,P|79:71|119:93,1,81.25,2|2,1:2|3:0,0:0:0:0:
260,82,76579,2,0,P|221:100|190:134,1,81.25,2|2,1:2|3:0,0:0:0:0:
245,268,76893,2,0,L|239:314,3,40.625,2|2|2|2,1:2|1:2|1:2|1:2,0:0:0:0:
233,347,77207,5,4,0:1:0:0:
323,228,78462,1,4,3:2:0:0:
245,268,79065,1,4,3:2:0:0:
175,212,79708,1,6,1:3:0:0:
256,192,79786,12,0,83320,0:0:0:0:
385,230,84105,5,2,0:0:0:0:
395,234,84184,1,2,0:0:0:0:
395,243,84262,1,2,0:0:0:0:
385,246,84341,1,2,0:0:0:0:
380,238,84420,1,2,0:0:0:0:
462,283,84734,6,0,B|360:269|360:269|314:319,1,162.5,6|0,3:2|1:0,0:0:0:0:
252,257,85205,1,2,0:0:0:0:
252,257,85283,1,2,0:0:0:0:
252,257,85362,1,2,3:2:0:0:
305,338,85519,2,0,L|217:347,1,81.25,2|0,0:0|1:0,0:0:0:0:
130,372,85833,6,0,B|90:354|71:313|71:313|85:228,1,162.5,2|2,0:0|0:0,0:0:0:0:
111,143,86304,2,0,P|71:145|28:126,1,81.25,0|2,1:0|0:0,0:0:0:0:
51,33,86618,2,0,P|91:31|134:50,2,81.25,2|2|0,3:2|0:0|1:0,0:0:0:0:
202,126,87090,6,0,B|293:116|293:116|326:91|331:45,1,162.5,2|2,0:0|0:0,0:0:0:0:
413,127,87561,1,2,1:2:0:0:
413,127,87639,1,2,0:0:0:0:
413,127,87718,1,2,0:0:0:0:
357,47,87875,2,0,L|450:35,1,81.25,2|2,3:2|0:0,0:0:0:0:
506,104,88189,2,0,P|502:155|479:197,1,81.25,0|2,1:0|0:0,0:0:0:0:
412,241,88503,1,0,3:0:0:0:
335,180,88660,5,14,0:0:0:0:
412,241,88817,2,0,P|416:292|439:334,1,81.25,14|0,0:0|3:0,0:0:0:0:
497,262,89132,5,12,1:2:0:0:
327,299,89289,1,12,1:2:0:0:
497,262,89446,1,12,1:2:0:0:
327,299,89603,1,14,0:0:0:0:
