osu file format v14

[General]
AudioFilename: audio.mp3
AudioLeadIn: 0
PreviewTime: 52077
Countdown: 0
SampleSet: Soft
StackLeniency: 0.4
Mode: 0
LetterboxInBreaks: 0
WidescreenStoryboard: 0

[Editor]
Bookmarks: 66141
DistanceSpacing: 1.3
BeatDivisor: 4
GridSize: 4
TimelineZoom: 2.7

[Metadata]
Title:one-Me two-Hearts (TV Size)
TitleUnicode:ワンミーツハー (TV Size)
Artist:hitorie
ArtistUnicode:ヒトリエ
Creator:Flake
Version:Insane
Source:ディバインゲート
Tags:wowaka divine gate anime japanese jp op opening GungHo Online j-rock jrock rock edit
BeatmapID:2476344
BeatmapSetID:1179039

[Difficulty]
HPDrainRate:5
CircleSize:3.8
OverallDifficulty:8.4
ApproachRate:9
SliderMultiplier:1.3
SliderTickRate:1

[Events]
//Background and Video events
0,0,"wp.jpg",0,0
Video,357,"d.mp4"
//Break Periods
2,11427,15024
//Storyboard Layer 0 (Background)
//Storyboard Layer 1 (Fail)
//Storyboard Layer 2 (Pass)
//Storyboard Layer 3 (Foreground)
//Storyboard Layer 4 (Overlay)
//Storyboard Sound Samples

[TimingPoints]
1199,317.460317460317,4,2,1,50,1,0
3698,315.78947368421,4,2,1,50,1,0
8750,310.880829015544,4,2,1,50,1,0
10429,314.13612565445,4,2,1,50,1,0
11227,314.13612565445,4,2,1,50,1,0
11227,-100,4,2,1,70,0,0
15624,-100,4,2,1,70,0,0
16265,314.13612565445,4,2,1,50,1,0
16265,-80,4,2,1,70,0,0
20584,-80,4,2,1,5,0,0
20662,-80,4,2,1,70,0,0
21134,-100,4,2,1,50,0,0
31186,-100,4,2,1,60,0,0
37469,-100,4,2,1,60,0,0
37704,-100,4,2,1,5,0,0
37782,-100,4,2,1,60,0,0
38725,-100,4,2,1,60,0,0
41710,-100,4,2,1,40,0,0
43280,-80,4,2,1,70,0,0
43908,-100,4,2,1,70,0,0
44223,-100,4,2,1,40,0,0
45793,-80,4,2,1,50,0,0
46107,-80,4,2,1,70,0,0
46422,-100,4,2,1,70,0,0
46500,-100,4,2,1,40,0,0
46736,-100,4,2,1,45,0,0
47050,-100,4,2,1,45,0,0
47364,-100,4,2,1,50,0,0
47678,-100,4,2,1,55,0,0
47992,-100,4,2,1,60,0,0
48306,-100,4,2,1,65,0,0
48935,-100,4,2,1,45,0,0
49249,-100,4,2,1,50,0,0
49563,-100,4,2,1,55,0,0
49877,-100,4,2,1,60,0,0
50191,-100,4,2,1,65,0,0
52077,314.13612565445,4,2,1,70,1,1
52077,-80,4,2,1,70,0,1
54590,-80,4,2,1,70,0,1
54825,-80,4,2,1,5,0,1
54904,-80,4,2,1,70,0,1
57103,-80,4,2,1,70,0,1
57338,-80,4,2,1,5,0,1
57417,-80,4,2,1,70,0,1
58987,-80,4,2,1,70,0,1
59222,-80,4,2,1,5,0,1
59301,-80,4,2,1,70,0,1
64642,-80,4,2,1,70,0,1
64877,-80,4,2,1,5,0,1
64956,-80,4,2,1,70,0,1
67155,-100,4,2,1,70,0,1
67391,-100,4,2,1,5,0,1
67469,-100,4,2,1,70,0,1
69354,-100,4,2,1,70,0,1
69590,-100,4,2,1,5,0,1
69668,-80,4,2,1,70,0,1
72181,-80,4,2,1,80,0,1
77207,-100,4,2,1,70,0,0
78462,301.507537688442,4,2,1,70,1,0
79708,314.13612565445,4,2,1,70,1,0
79708,-100,4,2,1,70,0,0
84105,-100,4,2,1,70,0,0
84734,-80,4,2,1,70,0,0
88503,-80,4,2,1,70,0,0
89053,-80,4,2,1,5,0,0
89132,-80,4,2,1,70,0,0
89210,-80,4,2,1,5,0,0
89289,-80,4,2,1,70,0,0
89367,-80,4,2,1,5,0,0
89446,-80,4,2,1,70,0,0
89524,-80,4,2,1,5,0,0
89603,-1000,4,2,1,70,0,0

[Colours]
Combo1 : 198,205,173
Combo2 : 213,179,134
Combo3 : 213,205,125
Combo4 : 176,132,133

[HitObjects]
44,363,1199,54,0,L|51:296,1,65,2|2,0:0|0:0,0:0:0:0:
60,214,1516,1,2,0:0:0:0:
60,214,1675,1,2,0:0:0:0:
213,284,1992,6,0,P|234:260|263:245,1,65,2|2,0:0|0:0,0:0:0:0:
393,336,2310,2,0,P|371:363|330:298,2,130,2|2|2,0:0|0:0|0:0,0:0:0:0:
379,252,3103,1,2,0:0:0:0:
126,26,3698,6,0,P|94:39|20:114,1,130,2|2,0:0|0:0,0:0:0:0:
202,139,4171,2,0,P|188:128|137:115,1,65,2|0,0:0|0:0,0:0:0:0:
79,176,4487,1,2,0:0:0:0:
79,176,4645,1,2,0:0:0:0:
181,275,4803,2,0,P|159:248|118:313,2,130,2|2|2,0:0|0:0|0:0,0:0:0:0:
167,359,5592,1,2,0:0:0:0:
409,381,6224,6,0,L|428:237,1,130,2|2,0:0|0:0,0:0:0:0:
493,178,6697,2,0,P|432:164|371:101,1,130,2|2,0:0|0:0,0:0:0:0:
295,48,7171,1,2,0:0:0:0:
376,36,7329,1,2,0:0:0:0:
376,36,7645,2,0,L|445:27,1,65,2|0,0:0|0:0,0:0:0:0:
299,134,7961,1,2,0:0:0:0:
382,120,8119,2,0,P|445:134|493:177,1,130,2|2,0:0|0:0,0:0:0:0:
344,293,8592,5,2,0:0:0:0:
344,293,8750,2,0,L|333:227,1,65,2|2,0:0|0:0,0:0:0:0:
200,132,9216,5,2,0:0:0:0:
200,132,9371,2,0,P|161:139|136:158,1,65,2|2,0:0|0:0,0:0:0:0:
3,251,9838,5,2,0:0:0:0:
85,233,9993,1,2,0:0:0:0:
100,315,10148,1,2,0:0:0:0:
100,315,10429,2,0,P|69:328|45:353,1,65,2|0,0:0|0:0,0:0:0:0:
230,358,10743,1,2,0:0:0:0:
219,274,10900,2,0,L|210:205,1,65,2|0,0:0|0:0,0:0:0:0:
480,341,11227,5,6,3:2:0:0:
480,341,15624,5,2,0:0:0:0:
455,306,15703,1,2,0:0:0:0:
420,281,15781,1,2,0:0:0:0:
379,271,15860,1,2,0:0:0:0:
336,271,15939,1,2,0:0:0:0:
154,329,16265,6,0,P|108:327|90:241,1,121.875,6|0,0:0|0:0,0:0:0:0:
128,200,16579,2,0,P|151:197|202:163,1,81.25,0|2,1:0|0:0,0:0:0:0:
221,167,16814,1,2,0:0:0:0:
221,167,16893,2,0,P|229:145|225:84,1,81.25,2|2,3:2|0:0,0:0:0:0:
165,3,17207,1,0,1:0:0:0:
328,20,17364,6,0,P|376:18|444:105,1,162.5,2|2,0:0|0:0,0:0:0:0:
316,332,17835,2,0,P|327:288|358:255,1,81.25,0|2,1:0|0:0,0:0:0:0:
432,243,18149,2,0,L|518:230,2,81.25,2|2|0,3:2|0:0|1:0,0:0:0:0:
229,369,18621,6,0,P|181:371|113:284,1,162.5,2|2,0:0|0:0,0:0:0:0:
240,123,19092,1,2,1:2:0:0:
240,149,19170,1,2,0:0:0:0:
221,167,19249,1,2,0:0:0:0:
138,56,19406,2,0,P|96:34|59:36,1,81.25,2|2,3:2|0:0,0:0:0:0:
0,195,19720,2,0,L|83:186,1,81.25,0|2,1:0|0:0,0:0:0:0:
221,167,20034,1,0,3:0:0:0:
113,289,20191,5,0,1:0:0:0:
221,167,20348,2,0,P|257:170|323:237,1,121.875,0|0,1:0|0:0,0:0:0:0:
316,331,20662,5,0,1:0:0:0:
316,322,20741,1,0,1:0:0:0:
318,314,20819,2,0,B|336:301|336:301|364:302,1,40.625,8|8,0:3|0:3,0:0:0:0:
428,263,20977,2,0,B|447:275|447:275|461:296,1,40.625,4|4,0:3|0:3,0:0:0:0:
497,358,21134,5,6,3:2:0:0:
501,109,21448,1,0,3:0:0:0:
501,109,21605,2,0,P|465:114|435:131,1,65,2|0,1:2|0:0,0:0:0:0:
324,201,21919,1,2,3:2:0:0:
335,124,22076,2,0,L|346:52,1,65,2|2,3:2|1:2,0:0:0:0:
276,9,22390,5,2,3:2:0:0:
43,93,22704,1,0,3:0:0:0:
43,93,22861,2,0,P|71:110|95:145,1,65,2|0,1:2|0:0,0:0:0:0:
65,212,23175,1,2,3:2:0:0:
191,281,23333,2,0,P|181:312|154:345,1,65,2|2,3:2|1:2,0:0:0:0:
81,364,23647,6,0,L|12:373,1,65,2|2,3:2|0:0,0:0:0:0:
147,213,23961,1,0,3:0:0:0:
260,229,24118,2,0,L|329:238,1,65,2|2,1:2|0:0,0:0:0:0:
504,333,24432,1,2,3:2:0:0:
425,365,24589,2,0,P|398:338|388:308,1,65,2|2,3:2|1:2,0:0:0:0:
438,244,24903,5,2,3:2:0:0:
365,47,25217,1,2,3:2:0:0:
365,47,25374,2,0,P|332:54|302:77,1,65,2|2,1:2|0:0,0:0:0:0:
283,229,25689,1,2,3:2:0:0:
205,214,25846,2,0,L|140:205,1,65,2|2,3:2|1:2,0:0:0:0:
78,262,26160,5,2,3:2:0:0:
23,74,26474,1,0,3:0:0:0:
23,74,26631,2,0,L|87:65,1,65,2|2,1:2|0:0,0:0:0:0:
277,41,26945,1,2,3:2:0:0:
292,123,27102,2,0,P|323:141|356:146,1,65,0|2,0:0|1:2,0:0:0:0:
434,132,27416,5,2,3:2:0:0:
404,318,27730,1,2,3:2:0:0:
404,318,27888,2,0,P|372:324|344:341,1,65,2|2,1:2|0:0,0:0:0:0:
177,270,28202,1,2,3:2:0:0:
239,220,28359,2,0,L|302:208,1,65,0|2,3:0|1:2,0:0:0:0:
384,222,28673,5,2,3:2:0:0:
113,362,28987,1,0,3:0:0:0:
113,362,29144,2,0,P|101:322|85:297,1,65,2|0,1:2|0:0,0:0:0:0:
33,124,29458,1,2,3:2:0:0:
13,270,29615,2,0,L|22:199,1,65,2|2,0:2|1:2,0:0:0:0:
9,33,29929,6,0,P|12:66|90:66,1,130,2|0,3:2|3:0,0:0:0:0:
167,13,30401,2,0,L|176:78,1,65,2|2,1:2|0:0,0:0:0:0:
273,171,30715,1,2,3:2:0:0:
149,204,30872,2,0,P|166:172|189:156,1,65,2|2,3:2|1:2,0:0:0:0:
333,237,31186,6,0,L|316:365,1,130,4|0,3:2|3:0,0:0:0:0:
477,328,31657,1,2,1:2:0:0:
437,253,31814,1,2,0:0:0:0:
440,243,31893,1,2,0:0:0:0:
442,233,31971,2,0,L|479:224,2,32.5,2|2|2,3:2|0:0|0:0,0:0:0:0:
375,164,32285,1,2,1:2:0:0:
495,16,32443,6,0,P|474:43|380:79,1,130,2|0,3:2|3:0,0:0:0:0:
311,45,32914,1,2,1:2:0:0:
238,72,33071,1,2,0:0:0:0:
228,68,33149,1,2,0:0:0:0:
218,64,33228,2,0,L|213:29,2,32.5,2|2|2,3:2|0:0|3:2,0:0:0:0:
132,101,33542,1,0,1:0:0:0:
0,167,33699,6,0,P|34:164|122:214,1,130,2|0,3:2|3:0,0:0:0:0:
111,285,34170,1,2,1:2:0:0:
188,343,34327,1,2,0:0:0:0:
196,338,34406,1,2,0:0:0:0:
203,332,34484,2,0,L|234:340,2,32.5,2|2|2,3:2|0:0|0:0,0:0:0:0:
277,267,34799,1,2,1:2:0:0:
351,351,34956,6,0,P|400:350|456:282,1,130,2|0,3:2|3:0,0:0:0:0:
470,210,35427,1,2,1:2:0:0:
410,158,35584,1,2,0:0:0:0:
408,148,35662,1,2,0:0:0:0:
406,138,35741,2,0,L|413:102,2,32.5,2|2|2,3:2|0:0|3:2,0:0:0:0:
330,101,36055,1,2,1:2:0:0:
236,14,36212,6,0,L|212:147,1,130,2|0,3:2|3:0,0:0:0:0:
243,215,36683,1,2,1:2:0:0:
166,249,36840,1,2,0:0:0:0:
161,257,36919,1,2,0:0:0:0:
157,266,36997,2,0,L|165:300,2,32.5,2|2|2,3:2|0:0|0:0,0:0:0:0:
72,294,37312,1,2,1:2:0:0:
63,148,37469,6,0,B|45:84|45:84|15:68,1,97.5,2|0,3:3|0:0,0:0:0:0:
6,67,37783,2,0,L|40:57,1,32.5,2|0,3:3|0:0,0:0:0:0:
111,35,37940,1,0,1:0:0:0:
168,162,38097,2,0,P|217:161|264:85,1,130,2|2,0:0|3:3,0:0:0:0:
410,33,38568,1,0,1:0:0:0:
335,54,38725,6,0,P|384:55|431:131,1,130,6|0,3:2|3:0,0:0:0:0:
497,175,39196,2,0,L|485:244,1,65,8|0,0:0|0:0,0:0:0:0:
455,362,39511,1,0,3:0:0:0:
497,175,39825,5,8,0:0:0:0:
409,284,39982,2,0,P|362:241|295:227,1,130,2|2,3:2|3:2,0:0:0:0:
234,181,40453,2,0,P|203:187|177:211,1,65,10|0,0:0|0:0,0:0:0:0:
157,350,40767,2,0,L|137:279,1,65,2|0,3:2|3:2,0:0:0:0:
67,258,41081,1,0,1:0:0:0:
84,223,41160,1,0,1:0:0:0:
78,184,41238,1,8,0:3:0:0:
79,60,41395,1,4,3:2:0:0:
79,60,41710,5,2,3:2:0:0:
141,107,41867,2,0,P|176:96|204:72,1,65,2|0,0:3|3:0,0:0:0:0:
198,78,42181,5,2,0:3:0:0:
274,111,42338,2,0,P|281:146|275:183,1,65,2|2,3:2|0:3,0:0:0:0:
277,174,42652,5,0,3:0:0:0:
263,257,42809,2,0,P|290:281|324:294,1,65,2|2,0:3|3:2,0:0:0:0:
316,292,43123,1,2,0:3:0:0:
512,192,43280,6,0,L|325:209,2,162.5,2|2|2,3:2|3:2|3:2,0:0:0:0:
508,28,44223,5,0,3:0:0:0:
457,95,44380,2,0,P|426:84|402:63,1,65,2|2,0:3|3:2,0:0:0:0:
403,63,44694,5,2,0:3:0:0:
324,65,44851,2,0,P|311:99|313:130,1,65,0|2,3:0|0:3,0:0:0:0:
313,127,45165,5,2,3:2:0:0:
350,206,45322,2,0,P|323:231|294:242,1,65,2|2,0:3|3:2,0:0:0:0:
297,241,45636,1,2,0:3:0:0:
202,211,45793,5,2,3:2:0:0:
0,192,46107,2,0,L|130:203,1,121.875,6|0,3:2|0:0,0:0:0:0:
164,138,46422,6,0,L|155:98,3,32.5,4|0|0|0,3:2|1:0|1:0|1:0,0:0:0:0:
242,22,46736,1,2,3:1:0:0:
241,35,46814,1,0,1:0:0:0:
240,47,46893,1,0,1:0:0:0:
239,60,46971,1,0,1:0:0:0:
239,72,47050,6,0,L|269:44,3,32.5,2|0|0|0,3:1|1:0|1:0|1:0,0:0:0:0:
377,80,47364,1,2,3:1:0:0:
366,86,47443,1,0,1:0:0:0:
355,91,47521,1,0,1:0:0:0:
343,97,47600,1,0,1:0:0:0:
333,103,47678,6,0,L|372:115,3,32.5,2|0|0|0,3:1|1:0|1:0|1:0,0:0:0:0:
394,227,47992,1,2,3:1:0:0:
384,220,48071,1,0,1:0:0:0:
374,213,48149,1,0,1:0:0:0:
363,206,48228,1,0,1:0:0:0:
352,200,48306,6,0,L|360:240,3,32.5,2|0|0|0,3:1|1:0|1:0|1:0,0:0:0:0:
277,264,48621,2,0,L|246:290,3,32.5,2|0|0|0,3:1|1:0|1:0|1:0,0:0:0:0:
191,212,48935,5,0,3:0:0:0:
188,222,49013,1,0,1:0:0:0:
184,231,49092,2,0,L|146:218,1,32.5,0|0,1:0|1:0,0:0:0:0:
245,303,49249,5,2,3:1:0:0:
248,293,49327,1,0,1:0:0:0:
252,284,49406,2,0,L|290:297,1,32.5,0|0,1:0|1:0,0:0:0:0:
125,300,49563,5,2,3:1:0:0:
134,302,49641,1,0,1:0:0:0:
145,306,49720,2,0,L|155:336,1,32.5,0|0,1:0|1:0,0:0:0:0:
342,221,49877,5,2,3:1:0:0:
333,219,49956,1,0,1:0:0:0:
322,215,50034,2,0,L|312:185,1,32.5,0|0,1:0|1:0,0:0:0:0:
362,362,50191,5,2,3:2:0:0:
362,362,50505,1,2,3:2:0:0:
362,362,50819,1,2,3:2:0:0:
362,362,51134,1,2,3:2:0:0:
362,362,52077,6,0,P|399:353|433:321,1,81.25,6|2,3:2|0:2,0:0:0:0:
418,94,52391,1,10,0:0:0:0:
459,242,52548,2,0,L|471:157,2,81.25,2|0|2,0:2|3:0|3:2,0:0:0:0:
512,300,53019,1,10,0:0:0:0:
418,94,53176,6,0,P|382:89|394:121,1,81.25,6|0,3:2|0:0,0:0:0:0:
512,300,53490,2,0,P|534:271|500:265,1,81.25,6|8,3:2|0:0,0:0:0:0:
311,286,53804,1,2,0:0:0:0:
322,281,53883,1,2,0:0:0:0:
333,277,53961,2,0,L|321:186,1,81.25,2|2,3:2|3:0,0:0:0:0:
207,55,54275,2,0,L|195:145,1,81.25,8|2,0:0|0:3,0:0:0:0:
10,227,54590,6,0,P|19:179|91:155,1,121.875,2|0,3:2|0:0,0:0:0:0:
91,155,54904,1,10,0:0:0:0:
122,320,55061,2,0,P|150:346|197:350,1,81.25,2|0,0:2|3:0,0:0:0:0:
250,286,55375,1,2,3:2:0:0:
113,237,55532,1,10,0:0:0:0:
275,280,55689,6,0,P|296:287|264:290,1,81.25,6|0,3:2|0:0,0:0:0:0:
175,98,56003,2,0,P|170:75|189:101,1,81.25,6|8,3:2|0:0,0:0:0:0:
10,227,56317,1,2,0:0:0:0:
16,216,56396,1,2,0:0:0:0:
23,206,56474,2,0,L|9:125,1,81.25,2|2,3:2|3:0,0:0:0:0:
267,147,56789,2,0,P|231:173|189:179,1,81.25,8|2,0:0|0:3,0:0:0:0:
357,26,57103,6,0,P|419:30|464:74,1,121.875,2|0,3:2|0:0,0:0:0:0:
464,80,57417,1,10,0:0:0:0:
329,220,57574,2,0,L|340:305,1,81.25,2|0,0:2|3:2,0:0:0:0:
412,170,57888,1,2,0:2:0:0:
267,147,58045,1,10,0:0:0:0:
175,293,58202,2,0,P|135:284|103:260,1,81.25,2|0,3:2|0:0,0:0:0:0:
156,10,58516,6,0,L|166:91,1,81.25,2|8,3:2|0:0,0:0:0:0:
177,183,58830,1,2,0:0:0:0:
25,18,58987,2,0,B|68:39|68:39|83:118,1,121.875,2|0,3:2|0:0,0:0:0:0:
83,127,59302,1,8,0:0:0:0:
24,214,59459,1,2,0:0:0:0:
177,183,59616,5,2,3:0:0:0:
237,344,59773,2,0,L|322:354,1,81.25,2|8,0:0|0:0,0:0:0:0:
399,363,60087,1,2,3:2:0:0:
499,197,60244,5,2,0:3:0:0:
351,131,60401,2,0,L|341:46,1,81.25,2|8,3:2|0:0,0:0:0:0:
478,97,60715,1,2,3:2:0:0:
400,219,60872,2,0,P|334:230|252:166,1,162.5,2|8,0:0|0:0,0:0:0:0:
134,18,61344,5,6,0:0:0:0:
145,14,61422,1,2,0:0:0:0:
156,10,61501,1,2,3:2:0:0:
129,130,61658,1,2,3:0:0:0:
0,26,61815,2,0,L|17:108,1,81.25,12|0,0:0|0:0,0:0:0:0:
16,258,62129,6,0,P|47:218|85:207,1,81.25,6|2,3:2|0:0,0:0:0:0:
258,296,62443,1,8,0:0:0:0:
155,205,62600,2,0,L|237:222,2,81.25,2|0|2,0:2|3:2|3:2,0:0:0:0:
129,130,63071,1,8,0:0:0:0:
271,304,63228,6,0,P|288:316|265:306,1,81.25,6|0,3:2|0:0,0:0:0:0:
115,132,63542,2,0,P|94:141|115:125,1,81.25,6|8,3:2|0:0,0:0:0:0:
341,82,63857,1,2,0:0:0:0:
330,88,63935,1,2,0:0:0:0:
320,94,64014,2,0,L|307:7,1,81.25,2|2,3:2|3:0,0:0:0:0:
510,88,64328,2,0,L|497:175,1,81.25,8|2,0:0|0:3,0:0:0:0:
486,288,64642,6,0,P|428:312|414:250,1,121.875,2|0,3:2|0:0,0:0:0:0:
409,257,64956,1,10,0:0:0:0:
398,129,65113,2,0,P|384:170|353:195,1,81.25,2|0,3:2|0:0,0:0:0:0:
175,142,65427,1,2,3:2:0:0:
280,173,65584,1,8,0:0:0:0:
165,127,65741,6,0,P|153:115|162:138,1,81.25,6|0,3:2|0:0,0:0:0:0:
350,60,66056,2,0,P|365:55|340:52,1,81.25,6|8,3:2|0:0,0:0:0:0:
315,253,66370,1,2,0:0:0:0:
309,263,66448,1,2,0:0:0:0:
303,274,66527,2,0,L|222:288,1,81.25,2|2,3:2|3:0,0:0:0:0:
71,148,66841,2,0,L|152:134,1,81.25,8|2,0:0|0:3,0:0:0:0:
150,342,67155,6,0,P|112:311|132:271,1,97.5,2|0,3:2|0:0,0:0:0:0:
141,266,67469,1,10,0:0:0:0:
232,149,67626,2,0,P|261:100|208:78,1,130,2|2,0:3|3:2,0:0:0:0:
71,148,68097,1,8,0:0:0:0:
151,134,68255,1,2,3:2:0:0:
151,134,68569,5,2,0:3:0:0:
71,148,68726,2,0,P|40:124|24:97,1,65,8|2,0:0|0:3,0:0:0:0:
175,209,69040,2,0,P|169:247|154:275,1,65,0|2,3:2|3:0,0:0:0:0:
175,88,69354,2,0,P|199:52|242:72,1,97.5,8|0,0:0|0:0,0:0:0:0:
255,80,69668,6,0,P|270:94|256:73,1,81.25,2|0,3:2|0:0,0:0:0:0:
485,39,69982,2,0,P|470:53|484:32,1,81.25,14|2,0:0|0:0,0:0:0:0:
258,213,70296,2,0,P|284:176|319:196,1,81.25,2|0,3:2|3:2,0:0:0:0:
512,168,70611,2,0,P|474:142|448:172,1,81.25,14|2,0:0|3:2,0:0:0:0:
263,376,70925,6,0,P|275:335|302:303,1,81.25,2|6,0:0|0:3,0:0:0:0:
495,285,71239,1,12,0:0:0:0:
374,273,71396,1,0,3:2:0:0:
422,380,71553,1,8,0:3:0:0:
422,380,71710,1,4,0:3:0:0:
451,160,71867,2,0,B|423:128|423:128|380:124,1,81.25,6|0,1:0|0:0,0:0:0:0:
258,213,72181,6,0,L|177:203,1,81.25,6|0,3:2|0:0,0:0:0:0:
54,240,72495,1,2,1:2:0:0:
10,77,72652,1,2,3:0:0:0:
166,186,72809,1,2,1:2:0:0:
224,56,72967,1,2,3:0:0:0:
166,199,73124,2,0,L|180:286,1,81.25,2|2,1:2|3:0,0:0:0:0:
298,370,73438,6,0,P|337:362|377:337,1,81.25,2|2,1:2|0:3,0:0:0:0:
320,203,73752,1,2,1:2:0:0:
497,278,73909,1,2,3:0:0:0:
338,187,74066,1,2,1:2:0:0:
491,122,74223,1,2,3:0:0:0:
373,92,74380,2,0,L|361:3,1,81.25,2|2,1:2|3:0,0:0:0:0:
241,139,74694,6,0,P|202:131|162:106,1,81.25,2|2,1:2|0:3,0:0:0:0:
18,37,75008,1,2,1:2:0:0:
40,211,75166,1,2,3:0:0:0:
178,107,75323,1,2,1:2:0:0:
132,271,75480,1,2,3:0:0:0:
35,199,75637,2,0,B|44:155|44:155|70:131,1,81.25,2|2,1:2|3:0,0:0:0:0:
195,325,75951,6,0,L|283:317,1,81.25,2|2,1:2|0:3,0:0:0:0:
464,363,76265,1,2,1:2:0:0:
296,313,76422,1,2,3:0:0:0:
501,215,76579,1,2,1:2:0:0:
355,239,76736,1,2,3:0:0:0:
512,131,76893,5,2,1:2:0:0:
508,113,76972,1,2,1:2:0:0:
502,97,77050,1,2,1:2:0:0:
492,82,77129,1,2,1:2:0:0:
479,70,77207,5,4,0:1:0:0:
294,246,78462,1,4,3:2:0:0:
222,71,79065,1,4,3:2:0:0:
71,181,79708,1,6,1:3:0:0:
256,192,79786,12,0,83320,0:0:0:0:
71,181,84105,5,2,0:0:0:0:
71,224,84184,1,2,0:0:0:0:
61,265,84262,1,2,0:0:0:0:
36,300,84341,1,2,0:0:0:0:
1,325,84420,1,2,0:0:0:0:
187,248,84734,6,0,P|244:245|293:311,1,121.875,6|0,3:2|0:0,0:0:0:0:
341,355,85048,2,0,P|385:348|429:308,1,81.25,0|2,1:0|0:0,0:0:0:0:
437,325,85283,1,2,0:0:0:0:
437,325,85362,2,0,P|453:283|440:225,1,81.25,2|2,3:2|0:0,0:0:0:0:
328,181,85676,1,0,1:0:0:0:
463,23,85833,6,0,P|491:54|410:114,1,162.5,2|2,0:0|0:0,0:0:0:0:
168,10,86304,2,0,P|212:31|227:62,1,81.25,0|2,1:0|0:0,0:0:0:0:
214,151,86618,2,0,L|198:238,2,81.25,2|2|0,3:2|0:0|1:0,0:0:0:0:
81,45,87090,6,0,P|38:56|0:160,1,162.5,2|2,0:0|0:0,0:0:0:0:
175,241,87561,1,2,1:2:0:0:
193,249,87639,1,2,0:0:0:0:
204,266,87718,1,2,0:0:0:0:
18,345,87875,2,0,P|15:304|39:263,1,81.25,2|2,3:2|0:0,0:0:0:0:
202,372,88189,2,0,L|283:354,1,81.25,0|2,1:0|0:0,0:0:0:0:
427,318,88503,1,0,3:0:0:0:
299,244,88660,5,14,0:0:0:0:
427,318,88817,2,0,P|465:303|489:206,1,121.875,14|0,0:0|0:0,0:0:0:0:
486,157,89132,2,0,L|478:110,1,40.625,12|0,1:2|0:0,0:0:0:0:
366,10,89289,2,0,L|358:57,1,40.625,12|0,1:2|0:0,0:0:0:0:
299,244,89446,2,0,L|291:197,1,40.625,12|0,1:2|0:0,0:0:0:0:
163,79,89603,5,14,0:0:0:0:
