osu file format v14

[General]
AudioFilename: audio.mp3
AudioLeadIn: 0
PreviewTime: 52077
Countdown: 0
SampleSet: Soft
StackLeniency: 0.4
Mode: 0
LetterboxInBreaks: 0
WidescreenStoryboard: 0

[Editor]
DistanceSpacing: 1.4
BeatDivisor: 4
GridSize: 16
TimelineZoom: 2.7

[Metadata]
Title:one-Me two-Hearts (TV Size)
TitleUnicode:ワンミーツハー (TV Size)
Artist:hitorie
ArtistUnicode:ヒトリエ
Creator:Flake
Version:Hard
Source:ディバインゲート
Tags:wowaka divine gate anime japanese jp op opening GungHo Online j-rock jrock rock edit
BeatmapID:2463213
BeatmapSetID:1179039

[Difficulty]
HPDrainRate:4.4
CircleSize:4
OverallDifficulty:6
ApproachRate:7.5
SliderMultiplier:1.2
SliderTickRate:1

[Events]
//Background and Video events
0,0,"wp.jpg",0,0
Video,357,"d.mp4"
//Break Periods
2,11427,14799
//Storyboard Layer 0 (Background)
//Storyboard Layer 1 (Fail)
//Storyboard Layer 2 (Pass)
//Storyboard Layer 3 (Foreground)
//Storyboard Layer 4 (Overlay)
//Storyboard Sound Samples

[TimingPoints]
1199,317.460317460317,4,2,1,50,1,0
3698,315.78947368421,4,2,1,50,1,0
8750,310.880829015544,4,2,1,50,1,0
10429,314.13612565445,4,2,1,50,1,0
11227,314.13612565445,4,2,1,50,1,0
11227,-100,4,2,1,70,0,0
16265,314.13612565445,4,2,1,50,1,0
16265,-100,4,2,1,70,0,0
21134,-100,4,2,1,60,0,0
31186,-100,4,2,1,60,0,0
37469,-100,4,2,1,60,0,0
37704,-100,4,2,1,5,0,0
37783,-100,4,2,1,60,0,0
38725,-100,4,2,1,60,0,0
41710,-100,4,2,1,40,0,0
43280,-100,4,2,1,70,0,0
43908,-100,4,2,1,70,0,0
44223,-100,4,2,1,40,0,0
45793,-100,4,2,1,50,0,0
46107,-100,4,2,1,70,0,0
46422,-100,4,2,1,70,0,0
46736,-100,4,2,1,20,0,0
47050,-100,4,2,1,25,0,0
47364,-100,4,2,1,30,0,0
47678,-100,4,2,1,35,0,0
47992,-100,4,2,1,40,0,0
48306,-100,4,2,1,45,0,0
48935,-100,4,2,1,45,0,0
49249,-100,4,2,1,50,0,0
49563,-100,4,2,1,55,0,0
49877,-100,4,2,1,60,0,0
50191,-100,4,2,1,65,0,0
52077,314.13612565445,4,2,1,70,1,1
52077,-83.3333333333333,4,2,1,70,0,1
67155,-100,4,2,1,70,0,1
72181,-100,4,2,1,80,0,1
77207,-100,4,2,1,70,0,0
78462,301.507537688442,4,2,1,70,1,0
79708,314.13612565445,4,2,1,70,1,0

[Colours]
Combo1 : 198,205,173
Combo2 : 213,179,134
Combo3 : 213,205,125
Combo4 : 176,132,133

[HitObjects]
67,373,1199,6,0,L|48:252,1,120,2|2,0:0|0:0,0:0:0:0:
33,171,1675,1,2,0:0:0:0:
138,40,1992,2,0,L|202:31,1,60,2|2,0:0|0:0,0:0:0:0:
280,20,2310,6,0,L|298:138,1,120,2|2,0:0|0:0,0:0:0:0:
454,200,2945,1,2,0:0:0:0:
384,246,3103,2,0,L|365:364,1,120,2|0,0:0|0:0,0:0:0:0:
276,245,3698,6,0,P|217:250|159:299,1,120,2|2,0:0|0:0,0:0:0:0:
174,368,4171,2,0,P|140:319|68:293,1,120,2|2,0:0|0:0,0:0:0:0:
16,339,4645,1,2,0:0:0:0:
16,339,4803,6,0,P|41:285|27:210,1,120,2|2,0:0|0:0,0:0:0:0:
183,147,5434,1,2,0:0:0:0:
104,117,5592,2,0,P|78:63|92:-11,1,120,2|0,0:0|0:0,0:0:0:0:
265,57,6224,6,0,L|397:35,1,120,2|2,0:0|0:0,0:0:0:0:
466,23,6697,2,0,B|491:37|491:37|505:145,1,120,2|2,0:0|0:0,0:0:0:0:
510,211,7171,1,2,0:0:0:0:
510,211,7329,5,2,0:0:0:0:
348,165,7645,2,0,P|314:161|275:244,1,120,2|2,0:0|0:0,0:0:0:0:
285,305,8119,2,0,P|263:269|165:257,1,120,2|2,0:0|0:0,0:0:0:0:
108,260,8592,1,2,0:0:0:0:
66,334,8750,5,2,0:0:0:0:
66,334,8905,2,0,L|46:207,1,120,2|2,0:0|0:0,0:0:0:0:
7,147,9371,1,2,0:0:0:0:
7,147,9527,2,0,L|27:20,1,120,2|2,0:0|0:0,0:0:0:0:
106,5,9993,5,2,0:0:0:0:
150,76,10148,1,2,0:0:0:0:
290,27,10429,2,0,P|329:28|388:81,1,120,2|2,0:0|0:0,0:0:0:0:
460,120,10900,2,0,L|448:185,1,60,2|0,0:0|0:0,0:0:0:0:
425,299,11227,5,6,3:2:0:0:
243,125,15624,6,0,L|247:154,3,30,2|2|2|2,0:0|0:0|0:0|0:0,0:0:0:0:
256,192,15939,2,0,B|290:184|290:184|318:158,1,60,2|0,0:0|0:0,0:0:0:0:
402,114,16265,6,0,L|412:258,1,120,6|0,0:0|1:0,0:0:0:0:
376,310,16736,2,0,L|412:316,2,30,2|2|2,0:0|0:0|3:2,0:0:0:0:
293,295,17050,2,0,P|259:311|244:332,1,60,2|0,0:0|1:0,0:0:0:0:
173,370,17364,6,0,P|131:369|72:314,1,120,2|2,0:0|0:0,0:0:0:0:
27,250,17835,2,0,L|35:186,1,60,0|2,1:0|0:0,0:0:0:0:
71,114,18149,1,2,3:2:0:0:
71,114,18306,2,0,P|99:96|129:90,1,60,2|0,0:0|1:0,0:0:0:0:
185,41,18621,6,0,B|267:52|267:52|282:89,1,120,2|2,0:0|0:0,0:0:0:0:
344,148,19092,1,2,1:2:0:0:
344,148,19170,1,2,0:0:0:0:
344,148,19249,1,2,0:0:0:0:
291,205,19406,2,0,B|284:236|284:236|297:275,1,60,2|2,3:2|0:0,0:0:0:0:
362,299,19720,2,0,B|392:289|392:289|419:258,1,60,0|2,1:0|0:0,0:0:0:0:
414,190,20034,1,0,3:0:0:0:
481,151,20191,5,0,1:0:0:0:
481,151,20348,2,0,L|488:82,1,60,0|0,1:0|3:0,0:0:0:0:
446,24,20662,2,0,L|416:20,3,30,0|0|8|8,1:0|1:0|0:3|0:3,0:0:0:0:
386,50,20977,1,4,0:3:0:0:
309,16,21134,6,0,P|276:15|201:66,1,120,6|0,3:2|3:0,0:0:0:0:
216,143,21605,1,2,1:2:0:0:
97,86,21919,1,2,3:2:0:0:
97,86,22076,2,0,B|72:103|72:103|78:142,1,60,2|2,3:2|1:2,0:0:0:0:
110,209,22390,6,0,B|151:231|151:231|145:316,1,120,2|0,3:2|3:0,0:0:0:0:
105,378,22861,1,2,1:2:0:0:
264,325,23175,2,0,P|279:350|285:379,2,60,2|2|2,3:2|3:2|1:2,0:0:0:0:
234,251,23647,1,2,3:2:0:0:
234,251,23804,6,0,L|244:131,1,120,2|2,0:0|1:2,0:0:0:0:
314,93,24275,1,2,0:0:0:0:
314,93,24432,2,0,L|319:31,2,60,2|2|2,3:2|3:2|1:2,0:0:0:0:
358,158,24903,6,0,B|389:193|389:193|466:183,1,120,2|2,3:2|3:2,0:0:0:0:
500,251,25374,2,0,L|488:317,1,60,2|2,1:2|0:0,0:0:0:0:
430,361,25689,2,0,L|371:347,1,60,2|2,3:2|3:2,0:0:0:0:
321,287,26003,1,2,1:2:0:0:
321,287,26160,6,0,P|292:258|208:256,1,120,2|0,3:2|3:0,0:0:0:0:
173,318,26631,2,0,L|101:309,1,60,2|2,1:2|0:0,0:0:0:0:
36,298,26945,1,2,3:2:0:0:
71,145,27259,1,2,1:2:0:0:
148,173,27416,5,2,3:2:0:0:
148,173,27573,2,0,L|223:161,1,60,2|2,0:0|3:2,0:0:0:0:
263,109,27888,2,0,L|338:121,1,60,2|2,1:2|0:0,0:0:0:0:
388,158,28202,2,0,L|463:146,1,60,2|0,3:2|3:0,0:0:0:0:
494,217,28516,1,2,1:2:0:0:
494,217,28673,6,0,L|375:235,1,120,2|0,3:2|3:0,0:0:0:0:
298,248,29144,1,2,1:2:0:0:
162,325,29458,2,0,L|154:399,2,60,2|2|2,3:2|0:2|1:2,0:0:0:0:
123,257,29929,6,0,B|75:223|75:223|80:152,1,120,2|0,3:2|3:0,0:0:0:0:
82,84,30401,2,0,L|150:74,1,60,2|2,1:2|0:0,0:0:0:0:
203,27,30715,1,2,3:2:0:0:
203,27,30872,2,0,L|273:37,1,60,2|2,3:2|1:2,0:0:0:0:
336,60,31186,6,0,P|371:33|440:63,1,120,4|0,3:2|3:0,0:0:0:0:
466,130,31657,2,0,P|442:153|432:185,1,60,2|2,1:2|0:0,0:0:0:0:
445,254,31971,2,0,L|519:268,2,60,2|2|2,3:2|0:0|1:2,0:0:0:0:
368,237,32443,6,0,B|339:265|339:265|348:351,1,120,2|0,3:2|3:0,0:0:0:0:
270,359,32914,2,0,P|248:338|210:333,1,60,2|2,1:2|0:0,0:0:0:0:
179,323,33149,1,2,0:0:0:0:
179,323,33228,2,0,L|169:389,2,60,2|2|0,3:2|3:2|1:0,0:0:0:0:
149,250,33699,6,0,B|138:183|138:183|88:158,1,120,2|0,3:2|3:0,0:0:0:0:
27,114,34170,2,0,P|40:85|61:58,1,60,2|2,1:2|0:0,0:0:0:0:
135,59,34484,2,0,L|123:-13,2,60,2|2|2,3:2|0:0|1:2,0:0:0:0:
208,85,34956,6,0,L|345:70,1,120,2|0,3:2|3:0,0:0:0:0:
369,5,35427,2,0,P|398:15|426:35,1,60,2|2,1:2|0:0,0:0:0:0:
453,56,35662,1,2,0:0:0:0:
453,56,35741,2,0,L|519:46,2,60,2|2|2,3:2|3:2|1:2,0:0:0:0:
406,118,36212,6,0,B|380:135|364:175|364:175|382:229,1,120,2|0,3:2|3:0,0:0:0:0:
455,238,36683,2,0,L|447:301,1,60,2|2,1:2|0:0,0:0:0:0:
410,370,36997,2,0,L|473:378,2,60,2|2|2,3:2|0:0|1:2,0:0:0:0:
334,349,37469,6,0,L|271:357,1,60,2|0,3:3|0:0,0:0:0:0:
194,349,37783,1,2,3:3:0:0:
234,281,37940,1,0,1:0:0:0:
184,340,38097,6,0,L|121:332,1,60,2|2,0:0|0:0,0:0:0:0:
53,299,38411,1,2,3:3:0:0:
5,360,38568,1,0,1:0:0:0:
40,290,38725,6,0,B|56:207|56:207|34:176,1,120,6|0,3:2|3:0,0:0:0:0:
2,107,39196,1,8,0:0:0:0:
159,124,39511,1,0,3:0:0:0:
159,124,39668,2,0,P|191:119|213:103,1,60,0|8,0:0|0:0,0:0:0:0:
278,60,39982,6,0,P|318:56|386:96,1,120,2|2,3:2|3:2,0:0:0:0:
463,95,40453,2,0,L|455:162,1,60,10|0,0:0|0:0,0:0:0:0:
417,222,40767,2,0,L|425:289,1,60,2|0,3:2|3:2,0:0:0:0:
439,359,41081,2,0,L|476:368,2,30,0|0|8,1:0|1:0|0:3,0:0:0:0:
363,340,41395,5,4,3:2:0:0:
290,204,41710,1,2,3:2:0:0:
290,204,41867,2,0,B|320:230|319:275|319:275|295:268|263:272,1,120,2|2,0:3|0:3,0:0:0:0:
202,276,42338,2,0,B|195:314|156:336|156:336|150:312|130:286,1,120,2|0,3:2|3:0,0:0:0:0:
96,235,42809,2,0,B|59:247|21:224|21:224|39:207|51:177,1,120,2|2,0:3|0:3,0:0:0:0:
102,139,43280,2,0,L|109:77,1,60,2|2,3:2|0:3,0:0:0:0:
187,69,43594,2,0,L|194:131,1,60,2|2,3:2|0:3,0:0:0:0:
272,135,43908,5,2,3:2:0:0:
416,85,44223,1,0,3:0:0:0:
416,85,44380,2,0,B|394:96|371:110|369:146|369:146|391:162|400:193,1,120,2|2,0:3|0:3,0:0:0:0:
442,235,44851,2,0,B|422:221|398:208|366:224|366:224|363:251|341:275,1,120,0|2,3:0|3:2,0:0:0:0:
326,332,45322,2,0,B|328:307|327:280|297:260|297:260|272:271|241:264,1,120,2|2,0:3|0:3,0:0:0:0:
195,310,45793,2,0,P|217:283|225:255,1,60,2|2,3:2|0:3,0:0:0:0:
258,188,46107,2,0,P|246:155|226:134,1,60,6|0,3:2|0:0,0:0:0:0:
155,113,46422,5,4,3:2:0:0:
256,192,46579,12,2,49563,3:1:0:0:
256,191,50191,5,2,3:2:0:0:
241,77,50505,1,2,3:2:0:0:
127,90,50819,1,2,3:2:0:0:
142,205,51134,1,2,3:2:0:0:
142,205,52077,6,0,L|131:128,1,71.9999978027344,6|2,3:2|0:2,0:0:0:0:
77,63,52391,1,10,0:0:0:0:
76,62,52548,2,0,B|112:95|112:95|208:78,1,143.999995605469,2|2,0:2|3:2,0:0:0:0:
275,16,53019,1,10,0:0:0:0:
368,12,53176,6,0,P|394:40|406:78,1,71.9999978027344,6|0,3:2|0:0,0:0:0:0:
483,123,53490,2,0,P|474:157|453:186,1,71.9999978027344,6|8,3:2|0:0,0:0:0:0:
386,251,53804,1,2,0:0:0:0:
386,251,53961,2,0,L|234:229,1,143.999995605469,2|8,3:2|0:0,0:0:0:0:
149,219,54433,1,2,0:3:0:0:
78,157,54590,6,0,B|36:196|36:196|51:285,1,143.999995605469,2|10,3:2|0:0,0:0:0:0:
128,334,55061,2,0,L|270:354,1,143.999995605469,2|2,0:2|3:2,0:0:0:0:
363,363,55532,1,10,0:0:0:0:
425,293,55689,6,0,P|420:248|401:221,1,71.9999978027344,6|0,3:2|0:0,0:0:0:0:
327,175,56003,2,0,P|330:139|348:108,1,71.9999978027344,6|8,3:2|0:0,0:0:0:0:
423,52,56317,1,2,0:0:0:0:
423,52,56474,2,0,L|279:67,1,143.999995605469,2|8,3:2|0:0,0:0:0:0:
197,20,56946,1,2,0:3:0:0:
110,54,57103,6,0,B|88:93|88:93|108:198,1,143.999995605469,2|10,3:2|0:0,0:0:0:0:
197,213,57574,2,0,L|350:194,1,143.999995605469,2|2,0:2|0:2,0:0:0:0:
423,151,58045,1,10,0:0:0:0:
423,151,58202,5,2,3:2:0:0:
466,333,58516,2,0,B|431:368|431:368|333:357,1,143.999995605469,2|2,3:2|0:0,0:0:0:0:
274,288,58987,2,0,L|130:304,1,143.999995605469,2|8,3:2|0:0,0:0:0:0:
47,347,59459,1,2,0:0:0:0:
18,262,59616,5,2,3:0:0:0:
18,262,59773,2,0,L|34:114,1,143.999995605469,2|2,0:0|3:2,0:0:0:0:
82,40,60244,1,2,0:3:0:0:
82,40,60401,2,0,L|234:18,1,143.999995605469,2|2,3:2|3:2,0:0:0:0:
316,36,60872,6,0,P|362:37|399:119,1,143.999995605469,2|8,0:0|0:0,0:0:0:0:
395,210,61344,2,0,P|415:149|490:147,1,143.999995605469,6|2,0:0|3:0,0:0:0:0:
491,237,61815,1,12,0:0:0:0:
319,312,62129,6,0,L|244:305,1,71.9999978027344,6|2,3:2|0:0,0:0:0:0:
172,359,62443,1,8,0:0:0:0:
172,359,62600,2,0,P|117:356|47:306,1,143.999995605469,2|2,0:2|3:2,0:0:0:0:
5,221,63071,1,8,0:0:0:0:
72,156,63228,6,0,B|86:124|86:124|78:85,1,71.9999978027344,6|0,3:2|0:0,0:0:0:0:
147,24,63542,2,0,B|183:17|183:17|215:31,1,71.9999978027344,6|8,3:2|0:0,0:0:0:0:
312,24,63857,1,2,0:0:0:0:
312,24,64014,2,0,B|290:62|290:62|312:177,1,143.999995605469,2|8,3:2|0:0,0:0:0:0:
210,137,64485,1,2,0:3:0:0:
141,210,64642,6,0,L|166:354,1,143.999995605469,2|10,3:2|0:0,0:0:0:0:
255,306,65113,2,0,B|313:270|313:270|353:334,1,143.999995605469,2|2,3:2|3:2,0:0:0:0:
451,354,65584,1,8,0:0:0:0:
506,270,65741,6,0,P|499:234|480:203,1,71.9999978027344,6|0,3:2|0:0,0:0:0:0:
492,103,66056,2,0,P|458:90|421:92,1,71.9999978027344,6|8,3:2|0:0,0:0:0:0:
325,89,66370,1,2,0:0:0:0:
325,89,66527,2,0,L|177:76,1,143.999995605469,2|8,3:2|0:0,0:0:0:0:
0,91,67155,6,0,B|11:70|11:70|24:180,1,120,2|10,3:2|0:0,0:0:0:0:
91,213,67626,2,0,P|136:198|194:241,1,120,2|2,0:3|3:2,0:0:0:0:
277,259,68097,1,8,0:0:0:0:
277,259,68255,6,0,L|288:388,1,120,2|2,3:2|0:3,0:0:0:0:
371,379,68726,2,0,P|397:358|425:347,1,60,8|2,0:0|0:3,0:0:0:0:
472,281,69040,2,0,L|479:210,1,60,0|2,3:2|3:0,0:0:0:0:
491,137,69354,1,8,0:0:0:0:
378,15,69668,6,0,L|312:25,1,60,2|0,3:2|0:0,0:0:0:0:
248,57,69982,2,0,L|307:65,1,60,14|2,0:0|0:0,0:0:0:0:
407,137,70296,6,0,L|347:145,1,60,2|0,3:2|3:2,0:0:0:0:
210,216,70611,2,0,L|276:226,1,60,14|2,0:0|3:2,0:0:0:0:
376,243,70925,6,0,P|332:249|257:291,1,120,2|12,0:0|0:0,0:0:0:0:
113,318,71396,1,0,3:2:0:0:
113,318,71553,2,0,P|171:328|223:358,1,120,8|6,0:3|1:0,0:0:0:0:
377,382,72181,5,6,3:2:0:0:
495,281,72495,2,0,L|503:214,1,60,2|2,1:2|3:0,0:0:0:0:
458,156,72809,2,0,L|466:89,1,60,2|2,1:2|3:0,0:0:0:0:
421,31,73124,1,2,1:2:0:0:
344,8,73281,1,2,3:0:0:0:
278,50,73438,5,2,1:2:0:0:
125,16,73752,2,0,L|117:75,1,60,2|2,1:2|3:0,0:0:0:0:
193,110,74066,2,0,L|186:169,1,60,2|2,1:2|3:0,0:0:0:0:
208,250,74380,1,2,1:2:0:0:
135,275,74537,1,2,3:0:0:0:
83,217,74694,5,2,1:2:0:0:
199,337,75008,2,0,L|263:326,1,60,2|2,1:2|3:0,0:0:0:0:
307,258,75323,2,0,L|371:269,1,60,2|2,1:2|3:0,0:0:0:0:
450,268,75637,1,2,1:2:0:0:
415,198,75794,1,2,3:0:0:0:
458,133,75951,5,2,1:2:0:0:
293,164,76265,2,0,L|283:102,1,60,2|2,1:2|3:0,0:0:0:0:
205,136,76579,2,0,L|195:74,1,60,2|2,1:2|3:0,0:0:0:0:
117,107,76893,2,0,L|112:76,3,30,2|2|2|2,1:2|1:2|1:2|1:2,0:0:0:0:
105,35,77207,5,4,0:1:0:0:
239,343,77836,2,0,L|430:320,1,180
500,296,78462,6,0,P|493:248|427:129,1,180,4|0,3:2|0:0,0:0:0:0:
423,21,79065,2,0,P|411:120|333:194,1,210,4|0,3:2|0:0,0:0:0:0:
256,192,79708,1,6,1:3:0:0:
256,192,79786,12,0,83320,0:0:0:0:
327,112,84105,6,0,L|322:141,3,30,2|2|2|2,0:0|0:0|0:0|0:0,0:0:0:0:
310,182,84420,2,0,P|288:157|253:146,1,60,2|0,0:0|0:0,0:0:0:0:
190,105,84734,6,0,L|55:127,1,120,6|0,3:2|1:0,0:0:0:0:
35,200,85205,2,0,L|-1:194,2,30,2|2|2,0:0|0:0|3:2,0:0:0:0:
117,217,85519,2,0,B|131:247|131:247|124:285,1,60,2|0,0:0|1:0,0:0:0:0:
158,351,85833,6,0,L|294:333,1,120,2|2,0:0|0:0,0:0:0:0:
359,352,86304,2,0,L|370:281,1,60,0|2,1:0|0:0,0:0:0:0:
434,241,86618,1,2,3:2:0:0:
381,174,86776,2,0,L|389:106,1,60,2|0,0:0|1:0,0:0:0:0:
329,54,87090,6,0,B|300:73|300:73|288:169,1,120,2|2,0:0|0:0,0:0:0:0:
228,213,87561,1,2,1:2:0:0:
228,213,87639,1,2,0:0:0:0:
228,213,87718,1,2,0:0:0:0:
286,275,87875,2,0,L|276:334,1,60,2|2,3:2|0:0,0:0:0:0:
199,367,88189,2,0,P|183:343|149:326,1,60,0|2,1:0|0:0,0:0:0:0:
72,323,88503,1,0,3:0:0:0:
94,244,88660,1,14,0:0:0:0:
94,244,88817,2,0,L|83:176,1,60,14|0,0:0|3:0,0:0:0:0:
36,115,89132,5,12,1:2:0:0:
113,102,89289,1,12,1:2:0:0:
190,89,89446,1,12,1:2:0:0:
267,76,89603,1,14,0:0:0:0:
