osu file format v14

[General]
AudioFilename: audio.mp3
AudioLeadIn: 0
PreviewTime: 52077
Countdown: 0
SampleSet: Soft
StackLeniency: 0.4
Mode: 0
LetterboxInBreaks: 0
WidescreenStoryboard: 0

[Editor]
DistanceSpacing: 0.4
BeatDivisor: 4
GridSize: 4
TimelineZoom: 1.700001

[Metadata]
Title:one-Me two-Hearts (TV Size)
TitleUnicode:ワンミーツハー (TV Size)
Artist:hitorie
ArtistUnicode:ヒトリエ
Creator:Flake
Version:Extreme
Source:ディバインゲート
Tags:wowaka divine gate anime japanese jp op opening GungHo Online j-rock jrock rock edit
BeatmapID:2458707
BeatmapSetID:1179039

[Difficulty]
HPDrainRate:6
CircleSize:4.3
OverallDifficulty:9
ApproachRate:9.5
SliderMultiplier:1.4
SliderTickRate:1

[Events]
//Background and Video events
0,0,"wp.jpg",0,0
Video,357,"d.mp4"
//Break Periods
2,11427,15099
//Storyboard Layer 0 (Background)
//Storyboard Layer 1 (Fail)
//Storyboard Layer 2 (Pass)
//Storyboard Layer 3 (Foreground)
//Storyboard Layer 4 (Overlay)
//Storyboard Sound Samples

[TimingPoints]
1199,317.460317460317,4,2,1,50,1,0
2548,-100,4,2,1,5,0,0
2627,-100,4,2,1,50,0,0
2865,-100,4,2,1,5,0,0
2945,-100,4,2,1,50,0,0
3698,315.78947368421,4,2,1,50,1,0
5040,-100,4,2,1,5,0,0
5119,-100,4,2,1,50,0,0
5355,-100,4,2,1,5,0,0
5434,-100,4,2,1,50,0,0
7882,-100,4,2,1,5,0,0
7961,-100,4,2,1,50,0,0
8355,-100,4,2,1,5,0,0
8434,-100,4,2,1,50,0,0
8750,310.880829015544,4,2,1,50,1,0
10429,314.13612565445,4,2,1,50,1,0
11227,314.13612565445,4,2,1,50,1,0
11227,-100,4,2,1,70,0,0
16265,314.13612565445,4,2,1,50,1,0
16265,-66.6666666666667,4,2,1,70,0,0
16501,-66.6666666666667,4,2,1,5,0,0
16579,-66.6666666666667,4,2,1,70,0,0
17600,-66.6666666666667,4,2,1,5,0,0
17678,-66.6666666666667,4,2,1,70,0,0
18857,-66.6666666666667,4,2,1,5,0,0
18935,-66.6666666666667,4,2,1,70,0,0
21134,-100,4,2,1,50,0,0
21370,-100,4,2,1,5,0,0
21449,-100,4,2,1,50,0,0
22077,-100,4,2,1,50,0,0
22155,-100,4,2,1,5,0,0
22234,-100,4,2,1,50,0,0
22391,-100,4,2,1,50,0,0
22627,-100,4,2,1,5,0,0
22706,-100,4,2,1,50,0,0
23334,-100,4,2,1,50,0,0
23412,-100,4,2,1,5,0,0
23491,-100,4,2,1,50,0,0
23647,-100,4,2,1,50,0,0
23883,-100,4,2,1,5,0,0
23962,-100,4,2,1,50,0,0
24590,-100,4,2,1,50,0,0
24668,-100,4,2,1,5,0,0
24747,-100,4,2,1,50,0,0
24904,-100,4,2,1,50,0,0
25140,-100,4,2,1,5,0,0
25219,-100,4,2,1,50,0,0
25847,-100,4,2,1,50,0,0
25925,-100,4,2,1,5,0,0
26004,-100,4,2,1,50,0,0
26160,-100,4,2,1,50,0,0
26396,-100,4,2,1,5,0,0
26475,-100,4,2,1,50,0,0
27103,-100,4,2,1,50,0,0
27181,-100,4,2,1,5,0,0
27260,-100,4,2,1,50,0,0
27417,-100,4,2,1,50,0,0
27653,-100,4,2,1,5,0,0
27732,-100,4,2,1,50,0,0
28360,-100,4,2,1,50,0,0
28438,-100,4,2,1,5,0,0
28517,-100,4,2,1,50,0,0
28673,-100,4,2,1,50,0,0
28909,-100,4,2,1,5,0,0
28988,-100,4,2,1,50,0,0
29616,-100,4,2,1,50,0,0
29694,-100,4,2,1,5,0,0
29773,-100,4,2,1,50,0,0
29930,-100,4,2,1,50,0,0
30166,-100,4,2,1,5,0,0
30245,-100,4,2,1,50,0,0
30873,-100,4,2,1,50,0,0
30951,-100,4,2,1,5,0,0
31030,-100,4,2,1,50,0,0
31186,-100,4,2,1,50,0,0
31422,-100,4,2,1,5,0,0
31501,-100,4,2,1,50,0,0
31579,-100,4,2,1,5,0,0
31658,-100,4,2,1,50,0,0
32443,-100,4,2,1,50,0,0
32679,-100,4,2,1,5,0,0
32758,-100,4,2,1,50,0,0
32836,-100,4,2,1,5,0,0
32915,-100,4,2,1,50,0,0
33700,-100,4,2,1,50,0,0
33936,-100,4,2,1,5,0,0
34015,-100,4,2,1,50,0,0
34093,-100,4,2,1,5,0,0
34172,-100,4,2,1,50,0,0
34956,-100,4,2,1,50,0,0
35192,-100,4,2,1,5,0,0
35271,-100,4,2,1,50,0,0
35349,-100,4,2,1,5,0,0
35428,-100,4,2,1,50,0,0
36213,-100,4,2,1,50,0,0
36449,-100,4,2,1,5,0,0
36528,-100,4,2,1,50,0,0
36606,-100,4,2,1,5,0,0
36685,-100,4,2,1,50,0,0
37469,-100,4,2,1,60,0,0
37548,-100,4,2,1,5,0,0
37783,-100,4,2,1,60,0,0
37862,-100,4,2,1,5,0,0
37940,-100,4,2,1,60,0,0
38097,-100,4,2,1,60,0,0
38334,-100,4,2,1,5,0,0
38412,-100,4,2,1,60,0,0
38491,-100,4,2,1,5,0,0
38569,-100,4,2,1,60,0,0
38726,-100,4,2,1,60,0,0
39747,-100,4,2,1,5,0,0
39825,-100,4,2,1,60,0,0
40218,-100,4,2,1,5,0,0
40296,-100,4,2,1,60,0,0
41710,-100,4,2,1,40,0,0
43280,-80,4,2,1,70,0,0
43909,-100,4,2,1,70,0,0
44223,-100,4,2,1,40,0,0
45793,-80,4,2,1,50,0,0
46107,-100,4,2,1,70,0,0
46343,-100,4,2,1,5,0,0
46421,-222.222222222222,4,2,1,70,0,0
46657,-222.222222222222,4,2,1,5,0,0
46735,-200,4,2,1,40,0,0
46892,-133.333333333333,4,2,1,45,0,0
47049,-100,4,2,1,50,0,0
47364,-86.9565217391304,4,2,1,55,0,0
47678,-76.9230769230769,4,2,1,60,0,0
47992,-66.6666666666667,4,2,1,65,0,0
48306,-76.9230769230769,4,2,1,70,0,0
48934,-76.9230769230769,4,2,1,45,0,0
49248,-76.9230769230769,4,2,1,50,0,0
49562,-76.9230769230769,4,2,1,55,0,0
49877,-76.9230769230769,4,2,1,60,0,0
50191,-76.9230769230769,4,2,1,65,0,0
50270,-76.9230769230769,4,2,1,5,0,0
50506,-76.9230769230769,4,2,1,65,0,0
50585,-76.9230769230769,4,2,1,5,0,0
50820,-76.9230769230769,4,2,1,65,0,0
50899,-76.9230769230769,4,2,1,5,0,0
51134,-76.9230769230769,4,2,1,65,0,0
51213,-76.9230769230769,4,2,1,5,0,0
52077,314.13612565445,4,2,1,70,1,1
52077,-66.6666666666667,4,2,1,70,0,1
57338,-66.6666666666667,4,2,1,5,0,1
57417,-66.6666666666667,4,2,1,70,0,1
61108,-66.6666666666667,4,2,1,5,0,1
61187,-66.6666666666667,4,2,1,70,0,1
67155,-66.6666666666667,4,2,1,70,0,1
72181,-66.6666666666667,4,2,1,80,0,1
77207,-100,4,2,1,70,0,0
78462,301.507537688442,4,2,1,70,1,0
79708,314.13612565445,4,2,1,70,1,0
79708,-100,4,2,1,70,0,0
84105,-100,4,2,1,70,0,0
84734,-66.6666666666667,4,2,1,70,0,0
84969,-66.6666666666667,4,2,1,5,0,0
85048,-66.6666666666667,4,2,1,70,0,0
86069,-66.6666666666667,4,2,1,5,0,0
86147,-66.6666666666667,4,2,1,70,0,0
87325,-66.6666666666667,4,2,1,5,0,0
87404,-66.6666666666667,4,2,1,70,0,0
88503,-66.6666666666667,4,2,1,70,0,0
89603,-1000,4,2,1,70,0,0

[Colours]
Combo1 : 198,205,173
Combo2 : 213,179,134
Combo3 : 213,205,125
Combo4 : 176,132,133

[HitObjects]
40,171,1199,54,0,L|53:250,1,70,2|2,0:0|0:0,0:0:0:0:
122,287,1516,1,2,0:0:0:0:
93,361,1675,1,2,0:0:0:0:
93,361,1992,1,2,0:0:0:0:
198,300,2151,1,2,0:0:0:0:
148,180,2310,6,0,P|162:149|232:119,1,105,2|0,0:0|0:0,0:0:0:0:
347,227,2627,2,0,P|350:193|304:132,1,105,2|0,0:0|0:0,0:0:0:0:
253,188,2945,1,2,0:0:0:0:
274,264,3103,1,2,0:0:0:0:
505,198,3698,6,0,L|490:279,1,70,2|0,0:0|0:0,0:0:0:0:
436,332,4013,1,2,0:0:0:0:
428,184,4171,2,0,L|413:265,1,70,2|0,0:0|0:0,0:0:0:0:
436,332,4487,1,2,0:0:0:0:
338,371,4645,1,2,0:0:0:0:
428,184,4803,6,0,P|414:153|344:123,1,105,2|0,0:0|0:0,0:0:0:0:
229,231,5119,2,0,P|225:197|271:136,1,105,2|0,0:0|0:0,0:0:0:0:
323,192,5434,1,2,0:0:0:0:
302,268,5592,1,2,0:0:0:0:
302,268,6224,6,0,P|341:281|369:301,1,70,2|0,0:0|0:0,0:0:0:0:
199,169,6540,1,2,0:0:0:0:
199,169,6697,2,0,P|238:156|266:136,1,70,2|0,0:0|0:0,0:0:0:0:
295,345,7013,1,2,0:0:0:0:
219,310,7171,1,2,0:0:0:0:
184,384,7329,5,2,0:0:0:0:
184,384,7645,2,0,L|68:376,1,105,2|0,0:0|0:0,0:0:0:0:
68,376,7961,1,2,0:0:0:0:
0,302,8119,2,0,B|25:251|25:251|70:285,1,105,2|0,0:0|0:0,0:0:0:0:
72,286,8434,1,2,0:0:0:0:
128,118,8592,5,2,0:0:0:0:
108,192,8750,1,2,0:0:0:0:
140,118,8905,2,0,L|217:112,1,70,2|0,0:0|0:0,0:0:0:0:
303,145,9216,5,2,0:0:0:0:
283,71,9371,1,2,0:0:0:0:
315,145,9527,2,0,L|392:151,1,70,2|0,0:0|0:0,0:0:0:0:
472,190,9838,1,2,0:0:0:0:
472,190,9993,1,2,0:0:0:0:
459,271,10148,1,2,0:0:0:0:
483,109,10429,6,0,P|454:88|420:82,1,70,2|0,0:0|0:0,0:0:0:0:
283,71,10743,1,2,0:0:0:0:
303,145,10900,2,0,P|299:185|280:212,1,70,2|0,0:0|0:0,0:0:0:0:
0,371,11227,5,6,3:2:0:0:
0,371,15624,5,2,0:0:0:0:
3,332,15703,1,2,0:0:0:0:
6,293,15781,1,2,0:0:0:0:
9,254,15860,1,2,0:0:0:0:
12,215,15939,1,2,0:0:0:0:
12,215,16265,6,0,B|-2:190|-2:190|57:172|99:188|122:238,1,157.500006008148,6|0,0:0|0:0,0:0:0:0:
157,290,16579,1,0,1:0:0:0:
75,43,16736,1,2,0:0:0:0:
47,59,16814,1,2,0:0:0:0:
38,89,16893,1,2,3:2:0:0:
230,165,17050,2,0,P|242:114|221:58,1,105.000004005432,2|0,0:0|1:0,0:0:0:0:
157,290,17364,6,0,B|250:313|250:313|301:268,1,157.500006008148,2|0,0:0|0:0,0:0:0:0:
302,191,17678,1,2,0:0:0:0:
397,314,17835,1,0,1:0:0:0:
302,191,17992,1,2,0:0:0:0:
397,314,18149,2,0,P|453:306|493:267,1,105.000004005432,2|2,3:2|0:0,0:0:0:0:
512,125,18464,1,0,1:0:0:0:
257,29,18621,6,0,B|210:74|210:74|233:181,1,157.500006008148,2|0,0:0|0:0,0:0:0:0:
302,191,18935,1,2,0:0:0:0:
97,60,19092,1,2,1:2:0:0:
69,76,19170,1,2,0:0:0:0:
58,105,19249,1,2,0:0:0:0:
303,99,19406,1,2,3:2:0:0:
108,189,19563,2,0,L|100:296,1,105.000004005432,2|0,0:0|1:0,0:0:0:0:
0,208,19877,1,2,0:0:0:0:
91,375,20034,1,0,3:0:0:0:
229,164,20191,5,0,1:0:0:0:
91,375,20348,2,0,P|150:374|193:340,1,105.000004005432,0|0,1:0|3:0,0:0:0:0:
307,142,20663,5,0,1:0:0:0:
356,122,20741,1,0,1:0:0:0:
410,128,20820,1,8,0:3:0:0:
455,158,20898,1,8,0:3:0:0:
478,194,20977,1,4,0:3:0:0:
475,215,21055,1,4,0:3:0:0:
471,232,21134,6,0,B|491:202|491:202|481:110,1,105,6|0,3:2|0:0,0:0:0:0:
469,59,21448,1,0,3:0:0:0:
356,121,21605,1,2,1:2:0:0:
356,121,21919,1,2,3:2:0:0:
224,68,22076,2,0,L|220:119,1,35,2|0,3:2|0:0,0:0:0:0:
211,200,22233,1,2,1:2:0:0:
52,24,22390,6,0,P|84:46|107:119,1,105,2|0,3:2|0:0,0:0:0:0:
82,175,22704,1,0,3:0:0:0:
221,102,22862,1,2,1:2:0:0:
221,102,23176,1,2,3:2:0:0:
282,247,23333,2,0,L|284:212,1,35,2|0,3:2|0:0,0:0:0:0:
361,134,23490,1,2,1:2:0:0:
333,312,23647,6,0,B|408:323|408:323|439:291,1,105,2|0,3:2|0:0,0:0:0:0:
469,242,23961,1,0,3:0:0:0:
283,371,24118,1,2,1:2:0:0:
283,371,24432,1,2,3:2:0:0:
390,222,24589,2,0,L|339:219,1,35,2|0,3:2|0:0,0:0:0:0:
214,205,24746,1,2,1:2:0:0:
210,346,24903,6,0,P|172:316|108:310,1,105,2|0,3:2|0:0,0:0:0:0:
53,355,25218,1,2,3:2:0:0:
26,193,25375,1,2,1:2:0:0:
26,193,25689,1,2,3:2:0:0:
73,288,25846,2,0,L|76:237,1,35,2|0,3:2|0:0,0:0:0:0:
80,133,26003,1,2,1:2:0:0:
161,271,26160,6,0,B|240:263|240:263|256:239,1,105,2|0,3:2|0:0,0:0:0:0:
271,162,26474,1,0,3:0:0:0:
412,275,26631,1,2,1:2:0:0:
412,275,26945,1,2,3:2:0:0:
348,144,27102,2,0,L|345:195,1,35
336,336,27259,1,2,1:2:0:0:
350,129,27417,6,0,P|392:100|450:98,1,105,2|0,3:2|0:0,0:0:0:0:
508,134,27731,1,2,3:2:0:0:
412,275,27888,1,2,1:2:0:0:
412,275,28202,1,2,3:2:0:0:
478,208,28359,2,0,L|427:205,1,35,0|0,3:0|0:0,0:0:0:0:
305,191,28516,1,2,1:2:0:0:
494,212,28673,6,0,B|510:243|510:243|498:323,1,105,2|0,3:2|0:0,0:0:0:0:
478,382,28987,1,0,3:0:0:0:
338,287,29144,1,2,1:2:0:0:
338,287,29458,1,2,3:2:0:0:
399,360,29615,2,0,L|348:363,1,35,2|0,0:2|0:0,0:0:0:0:
250,337,29773,1,2,1:2:0:0:
393,231,29930,6,0,P|391:189|345:128,1,105,2|0,3:2|0:0,0:0:0:0:
280,111,30244,1,0,3:0:0:0:
235,262,30401,1,2,1:2:0:0:
235,262,30715,1,2,3:2:0:0:
292,186,30872,2,0,L|241:183,1,35,2|0,3:2|0:0,0:0:0:0:
155,144,31029,1,2,1:2:0:0:
325,32,31186,6,0,P|355:17|331:51,1,105,4|0,3:2|0:0,0:0:0:0:
252,22,31500,2,0,P|227:30|212:42,1,35,0|0,3:0|0:0,0:0:0:0:
155,144,31657,1,2,1:2:0:0:
280,111,31814,1,2,0:0:0:0:
295,130,31893,1,2,0:0:0:0:
303,153,31971,1,2,3:2:0:0:
304,177,32050,1,2,0:0:0:0:
297,200,32129,1,2,0:0:0:0:
221,330,32286,1,2,1:2:0:0:
5,288,32443,6,0,B|-19:285|-19:285|1:308|1:308|62:289,1,105,2|0,3:2|0:0,0:0:0:0:
101,240,32757,2,0,L|105:201,1,35,0|0,3:0|0:0,0:0:0:0:
126,45,32914,1,2,1:2:0:0:
51,148,33071,1,2,0:0:0:0:
70,133,33149,1,2,0:0:0:0:
93,125,33228,1,2,3:2:0:0:
117,124,33307,1,2,0:0:0:0:
140,131,33385,1,2,3:2:0:0:
179,254,33542,1,0,1:0:0:0:
304,177,33699,6,0,B|378:184|378:184|409:223,1,105,2|0,3:2|0:0,0:0:0:0:
448,260,34013,1,0,3:0:0:0:
387,109,34170,1,2,1:2:0:0:
413,337,34328,1,2,0:0:0:0:
436,344,34406,1,2,0:0:0:0:
460,343,34485,1,2,3:2:0:0:
483,335,34563,1,2,0:0:0:0:
502,320,34642,1,2,0:0:0:0:
502,148,34799,1,2,1:2:0:0:
348,293,34956,6,0,L|232:306,1,105,2|0,3:2|0:0,0:0:0:0:
170,316,35270,1,0,3:0:0:0:
235,165,35427,1,2,1:2:0:0:
92,329,35584,1,2,0:0:0:0:
68,324,35663,1,2,0:0:0:0:
48,311,35741,1,2,3:2:0:0:
32,292,35820,1,2,0:0:0:0:
24,271,35898,1,2,3:2:0:0:
142,384,36055,1,2,1:2:0:0:
61,194,36212,6,0,B|39:162|39:162|46:81,1,105,2|0,3:2|0:0,0:0:0:0:
18,28,36526,2,0,L|62:20,1,35,0|0,3:0|0:0,0:0:0:0:
208,56,36684,1,2,1:2:0:0:
147,183,36841,1,2,0:0:0:0:
161,163,36919,1,2,0:0:0:0:
181,149,36998,1,2,3:2:0:0:
204,142,37076,1,2,0:0:0:0:
228,143,37155,1,2,0:0:0:0:
185,316,37312,1,2,1:2:0:0:
261,226,37469,6,0,L|267:272,1,35,2|0,3:3|0:0,0:0:0:0:
431,289,37783,2,0,L|425:335,1,35,2|0,3:3|0:0,0:0:0:0:
422,344,37940,1,0,1:0:0:0:
512,71,38097,5,2,0:0:0:0:
512,71,38176,1,2,0:0:0:0:
512,71,38254,2,0,L|506:117,1,35,2|2,0:0|0:0,0:0:0:0:
342,134,38411,2,0,L|348:180,1,35,2|0,3:3|0:0,0:0:0:0:
351,189,38568,1,0,1:0:0:0:
425,20,38725,6,0,B|352:9|352:9|320:29,1,105,6|0,3:2|0:0,0:0:0:0:
270,74,39040,1,0,3:0:0:0:
140,219,39197,2,0,P|102:216|66:196,1,70,8|0,0:0|0:0,0:0:0:0:
125,88,39511,1,0,3:0:0:0:
253,205,39668,2,0,L|256:253,1,35
224,358,39825,1,8,0:0:0:0:
355,180,39982,6,0,P|411:177|448:209,1,105,2|0,3:2|0:0,0:0:0:0:
488,275,40296,1,2,3:2:0:0:
357,77,40453,2,0,P|322:96|303:130,1,70,10|0,0:0|0:0,0:0:0:0:
512,171,40767,2,0,P|512:131|492:97,1,70,2|0,3:2|3:2,0:0:0:0:
351,252,41081,1,0,1:0:0:0:
378,271,41160,1,0,1:0:0:0:
412,271,41238,1,8,0:3:0:0:
444,19,41396,1,4,3:2:0:0:
444,19,41710,5,2,3:2:0:0:
384,70,41867,2,0,P|376:110|380:140,1,70,2|0,0:3|3:0,0:0:0:0:
379,138,42181,5,2,0:3:0:0:
365,216,42338,2,0,P|334:242|306:254,1,70,2|2,3:2|0:3,0:0:0:0:
307,253,42652,5,0,3:0:0:0:
250,202,42809,2,0,P|217:189|182:188,1,70,2|2,0:3|3:2,0:0:0:0:
182,187,43123,1,2,0:3:0:0:
52,370,43280,6,0,P|24:328|16:282,1,87.5,2|2,3:2|0:3,0:0:0:0:
56,108,43595,2,0,P|28:150|20:196,1,87.5,2|2,3:2|0:3,0:0:0:0:
138,369,43909,1,2,3:2:0:0:
138,369,44223,5,0,3:0:0:0:
202,315,44380,2,0,P|240:319|272:338,1,70,2|2,0:3|3:2,0:0:0:0:
267,334,44694,5,2,0:3:0:0:
335,286,44851,2,0,P|340:248|330:212,1,70,0|2,3:0|0:3,0:0:0:0:
332,217,45165,5,2,3:2:0:0:
414,201,45322,2,0,P|444:223|463:255,1,70,2|2,0:3|3:2,0:0:0:0:
461,250,45636,1,2,0:3:0:0:
480,53,45793,6,0,P|436:48|394:60,1,87.5,2|2,3:2|0:3,0:0:0:0:
328,212,46108,6,0,B|315:152|315:152|336:109,1,105,6|0,3:2|0:0,0:0:0:0:
509,136,46422,6,0,L|460:141,1,47.2499985580445,4|0,3:2|1:0,0:0:0:0:
446,142,46736,5,2,3:1:0:0:
437,126,46814,1,0,1:0:0:0:
418,112,46893,1,0,1:0:0:0:
394,103,46971,1,0,1:0:0:0:
362,105,47050,1,2,3:1:0:0:
331,121,47129,1,0,1:0:0:0:
312,150,47207,1,0,1:0:0:0:
309,184,47286,1,0,1:0:0:0:
320,219,47364,1,2,3:1:0:0:
349,243,47443,1,0,1:0:0:0:
387,249,47521,1,0,1:0:0:0:
423,232,47600,1,0,1:0:0:0:
462,233,47678,5,2,3:1:0:0:
495,256,47757,1,0,1:0:0:0:
510,293,47835,1,0,1:0:0:0:
503,332,47914,1,0,1:0:0:0:
476,361,47992,1,2,3:1:0:0:
437,371,48071,1,0,1:0:0:0:
400,359,48149,1,0,1:0:0:0:
374,329,48228,1,0,1:0:0:0:
349,285,48307,2,0,L|304:279,3,45.4999979171754,2|0|0|0,3:1|1:0|1:0|1:0,0:0:0:0:
362,105,48621,2,0,L|407:99,3,45.4999979171754,2|0|0|0,3:1|1:0|1:0|1:0,0:0:0:0:
94,183,48935,5,0,3:0:0:0:
44,173,49013,1,0,1:0:0:0:
10,137,49092,1,0,1:0:0:0:
0,89,49170,1,0,1:0:0:0:
19,44,49249,1,2,3:1:0:0:
60,16,49328,1,0,1:0:0:0:
109,18,49406,1,0,1:0:0:0:
150,45,49485,1,0,1:0:0:0:
168,86,49563,5,2,3:1:0:0:
158,143,49642,1,0,1:0:0:0:
117,185,49720,1,0,1:0:0:0:
56,187,49799,1,0,1:0:0:0:
12,238,49877,1,2,3:1:0:0:
12,306,49956,1,0,1:0:0:0:
56,357,50034,1,0,1:0:0:0:
123,367,50113,1,0,1:0:0:0:
186,323,50191,6,0,L|178:278,1,45.4999979171754,2|0,3:2|0:0,0:0:0:0:
504,382,50506,2,0,L|512:338,1,45.4999979171754,2|0,3:2|0:0,0:0:0:0:
512,35,50820,6,0,L|504:79,1,45.4999979171754,2|0,3:2|0:0,0:0:0:0:
139,105,51134,2,0,L|146:149,1,45.4999979171754,2|0,3:2|0:0,0:0:0:0:
146,149,52077,6,0,P|123:189|118:257,1,105.000004005432,6|2,3:2|0:2,0:0:0:0:
205,383,52391,1,10,0:0:0:0:
294,124,52548,1,2,0:2:0:0:
474,330,52705,1,0,3:0:0:0:
254,251,52862,5,2,3:2:0:0:
379,373,53019,1,10,0:0:0:0:
490,104,53176,6,0,P|444:109|385:144,1,105.000004005432,6|0,3:2|0:0,0:0:0:0:
290,335,53490,2,0,P|290:282|310:234,1,105.000004005432,6|8,3:2|0:0,0:0:0:0:
496,197,53804,1,2,0:0:0:0:
294,124,53961,1,2,3:2:0:0:
379,373,54118,1,2,3:0:0:0:
149,258,54275,2,0,L|40:270,1,105.000004005432,8|2,0:0|0:3,0:0:0:0:
10,64,54590,6,0,P|64:75|108:114,1,105.000004005432,2|0,3:2|0:0,0:0:0:0:
182,335,54904,1,10,0:0:0:0:
294,124,55061,2,0,L|282:15,1,105.000004005432,2|0,0:2|3:0,0:0:0:0:
201,174,55375,5,2,3:2:0:0:
433,227,55532,1,10,0:0:0:0:
182,335,55689,6,0,B|227:366|286:345,1,105.000004005432,6|0,3:2|0:0,0:0:0:0:
433,227,56003,2,0,B|425:275|369:309,1,105.000004005432,6|8,3:2|0:0,0:0:0:0:
106,243,56317,1,2,0:0:0:0:
294,124,56474,2,0,L|282:15,1,105.000004005432,2|2,3:2|3:0,0:0:0:0:
106,243,56789,1,8,0:0:0:0:
252,276,56946,1,2,0:3:0:0:
282,19,57103,6,0,B|388:28|388:28|420:74,1,157.500006008148,2|0,3:2|0:0,0:0:0:0:
436,142,57417,1,10,0:0:0:0:
196,167,57574,2,0,P|240:138|291:127,1,105.000004005432,2|0,0:2|3:2,0:0:0:0:
163,357,57888,1,2,0:2:0:0:
72,168,58045,1,10,0:0:0:0:
169,366,58202,2,0,L|277:349,1,105.000004005432,2|0,3:2|0:0,0:0:0:0:
458,166,58516,6,0,P|449:117|378:57,1,105.000004005432,2|8,3:2|0:0,0:0:0:0:
293,98,58830,1,2,0:0:0:0:
372,249,58987,2,0,P|367:301|342:347,1,105.000004005432,2|0,3:2|3:2,0:0:0:0:
167,157,59302,1,8,0:0:0:0:
254,282,59459,5,2,0:0:0:0:
293,98,59616,1,2,3:0:0:0:
252,293,59773,2,0,B|199:310|199:310|147:288,1,105.000004005432,2|8,0:0|0:0,0:0:0:0:
293,98,60087,5,2,3:2:0:0:
109,59,60244,1,2,0:3:0:0:
303,100,60401,2,0,B|320:153|320:153|298:205,1,105.000004005432,2|8,3:2|0:0,0:0:0:0:
97,252,60715,1,2,3:2:0:0:
167,157,60872,2,0,B|210:187|210:187|232:294,1,157.500006008148,2|0,0:0|0:0,0:0:0:0:
247,361,61186,1,8,0:0:0:0:
399,94,61344,5,6,0:0:0:0:
426,110,61422,1,2,0:0:0:0:
457,105,61501,1,2,3:2:0:0:
440,24,61658,1,2,3:0:0:0:
399,250,61815,1,12,0:0:0:0:
512,165,61972,1,0,0:0:0:0:
210,34,62129,6,0,P|153:45|102:77,1,105.000004005432,6|2,3:2|0:0,0:0:0:0:
171,339,62443,1,8,0:0:0:0:
227,116,62600,1,2,0:2:0:0:
7,179,62757,1,0,3:2:0:0:
198,228,62914,5,2,3:2:0:0:
73,131,63071,1,8,0:0:0:0:
0,323,63228,6,0,P|44:350|95:357,1,105.000004005432,6|0,3:2|0:0,0:0:0:0:
285,203,63542,2,0,P|273:253|241:295,1,105.000004005432,6|8,3:2|0:0,0:0:0:0:
52,243,63857,1,2,0:0:0:0:
228,116,64014,1,2,3:2:0:0:
273,369,64171,1,2,3:0:0:0:
394,262,64328,2,0,L|502:270,1,105.000004005432,8|2,0:0|0:3,0:0:0:0:
478,32,64642,6,0,P|419:36|380:62,1,105.000004005432,2|0,3:2|0:0,0:0:0:0:
300,256,64956,1,10,0:0:0:0:
153,150,65113,2,0,L|48:142,1,105.000004005432,2|0,3:2|0:0,0:0:0:0:
300,256,65427,5,2,3:2:0:0:
278,43,65584,1,8,0:0:0:0:
20,221,65741,6,0,P|31:272|63:314,1,105.000004005432,6|0,3:2|0:0,0:0:0:0:
305,343,66056,2,0,P|260:370|209:377,1,105.000004005432,6|8,3:2|0:0,0:0:0:0:
88,106,66370,1,2,0:0:0:0:
148,299,66527,1,2,3:2:0:0:
278,43,66684,1,2,3:0:0:0:
350,225,66841,2,0,B|387:231|387:231|455:215,1,105.000004005432,8|2,0:0|0:3,0:0:0:0:
512,94,67155,6,0,P|498:43|470:0,1,105.000004005432,2|0,3:2|0:0,0:0:0:0:
278,43,67469,1,10,0:0:0:0:
453,216,67626,2,0,P|437:273|405:317,1,105.000004005432,2|2,0:3|3:2,0:0:0:0:
261,187,67940,1,2,3:2:0:0:
398,128,68097,1,8,0:0:0:0:
331,346,68255,2,0,L|221:326,1,105.000004005432,2|0,3:2|0:0,0:0:0:0:
133,203,68569,1,2,0:3:0:0:
37,276,68726,5,8,0:0:0:0:
136,110,68883,1,2,0:3:0:0:
261,187,69040,2,0,L|247:295,1,105.000004005432,0|2,3:2|3:0,0:0:0:0:
24,85,69354,2,0,L|38:193,1,105.000004005432,8|2,0:0|0:3,0:0:0:0:
410,310,69668,6,0,P|439:265|453:215,1,105.000004005432,2|0,3:2|0:0,0:0:0:0:
165,274,69982,2,0,P|151:224|153:172,1,105.000004005432,14|2,0:0|0:0,0:0:0:0:
372,142,70296,6,0,P|385:92|383:40,1,105.000004005432,2|0,3:2|3:2,0:0:0:0:
64,179,70611,2,0,P|36:135|24:85,1,105.000004005432,14|2,0:0|3:2,0:0:0:0:
23,84,70925,5,2,0:0:0:0:
74,257,71082,1,6,0:3:0:0:
85,25,71239,2,0,L|194:18,1,105.000004005432,12|0,0:0|3:2,0:0:0:0:
491,22,71553,5,8,0:3:0:0:
311,85,71710,1,4,0:3:0:0:
512,280,71867,2,0,L|505:389,1,105.000004005432,6|0,1:0|0:0,0:0:0:0:
191,366,72181,6,0,B|130:362|130:362|75:340,1,105.000004005432,6|0,3:2|0:0,0:0:0:0:
271,293,72495,5,2,1:2:0:0:
12,333,72652,1,2,3:0:0:0:
259,270,72809,5,2,1:2:0:0:
33,187,72967,1,2,3:0:0:0:
263,104,73124,2,0,B|319:106|319:106|368:131,1,105.000004005432,2|2,1:2|3:0,0:0:0:0:
478,300,73438,5,2,1:2:0:0:
451,73,73595,1,2,0:3:0:0:
328,241,73752,5,2,1:2:0:0:
355,14,73909,1,2,3:0:0:0:
191,222,74066,5,2,1:2:0:0:
155,5,74223,1,2,3:0:0:0:
191,234,74380,2,0,P|160:254|80:259,1,105.000004005432,2|2,1:2|3:0,0:0:0:0:
43,73,74694,5,2,1:2:0:0:
270,171,74851,1,2,0:3:0:0:
136,21,75008,5,2,1:2:0:0:
260,280,75166,1,2,3:0:0:0:
282,62,75323,5,2,1:2:0:0:
204,339,75480,1,2,3:0:0:0:
355,223,75637,2,0,P|408:220|462:243,1,105.000004005432,2|2,1:2|3:0,0:0:0:0:
477,344,75951,5,2,1:2:0:0:
436,91,76108,1,2,0:3:0:0:
293,340,76265,5,2,1:2:0:0:
352,70,76422,1,2,3:0:0:0:
136,303,76579,5,2,1:2:0:0:
272,22,76736,1,2,3:0:0:0:
0,198,76893,5,2,1:2:0:0:
46,195,76972,1,2,1:2:0:0:
94,200,77050,1,2,1:2:0:0:
140,212,77129,1,2,1:2:0:0:
185,230,77207,1,4,0:1:0:0:
140,212,78462,5,4,3:2:0:0:
94,200,79065,1,4,3:2:0:0:
46,195,79708,1,6,1:3:0:0:
256,192,79786,12,0,83791,0:0:0:0:
46,195,84105,5,2,0:0:0:0:
49,156,84184,1,2,0:0:0:0:
52,117,84262,1,2,0:0:0:0:
55,78,84341,1,2,0:0:0:0:
58,39,84420,1,2,0:0:0:0:
58,39,84734,6,0,B|170:25|170:25|209:57,1,157.500006008148,6|0,3:2|0:0,0:0:0:0:
264,107,85048,1,0,1:0:0:0:
405,90,85205,1,2,0:0:0:0:
419,62,85283,1,2,0:0:0:0:
411,31,85362,1,2,3:2:0:0:
253,192,85519,2,0,L|265:305,1,105.000004005432,2|0,0:0|1:0,0:0:0:0:
512,173,85833,6,0,P|464:167|365:231,1,157.500006008148,2|0,0:0|0:0,0:0:0:0:
358,291,86147,1,2,0:0:0:0:
312,86,86304,1,0,1:0:0:0:
358,291,86461,1,2,0:0:0:0:
312,86,86618,2,0,P|255:90|212:126,1,105.000004005432,2|2,3:2|0:0,0:0:0:0:
123,206,86933,1,0,1:0:0:0:
263,379,87090,6,0,B|281:273|281:273|253:227,1,157.500006008148,2|0,0:0|0:0,0:0:0:0:
197,185,87404,1,2,0:0:0:0:
439,350,87561,1,2,1:2:0:0:
467,334,87639,1,2,0:0:0:0:
478,305,87718,1,2,0:0:0:0:
263,379,87875,1,2,3:2:0:0:
419,202,88032,2,0,L|411:97,1,105.000004005432,2|0,0:0|1:0,0:0:0:0:
186,83,88346,1,2,0:0:0:0:
313,95,88503,1,0,3:0:0:0:
135,299,88660,5,14,0:0:0:0:
103,33,88817,2,0,P|48:15|-11:10,1,105.000004005432,14|0,0:0|3:0,0:0:0:0:
296,361,89132,5,12,1:2:0:0:
253,37,89289,1,12,1:2:0:0:
296,361,89446,5,12,1:2:0:0:
253,37,89603,2,2,L|256:17,1,21,14|0,0:0|0:0,0:1:0:0:
